osu file format v14

[General]
AudioFilename: audio.mp3
AudioLeadIn: 0
PreviewTime: 62375
Countdown: 0
SampleSet: Soft
StackLeniency: 0.7
Mode: 0
LetterboxInBreaks: 0
WidescreenStoryboard: 0

[Editor]
DistanceSpacing: 1.2
BeatDivisor: 4
GridSize: 4
TimelineZoom: 1.5

[Metadata]
Title:Overdrive
TitleUnicode:Overdrive
Artist:Hitomi Harada
ArtistUnicode:原田ひとみ
Creator:Kyuukai
Version:Hard
Source:VALKYRIE DRIVE -MERMAID-
Tags:ヴァルキリードライヴ マーメイド op opening yaleufeu
BeatmapID:1501841
BeatmapSetID:710486

[Difficulty]
HPDrainRate:5
CircleSize:3.5
OverallDifficulty:6
ApproachRate:7.5
SliderMultiplier:1.4
SliderTickRate:1

[Events]
//Background and Video events
0,0,"McDrive.jpg",0,0
//Break Periods
//Storyboard Layer 0 (Background)
//Storyboard Layer 1 (Fail)
//Storyboard Layer 2 (Pass)
//Storyboard Layer 3 (Foreground)
//Storyboard Sound Samples

[TimingPoints]
480,329.67032967033,4,2,1,50,1,0
21578,-100,4,2,1,55,0,0
29490,-100,4,2,1,50,0,0
30809,-100,4,2,1,40,0,0
31469,-100,4,2,1,45,0,0
32128,-100,4,2,1,70,0,1
42677,-100,4,2,1,60,0,0
62458,-100,4,2,1,40,0,0
63034,-100,4,2,1,5,0,0
63117,-100,4,2,1,45,0,0
63776,-100,4,2,1,70,0,1
73666,-100,4,2,1,60,0,0
74326,-100,4,2,1,70,0,1
79600,-100,4,2,1,60,0,0
82238,-100,4,2,1,70,0,1
83556,-100,4,2,1,50,0,0
84875,-100,4,2,1,60,0,0
94436,-100,4,2,1,65,0,0
95425,-100,4,2,1,70,0,1
105809,-100,4,2,1,60,0,0

[Colours]
Combo1 : 192,192,192
Combo2 : 0,128,255
Combo3 : 0,255,64

[HitObjects]
16,32,10205,5,2,0:0:0:0:
16,32,10370,1,4,0:0:0:0:
136,148,10699,2,0,L|141:113,2,35,8|8|8,0:0|0:0|0:0,0:0:0:0:
116,232,11029,6,0,L|204:224,1,70,2|0,0:1|0:0,0:0:0:0:
256,180,11359,2,0,L|325:186,1,70,2|0,0:1|0:0,0:0:0:0:
398,227,11688,2,0,P|407:193|403:159,2,70,2|0|2,0:1|0:0|0:1,0:0:0:0:
360,304,12183,1,0,0:0:0:0:
360,304,12348,2,0,L|290:310,1,70,2|0,0:1|0:0,0:0:0:0:
224,360,12677,2,0,L|155:354,1,70,2|0,0:1|0:0,0:0:0:0:
72,344,13007,1,2,0:1:0:0:
72,344,13172,1,0,0:0:0:0:
4,192,13501,6,0,P|84:180|156:200,1,140,0|0,0:0|0:0,0:0:0:0:
212,236,13996,1,2,0:1:0:0:
212,236,14161,2,0,P|224:196|216:152,1,70,0|2,0:0|0:1,0:0:0:0:
160,112,14490,2,0,P|152:72|160:28,1,70,0|2,0:0|0:1,0:0:0:0:
232,4,14820,2,0,L|384:8,1,140,0|0,0:0|0:0,0:0:0:0:
456,8,15315,5,2,0:1:0:0:
456,176,15644,1,2,0:1:0:0:
388,332,15974,1,2,0:1:0:0:
388,332,16304,6,0,L|288:344,1,70,2|0,0:0|0:0,0:0:0:0:
240,372,16633,2,0,L|170:363,1,70,2|0,0:1|0:0,0:0:0:0:
108,308,16963,2,0,P|88:348|88:384,2,70,2|0|2,0:1|0:0|0:1,0:0:0:0:
172,252,17458,1,0,0:0:0:0:
172,252,17622,2,0,L|168:164,1,70,2|0,0:1|0:0,0:0:0:0:
96,136,17952,2,0,L|100:48,1,70,2|0,0:1|0:0,0:0:0:0:
168,16,18282,1,2,0:1:0:0:
168,16,18447,1,0,0:0:0:0:
240,60,18611,2,0,L|336:56,1,70,2|0,0:1|0:0,0:0:0:0:
384,96,18941,6,0,P|412:56|508:40,2,140,2|2|2,0:1|0:1|0:1,0:0:0:0:
372,180,19765,1,0,0:0:0:0:
372,180,19930,1,2,0:1:0:0:
216,244,20260,2,0,L|224:332,2,70,2|0|2,0:1|0:0|0:1,0:0:0:0:
152,196,20754,1,0,0:0:0:0:
152,196,20919,2,0,P|153:161|165:128,1,70,2|2,0:1|0:1,0:0:0:0:
128,52,21249,2,0,P|176:44|212:56,1,70,2|0,0:0|0:0,0:0:0:0:
248,112,21578,6,0,P|320:128|408:100,1,140,4|2,0:0|0:1,0:0:0:0:
440,52,22073,2,0,P|464:88|468:128,1,70,0|2,0:0|0:1,0:0:0:0:
512,188,22403,2,0,P|514:231|498:267,1,70,0|2,0:0|0:1,0:0:0:0:
460,328,22732,1,2,0:0:0:0:
460,328,22815,1,2,0:0:0:0:
460,328,22897,2,0,P|380:308|292:320,1,140,2|2,0:1|0:1,0:0:0:0:
248,348,23392,2,0,L|256:388,2,35,2|2|2,0:1|0:1|0:1,0:0:0:0:
168,320,23721,1,0,0:0:0:0:
168,320,23886,2,0,L|149:229,1,70,2|2,0:0|0:1,0:0:0:0:
144,212,24133,5,2,0:1:0:0:
144,212,24216,2,0,P|213:214|280:195,1,140,2|2,0:1|0:1,0:0:0:0:
352,236,24710,1,0,0:0:0:0:
352,236,24875,2,0,P|364:192|352:152,1,70,2|0,0:1|0:0,0:0:0:0:
328,92,25205,1,2,0:1:0:0:
260,44,25370,1,2,0:1:0:0:
260,44,25452,1,2,0:1:0:0:
260,44,25534,2,0,P|212:40|172:44,1,70,2|0,0:1|0:0,0:0:0:0:
136,104,25864,2,0,P|64:84|-16:92,2,140,2|2|2,0:0|0:1|0:0,0:0:0:0:
208,152,26688,1,0,0:1:0:0:
208,152,26853,6,0,B|220:216|220:216|208:300,1,140,2|2,0:1|0:1,0:0:0:0:
364,356,27512,2,0,B|352:292|352:292|364:208,1,140,2|2,0:1|0:1,0:0:0:0:
336,144,28007,1,0,0:0:0:0:
336,144,28172,2,0,P|384:180|464:176,2,140,6|2|2,0:1|0:1|0:1,0:0:0:0:
272,92,28996,1,2,0:1:0:0:
208,40,29161,2,0,L|214:5,4,35,8|8|8|8|2,0:0|0:0|0:0|0:0|0:1,0:0:0:0:
256,192,29655,12,0,31469,0:0:0:0:
44,124,31798,5,8,0:0:0:0:
44,124,32128,6,0,P|28:188|32:272,1,140,4|8,0:0|0:0,0:0:0:0:
8,344,32622,1,0,0:0:0:0:
8,344,32787,2,0,P|64:340|96:344,1,70,2|2,0:1|0:1,0:0:0:0:
156,368,33117,1,8,0:0:0:0:
156,368,33282,1,0,0:0:0:0:
228,324,33447,2,0,P|232:268|228:236,1,70,2|0,0:1|0:0,0:0:0:0:
168,200,33776,2,0,P|164:144|168:112,1,70,8|0,0:0|0:0,0:0:0:0:
112,64,34106,2,0,P|152:48|200:52,1,70,2|2,0:1|0:1,0:0:0:0:
264,60,34436,1,10,0:0:0:0:
264,60,34600,1,0,0:0:0:0:
340,92,34765,6,0,L|356:20,2,70,2|0|8,0:1|0:0|0:0,0:0:0:0:
272,144,35260,2,0,L|203:128,2,70,0|2|2,0:0|0:1|0:1,0:0:0:0:
328,208,35754,2,0,L|343:276,2,70,8|0|2,0:0|0:0|0:1,0:0:0:0:
396,156,36249,2,0,L|464:171,2,70,0|10|0,0:0|0:0|0:0,0:0:0:0:
340,92,36743,1,2,0:1:0:0:
180,40,37073,2,0,L|183:6,2,35,8|8|8,0:0|0:0|0:0,0:0:0:0:
108,80,37403,6,0,L|118:235,1,140,2|8,0:1|0:0,0:0:0:0:
164,296,37897,1,0,0:0:0:0:
164,296,38062,2,0,P|220:296|260:312,1,70,2|2,0:1|0:1,0:0:0:0:
304,344,38392,1,8,0:0:0:0:
304,344,38556,1,0,0:0:0:0:
384,316,38721,2,0,L|392:228,1,70,2|0,0:1|0:0,0:0:0:0:
456,196,39051,2,0,L|448:108,1,70,8|0,0:0|0:0,0:0:0:0:
420,48,39381,2,0,P|364:48|324:64,1,70,2|2,0:1|0:1,0:0:0:0:
288,108,39710,1,10,0:0:0:0:
288,108,39875,1,0,0:0:0:0:
204,96,40040,6,0,P|200:60|208:8,2,70,2|0|8,0:1|0:0|0:0,0:0:0:0:
144,156,40534,2,0,P|128:124|117:71,2,70,0|2|2,0:0|0:1|0:1,0:0:0:0:
208,212,41029,2,0,L|204:281,1,70,8|0,0:0|0:0,0:0:0:0:
236,360,41359,2,0,P|168:372|100:352,1,140,12|10,0:0|0:0,0:0:0:0:
32,304,41853,1,0,0:0:0:0:
32,304,42018,1,12,0:0:0:0:
84,236,42183,2,0,L|132:240,4,35,8|8|8|8|2,0:0|0:0|0:0|0:0|0:1,0:0:0:0:
0,228,42677,6,0,L|14:88,1,140,4|8,0:0|0:0,0:0:0:0:
76,32,43172,2,0,P|120:28|160:32,1,70,0|0,0:0|0:0,0:0:0:0:
224,4,43501,2,8,P|266:15|302:32,1,70,2|8,0:1|0:0,0:0:0:0:
372,8,43831,2,0,P|384:44|376:172,1,140,0|0,0:0|0:0,0:0:0:0:
408,228,44326,2,0,P|340:228|260:272,1,140,8|0,0:0|0:0,0:0:0:0:
224,324,44820,2,0,P|176:328|132:320,1,70,2|8,0:1|0:0,0:0:0:0:
72,304,45150,1,0,0:0:0:0:
72,304,45315,6,0,L|60:148,1,140,2|8,0:0|0:0,0:0:0:0:
28,88,45809,2,0,P|72:112|164:92,1,140,0|2,0:0|0:1,0:0:0:0:
232,56,46304,2,0,P|268:52|320:56,1,70,8|0,0:0|0:0,0:0:0:0:
392,76,46633,1,2,0:1:0:0:
392,76,46798,1,2,0:1:0:0:
392,76,46963,2,0,L|400:168,1,70,8|2,0:0|0:1,0:0:0:0:
476,196,47293,1,2,0:1:0:0:
476,196,47458,1,2,0:1:0:0:
476,196,47623,2,0,L|468:288,1,70,8|2,0:0|0:1,0:0:0:0:
444,300,47870,5,2,0:1:0:0:
444,300,47952,2,0,P|384:316|296:296,1,140,4|8,0:0|0:0,0:0:0:0:
232,268,48447,1,0,0:0:0:0:
232,268,48611,1,0,0:0:0:0:
156,304,48776,2,0,P|164:336|160:392,2,70,2|8|0,0:1|0:0|0:0,0:0:0:0:
92,248,49271,1,2,0:1:0:0:
92,248,49436,2,0,L|96:96,1,140,0|0,0:0|0:0,0:0:0:0:
152,48,49930,2,0,P|200:44|232:48,1,70,0|2,0:0|0:1,0:0:0:0:
296,88,50260,2,0,P|344:92|376:88,1,70,8|0,0:0|0:0,0:0:0:0:
448,76,50589,6,0,P|460:132|452:232,1,140,2|8,0:0|0:0,0:0:0:0:
428,296,51084,1,0,0:0:0:0:
352,260,51249,2,0,P|344:228|348:188,2,70,2|2|8,0:1|0:1|0:0,0:0:0:0:
312,332,51743,1,0,0:0:0:0:
312,332,51908,2,0,P|232:352|152:320,1,140,2|8,0:1|0:0,0:0:0:0:
72,208,52567,2,0,P|152:188|232:220,1,140,2|8,0:1|0:0,0:0:0:0:
284,248,53062,1,2,0:1:0:0:
284,248,53144,1,2,0:1:0:0:
284,248,53227,6,0,L|380:244,1,70,4|2,0:0|0:1,0:0:0:0:
424,288,53556,2,0,P|436:248|420:192,1,70,8|2,0:0|0:1,0:0:0:0:
336,80,54051,2,0,L|240:84,1,70,2|8,0:1|0:0,0:0:0:0:
192,40,54380,2,0,P|180:80|196:136,1,70,0|0,0:0|0:0,0:0:0:0:
216,188,54710,1,2,0:1:0:0:
216,188,54875,1,8,0:0:0:0:
136,336,55205,2,0,L|48:344,2,70,2|2|8,0:1|0:1|0:0,0:0:0:0:
208,296,55699,1,2,0:0:0:0:
208,296,55864,6,0,L|284:300,1,70,2|2,0:1|0:1,0:0:0:0:
352,256,56194,2,0,L|428:260,1,70,8|2,0:0|0:1,0:0:0:0:
428,92,56688,6,0,L|358:88,1,70,2|8,0:1|0:0,0:0:0:0:
288,40,57018,1,2,0:1:0:0:
288,40,57183,2,0,L|218:36,1,70,2|2,0:0|0:0,0:0:0:0:
136,36,57512,2,0,P|128:76|136:124,1,70,8|0,0:0|0:0,0:0:0:0:
204,160,57842,1,2,0:1:0:0:
204,160,58007,1,2,0:1:0:0:
204,160,58172,2,0,P|212:200|204:248,1,70,2|0,0:0|0:0,0:0:0:0:
184,308,58501,5,2,0:1:0:0:
184,308,58831,2,0,L|108:316,2,70,2|2|2,0:1|0:1|0:1,0:0:0:0:
268,288,59326,1,2,0:1:0:0:
268,288,59490,2,0,L|337:295,1,70,2|2,0:1|0:1,0:0:0:0:
420,276,59820,2,0,P|420:310|409:344,2,70,6|2|2,0:1|0:1|0:1,0:0:0:0:
364,212,60315,1,2,0:1:0:0:
364,212,60480,2,0,L|364:124,1,70,2|2,0:1|0:1,0:0:0:0:
404,68,60809,2,0,P|356:59|312:72,1,70,2|2,0:1|0:1,0:0:0:0:
264,104,61139,6,0,P|208:112|172:104,1,70,6|2,0:1|0:1,0:0:0:0:
124,68,61469,2,0,P|112:120|124:160,1,70,2|2,0:1|0:1,0:0:0:0:
176,196,61798,2,0,L|164:260,8,35,8|8|8|8|8|8|8|8|2,0:0|0:0|0:0|0:0|0:0|0:0|0:0|0:0|0:1,0:0:0:0:
432,356,63447,5,4,0:3:0:0:
432,356,63776,2,0,L|440:276,1,70,6|0,0:1|0:0,0:0:0:0:
492,220,64106,2,0,L|484:140,1,70,8|0,0:0|0:0,0:0:0:0:
428,88,64436,2,0,L|348:80,1,70,2|2,0:1|0:1,0:0:0:0:
276,76,64765,1,8,0:0:0:0:
276,76,64930,1,0,0:0:0:0:
208,24,65095,2,0,L|138:30,1,70,2|0,0:0|0:0,0:0:0:0:
108,108,65425,2,0,L|177:114,1,70,8|0,0:0|0:0,0:0:0:0:
204,196,65754,2,0,L|134:202,1,70,2|2,0:1|0:1,0:0:0:0:
52,212,66084,1,8,0:0:0:0:
52,212,66249,1,0,0:0:0:0:
100,280,66414,6,0,L|104:352,2,70,6|0|8,0:1|0:0|0:0,0:0:0:0:
134,202,66908,2,0,L|130:132,2,70,0|2|2,0:0|0:1|0:1,0:0:0:0:
188,268,67403,2,0,L|192:340,2,70,8|0|2,0:0|0:0|0:0,0:0:0:0:
222,190,67897,2,0,L|218:120,2,70,0|8|0,0:0|0:0|0:0,0:0:0:0:
276,256,68392,2,0,P|312:260|360:248,1,70,2|0,0:0|0:0,0:0:0:0:
428,236,68721,1,8,0:0:0:0:
500,192,68886,1,2,0:1:0:0:
500,192,68969,1,2,0:1:0:0:
500,192,69051,6,0,L|492:40,1,140,6|8,0:1|0:0,0:0:0:0:
416,20,69545,2,0,P|336:4|256:32,1,140,0|2,0:0|0:1,0:0:0:0:
208,60,70040,1,8,0:0:0:0:
140,108,70205,1,2,0:1:0:0:
140,108,70287,1,2,0:1:0:0:
140,108,70370,2,0,P|136:176|152:268,1,140,2|8,0:0|0:0,0:0:0:0:
204,308,70864,2,0,P|264:292|364:316,1,140,0|0,0:0|0:0,0:0:0:0:
408,352,71359,2,0,P|424:312|420:276,1,70,8|2,0:0|0:1,0:0:0:0:
412,244,71606,5,2,0:1:0:0:
412,244,71688,2,0,P|472:236|508:204,2,105,6|0|0,0:1|0:0|0:0,0:0:0:0:
332,216,72348,1,2,0:1:0:0:
256,184,72512,2,0,L|264:96,2,70,2|8|0,0:1|0:0|0:0,0:0:0:0:
216,256,73007,2,0,P|172:264|136:252,1,70,12|0,0:0|0:0,0:0:0:0:
100,328,73337,2,0,P|71:293|63:256,1,70,12|0,0:0|0:0,0:0:0:0:
100,192,73666,2,0,L|100:104,1,70,12|0,0:0|0:0,0:0:0:0:
36,68,73996,1,2,0:1:0:0:
36,68,74078,1,2,0:1:0:0:
36,68,74161,1,2,0:1:0:0:
100,12,74326,6,0,L|169:16,1,70,4|0,0:0|0:0,0:0:0:0:
236,68,74655,2,0,L|305:64,1,70,8|0,0:0|0:0,0:0:0:0:
380,20,74985,2,0,L|449:24,1,70,2|2,0:1|0:1,0:0:0:0:
512,84,75315,1,8,0:0:0:0:
512,84,75480,1,0,0:0:0:0:
468,156,75644,2,0,P|456:200|456:240,1,70,2|0,0:0|0:0,0:0:0:0:
464,308,75974,2,0,P|420:296|380:296,1,70,8|0,0:0|0:0,0:0:0:0:
324,340,76304,2,0,P|280:352|240:352,1,70,2|2,0:1|0:1,0:0:0:0:
172,340,76633,1,8,0:0:0:0:
172,340,76798,1,0,0:0:0:0:
112,280,76963,6,0,P|88:324|92:364,2,70,4|0|8,0:0|0:0|0:0,0:0:0:0:
88,200,77458,2,0,P|45:226|28:262,2,70,0|2|2,0:0|0:1|0:1,0:0:0:0:
172,184,77952,2,0,L|252:184,1,70,8|0,0:0|0:0,0:0:0:0:
308,236,78282,2,0,P|288:176|320:96,1,140,2|8,0:0|0:0,0:0:0:0:
268,32,78776,1,2,0:0:0:0:
268,32,78941,2,0,P|296:24|352:32,1,70,4|0,0:0|0:0,0:0:0:0:
420,24,79271,1,8,0:0:0:0:
488,92,79436,1,2,0:1:0:0:
488,92,79518,1,2,0:1:0:0:
488,92,79600,6,0,L|484:176,1,70,6|0,0:1|0:0,0:0:0:0:
420,216,79930,2,0,L|424:300,1,70,2|0,0:1|0:0,0:0:0:0:
384,360,80260,2,0,P|336:364|296:352,1,70,2|0,0:1|0:0,0:0:0:0:
244,312,80589,2,0,P|196:308|156:320,1,70,2|2,0:1|0:1,0:0:0:0:
140,336,80837,1,2,0:1:0:0:
140,336,80919,2,0,P|92:340|52:328,1,70,6|0,0:1|0:0,0:0:0:0:
8,280,81249,2,0,L|12:184,1,70,2|0,0:1|0:0,0:0:0:0:
80,160,81578,2,0,L|84:64,1,70,2|0,0:1|0:0,0:0:0:0:
144,32,81908,1,2,0:1:0:0:
144,32,82073,1,2,0:1:0:0:
212,80,82238,6,0,L|308:64,2,70,6|2|2,0:1|0:1|0:1,0:0:0:0:
184,160,82732,2,0,L|253:171,2,70,6|2|2,0:1|0:1|0:1,0:0:0:0:
100,148,83227,2,0,L|52:140,4,35,8|8|8|8|12,0:0|0:0|0:0|0:0|0:0,0:0:0:0:
80,348,84545,5,4,0:3:0:0:
80,348,84875,2,0,L|72:252,1,70,4|0,0:0|0:0,0:0:0:0:
4,232,85205,2,0,L|12:136,1,70,8|0,0:0|0:0,0:0:0:0:
88,136,85534,2,0,L|82:66,1,70,2|2,0:1|0:1,0:0:0:0:
140,8,85864,1,8,0:0:0:0:
140,8,86029,1,0,0:0:0:0:
212,52,86194,2,0,P|244:48|284:48,1,70,2|0,0:1|0:0,0:0:0:0:
348,100,86523,2,0,P|382:100|417:95,1,70,8|0,0:0|0:0,0:0:0:0:
488,48,86853,2,0,P|500:92|496:128,1,70,2|2,0:1|0:1,0:0:0:0:
488,200,87183,1,10,0:0:0:0:
488,200,87348,1,0,0:0:0:0:
428,256,87512,6,0,P|432:288|448:336,2,70,2|2|8,0:1|0:1|0:0,0:0:0:0:
352,216,88007,2,0,P|344:247|343:298,2,70,0|2|2,0:0|0:1|0:1,0:0:0:0:
296,152,88501,2,0,P|278:179|259:226,2,70,8|0|2,0:0|0:0|0:1,0:0:0:0:
263,72,88996,2,0,P|237:91|203:129,2,70,2|12|0,0:1|0:0|0:0,0:0:0:0:
344,48,89490,2,0,P|384:44|440:56,1,70,2|2,0:1|0:1,0:0:0:0:
488,84,89820,2,0,P|496:60|496:36,2,35,8|8|8,0:0|0:0|0:0,0:0:0:0:
432,148,90150,6,0,L|436:244,1,70,4|0,0:0|0:0,0:0:0:0:
508,260,90480,2,0,L|504:356,1,70,8|0,0:0|0:0,0:0:0:0:
432,372,90809,2,0,P|388:376|336:364,1,70,2|2,0:1|0:1,0:0:0:0:
280,360,91139,1,8,0:0:0:0:
280,360,91304,1,0,0:0:0:0:
204,320,91469,2,0,P|160:316|108:328,1,70,2|0,0:1|0:0,0:0:0:0:
52,336,91798,2,0,L|48:240,1,70,8|0,0:0|0:0,0:0:0:0:
0,196,92128,2,0,L|2:126,1,70,2|2,0:1|0:1,0:0:0:0:
12,40,92458,1,10,0:0:0:0:
12,40,92622,1,0,0:0:0:0:
96,56,92787,6,0,L|184:40,2,70,6|0|8,0:1|0:0|0:0,0:0:0:0:
71,138,93282,2,0,L|-17:122,2,70,0|2|2,0:0|0:1|0:1,0:0:0:0:
132,196,93776,2,0,L|200:183,1,70,8|0,0:0|0:0,0:0:0:0:
272,136,94106,2,0,L|340:148,1,70,4|0,0:0|0:0,0:0:0:0:
412,100,94436,2,0,P|424:144|420:180,1,70,8|0,0:0|0:0,0:0:0:0:
480,228,94765,2,0,P|468:272|446:301,1,70,4|2,0:0|0:1,0:0:0:0:
392,348,95095,2,0,L|400:400,2,35,2|2|2,0:1|0:1|0:1,0:0:0:0:
332,288,95425,6,0,P|288:284|240:296,1,70,4|2,0:0|0:1,0:0:0:0:
192,336,95754,2,0,P|148:340|100:328,1,70,8|2,0:0|0:1,0:0:0:0:
44,304,96084,2,0,L|32:216,1,70,8|2,0:0|0:1,0:0:0:0:
24,152,96414,1,8,0:0:0:0:
24,152,96578,1,2,0:1:0:0:
76,88,96743,2,0,P|120:84|168:96,1,70,8|2,0:0|0:1,0:0:0:0:
216,136,97073,2,0,P|260:140|308:128,1,70,8|2,0:0|0:1,0:0:0:0:
368,112,97402,2,0,L|377:181,1,70,8|2,0:0|0:1,0:0:0:0:
388,264,97732,1,8,0:0:0:0:
388,264,97897,1,2,0:1:0:0:
456,212,98062,6,0,L|512:168,2,70,12|2|8,0:0|0:1|0:0,0:0:0:0:
388,264,98556,2,0,L|444:308,2,70,2|8|2,0:1|0:0|0:1,0:0:0:0:
377,181,99051,2,0,L|333:125,2,70,8|2|8,0:0|0:1|0:0,0:0:0:0:
312,232,99545,2,0,L|256:276,2,70,2|8|2,0:1|0:0|0:1,0:0:0:0:
388,264,100040,1,12,0:0:0:0:
472,120,100370,2,0,L|520:120,2,35,8|8|8,0:0|0:0|0:0,0:0:0:0:
412,60,100699,5,2,0:1:0:0:
412,60,101029,2,0,L|340:60,1,70,12|0,0:0|0:0,0:0:0:0:
284,120,101359,2,0,L|212:120,1,70,8|0,0:0|0:0,0:0:0:0:
128,120,101688,1,8,0:0:0:0:
128,120,101853,1,2,0:1:0:0:
68,60,102018,2,0,P|48:96|44:128,1,70,8|2,0:0|0:1,0:0:0:0:
44,208,102348,2,0,P|51:248|69:275,1,70,8|2,0:0|0:1,0:0:0:0:
124,336,102677,2,0,P|155:361|186:371,1,70,8|2,0:0|0:1,0:0:0:0:
268,376,103007,1,8,0:0:0:0:
268,376,103089,1,8,0:0:0:0:
268,376,103172,1,8,0:0:0:0:
348,352,103337,6,0,L|352:252,1,70,12|2,0:0|0:1,0:0:0:0:
288,224,103666,1,8,0:0:0:0:
288,224,103831,2,0,L|292:124,1,70,4|0,0:0|0:0,0:0:0:0:
216,112,104161,1,8,0:0:0:0:
216,112,104326,2,0,L|218:42,1,70,4|0,0:0|0:0,0:0:0:0:
296,8,104655,2,0,L|396:12,1,70,12|2,0:0|0:1,0:0:0:0:
444,42,104985,2,0,L|441:111,1,70,12|2,0:0|0:1,0:0:0:0:
436,196,105315,1,12,0:0:0:0:
436,196,105480,1,8,0:0:0:0:
432,280,105644,1,8,0:0:0:0:
432,280,105809,1,8,0:0:0:0:
