osu file format v14

[General]
AudioFilename: audio.mp3
AudioLeadIn: 0
PreviewTime: 62375
Countdown: 0
SampleSet: Soft
StackLeniency: 0.5
Mode: 0
LetterboxInBreaks: 0
WidescreenStoryboard: 0

[Editor]
DistanceSpacing: 1
BeatDivisor: 4
GridSize: 4
TimelineZoom: 2

[Metadata]
Title:Overdrive
TitleUnicode:Overdrive
Artist:Hitomi Harada
ArtistUnicode:原田ひとみ
Creator:Kyuukai
Version:Extra
Source:VALKYRIE DRIVE -MERMAID-
Tags:ヴァルキリードライヴ マーメイド op opening yaleufeu
BeatmapID:1501840
BeatmapSetID:710486

[Difficulty]
HPDrainRate:6.2
CircleSize:3.8
OverallDifficulty:9
ApproachRate:9.3
SliderMultiplier:1.6
SliderTickRate:1

[Events]
//Background and Video events
0,0,"McDrive.jpg",0,0
//Break Periods
//Storyboard Layer 0 (Background)
//Storyboard Layer 1 (Fail)
//Storyboard Layer 2 (Pass)
//Storyboard Layer 3 (Foreground)
//Storyboard Sound Samples

[TimingPoints]
480,329.67032967033,4,2,1,50,1,0
11029,-125,4,2,1,50,0,0
21578,-117.647058823529,4,2,1,55,0,0
29490,-117.647058823529,4,2,1,50,0,0
30809,-200,4,2,1,40,0,0
31386,-200,4,2,1,5,0,0
31469,-133.333333333333,4,2,1,45,0,0
32128,-80,4,2,1,70,0,1
42677,-100,4,2,1,60,0,0
62458,-200,4,2,1,40,0,0
63034,-200,4,2,1,5,0,0
63117,-100,4,2,1,45,0,0
63776,-80,4,2,1,70,0,1
73666,-100,4,2,1,60,0,0
74326,-80,4,2,1,70,0,1
79600,-133.333333333333,4,2,1,60,0,0
82238,-133.333333333333,4,2,1,70,0,1
83556,-100,4,2,1,50,0,0
84875,-86.9565217391304,4,2,1,60,0,0
94436,-100,4,2,1,65,0,0
95425,-66.6666666666667,4,2,1,70,0,1
105809,-100,4,2,1,60,0,0

[Colours]
Combo1 : 192,192,192
Combo2 : 0,128,255
Combo3 : 0,255,64

[HitObjects]
88,168,10205,5,2,0:0:0:0:
120,328,10370,2,0,L|104:244,1,80,4|2,0:0|0:1,0:0:0:0:
120,144,10700,1,8,0:0:0:0:
157,129,10782,1,8,0:0:0:0:
196,123,10865,1,8,0:0:0:0:
236,127,10947,1,8,0:0:0:0:
274,140,11029,6,0,P|352:152|420:132,1,128,2|2,0:1|0:1,0:0:0:0:
508,64,11524,1,0,0:0:0:0:
488,220,11689,1,2,0:1:0:0:
396,128,11854,1,0,0:0:0:0:
496,232,12018,1,2,0:1:0:0:
392,116,12183,1,0,0:0:0:0:
504,244,12348,6,0,P|504:288|500:320,1,64,2|0,0:1|0:0,0:0:0:0:
360,356,12678,2,0,P|357:324|357:292,1,64,2|0,0:1|0:0,0:0:0:0:
388,104,13007,1,2,0:1:0:0:
456,212,13172,2,0,B|392:232|392:184|316:212,1,128
176,356,13667,6,0,P|178:324|178:292,1,64,2|0,0:1|0:0,0:0:0:0:
32,244,13996,2,0,P|32:288|36:320,1,64,2|0,0:1|0:0,0:0:0:0:
184,356,14326,6,0,P|186:324|186:292,1,64,2|0,0:1|0:0,0:0:0:0:
24,248,14656,2,0,P|24:292|28:324,1,64,2|0,0:1|0:0,0:0:0:0:
128,160,14985,1,2,0:1:0:0:
28,236,15150,1,0,0:0:0:0:
84,80,15315,6,0,P|146:70|200:104,2,128,2|2|2,0:1|0:1|0:1,0:0:0:0:
128,160,16139,1,0,0:0:0:0:
280,48,16304,6,0,P|296:104|292:132,1,64,2|0,0:0|0:0,0:0:0:0:
388,96,16634,2,0,P|373:152|356:174,1,64,2|0,0:1|0:0,0:0:0:0:
260,244,16963,1,2,0:1:0:0:
368,168,17128,1,0,0:0:0:0:
252,252,17293,1,2,0:1:0:0:
296,120,17458,1,0,0:0:0:0:
348,296,17623,6,0,L|336:364,1,64,2|0,0:1|0:0,0:0:0:0:
244,260,17952,1,2,0:1:0:0:
296,132,18117,1,0,0:0:0:0:
236,268,18282,1,2,0:1:0:0:
200,144,18447,1,0,0:0:0:0:
160,300,18611,2,0,P|128:302|97:294,1,64,2|0,0:1|0:0,0:0:0:0:
28,244,18941,6,0,L|20:152,1,64,2|0,0:1|0:0,0:0:0:0:
84,100,19271,2,0,L|76:8,1,64,2|0,0:1|0:0,0:0:0:0:
192,36,19601,2,0,L|186:99,1,64,2|0,0:1|0:0,0:0:0:0:
248,180,19931,2,0,L|242:243,1,64,2|0,0:1|0:0,0:0:0:0:
96,356,20260,5,2,0:1:0:0:
88,268,20425,1,0,0:0:0:0:
234,331,20590,5,2,0:1:0:0:
242,243,20755,1,0,0:0:0:0:
88,268,20920,5,2,0:1:0:0:
80,180,21084,1,2,0:1:0:0:
252,156,21249,6,0,B|300:144|300:144|368:160,1,96,2|0,0:0|0:0,0:0:0:0:
416,104,21579,6,0,P|400:136|404:256,1,136.000002593994,4|2,0:0|0:1,0:0:0:0:
492,380,22073,1,0,0:0:0:0:
480,284,22238,1,2,0:1:0:0:
376,352,22403,2,0,P|332:352|292:344,1,68.0000012969971,0|2,0:0|0:1,0:0:0:0:
160,368,22733,5,2,0:0:0:0:
168,348,22815,1,2,0:0:0:0:
176,328,22898,2,0,P|184:280|184:176,1,136.000002593994,2|2,0:1|0:1,0:0:0:0:
56,68,23392,1,2,0:1:0:0:
48,88,23474,1,2,0:1:0:0:
44,108,23557,1,2,0:1:0:0:
72,224,23722,1,0,0:0:0:0:
180,108,23887,2,0,P|220:104|264:108,1,68.0000012969971,2|2,0:0|0:1,0:0:0:0:
312,160,24134,5,2,0:1:0:0:
312,160,24216,2,0,B|380:172|380:172|456:160,1,136.000002593994,2|2,0:1|0:1,0:0:0:0:
380,52,24711,1,0,0:0:0:0:
456,172,24876,2,0,P|465:214|458:248,1,68.0000012969971,2|0,0:1|0:0,0:0:0:0:
296,236,25205,2,0,P|292:202|301:169,1,68.0000012969971,2|2,0:1|0:1,0:0:0:0:
379,210,25452,5,2,0:1:0:0:
379,210,25535,2,0,L|380:296,1,68.0000012969971,2|0,0:1|0:0,0:0:0:0:
276,384,25865,1,2,0:0:0:0:
212,328,26029,2,0,L|212:294,1,34.0000006484985,2|0,0:1|0:0,0:0:0:0:
208,148,26194,6,0,P|188:211|128:240,1,136.000002593994,2|2,0:1|0:0,0:0:0:0:
0,280,26689,1,0,0:1:0:0:
124,156,26854,5,2,0:1:0:0:
88,332,27018,1,0,0:0:0:0:
8,160,27183,1,2,0:1:0:0:
180,260,27348,1,0,0:0:0:0:
0,280,27513,1,2,0:1:0:0:
124,156,27678,1,0,0:0:0:0:
220,332,27843,1,2,0:1:0:0:
280,252,28007,1,0,0:0:0:0:
92,268,28172,5,6,0:1:0:0:
124,156,28337,1,2,0:1:0:0:
216,324,28502,5,2,0:1:0:0:
128,144,28667,1,2,0:1:0:0:
64,364,28832,5,2,0:1:0:0:
132,136,28996,1,2,0:1:0:0:
280,252,29161,5,8,0:0:0:0:
313,250,29244,1,8,0:0:0:0:
347,248,29326,1,8,0:0:0:0:
381,246,29409,1,8,0:0:0:0:
415,244,29491,1,2,0:1:0:0:
415,244,30810,6,0,L|408:100,1,140
380,96,31469,6,0,L|383:158,1,60.0000022888184,0|2,0:0|0:1,0:0:0:0:
415,244,31798,1,8,0:0:0:0:
352,84,32128,6,0,P|308:76|236:80,1,100,4|0,0:0|0:0,0:0:0:0:
40,124,32458,1,8,0:0:0:0:
136,56,32623,1,0,0:0:0:0:
92,268,32788,1,2,0:1:0:0:
176,168,32952,1,2,0:1:0:0:
4,220,33117,1,8,0:0:0:0:
4,220,33282,1,0,0:0:0:0:
180,316,33447,6,0,P|224:324|296:320,1,100,2|0,0:1|0:0,0:0:0:0:
176,168,33777,2,0,P|214:199|258:223,1,100,8|0,0:0|0:0,0:0:0:0:
280,56,34106,2,2,P|295:98|334:158,1,100,2|2,0:1|0:1,0:0:0:0:
448,268,34436,1,10,0:0:0:0:
440,152,34601,1,0,0:0:0:0:
379,342,34766,5,2,0:1:0:0:
480,364,34931,1,0,0:0:0:0:
448,268,35095,1,8,0:0:0:0:
280,316,35260,5,0,0:0:0:0:
379,342,35425,1,2,0:1:0:0:
352,244,35590,1,2,0:1:0:0:
180,288,35755,5,8,0:0:0:0:
280,316,35920,1,0,0:0:0:0:
252,220,36084,1,2,0:1:0:0:
80,260,36249,5,0,0:0:0:0:
180,288,36414,1,10,0:0:0:0:
152,192,36579,1,0,0:0:0:0:
12,336,36744,5,2,0:1:0:0:
12,336,36909,1,2,0:1:0:0:
80,260,37073,5,8,0:0:0:0:
76,210,37156,1,8,0:0:0:0:
72,160,37238,1,8,0:0:0:0:
68,110,37321,1,8,0:0:0:0:
64,60,37403,6,0,B|179:28|143:96|275:64,1,200,2|8,0:1|0:0,0:0:0:0:
436,40,37898,1,0,0:0:0:0:
339,5,38062,2,2,L|356:104,1,100,2|2,0:1|0:1,0:1:0:0:
480,220,38392,2,0,L|496:121,1,100,8|0,0:0|0:0,0:0:0:0:
376,312,38722,5,2,0:1:0:0:
332,220,38887,1,0,0:0:0:0:
252,364,39051,1,8,0:0:0:0:
232,200,39216,1,0,0:0:0:0:
116,368,39381,1,2,0:1:0:0:
132,180,39546,1,2,0:1:0:0:
252,364,39711,1,10,0:0:0:0:
252,364,39876,1,0,0:0:0:0:
200,104,40040,6,0,L|188:4,2,100,2|0|8,0:1|0:0|0:0,0:0:0:0:
312,104,40535,2,0,L|324:4,2,100,0|2|2,0:0|0:1|0:1,0:0:0:0:
300,204,41029,1,8,0:0:0:0:
288,302,41194,1,0,0:0:0:0:
412,164,41359,5,12,0:0:0:0:
200,140,41524,1,0,0:0:0:0:
400,268,41689,5,10,0:0:0:0:
188,244,41854,1,0,0:0:0:0:
312,104,42018,5,12,0:0:0:0:
412,164,42183,1,8,0:0:0:0:
407,216,42266,1,8,0:0:0:0:
400,268,42348,1,8,0:0:0:0:
394,320,42431,1,8,0:0:0:0:
387,372,42513,2,2,P|351:374|315:366,1,50,2|2,0:1|0:1,0:1:0:0:
112,280,42678,6,0,B|189:299|189:299|268:280,1,160,4|8,0:0|0:0,0:0:0:0:
188,116,43172,2,0,L|188:196,1,80
280,84,43502,2,0,P|252:44|208:20,1,80,2|8,0:1|0:0,0:0:0:0:
368,180,43832,6,0,P|364:112|428:28,1,160
512,180,44326,1,8,0:0:0:0:
504,80,44491,1,0,0:0:0:0:
504,80,44656,1,0,0:0:0:0:
512,192,44821,2,0,P|512:236|504:272,1,80,2|8,0:1|0:0,0:0:0:0:
312,336,45150,1,0,0:0:0:0:
320,236,45315,6,0,P|388:272|408:368,1,160,2|8,0:0|0:0,0:0:0:0:
231,276,45810,2,0,P|214:311|211:351,1,80
244,180,46139,1,2,0:1:0:0:
40,272,46304,1,8,0:0:0:0:
136,308,46469,1,0,0:0:0:0:
124,112,46634,6,2,L|128:192,1,80,2|2,0:1|0:1,0:0:0:0:
56,372,46963,1,8,0:0:0:0:
40,272,47128,1,2,0:1:0:0:
40,272,47211,1,2,0:1:0:0:
40,272,47293,1,2,0:1:0:0:
136,308,47458,1,2,0:1:0:0:
240,100,47623,2,0,L|243:179,1,80,8|2,0:0|0:1,0:0:0:0:
248,268,47870,5,2,0:1:0:0:
248,268,47952,2,0,P|300:256|400:280,1,120,4|0,0:0|0:0,0:0:0:0:
408,280,48282,2,0,P|420:236|420:188,1,80,8|0,0:0|0:0,0:0:0:0:
400,104,48612,1,0,0:0:0:0:
243,179,48777,1,2,0:1:0:0:
404,292,48941,1,8,0:0:0:0:
332,192,49106,1,0,0:0:0:0:
256,364,49271,5,2,0:1:0:0:
256,364,49436,1,2,0:1:0:0:
104,319,49600,2,0,P|142:311|182:319,1,80,8|0,0:0|0:0,0:0:0:0:
20,372,49931,2,0,P|8:328|16:268,1,80,0|2,0:0|0:1,0:0:0:0:
128,120,50260,1,8,0:0:0:0:
116,220,50425,1,0,0:0:0:0:
28,100,50590,6,0,P|60:44|140:24,1,120,2|0,0:0|0:0,0:0:0:0:
152,24,50920,2,0,L|256:28,1,80,8|0,0:0|0:0,0:0:0:0:
388,36,51249,1,2,0:1:0:0:
388,36,51414,1,2,0:1:0:0:
304,175,51579,2,0,L|308:96,1,80,8|0,0:0|0:0,0:0:0:0:
488,40,51909,6,0,L|481:199,1,160,2|8,0:1|0:0,0:0:0:0:
388,344,52403,1,0,0:0:0:0:
472,320,52568,2,2,P|448:280|408:260,1,80,2|2,0:1|0:1,0:0:0:0:
300,356,52898,2,0,P|302:316|323:282,1,80,8|2,0:0|0:1,0:0:0:0:
358,206,53145,5,2,0:1:0:0:
358,206,53227,1,4,0:0:0:0:
388,344,53392,1,2,0:1:0:0:
352,195,53557,1,8,0:0:0:0:
472,320,53722,1,2,0:1:0:0:
472,320,54051,5,2,0:1:0:0:
300,356,54216,1,8,0:0:0:0:
348,184,54381,6,0,L|320:104,1,80
160,32,54711,1,2,0:1:0:0:
260,28,54876,2,0,L|233:103,1,80,8|0,0:0|0:0,0:0:0:0:
176,244,55205,1,2,0:1:0:0:
144,148,55370,1,2,0:1:0:0:
268,200,55535,1,8,0:0:0:0:
176,244,55700,1,2,0:0:0:0:
368,200,55865,5,2,0:1:0:0:
268,200,56029,1,2,0:1:0:0:
136,336,56194,1,8,0:0:0:0:
176,244,56359,1,2,0:1:0:0:
176,244,56688,5,2,0:1:0:0:
176,244,56853,1,8,0:0:0:0:
268,200,57018,5,2,0:1:0:0:
368,200,57183,1,2,0:0:0:0:
500,336,57348,1,2,0:0:0:0:
460,244,57513,2,0,L|468:140,1,80,8|0,0:0|0:0,0:0:0:0:
361,120,57843,2,0,L|367:199,1,80,2|2,0:1|0:1,0:0:0:0:
384,356,58172,2,0,P|308:328|244:336,1,120,2|0,0:0|0:0,0:0:0:0:
232,340,58502,5,2,0:1:0:0:
232,340,58667,1,2,0:1:0:0:
140,380,58832,5,2,0:1:0:0:
140,380,58996,1,2,0:1:0:0:
56,312,59161,5,2,0:1:0:0:
44,196,59326,1,2,0:1:0:0:
156,252,59491,5,2,0:1:0:0:
168,136,59656,1,2,0:1:0:0:
232,340,59821,5,6,0:1:0:0:
232,340,59985,1,2,0:1:0:0:
308,136,60150,5,2,0:1:0:0:
344,312,60315,1,2,0:1:0:0:
480,192,60480,5,2,0:1:0:0:
444,368,60645,1,2,0:1:0:0:
380,208,60810,5,2,0:1:0:0:
380,208,60974,1,2,0:1:0:0:
256,376,61139,5,6,0:1:0:0:
184,276,61304,1,2,0:1:0:0:
147,259,61387,1,2,0:1:0:0:
108,256,61469,1,2,0:1:0:0:
70,268,61551,1,2,0:1:0:0:
39,293,61634,1,2,0:1:0:0:
19,328,61716,1,2,0:1:0:0:
14,367,61799,5,8,0:0:0:0:
12,327,61881,1,8,0:0:0:0:
10,287,61963,1,8,0:0:0:0:
8,247,62046,1,8,0:0:0:0:
6,208,62128,1,8,0:0:0:0:
4,168,62211,1,8,0:0:0:0:
2,128,62293,1,8,0:0:0:0:
0,88,62376,1,8,0:0:0:0:
30,55,62458,6,0,B|96:44|96:44|168:56,1,140,2|0,0:1|0:0,0:0:0:0:
168,56,63117,6,0,B|248:68|248:68|326:56,1,160,0|4,0:0|0:3,0:0:0:0:
326,55,63777,6,0,L|428:36,1,100,6|0,0:1|0:0,0:0:0:0:
498,186,64106,2,0,L|400:168,1,100,8|0,0:0|0:0,0:0:0:0:
329,318,64436,2,2,L|428:300,1,100,2|2,0:1|0:1,0:1:0:0:
224,188,64766,1,8,0:0:0:0:
224,188,64931,1,0,0:0:0:0:
120,352,65095,5,2,0:0:0:0:
136,156,65260,1,0,0:0:0:0:
196,340,65425,5,8,0:0:0:0:
44,188,65590,1,0,0:0:0:0:
40,364,65755,5,2,0:1:0:0:
224,188,65920,1,2,0:1:0:0:
24,276,66084,6,0,P|76:260|140:264,1,100,8|0,0:0|0:0,0:0:0:0:
316,320,66414,5,6,0:1:0:0:
120,352,66579,1,0,0:0:0:0:
196,168,66744,1,8,0:0:0:0:
308,312,66909,5,0,0:0:0:0:
112,344,67073,1,2,0:1:0:0:
188,160,67238,1,2,0:1:0:0:
300,304,67403,5,8,0:0:0:0:
104,336,67568,1,0,0:0:0:0:
180,152,67733,6,0,L|308:144,1,100,2|0,0:0|0:0,0:0:0:0:
511,274,68062,2,0,L|412:268,1,100,8|0,0:0|0:0,0:0:0:0:
406,48,68392,2,0,L|400:148,1,100,2|0,0:0|0:0,0:0:0:0:
330,334,68722,1,8,0:0:0:0:
250,84,68887,5,2,0:1:0:0:
252,133,68969,1,2,0:1:0:0:
255,183,69051,2,0,P|158:204|60:184,1,200,6|8,0:1|0:0,0:0:0:0:
154,384,69546,1,0,0:0:0:0:
202,291,69711,2,0,P|152:283|103:292,1,100,2|2,0:1|0:1,0:0:0:0:
256,384,70040,1,8,0:0:0:0:
360,272,70205,1,2,0:1:0:0:
362,222,70288,1,2,0:1:0:0:
365,172,70370,5,2,0:0:0:0:
200,36,70535,1,0,0:0:0:0:
256,120,70700,1,8,0:0:0:0:
312,36,70865,1,0,0:0:0:0:
147,172,71029,2,0,L|180:340,1,150,2|0,0:1|0:0,0:0:0:0:
188,368,71359,2,0,P|256:356|328:372,1,100,8|2,0:0|0:1,0:0:0:0:
388,376,71606,5,2,0:1:0:0:
388,376,71689,2,0,L|396:256,1,100,6|0,0:1|0:0,0:0:0:0:
480,92,72018,2,0,L|486:191,1,100,8|0,0:0|0:0,0:0:0:0:
340,72,72348,1,2,0:1:0:0:
340,72,72513,1,2,0:1:0:0:
300,208,72678,1,8,0:0:0:0:
480,92,72843,1,0,0:0:0:0:
256,16,73007,5,12,0:0:0:0:
394,276,73172,1,0,0:0:0:0:
256,16,73337,5,12,0:0:0:0:
118,276,73502,1,0,0:0:0:0:
256,16,73667,6,0,L|256:96,1,80,12|0,0:0|0:0,0:0:0:0:
332,224,73996,5,2,0:1:0:0:
294,211,74079,1,2,0:1:0:0:
254,206,74161,1,2,0:1:0:0:
215,211,74244,1,2,0:1:0:0:
178,225,74326,5,4,0:0:0:0:
4,376,74491,1,0,0:0:0:0:
20,224,74656,5,8,0:0:0:0:
194,375,74821,1,0,0:0:0:0:
203,153,74985,5,2,0:1:0:0:
12,300,75150,1,2,0:1:0:0:
28,148,75315,5,8,0:0:0:0:
196,300,75480,1,0,0:0:0:0:
208,140,75645,5,2,0:0:0:0:
76,344,75810,1,0,0:0:0:0:
215,130,75974,5,8,0:0:0:0:
194,375,76139,1,0,0:0:0:0:
220,120,76304,5,2,0:1:0:0:
322,327,76469,1,2,0:1:0:0:
278,11,76634,6,0,P|249:52|236:99,1,100,8|0,0:0|0:0,0:0:0:0:
396,320,76963,5,4,0:0:0:0:
356,104,77128,1,0,0:0:0:0:
280,312,77293,1,8,0:0:0:0:
236,100,77458,1,0,0:0:0:0:
160,308,77623,1,2,0:1:0:0:
116,92,77788,1,2,0:1:0:0:
44,300,77952,1,8,0:0:0:0:
0,88,78117,1,0,0:0:0:0:
160,308,78282,6,0,P|228:356|300:328,1,150,2|0,0:0|0:0,0:0:0:0:
360,384,78612,2,0,L|368:268,1,100,8|2,0:0|0:0,0:0:0:0:
384,60,78941,1,4,0:0:0:0:
468,180,79106,1,0,0:0:0:0:
276,164,79271,1,8,0:0:0:0:
384,60,79436,1,2,0:1:0:0:
380,109,79518,1,2,0:1:0:0:
376,152,79601,6,0,L|371:229,1,60.0000022888184,6|0,0:1|0:0,0:0:0:0:
384,160,79931,6,0,L|379:237,1,60.0000022888184,2|0,0:1|0:0,0:0:0:0:
392,168,80260,6,0,L|387:245,1,60.0000022888184,2|0,0:1|0:0,0:0:0:0:
360,384,80590,5,2,0:1:0:0:
266,293,80755,5,2,0:1:0:0:
266,293,80837,1,2,0:1:0:0:
266,293,80920,1,6,0:1:0:0:
120,264,81084,1,0,0:0:0:0:
260,204,81249,5,2,0:1:0:0:
118,251,81414,1,0,0:0:0:0:
216,128,81579,5,2,0:1:0:0:
116,239,81744,1,0,0:0:0:0:
147,81,81909,5,2,0:1:0:0:
115,227,82073,1,2,0:1:0:0:
228,352,82238,5,6,0:1:0:0:
312,88,82403,1,2,0:1:0:0:
120,264,82568,1,2,0:1:0:0:
228,32,82733,5,6,0:1:0:0:
312,296,82898,1,2,0:1:0:0:
120,120,83062,1,2,0:1:0:0:
312,88,83227,5,8,0:0:0:0:
361,81,83310,1,8,0:0:0:0:
411,74,83392,1,8,0:0:0:0:
460,67,83474,1,8,0:0:0:0:
510,61,83557,1,12,0:0:0:0:
2,61,84546,5,4,0:3:0:0:
2,61,84876,6,0,L|16:188,1,92.0000017547608,4|0,0:0|0:0,0:0:0:0:
122,244,85205,2,0,L|132:152,1,92.0000017547608,8|0,0:0|0:0,0:0:0:0:
244,56,85535,2,2,L|254:147,1,92.0000017547608,2|2,0:1|0:1,0:1:0:0:
276,296,85865,1,8,0:0:0:0:
276,296,86029,1,0,0:0:0:0:
442,207,86194,6,0,P|397:201|352:208,1,92.0000017547608,2|0,0:1|0:0,0:0:0:0:
186,280,86524,2,0,P|231:281|275:295,1,92.0000017547608,8|0,0:0|0:0,0:0:0:0:
432,340,86854,2,2,P|387:349|346:370,1,92.0000017547608,2|2,0:1|0:1,0:1:0:0:
442,207,87183,1,10,0:0:0:0:
442,207,87348,1,0,0:0:0:0:
259,103,87513,5,2,0:1:0:0:
275,295,87678,1,2,0:1:0:0:
352,208,87843,1,8,0:0:0:0:
160,176,88007,5,0,0:0:0:0:
237,89,88172,1,2,0:1:0:0:
253,281,88337,1,2,0:1:0:0:
336,104,88502,5,8,0:0:0:0:
136,80,88667,1,0,0:0:0:0:
272,184,88832,1,2,0:1:0:0:
196,0,88996,5,2,0:1:0:0:
176,172,89161,1,12,0:0:0:0:
237,89,89326,1,0,0:0:0:0:
72,164,89491,5,2,0:1:0:0:
72,164,89656,1,2,0:1:0:0:
68,296,89821,5,8,0:0:0:0:
111,310,89903,1,8,0:0:0:0:
157,316,89985,1,8,0:0:0:0:
202,312,90068,1,8,0:0:0:0:
246,298,90150,6,0,P|300:292|352:304,1,92.0000017547608,4|0,0:0|0:0,0:0:0:0:
336,208,90480,2,0,P|385:229|424:266,1,92.0000017547608,8|0,0:0|0:0,0:0:0:0:
460,172,90810,2,2,P|492:215|507:266,1,92.0000017547608,2|2,0:1|0:1,0:1:0:0:
372,96,91139,1,8,0:0:0:0:
372,96,91304,1,0,0:0:0:0:
240,176,91469,6,0,P|188:184|128:168,1,92.0000017547608,2|0,0:1|0:0,0:0:0:0:
148,16,91799,2,0,P|180:57|197:116,1,92.0000017547608,8|0,0:0|0:0,0:0:0:0:
52,176,92128,2,2,P|71:126|114:83,1,92.0000017547608,2|2,0:1|0:1,0:1:0:0:
216,272,92458,1,10,0:0:0:0:
216,272,92623,1,0,0:0:0:0:
194,93,92788,5,6,0:1:0:0:
100,284,92952,1,0,0:0:0:0:
300,172,93117,1,8,0:0:0:0:
96,97,93282,5,0,0:0:0:0:
216,272,93447,1,2,0:1:0:0:
304,56,93612,1,2,0:1:0:0:
148,188,93777,5,8,0:0:0:0:
332,284,93941,1,0,0:0:0:0:
200,76,94106,1,4,0:0:0:0:
120,340,94271,5,0,0:0:0:0:
380,164,94436,1,8,0:0:0:0:
344,360,94601,5,0,0:0:0:0:
192,64,94766,1,4,0:0:0:0:
460,120,94931,5,2,0:1:0:0:
458,159,95013,1,2,0:1:0:0:
456,199,95095,1,2,0:1:0:0:
454,239,95178,1,2,0:1:0:0:
452,279,95260,1,2,0:1:0:0:
450,319,95343,1,2,0:1:0:0:
448,359,95425,5,4,0:0:0:0:
300,168,95590,1,2,0:1:0:0:
244,356,95755,5,8,0:0:0:0:
458,159,95920,1,2,0:1:0:0:
450,319,96084,5,8,0:0:0:0:
256,100,96249,1,2,0:1:0:0:
126,246,96414,6,0,P|185:258|244:248,1,120.000004577637,8|2,0:0|0:1,0:0:0:0:
380,52,96744,5,8,0:0:0:0:
332,328,96909,1,2,0:1:0:0:
164,60,97073,5,8,0:0:0:0:
212,336,97238,1,2,0:1:0:0:
164,48,97403,5,8,0:0:0:0:
92,320,97568,1,2,0:1:0:0:
316,152,97733,6,0,P|257:139|198:150,1,120.000004577637,8|2,0:0|0:1,0:0:0:0:
332,328,98062,5,12,0:0:0:0:
316,152,98227,1,2,0:1:0:0:
212,336,98392,1,8,0:0:0:0:
420,208,98557,5,2,0:1:0:0:
224,84,98722,1,8,0:0:0:0:
332,328,98887,1,2,0:1:0:0:
344,28,99051,5,8,0:0:0:0:
420,208,99216,1,2,0:1:0:0:
160,200,99381,1,8,0:0:0:0:
384,116,99546,5,2,0:1:0:0:
332,328,99711,1,8,0:0:0:0:
224,84,99876,1,2,0:1:0:0:
480,264,100040,6,0,L|360:260,1,120.000004577637,12|2,0:0|0:1,0:0:0:0:
118,347,100370,5,8,0:0:0:0:
113,287,100452,1,8,0:0:0:0:
108,227,100535,1,8,0:0:0:0:
103,167,100617,1,8,0:0:0:0:
98,107,100700,6,0,P|152:80|244:76,1,120.000004577637,2|0,0:1|0:0,0:0:0:0:
388,0,101029,5,12,0:0:0:0:
360,260,101194,1,0,0:0:0:0:
216,20,101359,5,8,0:0:0:0:
244,280,101524,1,0,0:0:0:0:
408,160,101689,6,0,P|348:155|290:172,1,120.000004577637,8|2,0:0|0:1,0:2:0:0:
120,368,102018,5,8,0:0:0:0:
98,107,102183,1,2,0:1:0:0:
244,280,102348,5,8,0:0:0:0:
238,18,102513,1,2,0:1:0:0:
392,308,102678,5,8,0:0:0:0:
408,46,102843,1,2,0:1:0:0:
244,280,103007,5,8,0:0:0:0:
244,280,103090,1,8,0:0:0:0:
244,280,103172,1,8,0:0:0:0:
408,46,103337,6,0,L|400:180,1,120.000004577637,12|2,0:0|0:1,0:0:0:0:
392,308,103667,1,8,0:0:0:0:
324,76,103832,6,0,L|316:210,1,120.000004577637,4|0,0:0|0:0,0:0:0:0:
308,338,104161,1,8,0:0:0:0:
240,104,104326,6,0,L|232:238,1,120.000004577637,4|0,0:0|0:0,0:0:0:0:
224,366,104656,1,12,0:0:0:0:
316,195,104821,1,2,0:1:0:0:
120,256,104985,1,12,0:0:0:0:
308,338,105150,1,2,0:1:0:0:
140,108,105315,5,12,0:0:0:0:
120,256,105480,1,8,0:0:0:0:
232,223,105645,1,8,0:0:0:0:
44,172,105810,1,8,0:0:0:0:
