osu file format v14

[General]
AudioFilename: Once [Itsuka Tenma no Kuro Usagi OP ~Tsize~.mp3
AudioLeadIn: 0
PreviewTime: 46966
Countdown: 0
SampleSet: Soft
StackLeniency: 0.7
Mode: 0
LetterboxInBreaks: 1
WidescreenStoryboard: 1

[Editor]
DistanceSpacing: 0.9
BeatDivisor: 2
GridSize: 4
TimelineZoom: 1

[Metadata]
Title:Once (TV size)
TitleUnicode:Once (TV size)
Artist:Hitomi Harada
ArtistUnicode:原田ひとみ
Creator:Gyro Zeppeli
Version:Normal
Source:
Tags:-ClariS- kanor LeVe1N1Ne Itsuka Tenma no Kuro Usag 鏡 貴也 かがみ たかや カガミ タカヤ Kagami Takaya いつか天魔の黒ウサギ
BeatmapID:0
BeatmapSetID:380098

[Difficulty]
HPDrainRate:3
CircleSize:3.1
OverallDifficulty:3.5
ApproachRate:4
SliderMultiplier:1.1
SliderTickRate:1

[Events]
//Background and Video events
0,0,"Once.png",0,0
Video,0,"usagiiiii.flv"
//Break Periods
//Storyboard Layer 0 (Background)
//Storyboard Layer 1 (Fail)
//Storyboard Layer 2 (Pass)
//Storyboard Layer 3 (Foreground)
//Storyboard Sound Samples

[TimingPoints]
1366,400,4,2,1,30,1,0
2966,-100,4,2,1,50,0,1
9366,-100,4,2,1,30,0,0
47766,-100,4,2,1,50,0,1
59366,-100,4,2,1,50,0,0
60566,-100,4,2,1,50,0,1
76566,-100,4,2,1,30,0,0
77966,-100,4,2,1,30,0,0
88966,-100,4,2,1,20,0,0

[HitObjects]
212,188,1366,6,0,P|204:128|240:76,1,110
296,160,2166,2,0,P|304:220|268:272,1,110
184,280,2966,6,0,B|124:300|124:300|64:300|64:224,2,165
280,261,4566,2,0,P|336:277|392:249,1,110
436,176,5366,2,0,L|384:80,1,110
288,52,6166,6,0,B|224:68|176:60|176:60|144:108,2,165
384,80,7766,2,0,P|368:132|320:160,1,110
252,228,8566,2,0,L|196:260,1,55
156,256,8966,2,0,L|104:284,1,55
60,272,9366,6,0,P|36:204|44:156,1,110
104,92,10166,2,0,P|160:92|204:56,1,110
300,44,10966,2,0,P|368:48|428:120,2,165
201,60,12566,6,0,P|189:116|205:168,1,110
268,240,13366,2,0,P|284:296|268:352,1,110
172,332,14166,2,0,B|108:348|108:348|56:324|56:264,2,165
272,344,15766,6,0,B|332:328|388:344|388:344|412:304|388:240,1,220
364,148,16966,1,0,0:0:0:0:
280,96,17366,2,0,B|220:104|176:80|176:80|112:88|80:160,1,220
64,240,18566,1,0,0:0:0:0:
108,328,18966,6,0,P|164:316|212:332,1,110
308,300,19766,1,0,0:0:0:0:
404,316,20166,1,0,0:0:0:0:
448,228,20566,2,0,P|460:144|436:104,1,110
364,80,21366,2,0,L|308:68,1,55
264,80,21766,2,0,L|200:72,1,55
164,52,22166,6,0,P|108:60|56:52,1,110
28,148,22966,2,0,L|40:208,1,55
72,236,23366,2,0,L|56:296,1,55
36,336,23766,2,0,P|96:336|144:360,1,110
232,320,24566,1,0,0:0:0:0:
320,276,24966,2,0,L|380:288,1,55
424,276,25366,6,0,P|452:220|444:148,1,110
372,112,26166,1,0,0:0:0:0:
300,40,26566,1,0,0:0:0:0:
208,80,26966,2,0,P|152:104|104:104,1,110
48,184,27766,1,0,0:0:0:0:
76,280,28166,2,0,L|88:336,1,55
132,352,28566,6,0,P|184:336|296:356,2,165
52,292,30166,2,0,P|36:216|56:168,1,110
112,116,30966,1,0,0:0:0:0:
212,112,31366,2,0,L|272:112,1,55
304,144,31766,6,0,P|344:192|464:180,2,165
236,72,33366,2,0,P|180:60|128:72,1,110
60,144,34166,2,0,P|48:200|64:252,1,110
140,312,34966,6,0,P|204:304|248:320,1,110
344,324,35766,2,0,L|396:300,1,55
440,288,36166,2,0,L|480:240,1,55
476,196,36566,2,0,P|464:128|436:84,1,110
356,48,37366,1,0,0:0:0:0:
260,72,37766,1,0,0:0:0:0:
164,44,38166,6,0,P|104:56|68:104,1,110
44,188,38966,1,0,0:0:0:0:
88,276,39366,1,0,0:0:0:0:
184,256,39766,2,0,P|240:272|272:316,1,110
368,328,40566,2,0,P|420:304|456:248,1,110
432,164,41366,6,0,L|324:104,1,110
248,64,42166,2,0,L|148:64,2,82.5
232,112,42966,2,0,P|220:176|232:224,1,110
304,284,43766,1,0,0:0:0:0:
404,276,44166,1,0,0:0:0:0:
472,204,44566,6,0,P|482:150|469:97,1,110
376,64,45366,2,0,P|320:76|264:48,1,110
180,88,46166,2,0,L|88:112,2,82.5
160,132,46966,2,0,L|176:192,1,55
220,204,47366,2,0,L|240:264,1,55
272,292,47766,6,0,P|336:288|396:308,1,110
456,236,48566,2,0,P|464:176|440:128,1,110
364,72,49366,1,0,0:0:0:0:
264,76,49766,1,0,0:0:0:0:
172,44,50166,2,0,L|136:88,1,55
96,116,50566,2,0,L|52:176,1,55
56,208,50966,6,0,P|56:264|80:312,1,110
176,336,51766,2,0,P|224:308|284:304,1,110
368,264,52566,2,0,L|336:216,1,55
324,172,52966,2,0,L|292:120,1,55
252,100,53366,2,0,P|200:96|144:56,1,110
60,104,54166,6,0,L|40:224,1,110
64,308,54966,1,0,0:0:0:0:
156,344,55366,1,0,0:0:0:0:
248,308,55766,2,0,P|300:288|336:292,2,82.5
172,180,56966,2,0,L|224:160,1,55
272,164,57366,6,0,P|292:104|272:48,1,110
180,52,58166,2,0,B|128:68|128:68|56:64,1,110
40,156,58966,2,0,P|52:232|76:256,1,110
160,300,59766,2,0,L|216:304,1,55
260,284,60166,2,0,L|316:288,1,55
364,276,60566,6,0,P|392:224|384:172,1,110
292,144,61366,2,0,P|228:112|216:72,1,110
312,52,62166,2,0,P|376:68|416:48,1,110
484,120,62966,2,0,L|480:184,1,55
464,224,63366,2,0,L|460:280,1,55
480,324,63766,6,0,P|420:320|368:344,1,110
276,348,64566,1,0,0:0:0:0:
180,316,64966,1,0,0:0:0:0:
92,268,65366,2,0,L|80:212,1,55
52,172,65766,2,0,L|52:108,1,55
72,72,66166,2,0,P|136:68|188:40,1,110
276,44,66966,6,0,L|380:92,1,110
436,168,67766,1,0,0:0:0:0:
448,268,68166,1,0,0:0:0:0:
364,320,68566,2,0,P|308:336|252:292,1,110
320,232,69366,2,0,B|320:168|320:168|304:124,1,110
220,72,70166,6,0,P|164:88|100:72,1,110
40,144,70966,2,0,P|40:220|72:276,1,110
132,308,71766,1,0,0:0:0:0:
228,284,72166,1,0,0:0:0:0:
316,328,72566,2,0,P|372:296|388:248,1,110
324,180,73366,6,0,P|312:120|336:56,1,110
232,40,74166,1,0,0:0:0:0:
144,84,74566,1,0,0:0:0:0:
96,172,74966,2,0,P|132:228|180:232,1,110
268,204,75766,2,0,P|324:200|348:216,2,82.5
256,192,76566,12,0,78166,0:0:0:0:
328,280,79766,6,0,B|388:300|388:300|448:300|448:224,2,165
232,261,81366,2,0,P|176:277|120:249,1,110
76,176,82166,2,0,L|128:80,1,110
224,52,82966,6,0,B|288:68|336:60|336:60|368:108,2,165
128,79,84566,2,0,P|96:131|120:199,1,110
172,248,85366,2,0,P|224:272|252:320,1,110
348,340,86166,2,0,L|388:296,1,55
432,284,86566,2,0,L|472:240,1,55
472,192,86966,2,0,P|476:132|428:64,1,110
256,192,87566,12,0,89266,0:0:0:0:
