osu file format v14

[General]
AudioFilename: audio.mp3
AudioLeadIn: 0
PreviewTime: 53722
Countdown: 0
SampleSet: Soft
StackLeniency: 0.7
Mode: 0
LetterboxInBreaks: 0
WidescreenStoryboard: 1

[Editor]
Bookmarks: 59535,65535,71535,77160,93472,136035,142035,148035,153285,164535,178035,184035,189285,196035,201285,217878
DistanceSpacing: 1.2
BeatDivisor: 4
GridSize: 4
TimelineZoom: 1.7

[Metadata]
Title:Mako no Nichijou
TitleUnicode:茉子の日常
Artist:Hitachi Mako (CV: Kotorii Yuuka)
ArtistUnicode:常陸茉子(CV:小鳥居夕花)
Creator:papapa213
Version:Lyric's Expert
Source:千恋*万花
Tags:japanese eroge galgame video game senren banka yuzusoft buhei lyric scooderic pop gxytcgxytc
BeatmapID:2561023
BeatmapSetID:859338

[Difficulty]
HPDrainRate:7
CircleSize:4
OverallDifficulty:8
ApproachRate:9
SliderMultiplier:1.7
SliderTickRate:1

[Events]
//Background and Video events
0,0,"1.jpg",0,0
//Break Periods
//Storyboard Layer 0 (Background)
//Storyboard Layer 1 (Fail)
//Storyboard Layer 2 (Pass)
//Storyboard Layer 3 (Foreground)
//Storyboard Layer 4 (Overlay)
//Storyboard Sound Samples

[TimingPoints]
285,375,4,2,70,40,1,0
1785,-100,4,2,70,50,0,0
18285,-100,4,2,70,40,0,0
30285,-100,4,2,70,50,0,0
54285,-83.3333333333333,4,2,70,60,0,1
78285,-100,4,2,70,60,0,0
78660,-100,4,2,70,50,0,0
130785,-83.3333333333333,4,2,70,60,0,1
154035,-83.3333333333333,4,2,70,55,0,1
154410,-83.3333333333333,4,2,70,60,0,1
154785,-100,4,2,70,65,0,0
154972,-100,4,2,70,50,0,0
164910,-100,4,2,70,55,0,0
165285,-100,4,2,70,60,0,0
166410,-100,4,2,70,50,0,0
178035,-100,4,2,70,55,0,0
178410,-100,4,2,70,60,0,0
178785,-166.666666666667,4,2,70,40,0,0
179160,-83.3333333333333,4,2,70,60,0,1
201285,-83.3333333333333,4,2,70,45,0,1
201660,-83.3333333333333,4,2,70,50,0,1
202035,-83.3333333333333,4,2,70,55,0,1
202410,-83.3333333333333,4,2,70,60,0,1
202785,-100,4,2,70,65,0,0
203160,-100,4,2,70,50,0,0
218910,-166.666666666667,4,2,70,50,0,0
219472,-166.666666666667,4,2,70,10,0,0

[Colours]
Combo1 : 242,60,165
Combo2 : 48,136,207
Combo3 : 255,128,0

[HitObjects]
337,316,285,5,4,0:3:0:0:
368,181,472,1,8,0:3:0:0:
368,181,847,1,8,0:3:0:0:
368,181,1222,1,8,0:3:0:0:
368,181,1316,1,8,0:3:0:0:
368,181,1410,2,0,P|326:180|263:175,1,85,4|0,0:3|0:0,0:0:0:0:
337,316,1785,6,0,P|431:307|532:304,2,170,4|8|0,0:0|0:0|0:0,0:0:0:0:
337,316,2910,1,8,0:0:0:0:
139,348,3097,6,0,P|238:312|245:232,1,170
43,293,3660,2,0,P|42:338|36:392,1,85,8|0,0:0|0:0,0:0:0:0:
143,241,4035,1,0,0:0:0:0:
139,198,4128,1,0,0:0:0:0:
135,156,4222,1,0,0:0:0:0:
322,218,4410,2,0,P|277:216|230:212,1,85,8|0,0:0|0:0,0:0:0:0:
414,148,4785,6,0,P|440:194|392:307,1,170,4|8,0:0|0:0,0:0:0:0:
512,109,5347,1,0,0:0:0:0:
322,218,5535,1,0,0:0:0:0:
331,14,5722,1,0,0:0:0:0:
414,148,5910,1,8,0:0:0:0:
185,125,6097,1,0,0:0:0:0:
185,125,6191,1,0,0:0:0:0:
185,125,6285,6,0,P|235:121|296:112,1,85
33,235,6660,2,0,P|88:235|153:246,1,85,8|0,0:0|0:0,0:0:0:0:
256,360,7035,1,0,0:0:0:0:
214,353,7128,1,0,0:0:0:0:
171,354,7222,1,0,0:0:0:0:
346,223,7410,2,0,P|349:262|359:319,1,85,8|0,0:0|0:0,0:0:0:0:
235,181,7785,6,0,P|247:107|250:10,2,170,4|8|0,0:0|0:0|0:0,0:0:0:0:
235,181,8910,1,8,0:0:0:0:
111,283,9097,6,0,B|194:244|195:326|299:272,1,170
443,357,9660,2,0,P|404:353|338:350,1,85,8|0,0:0|0:0,0:0:0:0:
430,177,10035,1,0,0:0:0:0:
431,219,10128,1,0,0:0:0:0:
433,261,10222,1,0,0:0:0:0:
357,115,10410,2,0,L|379:14,1,85,8|0,0:0|0:0,0:0:0:0:
304,248,10785,6,0,P|325:168|349:65,1,170,4|8,0:0|0:0,0:0:0:0:
376,320,11347,1,0,0:0:0:0:
173,212,11535,1,0,0:0:0:0:
345,83,11722,1,0,0:0:0:0:
304,248,11910,1,8,0:0:0:0:
107,169,12097,1,0,0:0:0:0:
107,169,12191,1,0,0:0:0:0:
107,169,12285,6,0,P|149:169|194:169,1,85,4|0,0:0|0:0,0:0:0:0:
405,215,12660,2,0,P|363:215|318:215,1,85,8|0,0:0|0:0,0:0:0:0:
147,285,13035,2,0,L|251:281,1,85
365,99,13410,2,0,L|261:103,1,85,8|8,0:0|0:0,0:0:0:0:
230,114,13691,1,8,0:0:0:0:
230,114,13785,6,0,P|241:52|246:8,1,85,4|0,0:0|0:0,0:0:0:0:
282,270,14160,2,0,P|271:332|266:376,1,85,8|0,0:0|0:0,0:0:0:0:
123,216,14535,2,0,L|27:212,1,85
389,168,14910,2,0,L|485:172,1,85,8|0,0:0|0:0,0:0:0:0:
268,353,15285,6,0,P|276:309|283:262,1,85,4|0,0:0|0:0,0:0:0:0:
244,31,15660,2,0,P|235:74|229:122,1,85,8|0,0:0|0:0,0:0:0:0:
456,179,16035,2,0,P|398:170|367:167,1,85
56,205,16410,2,0,P|114:214|145:217,1,85,8|8,0:0|0:0,0:0:0:0:
189,204,16691,1,8,0:0:0:0:
189,204,16785,5,4,0:0:0:0:
9,302,16972,1,0,0:0:0:0:
189,204,17160,1,8,0:0:0:0:
26,50,17347,1,0,0:0:0:0:
51,281,17535,2,0,P|64:212|52:153,1,127.5
28,107,17910,1,8,0:0:0:0:
51,281,18097,1,0,0:0:0:0:
51,281,18285,6,0,B|83:282|83:282|102:273|102:273|137:276,1,85,4|0,0:0|0:0,0:0:0:0:
325,331,18660,2,0,B|293:330|293:330|274:339|274:339|239:336,1,85,8|0,0:0|0:0,0:0:0:0:
189,132,19035,2,0,L|248:132,1,42.5
283,189,19222,1,0,0:0:0:0:
221,280,19410,2,0,L|224:224,1,42.5,8|0,0:0|0:0,0:0:0:0:
283,189,19597,1,0,0:0:0:0:
216,363,19785,5,0,0:0:0:0:
61,159,19972,2,0,L|105:126,1,42.5
139,106,20160,2,0,P|219:90|308:108,1,170,8|0,0:0|0:0,0:0:0:0:
422,224,20722,1,0,0:0:0:0:
294,330,20910,2,0,P|235:338|183:320,1,85,8|0,0:0|0:0,0:0:0:0:
61,159,21285,5,4,0:0:0:0:
27,325,21472,2,0,L|64:142,1,170
126,22,22035,2,0,L|139:73,1,42.5
157,138,22222,1,0,0:0:0:0:
126,352,22410,2,0,L|139:301,1,42.5,8|0,0:0|0:0,0:0:0:0:
157,236,22597,1,0,0:0:0:0:
5,188,22785,5,0,0:0:0:0:
257,188,22972,2,0,P|296:184|351:157,2,85,0|8|0,0:0|0:0|0:0,0:0:0:0:
257,188,23441,1,0,0:0:0:0:
257,188,23535,1,0,0:0:0:0:
282,286,23722,1,0,0:0:0:0:
373,332,23910,1,8,0:0:0:0:
465,290,24097,1,0,0:0:0:0:
282,286,24285,6,0,P|227:280|176:284,1,85,4|0,0:0|0:0,0:0:0:0:
413,205,24660,2,0,P|452:195|501:192,1,85,8|0,0:0|0:0,0:0:0:0:
240,158,25035,2,0,P|221:126|219:109,1,42.5
232,46,25222,1,0,0:0:0:0:
273,244,25410,2,0,P|253:250|211:246,1,42.5,8|0,0:0|0:0,0:0:0:0:
161,218,25597,1,0,0:0:0:0:
355,163,25785,5,0,0:0:0:0:
300,356,25972,2,0,L|248:356,1,42.5
207,342,26160,2,0,L|19:342,1,170,8|0,0:0|0:0,0:0:0:0:
3,175,26722,1,0,0:0:0:0:
162,135,26910,2,0,P|170:180|149:236,1,85,8|0,0:0|0:0,0:0:0:0:
37,342,27285,5,4,0:0:0:0:
160,217,27472,2,0,B|249:184|241:259|334:219,1,170
495,154,28035,2,0,L|442:135,1,42.5
384,115,28222,1,0,0:0:0:0:
384,317,28410,2,0,L|437:298,1,42.5,8|0,0:0|0:0,0:0:0:0:
495,278,28597,1,0,0:0:0:0:
240,243,28785,6,0,L|147:212,1,85
339,150,29160,2,0,L|381:135,2,42.5,8|0|0,0:0|0:0|0:0,0:0:0:0:
339,150,29535,1,0,0:0:0:0:
470,186,29722,1,0,0:0:0:0:
375,286,29910,1,8,0:0:0:0:
339,150,30097,1,8,0:0:0:0:
339,150,30191,1,8,0:0:0:0:
339,150,30285,6,0,P|384:182|359:300,1,170,4|8,0:0|0:0,0:0:0:0:
375,286,30847,1,0,0:0:0:0:
192,323,31035,2,0,P|246:320|302:325,1,85
46,328,31410,2,0,P|90:305|123:256,1,85,8|0,0:0|0:0,0:0:0:0:
145,33,31785,6,0,P|157:106|166:209,1,170,0|8,0:0|0:0,0:0:0:0:
166,202,32347,1,0,0:0:0:0:
64,195,32535,1,0,0:0:0:0:
64,195,32722,2,0,P|58:155|50:110,2,85,0|8|0,0:0|0:0|0:0,0:0:0:0:
17,312,33285,6,0,P|53:239|135:234,1,170,4|8,0:0|0:0,0:0:0:0:
100,311,33847,1,0,0:0:0:0:
21,150,34035,2,0,P|32:107|38:56,1,85
241,147,34410,2,0,L|146:146,1,85,8|0,0:0|0:0,0:0:0:0:
408,68,34785,5,0,0:0:0:0:
408,68,34972,2,0,P|382:113|381:154,1,85,0|8,0:0|0:0,0:0:0:0:
431,319,35347,1,0,0:0:0:0:
431,319,35441,1,0,0:0:0:0:
431,319,35535,2,0,P|432:293|426:257,1,42.5
379,145,35722,2,0,P|353:190|352:231,1,85,0|8,0:0|0:0,0:0:0:0:
185,289,36097,1,0,0:0:0:0:
192,188,36285,6,0,P|259:226|271:327,1,170,4|8,0:0|0:0,0:0:0:0:
276,312,36847,1,0,0:0:0:0:
116,150,37035,2,0,P|162:156|211:143,1,85
0,251,37410,2,0,P|41:246|85:244,1,85,8|0,0:0|0:0,0:0:0:0:
283,343,37785,6,0,P|198:339|96:339,1,170,0|8,0:0|0:0,0:0:0:0:
363,228,38347,1,0,0:0:0:0:
363,228,38535,2,0,L|368:315,1,85
437,166,38910,2,0,L|445:62,1,85,8|0,0:0|0:0,0:0:0:0:
178,131,39285,6,0,P|236:158|343:120,1,170,4|8,0:0|0:0,0:0:0:0:
72,56,39847,1,0,0:0:0:0:
72,56,40035,2,0,P|87:102|75:155,1,85
130,300,40410,2,0,P|152:240|180:217,1,85,8|0,0:0|0:0,0:0:0:0:
18,357,40785,6,0,P|84:328|164:375,2,170,0|12|0,0:0|0:0|0:0,0:0:0:0:
240,307,41722,1,4,0:0:0:0:
18,357,41910,1,8,0:0:0:0:
240,307,42097,1,8,0:3:0:0:
126,88,42285,6,0,P|134:167|143:264,1,170,4|8,0:0|0:0,0:0:0:0:
142,257,42847,1,0,0:0:0:0:
2,168,43035,2,0,P|54:168|93:165,1,85
300,116,43410,2,0,P|255:113|211:96,1,85,8|0,0:0|0:0,0:0:0:0:
359,214,43785,6,0,P|384:166|499:151,2,170,0|8|0,0:0|0:0|0:0,0:0:0:0:
375,60,44722,1,0,0:0:0:0:
451,313,44910,2,0,P|453:266|449:224,1,85,8|0,0:0|0:0,0:0:0:0:
319,340,45285,6,0,P|409:331|496:326,1,170,4|8,0:0|0:0,0:0:0:0:
488,326,45847,1,0,0:0:0:0:
293,310,46035,2,0,L|192:300,1,85
208,301,46410,1,8,0:0:0:0:
35,343,46597,1,0,0:0:0:0:
35,343,46785,6,0,P|72:313|88:254,1,85
40,64,47160,2,0,P|45:105|50:154,1,85,8|0,0:0|0:0,0:0:0:0:
243,211,47535,2,0,P|204:187|139:186,1,85
349,165,47910,2,0,P|395:169|444:160,1,85,8|0,0:0|0:0,0:0:0:0:
512,73,48285,5,4,0:0:0:0:
218,12,48660,2,0,L|231:103,1,85,8|0,0:0|0:0,0:0:0:0:
127,306,49035,2,0,L|143:122,1,170,0|8,0:0|0:0,0:0:0:0:
141,136,49597,1,0,0:0:0:0:
22,323,49785,6,0,L|189:294,1,170,12|8,0:3|0:0,0:0:0:0:
47,229,50347,1,0,0:0:0:0:
184,376,50535,2,0,P|180:319|197:279,1,85
386,377,50910,2,0,P|343:375|296:372,1,85,8|0,0:0|0:0,0:0:0:0:
487,306,51285,5,4,0:0:0:0:
487,306,51472,1,0,0:0:0:0:
333,181,51660,1,8,0:0:0:0:
487,306,51847,1,0,0:0:0:0:
487,306,51941,1,0,0:0:0:0:
487,306,52035,2,0,P|483:283|481:256,1,42.5
503,138,52222,1,0,0:0:0:0:
387,322,52410,1,8,0:0:0:0:
406,73,52597,1,8,0:0:0:0:
404,116,52690,1,8,0:0:0:0:
413,157,52784,5,2,0:3:0:0:
382,236,52972,1,2,0:3:0:0:
321,294,53160,1,8,0:0:0:0:
241,320,53347,1,2,0:3:0:0:
157,309,53535,1,2,0:3:0:0:
86,263,53722,6,0,P|63:266|40:269,1,42.5,2|0,0:3|0:0,0:0:0:0:
157,309,53910,1,8,0:0:0:0:
42,192,54097,1,2,0:3:0:0:
228,158,54285,5,4,0:0:0:0:
228,158,54660,2,0,P|185:172|125:161,1,101.999996887207,8|0,0:0|0:0,0:0:0:0:
3,350,55035,2,0,P|32:307|162:346,1,203.999993774414,0|8,0:0|0:0,0:0:0:0:
435,294,55597,1,0,0:0:0:0:
435,294,55691,1,0,0:0:0:0:
435,294,55785,6,0,P|340:284|258:272,1,152.999995330811
222,263,56160,2,0,P|300:253|381:232,1,152.999995330811,8|0,0:0|0:0,0:0:0:0:
428,211,56535,1,0,0:0:0:0:
428,211,56628,1,0,0:0:0:0:
428,211,56722,1,0,0:0:0:0:
352,33,56910,2,0,L|362:142,1,101.999996887207,8|0,0:0|0:0,0:0:0:0:
283,339,57285,6,0,P|315:291|276:226,1,101.999996887207,4|0,0:0|0:0,0:0:0:0:
244,205,57566,1,0,0:0:0:0:
244,205,57660,2,0,P|215:201|180:193,1,50.9999984436036,8|0,0:0|0:0,0:0:0:0:
73,332,57847,1,0,0:0:0:0:
73,332,57941,1,0,0:0:0:0:
73,332,58035,2,0,P|141:327|207:328,1,101.999996887207
414,250,58410,2,0,P|361:248|305:235,1,101.999996887207,8|0,0:0|0:0,0:0:0:0:
313,237,58691,1,0,0:0:0:0:
313,237,58785,5,0,0:0:0:0:
506,337,58972,1,0,0:0:0:0:
508,86,59160,2,0,P|496:135|499:201,1,101.999996887207,8|0,0:0|0:0,0:0:0:0:
316,354,59535,1,8,0:3:0:0:
305,304,59628,1,8,0:3:0:0:
294,254,59722,1,8,0:3:0:0:
283,204,59816,1,8,0:3:0:0:
272,154,59910,2,0,P|338:174|399:174,1,101.999996887207,8|0,0:0|0:0,0:0:0:0:
183,215,60285,6,0,P|100:181|2:245,1,203.999993774414,4|8,0:0|0:0,0:0:0:0:
7,234,60847,1,0,0:0:0:0:
156,52,61035,2,0,P|158:103|145:169,1,101.999996887207
29,327,61410,1,8,0:0:0:0:
272,355,61597,1,0,0:0:0:0:
272,355,61691,1,0,0:0:0:0:
272,355,61785,6,0,P|235:301|146:257,1,152.999995330811
119,212,62160,2,0,P|184:162|264:153,1,152.999995330811,8|0,0:0|0:0,0:0:0:0:
303,185,62535,1,0,0:0:0:0:
303,185,62628,1,0,0:0:0:0:
303,185,62722,1,0,0:0:0:0:
156,52,62910,1,8,0:0:0:0:
156,52,63285,6,0,P|161:112|144:171,1,101.999996887207,4|0,0:0|0:0,0:0:0:0:
23,314,63660,2,0,P|80:296|160:302,1,101.999996887207,8|0,0:0|0:0,0:0:0:0:
169,333,63941,1,0,0:0:0:0:
169,333,64035,2,0,L|178:221,1,101.999996887207
393,246,64410,1,8,0:0:0:0:
262,363,64597,1,0,0:0:0:0:
262,363,64691,1,0,0:0:0:0:
262,363,64785,6,0,L|271:251,1,101.999996887207
337,49,65160,2,0,L|345:155,1,101.999996887207,8|0,0:0|0:0,0:0:0:0:
472,283,65535,1,8,1:3:0:0:
422,278,65628,1,8,1:3:0:0:
371,272,65722,2,0,P|384:296|390:321,1,50.9999984436036,8|8,1:3|0:3,0:0:0:0:
270,261,65910,1,8,0:0:0:0:
488,175,66097,1,0,0:0:0:0:
399,374,66285,5,4,0:0:0:0:
399,374,66660,2,0,P|453:366|508:361,1,101.999996887207,8|0,0:0|0:0,0:0:0:0:
320,266,67035,2,0,P|297:323|148:309,1,203.999993774414,0|8,0:0|0:0,0:0:0:0:
47,168,67597,1,0,0:0:0:0:
47,168,67691,1,0,0:0:0:0:
47,168,67785,6,0,P|43:253|60:325,1,152.999995330811
102,360,68160,2,0,P|126:281|122:193,1,152.999995330811,8|0,0:0|0:0,0:0:0:0:
118,150,68535,1,0,0:0:0:0:
118,150,68628,1,0,0:0:0:0:
118,150,68722,1,0,0:0:0:0:
280,88,68910,2,0,L|169:79,1,101.999996887207,8|0,0:0|0:0,0:0:0:0:
274,206,69285,6,0,L|413:180,1,101.999996887207,4|0,0:0|0:0,0:0:0:0:
444,238,69566,1,0,0:0:0:0:
444,238,69660,2,0,P|417:235|390:236,1,50.9999984436036,8|0,0:0|0:0,0:0:0:0:
208,320,69847,1,0,0:0:0:0:
208,320,69941,1,0,0:0:0:0:
208,320,70035,2,0,P|276:315|342:316,1,101.999996887207
65,371,70410,2,0,P|92:332|96:251,1,101.999996887207,8|0,0:0|0:0,0:0:0:0:
101,279,70691,1,0,0:0:0:0:
101,279,70785,5,0,0:0:0:0:
10,99,70972,1,0,0:0:0:0:
202,174,71160,2,0,P|150:172|80:168,1,101.999996887207,8|0,0:0|0:0,0:0:0:0:
289,98,71535,1,8,0:3:0:0:
339,95,71628,1,8,0:3:0:0:
390,92,71722,1,8,0:3:0:0:
441,89,71816,1,8,0:3:0:0:
492,86,71910,2,0,P|484:131|475:198,1,101.999996887207,8|0,0:0|0:0,0:0:0:0:
376,347,72285,6,0,P|389:287|264:224,1,203.999993774414,4|8,0:0|0:0,0:0:0:0:
175,322,72847,1,0,0:0:0:0:
374,249,73035,2,0,L|488:226,1,101.999996887207
473,228,73410,1,8,0:0:0:0:
244,216,73597,1,0,0:0:0:0:
244,216,73691,1,0,0:0:0:0:
244,216,73785,6,0,P|179:141|218:83,1,152.999995330811
242,63,74160,2,0,P|319:72|348:158,1,152.999995330811,8|0,0:0|0:0,0:0:0:0:
322,201,74535,1,0,0:0:0:0:
322,201,74628,1,0,0:0:0:0:
322,201,74722,1,0,0:0:0:0:
261,331,74910,1,8,0:0:0:0:
261,331,75285,6,0,P|167:325|102:349,1,152.999995330811,4|0,0:0|0:0,0:0:0:0:
53,363,75660,2,0,B|61:316|61:316|66:261,1,101.999996887207,8|0,0:0|0:0,0:0:0:0:
30,211,75941,1,0,0:0:0:0:
30,211,76035,2,0,P|35:159|46:99,1,101.999996887207
149,64,76410,2,0,P|156:115|166:176,1,101.999996887207,8|0,0:0|0:0,0:0:0:0:
199,325,76785,5,0,0:0:0:0:
199,325,76972,1,0,0:0:0:0:
277,177,77160,1,8,1:3:0:0:
314,143,77253,1,8,0:3:0:0:
364,136,77347,1,8,0:3:0:0:
408,160,77441,1,8,0:3:0:0:
430,205,77535,1,8,0:3:0:0:
336,323,77722,1,0,0:0:0:0:
336,323,77910,2,0,L|349:220,1,101.999996887207,8|0,0:0|0:0,0:0:0:0:
474,69,78285,6,0,P|395:122|320:76,2,170,4|8|0,0:0|0:0|0:0,0:0:0:0:
474,69,79410,1,8,0:0:0:0:
291,175,79597,6,0,L|306:3,1,170
195,126,80160,2,0,L|91:124,1,85,8|0,0:0|0:0,0:0:0:0:
25,29,80535,1,0,0:0:0:0:
68,25,80628,1,0,0:0:0:0:
110,21,80722,1,0,0:0:0:0:
112,229,80910,2,0,P|67:227|20:223,1,85,8|0,0:0|0:0,0:0:0:0:
195,126,81285,6,0,L|379:126,1,170,4|8,0:0|0:0,0:0:0:0:
509,126,81847,1,0,0:0:0:0:
334,233,82035,1,0,0:0:0:0:
328,29,82222,1,0,0:0:0:0:
365,126,82410,1,8,0:0:0:0:
334,233,82597,1,0,0:0:0:0:
334,233,82691,1,0,0:0:0:0:
334,233,82785,6,0,L|350:331,1,85
112,229,83160,2,0,L|135:122,1,85,8|0,0:0|0:0,0:0:0:0:
334,233,83535,1,0,0:0:0:0:
301,259,83628,1,0,0:0:0:0:
259,267,83722,1,0,0:0:0:0:
129,145,83910,2,0,P|173:115|228:108,1,85,8|0,0:0|0:0,0:0:0:0:
259,267,84285,6,0,L|71:251,2,170,4|8|0,0:0|0:0|0:0,0:0:0:0:
259,267,85410,1,8,0:0:0:0:
422,358,85597,6,0,P|380:264|416:202,1,170
512,131,86160,2,0,P|469:131|424:107,1,85,8|0,0:0|0:0,0:0:0:0:
298,62,86535,1,0,0:0:0:0:
326,93,86628,1,0,0:0:0:0:
330,135,86722,1,0,0:0:0:0:
174,84,86910,2,0,P|174:40|208:-10,1,85,8|0,0:0|0:0,0:0:0:0:
239,188,87285,6,0,P|136:202|66:141,1,170,4|8,0:0|0:0,0:0:0:0:
330,135,87847,1,0,0:0:0:0:
152,307,88035,1,0,0:0:0:0:
194,63,88222,1,0,0:0:0:0:
303,285,88410,1,8,0:0:0:0:
84,169,88597,1,0,0:0:0:0:
84,169,88691,1,0,0:0:0:0:
84,169,88785,6,0,P|134:180|180:180,1,85,4|0,0:0|0:0,0:0:0:0:
303,285,89160,2,0,P|261:286|201:308,1,85,8|0,0:0|0:0,0:0:0:0:
194,63,89535,2,0,P|237:79|276:109,1,85
364,186,89910,2,0,P|369:141|396:96,1,85,8|8,0:0|0:0,0:0:0:0:
420,67,90191,1,8,0:0:0:0:
420,67,90285,6,0,P|465:75|515:76,1,85,4|0,0:0|0:0,0:0:0:0:
315,267,90660,2,0,P|361:261|434:260,1,85,8|0,0:0|0:0,0:0:0:0:
133,106,91035,2,0,P|180:108|237:102,1,85
28,306,91410,2,0,P|74:306|124:310,1,85,8|0,0:0|0:0,0:0:0:0:
331,360,91785,6,0,P|288:357|246:334,1,85
181,24,92160,2,0,P|223:26|266:50,1,85,8|0,0:0|0:0,0:0:0:0:
88,267,92535,2,0,P|90:224|114:182,1,85
424,117,92910,2,0,P|421:159|398:202,1,85,8|8,0:0|0:0,0:0:0:0:
366,232,93191,1,8,0:0:0:0:
366,232,93285,5,4,0:0:0:0:
130,110,93472,1,8,0:3:0:0:
172,112,93566,1,8,0:3:0:0:
214,115,93659,1,8,1:3:0:0:
257,118,93753,1,8,0:3:0:0:
299,121,93847,1,8,0:3:0:0:
246,213,94035,2,0,P|210:222|152:214,1,85
348,29,94410,2,0,B|412:9|408:59|483:31,1,127.5,8|0,0:0|0:0,0:0:0:0:
460,70,94785,6,0,L|452:172,1,85,8|8,0:0|0:0,0:0:0:0:
453,154,96097,1,8,0:0:0:0:
453,154,96472,5,8,0:0:0:0:
399,346,96660,2,0,P|363:267|247:262,1,212.5
176,340,97222,1,0,0:0:0:0:
176,340,97316,1,0,0:0:0:0:
176,340,97410,2,0,P|226:334|289:339,1,85
23,314,97785,6,0,P|111:312|225:308,1,170,4|8,0:0|0:0,0:0:0:0:
23,314,98347,1,0,0:0:0:0:
157,133,98535,2,0,P|161:174|142:227,1,85
265,94,98910,2,0,P|246:56|258:1,1,85,8|0,0:0|0:0,0:0:0:0:
342,220,99285,6,0,P|295:209|238:197,1,85
381,326,99660,1,8,0:0:0:0:
188,373,99847,1,0,0:0:0:0:
188,373,99941,1,0,0:0:0:0:
188,373,100035,1,0,0:0:0:0:
254,322,100222,1,0,0:0:0:0:
338,320,100410,1,8,0:0:0:0:
408,368,100597,1,0,0:0:0:0:
408,368,100785,6,0,P|423:325|406:269,1,85,4|0,0:0|0:0,0:0:0:0:
350,139,101160,2,0,P|335:182|352:238,1,85,8|0,0:0|0:0,0:0:0:0:
503,41,101535,2,0,L|456:41,1,42.5
386,41,101722,1,0,0:0:0:0:
269,41,101910,2,0,L|316:41,1,42.5,8|0,0:0|0:0,0:0:0:0:
386,41,102097,1,0,0:0:0:0:
386,233,102285,5,0,0:0:0:0:
235,342,102472,2,0,L|191:293,1,42.5
176,269,102660,2,0,P|161:218|245:106,1,170,8|0,0:0|0:0,0:0:0:0:
350,139,103222,1,0,0:0:0:0:
176,269,103410,2,0,P|130:273|85:258,1,85,8|0,0:0|0:0,0:0:0:0:
9,113,103785,5,4,0:0:0:0:
164,27,103972,2,0,B|253:-6|245:69|338:29,1,170
175,183,104535,2,0,P|168:210|168:238,1,42.5
195,298,104722,1,0,0:0:0:0:
468,228,104910,2,0,P|434:218|407:223,1,42.5,8|0,0:0|0:0,0:0:0:0:
356,243,105097,1,0,0:0:0:0:
133,353,105285,6,0,P|178:323|201:279,1,85
273,96,105660,2,0,P|254:148|267:204,1,85,8|0,0:0|0:0,0:0:0:0:
249,339,106035,1,0,0:0:0:0:
360,263,106222,1,0,0:0:0:0:
257,177,106410,1,8,0:0:0:0:
146,253,106597,1,8,0:0:0:0:
146,253,106691,1,8,0:0:0:0:
146,253,106785,6,0,P|98:234|14:305,1,170,4|8,0:0|0:0,0:0:0:0:
156,141,107347,1,0,0:0:0:0:
163,364,107535,2,0,P|123:348|90:309,1,85
352,307,107910,2,0,P|311:305|265:307,1,85,8|0,0:0|0:0,0:0:0:0:
446,365,108285,6,0,P|404:327|419:210,1,170,0|8,0:0|0:0,0:0:0:0:
409,220,108847,1,0,0:0:0:0:
289,172,109035,1,0,0:0:0:0:
289,172,109222,2,0,P|294:130|272:64,2,85,0|8|0,0:0|0:0|0:0,0:0:0:0:
148,276,109785,6,0,P|237:271|323:268,1,170,4|8,0:0|0:0,0:0:0:0:
317,268,110347,1,0,0:0:0:0:
110,345,110535,2,0,P|122:295|92:237,1,85
86,159,110910,2,0,P|48:144|1:129,1,85,8|0,0:0|0:0,0:0:0:0:
169,38,111285,5,0,0:0:0:0:
169,38,111472,2,0,P|180:86|187:150,1,85,0|8,0:0|0:0,0:0:0:0:
292,142,111847,1,0,0:0:0:0:
292,142,111941,1,0,0:0:0:0:
292,142,112035,2,0,L|307:98,1,42.5
438,162,112222,2,0,L|364:215,1,85,0|8,0:0|0:0,0:0:0:0:
448,333,112597,1,0,0:0:0:0:
448,333,112785,6,0,B|405:352|364:332|364:332|325:312|275:333,1,170,4|8,0:0|0:0,0:0:0:0:
284,330,113347,1,0,0:0:0:0:
100,375,113535,2,0,P|144:374|207:368,1,85
0,282,113910,2,0,P|54:279|91:266,1,85,8|0,0:0|0:0,0:0:0:0:
207,184,114285,6,0,P|113:173|106:81,1,170,0|8,0:0|0:0,0:0:0:0:
303,43,114847,1,0,0:0:0:0:
303,43,115035,2,0,P|304:92|305:145,1,85
392,282,115410,2,0,P|391:236|392:181,1,85,8|0,0:0|0:0,0:0:0:0:
216,234,115785,6,0,P|280:270|264:370,1,170,4|8,0:0|0:0,0:0:0:0:
73,335,116347,1,0,0:0:0:0:
73,335,116535,2,0,P|122:358|143:399,1,85
111,231,116910,2,0,P|133:171|161:148,1,85,8|0,0:0|0:0,0:0:0:0:
19,171,117285,6,0,P|36:92|45:-18,2,170,0|12|0,0:0|0:0|0:0,0:0:0:0:
220,59,118222,1,4,0:0:0:0:
19,171,118410,1,8,0:0:0:0:
220,59,118597,1,8,0:3:0:0:
214,312,118785,6,0,P|171:259|67:285,1,170,4|8,0:0|0:0,0:0:0:0:
214,312,119347,1,0,0:0:0:0:
19,171,119535,2,0,P|71:171|110:168,1,85
288,112,119910,2,0,P|243:109|199:92,1,85,8|0,0:0|0:0,0:0:0:0:
359,214,120285,6,0,P|384:166|499:151,2,170,0|8|0,0:0|0:0|0:0,0:0:0:0:
375,60,121222,1,0,0:0:0:0:
370,246,121410,2,0,P|336:227|270:224,1,85,8|0,0:0|0:0,0:0:0:0:
131,332,121785,6,0,P|221:323|308:318,1,170,4|8,0:0|0:0,0:0:0:0:
300,318,122347,1,0,0:0:0:0:
510,351,122535,2,0,L|409:341,1,85
425,342,122910,1,8,0:0:0:0:
290,220,123097,1,0,0:0:0:0:
290,220,123285,6,0,P|327:190|343:131,1,85
214,337,123660,2,0,P|273:333|326:341,1,85,8|0,0:0|0:0,0:0:0:0:
116,164,124035,2,0,P|136:201|137:243,1,85
245,134,124410,2,0,P|253:93|259:47,1,85,8|0,0:0|0:0,0:0:0:0:
229,223,124785,5,4,0:0:0:0:
507,239,125160,2,0,P|469:242|418:218,1,85,8|0,0:0|0:0,0:0:0:0:
187,308,125535,2,0,P|266:257|365:290,1,170,0|8,0:0|0:0,0:0:0:0:
336,269,126097,1,0,0:0:0:0:
96,354,126285,6,0,P|142:322|107:210,1,170,12|8,0:3|0:0,0:0:0:0:
281,369,126847,1,0,0:0:0:0:
134,136,127035,2,0,P|129:180|124:232,1,85
283,78,127410,2,0,P|252:119|247:164,1,85,8|0,0:0|0:0,0:0:0:0:
25,78,127785,5,4,0:0:0:0:
25,78,127972,1,0,0:0:0:0:
179,203,128160,1,8,0:0:0:0:
25,78,128347,1,0,0:0:0:0:
25,78,128441,1,0,0:0:0:0:
25,78,128535,2,0,P|29:101|31:128,1,42.5
9,246,128722,1,0,0:0:0:0:
125,62,128910,1,8,0:0:0:0:
106,311,129097,1,8,0:0:0:0:
108,268,129190,1,8,0:0:0:0:
99,227,129284,5,2,0:3:0:0:
130,148,129472,1,2,0:3:0:0:
191,90,129660,1,8,0:0:0:0:
271,64,129847,1,2,0:3:0:0:
355,75,130035,1,2,0:3:0:0:
355,75,130128,1,0,0:0:0:0:
355,75,130222,5,2,0:3:0:0:
470,192,130410,1,8,0:0:0:0:
426,121,130597,1,2,0:3:0:0:
480,276,130785,5,4,0:0:0:0:
480,276,131160,2,0,P|481:218|489:166,1,101.999996887207,8|0,0:0|0:0,0:0:0:0:
248,344,131535,2,0,P|277:301|407:340,1,203.999993774414,0|8,0:0|0:0,0:0:0:0:
108,266,132097,1,0,0:0:0:0:
108,266,132191,1,0,0:0:0:0:
108,266,132285,6,0,P|205:256|275:247,1,152.999995330811
318,229,132660,2,0,P|246:224|159:222,1,152.999995330811,8|0,0:0|0:0,0:0:0:0:
103,219,133035,1,0,0:0:0:0:
103,219,133128,1,0,0:0:0:0:
103,219,133222,1,0,0:0:0:0:
255,34,133410,2,0,L|265:143,1,101.999996887207,8|0,0:0|0:0,0:0:0:0:
10,245,133785,6,0,P|80:237|122:177,1,101.999996887207,4|0,0:0|0:0,0:0:0:0:
143,143,134066,1,0,0:0:0:0:
143,143,134160,2,0,P|140:115|140:90,1,50.9999984436036,8|0,0:0|0:0,0:0:0:0:
27,51,134347,1,0,0:0:0:0:
27,51,134441,1,0,0:0:0:0:
27,51,134535,2,0,P|32:119|31:185,1,101.999996887207
15,346,134910,2,0,P|67:316|134:308,1,101.999996887207,8|0,0:0|0:0,0:0:0:0:
107,307,135191,1,0,0:0:0:0:
107,307,135285,5,0,0:0:0:0:
40,148,135472,1,0,0:0:0:0:
244,297,135660,2,0,P|214:261|206:200,1,101.999996887207,8|0,0:0|0:0,0:0:0:0:
339,14,136035,1,8,0:3:0:0:
332,64,136128,1,8,0:3:0:0:
325,115,136222,1,8,0:3:0:0:
318,165,136316,1,8,0:3:0:0:
311,216,136410,2,0,P|377:196|438:196,1,101.999996887207,8|0,0:0|0:0,0:0:0:0:
217,136,136785,6,0,P|143:131|5:119,1,203.999993774414,4|8,0:0|0:0,0:0:0:0:
13,119,137347,1,0,0:0:0:0:
192,326,137535,2,0,P|192:274|149:221,1,101.999996887207
388,292,137910,1,8,0:0:0:0:
296,280,138097,1,0,0:0:0:0:
296,280,138191,1,0,0:0:0:0:
296,280,138285,6,0,P|364:200|446:217,1,152.999995330811
457,230,138660,2,0,P|504:182|487:98,1,152.999995330811,8|0,0:0|0:0,0:0:0:0:
440,68,139035,1,0,0:0:0:0:
440,68,139128,1,0,0:0:0:0:
440,68,139222,1,0,0:0:0:0:
238,65,139410,1,8,0:0:0:0:
238,65,139785,6,0,L|350:64,1,101.999996887207,4|0,0:0|0:0,0:0:0:0:
79,196,140160,2,0,P|130:196|226:193,1,101.999996887207,8|0,0:0|0:0,0:0:0:0:
223,151,140441,1,0,0:0:0:0:
223,151,140535,2,0,P|185:188|161:254,1,101.999996887207
127,19,140910,1,8,0:0:0:0:
36,285,141097,1,0,0:0:0:0:
36,285,141191,1,0,0:0:0:0:
36,285,141285,5,0,0:0:0:0:
126,118,141472,1,8,0:0:0:0:
86,378,141660,1,0,0:0:0:0:
126,118,141847,1,8,0:0:0:0:
380,260,142035,1,8,1:3:0:0:
330,255,142128,1,8,1:3:0:0:
279,249,142222,2,0,P|286:275|288:304,1,50.9999984436036,8|8,1:3|0:3,0:0:0:0:
341,143,142410,1,8,0:0:0:0:
216,362,142597,1,0,0:0:0:0:
491,230,142785,5,4,0:0:0:0:
491,230,143160,2,0,P|473:281|489:353,1,101.999996887207,8|0,0:0|0:0,0:0:0:0:
369,208,143535,2,0,P|385:98|399:-17,1,203.999993774414,0|8,0:0|0:0,0:0:0:0:
250,163,144097,1,0,0:0:0:0:
250,163,144191,1,0,0:0:0:0:
250,163,144285,6,0,P|189:178|94:157,1,152.999995330811
64,210,144660,2,0,P|125:195|220:216,1,152.999995330811,8|0,0:0|0:0,0:0:0:0:
253,257,145035,1,0,0:0:0:0:
253,257,145128,1,0,0:0:0:0:
253,257,145222,1,0,0:0:0:0:
111,327,145410,2,0,L|4:340,1,101.999996887207,8|0,0:0|0:0,0:0:0:0:
229,367,145785,6,0,P|280:369|330:338,1,101.999996887207,4|0,0:0|0:0,0:0:0:0:
379,294,146066,1,0,0:0:0:0:
379,294,146160,2,0,P|377:321|382:361,1,50.9999984436036,8|0,0:0|0:0,0:0:0:0:
484,247,146347,1,0,0:0:0:0:
484,247,146441,1,0,0:0:0:0:
484,247,146535,2,0,P|438:229|389:174,1,101.999996887207
278,159,146910,2,0,P|305:120|309:39,1,101.999996887207,8|0,0:0|0:0,0:0:0:0:
314,67,147191,1,0,0:0:0:0:
314,67,147285,5,0,0:0:0:0:
312,287,147472,1,0,0:0:0:0:
104,240,147660,2,0,L|238:234,1,101.999996887207,8|0,0:0|0:0,0:0:0:0:
21,287,148035,1,8,0:3:0:0:
70,276,148128,1,8,0:3:0:0:
104,240,148222,1,8,0:3:0:0:
110,190,148316,1,8,0:3:0:0:
86,146,148410,1,8,0:0:0:0:
121,359,148597,1,0,0:0:0:0:
32,206,148785,6,0,P|41:90|50:-34,1,203.999993774414,4|8,0:0|0:0,0:0:0:0:
254,155,149347,1,0,0:0:0:0:
160,365,149535,2,0,P|159:306|185:256,1,101.999996887207
7,361,149910,1,8,0:0:0:0:
267,256,150097,1,0,0:0:0:0:
267,256,150191,1,0,0:0:0:0:
267,256,150285,6,0,P|171:212|167:138,1,152.999995330811
162,112,150660,2,0,P|145:180|66:215,1,152.999995330811,8|0,0:0|0:0,0:0:0:0:
18,193,151035,1,0,0:0:0:0:
18,193,151128,1,0,0:0:0:0:
18,193,151222,1,0,0:0:0:0:
7,361,151410,1,8,0:0:0:0:
7,361,151785,6,0,P|57:344|123:354,1,101.999996887207,4|0,0:0|0:0,0:0:0:0:
311,377,152160,2,0,P|274:340|272:269,1,101.999996887207,8|0,0:0|0:0,0:0:0:0:
292,237,152441,1,0,0:0:0:0:
292,237,152535,2,0,P|266:292|194:320,1,101.999996887207
506,306,152910,2,0,P|444:304|393:303,1,101.999996887207,8|0,0:0|0:0,0:0:0:0:
114,270,153285,5,8,0:3:0:0:
151,235,153378,1,8,0:3:0:0:
201,230,153472,1,8,0:3:0:0:
440,176,153660,1,8,0:0:0:0:
389,175,153753,1,8,0:3:0:0:
346,149,153847,1,8,0:3:0:0:
132,87,154035,1,8,0:3:0:0:
181,79,154128,1,8,0:3:0:0:
225,102,154222,1,8,0:3:0:0:
247,147,154316,1,8,0:3:0:0:
238,196,154410,1,8,1:3:0:0:
201,230,154503,1,8,0:3:0:0:
151,235,154597,1,8,0:0:0:0:
108,209,154691,1,8,0:0:0:0:
89,162,154785,5,4,0:0:0:0:
151,43,154972,1,0,0:0:0:0:
171,156,155159,1,8,0:0:0:0:
314,108,155347,1,0,0:0:0:0:
238,196,155534,1,0,0:0:0:0:
391,256,155722,1,0,0:0:0:0:
283,304,155909,1,8,0:0:0:0:
346,149,156097,1,0,0:0:0:0:
346,149,156191,1,0,0:0:0:0:
346,149,156285,5,0,0:0:0:0:
193,92,156472,1,0,0:0:0:0:
132,243,156660,1,8,0:0:0:0:
283,304,156847,1,0,0:0:0:0:
193,92,157035,1,0,0:0:0:0:
132,243,157222,1,0,0:0:0:0:
346,149,157410,2,0,L|322:211,1,42.5,8|0,0:0|0:0,0:0:0:0:
283,304,157597,1,0,0:0:0:0:
283,304,157691,1,0,0:0:0:0:
283,304,157785,5,4,0:0:0:0:
159,276,157972,1,0,0:0:0:0:
265,99,158160,1,8,0:0:0:0:
283,304,158347,1,0,0:0:0:0:
145,148,158535,1,0,0:0:0:0:
348,195,158722,1,0,0:0:0:0:
348,195,158816,1,0,0:0:0:0:
348,195,158910,1,8,0:0:0:0:
159,276,159097,1,0,0:0:0:0:
159,276,159191,1,0,0:0:0:0:
159,276,159285,5,0,0:0:0:0:
265,99,159472,1,0,0:0:0:0:
265,99,159566,1,0,0:0:0:0:
265,99,159660,1,8,0:0:0:0:
283,304,159847,1,0,0:0:0:0:
283,304,159941,1,0,0:0:0:0:
283,304,160035,1,0,0:0:0:0:
145,148,160222,1,0,0:0:0:0:
145,148,160316,1,0,0:0:0:0:
145,148,160410,2,0,L|47:140,1,85,8|0,0:0|0:0,0:0:0:0:
265,99,160785,5,4,0:0:0:0:
265,99,160972,1,0,0:0:0:0:
201,278,161160,2,0,L|158:275,1,42.5,8|0,0:0|0:0,0:0:0:0:
317,300,161347,2,0,L|268:344,1,42.5
382,232,161535,1,0,0:0:0:0:
437,331,161722,5,0,0:0:0:0:
469,304,161815,1,0,0:0:0:0:
489,266,161909,1,8,0:0:0:0:
494,224,162003,1,0,0:0:0:0:
483,184,162097,1,0,0:0:0:0:
457,150,162190,1,0,0:0:0:0:
420,129,162285,5,0,0:0:0:0:
378,120,162378,1,0,0:0:0:0:
337,129,162472,1,0,0:0:0:0:
300,150,162566,1,0,0:0:0:0:
265,174,162660,1,8,0:0:0:0:
227,193,162753,1,0,0:0:0:0:
185,196,162848,1,0,0:0:0:0:
145,186,162941,1,0,0:0:0:0:
114,157,163035,1,0,0:0:0:0:
101,117,163129,1,0,0:0:0:0:
109,76,163223,1,0,0:0:0:0:
136,44,163316,1,0,0:0:0:0:
175,29,163410,1,8,0:0:0:0:
217,36,163504,1,0,0:0:0:0:
250,62,163598,1,8,0:0:0:0:
266,100,163691,1,8,0:0:0:0:
262,142,163785,6,0,P|257:165|263:199,1,42.5,4|0,0:0|0:0,0:0:0:0:
218,301,163972,2,0,P|223:321|233:340,1,42.5
80,290,164160,2,0,P|60:280|34:277,3,42.5,8|0|0|0,0:0|0:0|0:0|0:0,0:0:0:0:
25,234,164535,1,8,0:3:0:0:
38,194,164629,1,8,0:3:0:0:
74,172,164722,1,8,0:3:0:0:
115,178,164816,1,8,0:3:0:0:
143,208,164910,1,8,0:0:0:0:
169,242,165003,1,8,0:3:0:0:
203,268,165097,1,8,0:3:0:0:
242,284,165191,1,8,0:3:0:0:
284,288,165285,6,0,P|370:274|445:264,1,127.5,4|0,0:0|0:0,0:0:0:0:
479,242,165660,2,0,L|369:228,1,85,8|0,0:0|0:0,0:0:0:0:
370,186,165941,1,0,0:0:0:0:
370,186,166035,2,0,L|363:113,2,42.5
273,332,166410,6,0,L|261:390,1,42.5,8|0,0:0|0:0,0:0:0:0:
390,338,166597,2,0,L|376:265,1,42.5,8|8,0:0|0:0,0:0:0:0:
210,229,166785,6,0,P|271:251|336:183,1,170,4|8,0:0|0:0,0:0:0:0:
114,125,167347,1,0,0:0:0:0:
114,125,167441,1,0,0:0:0:0:
114,125,167535,2,0,P|118:222|121:314,1,170,4|8,0:0|0:0,0:0:0:0:
12,106,168097,1,0,0:0:0:0:
12,106,168191,1,0,0:0:0:0:
12,106,168285,6,0,P|36:58|34:14,1,85,4|0,0:0|0:0,0:0:0:0:
120,207,168660,2,0,P|124:156|100:103,1,85,8|0,0:0|0:0,0:0:0:0:
10,327,169035,2,0,P|66:288|142:317,1,127.5
156,335,169410,2,0,L|263:329,1,85,8|8,0:0|0:0,0:0:0:0:
318,353,169691,1,8,0:0:0:0:
327,333,169785,6,0,L|453:325,1,85,4|0,0:0|0:0,0:0:0:0:
463,344,170066,1,0,0:0:0:0:
472,324,170160,1,8,0:0:0:0:
359,233,170347,1,0,0:0:0:0:
359,233,170441,1,0,0:0:0:0:
359,233,170535,2,0,P|377:163|373:119,1,85
362,101,170816,1,0,0:0:0:0:
362,101,170910,1,8,0:0:0:0:
163,172,171097,1,0,0:0:0:0:
163,172,171191,1,0,0:0:0:0:
163,172,171285,6,0,P|218:169|264:169,1,85
90,282,171660,2,0,P|34:274|-18:274,1,85,8|0,0:0|0:0,0:0:0:0:
240,330,172035,1,0,0:0:0:0:
240,330,172128,1,0,0:0:0:0:
240,330,172222,1,0,0:0:0:0:
240,330,172316,1,0,0:0:0:0:
240,330,172410,2,0,L|232:276,1,42.5,8|0,0:0|0:0,0:0:0:0:
339,188,172597,2,0,L|331:234,1,42.5,8|8,0:0|0:0,0:0:0:0:
256,84,172785,5,4,0:0:0:0:
457,143,172972,1,0,0:0:0:0:
457,143,173066,1,0,0:0:0:0:
457,143,173160,2,0,P|411:147|365:154,1,85,8|0,0:0|0:0,0:0:0:0:
422,273,173535,2,0,L|528:276,1,85
506,275,173816,1,0,0:0:0:0:
506,275,173910,1,8,0:0:0:0:
325,323,174097,6,0,L|322:281,2,42.5
198,196,174472,1,0,0:0:0:0:
198,196,174566,1,0,0:0:0:0:
198,196,174660,2,0,L|187:311,1,85,8|0,0:0|0:0,0:0:0:0:
75,353,175035,1,0,0:0:0:0:
6,235,175222,1,0,0:0:0:0:
6,235,175316,1,0,0:0:0:0:
6,235,175410,2,0,L|116:226,1,85,8|8,0:0|0:0,0:0:0:0:
126,200,175691,1,8,0:0:0:0:
126,200,175785,6,0,B|89:174|96:125|96:125|74:80|4:89,1,170,4|8,0:0|0:0,0:0:0:0:
126,200,176347,1,0,0:0:0:0:
126,200,176441,1,0,0:0:0:0:
126,200,176535,2,0,B|128:142|168:113|168:113|207:127|245:106,1,170,4|8,0:0|0:0,0:0:0:0:
126,200,177097,1,0,0:0:0:0:
126,200,177191,1,0,0:0:0:0:
126,200,177285,5,4,0:0:0:0:
87,183,177378,1,0,0:0:0:0:
70,146,177472,1,0,0:0:0:0:
84,106,177566,1,0,0:0:0:0:
121,87,177660,1,8,0:0:0:0:
160,98,177753,1,0,0:0:0:0:
191,128,177846,1,0,0:0:0:0:
204,168,177940,1,0,0:0:0:0:
206,210,178035,1,8,0:3:0:0:
202,252,178128,1,8,0:3:0:0:
217,291,178222,1,8,0:3:0:0:
248,320,178316,1,8,0:3:0:0:
288,334,178410,1,8,0:0:0:0:
329,329,178503,1,8,0:3:0:0:
365,306,178597,1,8,0:0:0:0:
388,271,178691,1,8,0:0:0:0:
393,228,178785,6,0,P|394:186|406:134,1,76.4999976654053,4|0,0:0|0:0,0:0:0:0:
391,66,179160,2,0,P|382:117|376:179,1,101.999996887207,8|0,0:0|0:0,0:0:0:0:
343,362,179535,2,0,P|350:248|358:120,1,203.999993774414,0|8,0:0|0:0,0:0:0:0:
71,337,180097,1,0,0:0:0:0:
71,337,180191,1,0,0:0:0:0:
71,337,180285,6,0,P|168:327|229:319,1,152.999995330811
279,295,180660,2,0,P|196:288|109:275,1,152.999995330811,8|0,0:0|0:0,0:0:0:0:
69,255,181035,1,0,0:0:0:0:
69,255,181128,1,0,0:0:0:0:
69,255,181222,1,0,0:0:0:0:
255,34,181410,2,0,L|265:143,1,101.999996887207,8|0,0:0|0:0,0:0:0:0:
503,369,181785,6,0,P|459:309|407:297,1,101.999996887207,4|0,0:0|0:0,0:0:0:0:
360,322,182066,1,0,0:0:0:0:
360,322,182160,2,0,P|336:328|300:321,1,50.9999984436036,8|0,0:0|0:0,0:0:0:0:
180,228,182347,1,0,0:0:0:0:
180,228,182441,1,0,0:0:0:0:
180,228,182535,2,0,P|255:223|304:214,1,101.999996887207
475,89,182910,2,0,P|400:94|351:103,1,101.999996887207,8|0,0:0|0:0,0:0:0:0:
373,98,183191,1,0,0:0:0:0:
373,98,183285,5,0,0:0:0:0:
281,218,183472,1,0,0:0:0:0:
245,57,183660,2,0,P|243:111|207:159,1,101.999996887207,8|0,0:0|0:0,0:0:0:0:
42,268,184035,1,8,0:3:0:0:
92,263,184128,1,8,0:3:0:0:
143,259,184222,1,8,0:3:0:0:
194,255,184316,1,8,0:3:0:0:
245,250,184410,2,0,P|227:303|238:374,1,101.999996887207,8|0,0:0|0:0,0:0:0:0:
3,154,184785,6,0,P|67:183|146:72,1,203.999993774414,4|8,0:0|0:0,0:0:0:0:
150,98,185347,1,0,0:0:0:0:
173,376,185535,2,0,P|173:324|130:271,1,101.999996887207
146,283,185910,1,8,0:0:0:0:
429,332,186097,1,0,0:0:0:0:
429,332,186191,1,0,0:0:0:0:
429,332,186285,6,0,P|325:328|300:276,1,152.999995330811
294,234,186660,2,0,P|320:172|413:160,1,152.999995330811,8|0,0:0|0:0,0:0:0:0:
446,191,187035,1,0,0:0:0:0:
446,191,187128,1,0,0:0:0:0:
446,191,187222,1,0,0:0:0:0:
332,368,187410,1,8,0:0:0:0:
321,127,187785,6,0,P|326:78|335:21,1,101.999996887207,4|0,0:0|0:0,0:0:0:0:
199,91,188160,2,0,P|146:90|80:84,1,101.999996887207,8|0,0:0|0:0,0:0:0:0:
53,43,188441,1,0,0:0:0:0:
53,43,188535,2,0,L|46:144,1,101.999996887207
146,335,188910,1,8,0:0:0:0:
33,270,189097,1,0,0:0:0:0:
258,262,189285,5,8,0:3:0:0:
282,213,189378,1,8,0:3:0:0:
261,163,189472,1,8,0:3:0:0:
313,373,189660,5,8,0:0:0:0:
370,371,189753,1,8,0:3:0:0:
409,329,189847,1,8,0:3:0:0:
512,289,190035,5,8,0:3:0:0:
461,283,190128,1,8,0:3:0:0:
410,278,190222,1,8,0:3:0:0:
359,272,190316,1,8,0:3:0:0:
309,267,190410,1,8,0:0:0:0:
258,262,190503,1,8,0:3:0:0:
207,256,190597,1,8,0:0:0:0:
156,251,190691,1,8,0:0:0:0:
106,246,190785,5,4,0:0:0:0:
505,187,191160,2,0,P|509:243|512:313,1,101.999996887207,8|0,0:0|0:0,0:0:0:0:
231,159,191535,1,8,0:0:0:0:
442,150,191722,1,0,0:0:0:0:
231,159,191910,1,8,0:0:0:0:
439,114,192097,1,0,0:0:0:0:
439,114,192191,1,0,0:0:0:0:
439,114,192285,5,8,0:0:0:0:
207,256,192472,1,0,0:0:0:0:
436,79,192659,1,8,0:0:0:0:
137,37,192847,1,0,0:0:0:0:
445,185,193034,1,8,0:0:0:0:
445,185,193128,1,8,0:0:0:0:
445,185,193222,1,0,0:0:0:0:
79,316,193410,1,8,0:0:0:0:
449,221,193597,1,0,0:0:0:0:
185,329,193785,6,0,P|240:325|307:326,1,101.999996887207,4|0,0:0|0:0,0:0:0:0:
361,335,194066,1,0,0:0:0:0:
361,335,194160,2,0,P|356:309|356:285,1,50.9999984436036,8|0,0:0|0:0,0:0:0:0:
152,195,194347,1,0,0:0:0:0:
152,195,194441,1,0,0:0:0:0:
152,195,194535,2,0,P|209:217|268:212,1,101.999996887207
0,300,194910,2,0,P|77:292|121:290,1,101.999996887207,8|0,0:0|0:0,0:0:0:0:
101,290,195191,1,0,0:0:0:0:
101,290,195285,5,0,0:0:0:0:
48,117,195472,1,0,0:0:0:0:
350,225,195660,2,0,P|298:220|235:215,1,101.999996887207,8|0,0:0|0:0,0:0:0:0:
491,138,196035,1,8,0:3:0:0:
442,151,196128,1,8,0:3:0:0:
394,135,196222,1,8,0:3:0:0:
364,96,196316,1,8,0:3:0:0:
360,46,196410,1,8,0:0:0:0:
444,67,196597,1,0,0:0:0:0:
289,178,196785,6,0,L|60:193,1,203.999993774414,4|8,0:0|0:0,0:0:0:0:
249,79,197347,1,0,0:0:0:0:
281,255,197535,1,8,0:0:0:0:
85,191,197722,1,0,0:0:0:0:
221,33,197910,1,8,0:0:0:0:
257,295,198097,1,0,0:0:0:0:
257,295,198191,1,0,0:0:0:0:
257,295,198285,5,8,0:0:0:0:
171,22,198472,1,0,0:0:0:0:
172,307,198660,1,8,0:0:0:0:
321,54,198847,1,0,0:0:0:0:
87,319,199035,1,8,0:0:0:0:
87,319,199128,1,8,0:0:0:0:
87,319,199222,1,0,0:0:0:0:
122,12,199410,1,8,0:0:0:0:
343,282,199597,1,0,0:0:0:0:
2,179,199785,6,0,P|58:182|163:178,1,152.999995330811,4|0,0:0|0:0,0:0:0:0:
206,171,200160,1,8,0:0:0:0:
394,135,200347,1,0,0:0:0:0:
394,135,200441,1,0,0:0:0:0:
394,135,200535,2,0,P|337:125|290:84,1,101.999996887207
213,351,200910,2,0,P|269:327|329:324,1,101.999996887207,8|0,0:0|0:0,0:0:0:0:
109,313,201285,5,8,0:3:0:0:
59,317,201378,1,8,0:3:0:0:
21,285,201472,1,8,0:3:0:0:
15,236,201566,1,8,0:3:0:0:
46,197,201660,1,8,0:0:0:0:
95,190,201753,1,8,0:3:0:0:
136,219,201847,1,8,0:3:0:0:
177,248,201940,1,8,0:3:0:0:
227,255,202034,1,8,0:3:0:0:
275,240,202128,1,8,0:3:0:0:
311,204,202222,1,8,0:3:0:0:
328,157,202315,1,8,0:3:0:0:
321,107,202409,1,8,0:0:0:0:
293,65,202503,1,8,0:3:0:0:
249,40,202597,1,8,0:0:0:0:
198,38,202690,1,8,0:0:0:0:
152,58,202785,6,0,L|330:43,2,170,4|8|0,0:0|0:0|0:0,0:0:0:0:
152,58,203910,1,8,0:0:0:0:
373,36,204097,6,0,P|274:72|267:152,1,170
469,91,204660,2,0,P|470:46|476:-8,1,85,8|0,0:0|0:0,0:0:0:0:
369,143,205035,1,0,0:0:0:0:
373,186,205128,1,0,0:0:0:0:
377,228,205222,1,0,0:0:0:0:
190,166,205410,2,0,P|235:168|282:172,1,85,8|0,0:0|0:0,0:0:0:0:
98,236,205785,6,0,P|72:190|120:77,1,170,4|8,0:0|0:0,0:0:0:0:
0,275,206347,1,0,0:0:0:0:
190,166,206535,1,0,0:0:0:0:
181,370,206722,1,0,0:0:0:0:
98,236,206910,1,8,0:0:0:0:
327,259,207097,1,0,0:0:0:0:
327,259,207191,1,0,0:0:0:0:
327,259,207285,6,0,P|277:263|216:272,1,85
479,149,207660,2,0,P|424:149|359:138,1,85,8|0,0:0|0:0,0:0:0:0:
256,24,208035,1,0,0:0:0:0:
298,31,208128,1,0,0:0:0:0:
341,30,208222,1,0,0:0:0:0:
166,161,208410,2,0,P|163:122|153:65,1,85,8|0,0:0|0:0,0:0:0:0:
277,203,208785,6,0,P|265:277|262:374,2,170,4|8|0,0:0|0:0|0:0,0:0:0:0:
277,203,209910,1,8,0:0:0:0:
401,101,210097,6,0,B|318:140|317:58|213:112,1,170
69,27,210660,2,0,P|108:31|174:34,1,85,8|0,0:0|0:0,0:0:0:0:
82,207,211035,1,0,0:0:0:0:
81,165,211128,1,0,0:0:0:0:
79,123,211222,1,0,0:0:0:0:
155,269,211410,2,0,L|133:370,1,85,8|0,0:0|0:0,0:0:0:0:
208,136,211785,6,0,P|187:216|163:319,1,170,4|8,0:0|0:0,0:0:0:0:
136,64,212347,1,0,0:0:0:0:
339,172,212535,1,0,0:0:0:0:
167,301,212722,1,0,0:0:0:0:
208,136,212910,1,8,0:0:0:0:
405,215,213097,1,0,0:0:0:0:
405,215,213191,1,0,0:0:0:0:
405,215,213285,6,0,P|363:215|318:215,1,85,4|0,0:0|0:0,0:0:0:0:
107,169,213660,2,0,P|149:169|194:169,1,85,8|0,0:0|0:0,0:0:0:0:
365,99,214035,2,0,L|261:103,1,85
147,285,214410,2,0,L|251:281,1,85,8|8,0:0|0:0,0:0:0:0:
282,270,214691,1,8,0:0:0:0:
282,270,214785,6,0,P|271:332|266:376,1,85,4|0,0:0|0:0,0:0:0:0:
230,114,215160,2,0,P|241:52|246:8,1,85,8|0,0:0|0:0,0:0:0:0:
389,168,215535,2,0,L|485:172,1,85
123,216,215910,2,0,L|27:212,1,85,8|0,0:0|0:0,0:0:0:0:
244,31,216285,6,0,P|236:75|229:122,1,85
268,353,216660,2,0,P|277:310|283:262,1,85,8|0,0:0|0:0,0:0:0:0:
56,205,217035,2,0,P|114:214|145:217,1,85
456,179,217410,1,8,0:0:0:0:
308,235,217597,1,8,0:0:0:0:
308,235,217691,1,8,0:0:0:0:
308,235,217785,5,4,0:0:0:0:
267,259,217878,1,8,0:3:0:0:
221,251,217972,1,8,0:3:0:0:
191,215,218066,1,8,0:3:0:0:
191,168,218160,1,8,0:0:0:0:
221,132,218253,1,8,0:3:0:0:
267,124,218347,1,8,0:3:0:0:
308,148,218441,1,8,0:3:0:0:
324,192,218535,1,4,0:3:0:0:
324,192,218910,6,0,B|400:225|390:161|475:195,1,152.999995330811,8|0,0:0|0:0,0:0:0:0:
