osu file format v14

[General]
AudioFilename: audio.ogg
AudioLeadIn: 0
PreviewTime: 163942
Countdown: 0
SampleSet: Soft
StackLeniency: 0.7
Mode: 3
LetterboxInBreaks: 0
SpecialStyle: 0
WidescreenStoryboard: 0

[Editor]
DistanceSpacing: 1
BeatDivisor: 4
GridSize: 4
TimelineZoom: 2.599999

[Metadata]
Title:Bomb Bang Bound!!!
TitleUnicode:Bomb Bang Bound!!!
Artist:Hisui Chazuke
ArtistUnicode:翡翠茶漬け
Creator:qodtjr
Version:BBB!!!
Source:
Tags:hino isuka 翡乃イスカ Umeboshi Chazuke 梅干茶漬け electronic instrumental chiptune M3-2015春 Dream Chasers Fledgling records Jun Kuroda
BeatmapID:2056739
BeatmapSetID:982816

[Difficulty]
HPDrainRate:8
CircleSize:7
OverallDifficulty:8
ApproachRate:5
SliderMultiplier:1.4
SliderTickRate:1

[Events]
//Background and Video events
0,0,"53256331_p0.jpg",0,0
//Break Periods
//Storyboard Layer 0 (Background)
//Storyboard Layer 1 (Fail)
//Storyboard Layer 2 (Pass)
//Storyboard Layer 3 (Foreground)
//Storyboard Layer 4 (Overlay)
//Storyboard Sound Samples

[TimingPoints]
2358,297.029702970297,4,2,1,40,1,0

[HitObjects]
182,192,1169,5,0,0:0:0:0:
475,192,1169,1,0,0:0:0:0:
256,192,1466,1,0,0:0:0:0:
109,192,1466,1,0,0:0:0:0:
36,192,1466,1,0,0:0:0:0:
329,192,1763,1,0,0:0:0:0:
182,192,1763,1,0,0:0:0:0:
475,192,1838,1,0,0:0:0:0:
329,192,1912,1,0,0:0:0:0:
182,192,1912,1,0,0:0:0:0:
475,192,1986,1,0,0:0:0:0:
109,192,2060,5,0,0:0:0:0:
256,192,2060,1,0,0:0:0:0:
182,192,2135,1,0,0:0:0:0:
329,192,2135,1,0,0:0:0:0:
256,192,2209,1,0,0:0:0:0:
402,192,2209,1,0,0:0:0:0:
329,192,2283,1,0,0:0:0:0:
475,192,2283,1,0,0:0:0:0:
109,192,2358,1,0,0:0:0:0:
256,192,2358,1,0,0:0:0:0:
402,192,2432,1,0,0:0:0:0:
256,192,2506,1,0,0:0:0:0:
109,192,2506,1,0,0:0:0:0:
402,192,2580,1,0,0:0:0:0:
182,192,2655,1,0,0:0:0:0:
36,192,2655,1,0,0:0:0:0:
329,192,2729,1,0,0:0:0:0:
182,192,2803,1,0,0:0:0:0:
36,192,2803,1,0,0:0:0:0:
329,192,2877,1,0,0:0:0:0:
256,192,2952,1,0,0:0:0:0:
109,192,2952,1,0,0:0:0:0:
402,192,3026,1,0,0:0:0:0:
256,192,3100,1,0,0:0:0:0:
109,192,3100,1,0,0:0:0:0:
402,192,3174,1,0,0:0:0:0:
182,192,3249,1,0,0:0:0:0:
36,192,3249,1,0,0:0:0:0:
329,192,3323,1,0,0:0:0:0:
182,192,3397,1,0,0:0:0:0:
36,192,3397,1,0,0:0:0:0:
329,192,3471,1,0,0:0:0:0:
256,192,3546,1,0,0:0:0:0:
109,192,3546,1,0,0:0:0:0:
402,192,3620,1,0,0:0:0:0:
256,192,3694,1,0,0:0:0:0:
109,192,3694,1,0,0:0:0:0:
402,192,3768,1,0,0:0:0:0:
182,192,3843,1,0,0:0:0:0:
36,192,3843,1,0,0:0:0:0:
329,192,3917,1,0,0:0:0:0:
182,192,3991,1,0,0:0:0:0:
36,192,3991,1,0,0:0:0:0:
329,192,4065,1,0,0:0:0:0:
182,192,4288,128,0,4585:0:0:0:0:
329,192,4288,128,0,4585:0:0:0:0:
36,192,4585,128,0,4659:0:0:0:0:
329,192,4734,1,0,0:0:0:0:
475,192,4734,1,0,0:0:0:0:
109,192,4808,1,0,0:0:0:0:
329,192,4882,1,0,0:0:0:0:
475,192,4882,1,0,0:0:0:0:
109,192,4957,1,0,0:0:0:0:
402,192,5031,1,0,0:0:0:0:
256,192,5031,1,0,0:0:0:0:
182,192,5105,1,0,0:0:0:0:
256,192,5179,1,0,0:0:0:0:
402,192,5179,1,0,0:0:0:0:
182,192,5254,1,0,0:0:0:0:
329,192,5328,1,0,0:0:0:0:
475,192,5328,1,0,0:0:0:0:
109,192,5402,1,0,0:0:0:0:
329,192,5476,1,0,0:0:0:0:
475,192,5476,1,0,0:0:0:0:
109,192,5551,1,0,0:0:0:0:
402,192,5625,1,0,0:0:0:0:
256,192,5625,1,0,0:0:0:0:
182,192,5699,1,0,0:0:0:0:
256,192,5773,1,0,0:0:0:0:
402,192,5773,1,0,0:0:0:0:
182,192,5848,1,0,0:0:0:0:
329,192,5922,1,0,0:0:0:0:
475,192,5922,1,0,0:0:0:0:
109,192,5996,1,0,0:0:0:0:
329,192,6070,1,0,0:0:0:0:
475,192,6070,1,0,0:0:0:0:
109,192,6145,1,0,0:0:0:0:
402,192,6219,1,0,0:0:0:0:
256,192,6219,1,0,0:0:0:0:
182,192,6293,1,0,0:0:0:0:
256,192,6367,1,0,0:0:0:0:
402,192,6367,1,0,0:0:0:0:
182,192,6442,1,0,0:0:0:0:
109,192,6664,128,0,6961:0:0:0:0:
256,192,6664,128,0,6961:0:0:0:0:
329,192,6961,128,0,7036:0:0:0:0:
182,192,7110,1,0,0:0:0:0:
36,192,7110,1,0,0:0:0:0:
402,192,7184,1,0,0:0:0:0:
182,192,7258,1,0,0:0:0:0:
36,192,7258,1,0,0:0:0:0:
402,192,7333,1,0,0:0:0:0:
256,192,7407,1,0,0:0:0:0:
109,192,7407,1,0,0:0:0:0:
329,192,7481,1,0,0:0:0:0:
256,192,7556,1,0,0:0:0:0:
109,192,7556,1,0,0:0:0:0:
329,192,7630,1,0,0:0:0:0:
182,192,7704,1,0,0:0:0:0:
36,192,7704,1,0,0:0:0:0:
402,192,7778,1,0,0:0:0:0:
182,192,7853,1,0,0:0:0:0:
36,192,7853,1,0,0:0:0:0:
402,192,7927,1,0,0:0:0:0:
109,192,8001,1,0,0:0:0:0:
256,192,8001,1,0,0:0:0:0:
329,192,8075,1,0,0:0:0:0:
109,192,8150,1,0,0:0:0:0:
256,192,8150,1,0,0:0:0:0:
329,192,8224,1,0,0:0:0:0:
182,192,8298,1,0,0:0:0:0:
36,192,8298,1,0,0:0:0:0:
402,192,8372,1,0,0:0:0:0:
182,192,8447,1,0,0:0:0:0:
36,192,8447,1,0,0:0:0:0:
402,192,8521,1,0,0:0:0:0:
109,192,8595,1,0,0:0:0:0:
256,192,8595,1,0,0:0:0:0:
329,192,8669,1,0,0:0:0:0:
109,192,8744,1,0,0:0:0:0:
256,192,8744,1,0,0:0:0:0:
329,192,8818,1,0,0:0:0:0:
182,192,9041,128,0,9338:0:0:0:0:
402,192,9041,128,0,9338:0:0:0:0:
36,192,9338,128,0,9412:0:0:0:0:
182,192,9486,1,0,0:0:0:0:
109,192,9486,1,0,0:0:0:0:
182,192,9635,1,0,0:0:0:0:
109,192,9635,1,0,0:0:0:0:
475,192,9635,128,0,10006:0:0:0:0:
182,192,9783,1,0,0:0:0:0:
109,192,9783,1,0,0:0:0:0:
182,192,9932,1,0,0:0:0:0:
109,192,9932,1,0,0:0:0:0:
182,192,10080,1,0,0:0:0:0:
109,192,10080,1,0,0:0:0:0:
256,192,10080,1,0,0:0:0:0:
329,192,10229,1,0,0:0:0:0:
402,192,10229,1,0,0:0:0:0:
475,192,10229,1,0,0:0:0:0:
182,192,10377,1,0,0:0:0:0:
109,192,10377,1,0,0:0:0:0:
36,192,10377,1,0,0:0:0:0:
329,192,10526,1,0,0:0:0:0:
402,192,10526,1,0,0:0:0:0:
475,192,10526,1,0,0:0:0:0:
256,192,10674,1,0,0:0:0:0:
182,192,10674,1,0,0:0:0:0:
109,192,10674,1,0,0:0:0:0:
36,192,10674,1,0,0:0:0:0:
256,192,10823,1,0,0:0:0:0:
182,192,10823,1,0,0:0:0:0:
402,192,10897,1,0,0:0:0:0:
475,192,10897,1,0,0:0:0:0:
109,192,10971,1,0,0:0:0:0:
182,192,10971,1,0,0:0:0:0:
256,192,10971,1,0,0:0:0:0:
329,192,10971,1,0,0:0:0:0:
475,192,11046,1,0,0:0:0:0:
402,192,11046,1,0,0:0:0:0:
182,192,11120,1,0,0:0:0:0:
36,192,11120,1,0,0:0:0:0:
256,192,11194,1,0,0:0:0:0:
109,192,11194,1,0,0:0:0:0:
182,192,11268,1,0,0:0:0:0:
475,192,11268,1,0,0:0:0:0:
402,192,11268,1,0,0:0:0:0:
329,192,11268,128,0,11417:0:0:0:0:
109,192,11343,1,0,0:0:0:0:
36,192,11417,1,0,0:0:0:0:
256,192,11417,1,0,0:0:0:0:
182,192,11466,1,0,0:0:0:0:
329,192,11516,1,0,0:0:0:0:
402,192,11565,1,0,0:0:0:0:
109,192,11565,128,0,11714:0:0:0:0:
256,192,11714,128,0,11788:0:0:0:0:
109,192,11862,1,0,0:0:0:0:
36,192,11862,1,0,0:0:0:0:
475,192,11862,1,0,0:0:0:0:
402,192,11862,1,0,0:0:0:0:
109,192,12011,1,0,0:0:0:0:
182,192,12011,1,0,0:0:0:0:
402,192,12011,1,0,0:0:0:0:
256,192,12159,1,0,0:0:0:0:
402,192,12159,1,0,0:0:0:0:
329,192,12159,1,0,0:0:0:0:
36,192,12234,1,0,0:0:0:0:
256,192,12308,1,0,0:0:0:0:
329,192,12308,1,0,0:0:0:0:
36,192,12382,1,0,0:0:0:0:
475,192,12457,1,0,0:0:0:0:
402,192,12457,1,0,0:0:0:0:
182,192,12457,1,0,0:0:0:0:
256,192,12531,1,0,0:0:0:0:
402,192,12605,1,0,0:0:0:0:
109,192,12605,1,0,0:0:0:0:
182,192,12679,1,0,0:0:0:0:
402,192,12754,1,0,0:0:0:0:
329,192,12754,1,0,0:0:0:0:
36,192,12754,1,0,0:0:0:0:
256,192,12754,1,0,0:0:0:0:
475,192,12828,1,0,0:0:0:0:
329,192,12902,1,0,0:0:0:0:
109,192,12902,1,0,0:0:0:0:
182,192,12976,1,0,0:0:0:0:
256,192,13051,1,0,0:0:0:0:
36,192,13051,1,0,0:0:0:0:
402,192,13051,1,0,0:0:0:0:
475,192,13051,1,0,0:0:0:0:
109,192,13125,1,0,0:0:0:0:
402,192,13199,1,0,0:0:0:0:
182,192,13199,1,0,0:0:0:0:
402,192,13348,1,0,0:0:0:0:
329,192,13348,1,0,0:0:0:0:
109,192,13348,1,0,0:0:0:0:
256,192,13348,1,0,0:0:0:0:
329,192,13496,1,0,0:0:0:0:
182,192,13496,1,0,0:0:0:0:
109,192,13570,1,0,0:0:0:0:
36,192,13645,1,0,0:0:0:0:
256,192,13645,1,0,0:0:0:0:
475,192,13793,1,0,0:0:0:0:
402,192,13793,1,0,0:0:0:0:
182,192,13793,128,0,14090:0:0:0:0:
109,192,13793,128,0,14090:0:0:0:0:
402,192,13942,1,0,0:0:0:0:
329,192,14016,1,0,0:0:0:0:
256,192,14090,128,0,14164:0:0:0:0:
402,192,14090,1,0,0:0:0:0:
329,192,14164,1,0,0:0:0:0:
109,192,14239,1,0,0:0:0:0:
36,192,14239,1,0,0:0:0:0:
402,192,14239,1,0,0:0:0:0:
475,192,14239,1,0,0:0:0:0:
109,192,14387,1,0,0:0:0:0:
329,192,14387,1,0,0:0:0:0:
256,192,14387,1,0,0:0:0:0:
109,192,14536,1,0,0:0:0:0:
182,192,14536,1,0,0:0:0:0:
475,192,14536,1,0,0:0:0:0:
329,192,14610,1,0,0:0:0:0:
182,192,14684,1,0,0:0:0:0:
475,192,14684,1,0,0:0:0:0:
329,192,14758,1,0,0:0:0:0:
109,192,14833,1,0,0:0:0:0:
36,192,14833,1,0,0:0:0:0:
256,192,14833,1,0,0:0:0:0:
475,192,14907,1,0,0:0:0:0:
109,192,14981,1,0,0:0:0:0:
256,192,14981,1,0,0:0:0:0:
475,192,15056,1,0,0:0:0:0:
109,192,15130,1,0,0:0:0:0:
182,192,15130,1,0,0:0:0:0:
329,192,15130,1,0,0:0:0:0:
256,192,15130,1,0,0:0:0:0:
182,192,15278,1,0,0:0:0:0:
402,192,15278,1,0,0:0:0:0:
475,192,15278,1,0,0:0:0:0:
256,192,15353,1,0,0:0:0:0:
109,192,15427,1,0,0:0:0:0:
36,192,15427,1,0,0:0:0:0:
402,192,15427,1,0,0:0:0:0:
329,192,15427,1,0,0:0:0:0:
182,192,15501,1,0,0:0:0:0:
109,192,15575,1,0,0:0:0:0:
256,192,15575,1,0,0:0:0:0:
475,192,15575,1,0,0:0:0:0:
109,192,15724,1,0,0:0:0:0:
182,192,15724,1,0,0:0:0:0:
329,192,15724,1,0,0:0:0:0:
402,192,15724,1,0,0:0:0:0:
256,192,15798,1,0,0:0:0:0:
182,192,15872,1,0,0:0:0:0:
475,192,15872,1,0,0:0:0:0:
402,192,15872,1,0,0:0:0:0:
36,192,16021,1,0,0:0:0:0:
475,192,16021,1,0,0:0:0:0:
182,192,16095,1,0,0:0:0:0:
329,192,16169,128,0,16466:0:0:0:0:
402,192,16169,128,0,16466:0:0:0:0:
36,192,16169,1,0,0:0:0:0:
475,192,16169,1,0,0:0:0:0:
182,192,16244,1,0,0:0:0:0:
36,192,16318,1,0,0:0:0:0:
475,192,16318,1,0,0:0:0:0:
256,192,16466,128,0,16541:0:0:0:0:
109,192,16466,1,0,0:0:0:0:
182,192,16466,1,0,0:0:0:0:
402,192,16615,1,0,0:0:0:0:
475,192,16615,1,0,0:0:0:0:
109,192,16615,1,0,0:0:0:0:
36,192,16615,1,0,0:0:0:0:
182,192,16615,1,0,0:0:0:0:
109,192,16763,1,0,0:0:0:0:
256,192,16763,1,0,0:0:0:0:
475,192,16763,1,0,0:0:0:0:
182,192,16912,1,0,0:0:0:0:
109,192,16912,1,0,0:0:0:0:
36,192,16912,1,0,0:0:0:0:
329,192,16912,1,0,0:0:0:0:
402,192,16986,1,0,0:0:0:0:
182,192,17060,1,0,0:0:0:0:
329,192,17060,1,0,0:0:0:0:
402,192,17135,1,0,0:0:0:0:
182,192,17209,1,0,0:0:0:0:
109,192,17209,1,0,0:0:0:0:
36,192,17209,1,0,0:0:0:0:
256,192,17209,1,0,0:0:0:0:
475,192,17209,1,0,0:0:0:0:
329,192,17283,1,0,0:0:0:0:
109,192,17358,1,0,0:0:0:0:
475,192,17358,1,0,0:0:0:0:
402,192,17432,1,0,0:0:0:0:
36,192,17506,1,0,0:0:0:0:
109,192,17506,1,0,0:0:0:0:
329,192,17506,1,0,0:0:0:0:
256,192,17506,1,0,0:0:0:0:
182,192,17655,1,0,0:0:0:0:
402,192,17655,1,0,0:0:0:0:
256,192,17655,1,0,0:0:0:0:
36,192,17729,1,0,0:0:0:0:
329,192,17803,1,0,0:0:0:0:
402,192,17803,1,0,0:0:0:0:
475,192,17803,1,0,0:0:0:0:
109,192,17803,1,0,0:0:0:0:
256,192,17877,1,0,0:0:0:0:
402,192,17952,1,0,0:0:0:0:
182,192,17952,1,0,0:0:0:0:
36,192,17952,1,0,0:0:0:0:
402,192,18100,1,0,0:0:0:0:
475,192,18100,1,0,0:0:0:0:
109,192,18100,1,0,0:0:0:0:
256,192,18100,1,0,0:0:0:0:
329,192,18249,1,0,0:0:0:0:
36,192,18249,1,0,0:0:0:0:
182,192,18323,1,0,0:0:0:0:
256,192,18397,1,0,0:0:0:0:
109,192,18397,1,0,0:0:0:0:
475,192,18397,1,0,0:0:0:0:
329,192,18471,1,0,0:0:0:0:
182,192,18471,1,0,0:0:0:0:
256,192,18546,1,0,0:0:0:0:
402,192,18546,1,0,0:0:0:0:
36,192,18546,1,0,0:0:0:0:
109,192,18620,1,0,0:0:0:0:
329,192,18620,1,0,0:0:0:0:
182,192,18694,1,0,0:0:0:0:
36,192,18694,1,0,0:0:0:0:
475,192,18694,1,0,0:0:0:0:
402,192,18768,1,0,0:0:0:0:
256,192,18768,1,0,0:0:0:0:
329,192,18843,1,0,0:0:0:0:
109,192,18843,1,0,0:0:0:0:
36,192,18843,1,0,0:0:0:0:
256,192,18917,1,0,0:0:0:0:
475,192,18917,1,0,0:0:0:0:
402,192,18991,1,0,0:0:0:0:
329,192,18991,1,0,0:0:0:0:
182,192,18991,1,0,0:0:0:0:
36,192,18991,1,0,0:0:0:0:
109,192,18991,1,0,0:0:0:0:
182,192,19140,1,0,0:0:0:0:
109,192,19140,1,0,0:0:0:0:
36,192,19140,1,0,0:0:0:0:
329,192,19140,1,0,0:0:0:0:
402,192,19140,1,0,0:0:0:0:
182,192,19288,1,0,0:0:0:0:
109,192,19288,1,0,0:0:0:0:
36,192,19288,1,0,0:0:0:0:
329,192,19288,1,0,0:0:0:0:
402,192,19288,1,0,0:0:0:0:
329,192,19585,1,0,0:0:0:0:
182,192,19585,1,0,0:0:0:0:
109,192,19585,1,0,0:0:0:0:
475,192,19585,1,0,0:0:0:0:
256,192,19585,1,0,0:0:0:0:
329,192,19734,1,0,0:0:0:0:
256,192,19734,1,0,0:0:0:0:
182,192,19734,1,0,0:0:0:0:
109,192,19734,1,0,0:0:0:0:
475,192,19734,1,0,0:0:0:0:
329,192,19882,1,0,0:0:0:0:
475,192,19882,1,0,0:0:0:0:
182,192,19882,1,0,0:0:0:0:
402,192,19882,1,0,0:0:0:0:
36,192,19882,1,0,0:0:0:0:
256,192,20031,1,0,0:0:0:0:
182,192,20031,1,0,0:0:0:0:
109,192,20031,1,0,0:0:0:0:
36,192,20031,1,0,0:0:0:0:
329,192,20031,1,0,0:0:0:0:
475,192,20179,1,0,0:0:0:0:
402,192,20179,1,0,0:0:0:0:
182,192,20254,1,0,0:0:0:0:
109,192,20254,1,0,0:0:0:0:
402,192,20328,1,0,0:0:0:0:
475,192,20328,1,0,0:0:0:0:
182,192,20402,1,0,0:0:0:0:
109,192,20402,1,0,0:0:0:0:
329,192,20476,1,0,0:0:0:0:
475,192,20476,1,0,0:0:0:0:
402,192,20476,128,0,20551:0:0:0:0:
36,192,20551,1,0,0:0:0:0:
182,192,20551,128,0,20625:0:0:0:0:
475,192,20625,1,0,0:0:0:0:
329,192,20625,1,0,0:0:0:0:
402,192,20625,128,0,20699:0:0:0:0:
36,192,20699,1,0,0:0:0:0:
182,192,20699,128,0,20773:0:0:0:0:
402,192,20773,1,0,0:0:0:0:
475,192,20773,1,0,0:0:0:0:
256,192,20773,128,0,20996:0:0:0:0:
256,192,21070,128,0,21367:0:0:0:0:
109,192,21070,1,0,0:0:0:0:
402,192,21070,1,0,0:0:0:0:
182,192,21367,1,0,0:0:0:0:
36,192,21367,1,0,0:0:0:0:
475,192,21367,1,0,0:0:0:0:
329,192,21367,1,0,0:0:0:0:
256,192,21516,1,0,0:0:0:0:
109,192,21516,1,0,0:0:0:0:
329,192,21590,1,0,0:0:0:0:
402,192,21664,1,0,0:0:0:0:
182,192,21664,1,0,0:0:0:0:
36,192,21664,1,0,0:0:0:0:
256,192,21813,1,0,0:0:0:0:
475,192,21813,1,0,0:0:0:0:
402,192,21887,1,0,0:0:0:0:
329,192,21961,1,0,0:0:0:0:
109,192,21961,1,0,0:0:0:0:
36,192,21961,1,0,0:0:0:0:
256,192,22110,1,0,0:0:0:0:
109,192,22110,1,0,0:0:0:0:
329,192,22184,1,0,0:0:0:0:
402,192,22258,1,0,0:0:0:0:
475,192,22258,1,0,0:0:0:0:
182,192,22258,1,0,0:0:0:0:
256,192,22407,1,0,0:0:0:0:
36,192,22407,1,0,0:0:0:0:
329,192,22481,1,0,0:0:0:0:
402,192,22556,1,0,0:0:0:0:
475,192,22556,1,0,0:0:0:0:
109,192,22556,1,0,0:0:0:0:
256,192,22704,1,0,0:0:0:0:
402,192,22704,1,0,0:0:0:0:
182,192,22778,1,0,0:0:0:0:
36,192,22853,1,0,0:0:0:0:
329,192,22853,1,0,0:0:0:0:
109,192,22853,1,0,0:0:0:0:
256,192,23001,1,0,0:0:0:0:
475,192,23001,1,0,0:0:0:0:
402,192,23075,1,0,0:0:0:0:
329,192,23150,1,0,0:0:0:0:
182,192,23150,1,0,0:0:0:0:
36,192,23150,1,0,0:0:0:0:
109,192,23298,1,0,0:0:0:0:
256,192,23298,1,0,0:0:0:0:
329,192,23372,1,0,0:0:0:0:
402,192,23447,1,0,0:0:0:0:
182,192,23447,1,0,0:0:0:0:
36,192,23447,1,0,0:0:0:0:
256,192,23595,1,0,0:0:0:0:
475,192,23595,1,0,0:0:0:0:
182,192,23669,1,0,0:0:0:0:
109,192,23744,1,0,0:0:0:0:
402,192,23744,1,0,0:0:0:0:
329,192,23744,1,0,0:0:0:0:
256,192,23892,1,0,0:0:0:0:
36,192,23892,1,0,0:0:0:0:
109,192,23966,1,0,0:0:0:0:
182,192,24041,1,0,0:0:0:0:
402,192,24041,1,0,0:0:0:0:
475,192,24041,1,0,0:0:0:0:
402,192,24189,1,0,0:0:0:0:
256,192,24189,1,0,0:0:0:0:
182,192,24263,1,0,0:0:0:0:
109,192,24338,1,0,0:0:0:0:
329,192,24338,1,0,0:0:0:0:
475,192,24338,1,0,0:0:0:0:
182,192,24486,1,0,0:0:0:0:
402,192,24486,1,0,0:0:0:0:
256,192,24560,1,0,0:0:0:0:
36,192,24635,1,0,0:0:0:0:
329,192,24635,1,0,0:0:0:0:
475,192,24635,1,0,0:0:0:0:
109,192,24709,1,0,0:0:0:0:
256,192,24709,1,0,0:0:0:0:
329,192,24783,1,0,0:0:0:0:
475,192,24783,1,0,0:0:0:0:
36,192,24783,1,0,0:0:0:0:
256,192,24858,1,0,0:0:0:0:
182,192,24858,1,0,0:0:0:0:
109,192,24932,1,0,0:0:0:0:
402,192,24932,1,0,0:0:0:0:
36,192,24932,1,0,0:0:0:0:
182,192,25080,1,0,0:0:0:0:
109,192,25080,1,0,0:0:0:0:
182,192,25229,1,0,0:0:0:0:
329,192,25229,1,0,0:0:0:0:
475,192,25229,1,0,0:0:0:0:
402,192,25377,1,0,0:0:0:0:
256,192,25377,1,0,0:0:0:0:
182,192,25452,1,0,0:0:0:0:
36,192,25452,1,0,0:0:0:0:
109,192,25526,1,0,0:0:0:0:
475,192,25526,1,0,0:0:0:0:
329,192,25526,1,0,0:0:0:0:
402,192,25600,1,0,0:0:0:0:
256,192,25600,1,0,0:0:0:0:
329,192,25674,1,0,0:0:0:0:
182,192,25674,1,0,0:0:0:0:
256,192,25749,1,0,0:0:0:0:
36,192,25749,1,0,0:0:0:0:
109,192,25823,1,0,0:0:0:0:
329,192,25823,1,0,0:0:0:0:
475,192,25823,1,0,0:0:0:0:
402,192,25823,1,0,0:0:0:0:
182,192,25897,1,0,0:0:0:0:
256,192,25897,1,0,0:0:0:0:
109,192,25971,1,0,0:0:0:0:
36,192,25971,1,0,0:0:0:0:
329,192,26046,1,0,0:0:0:0:
402,192,26046,1,0,0:0:0:0:
256,192,26120,1,0,0:0:0:0:
182,192,26120,1,0,0:0:0:0:
475,192,26120,1,0,0:0:0:0:
109,192,26120,1,0,0:0:0:0:
329,192,26268,1,0,0:0:0:0:
36,192,26268,1,0,0:0:0:0:
109,192,26343,1,0,0:0:0:0:
182,192,26417,1,0,0:0:0:0:
36,192,26417,1,0,0:0:0:0:
402,192,26417,1,0,0:0:0:0:
475,192,26417,1,0,0:0:0:0:
329,192,26565,1,0,0:0:0:0:
109,192,26565,1,0,0:0:0:0:
256,192,26640,1,0,0:0:0:0:
182,192,26714,1,0,0:0:0:0:
402,192,26714,1,0,0:0:0:0:
475,192,26714,1,0,0:0:0:0:
329,192,26862,1,0,0:0:0:0:
36,192,26862,1,0,0:0:0:0:
256,192,26937,1,0,0:0:0:0:
475,192,27011,1,0,0:0:0:0:
109,192,27011,1,0,0:0:0:0:
329,192,27011,1,0,0:0:0:0:
182,192,27159,1,0,0:0:0:0:
109,192,27159,1,0,0:0:0:0:
256,192,27234,1,0,0:0:0:0:
329,192,27308,1,0,0:0:0:0:
36,192,27308,1,0,0:0:0:0:
402,192,27308,1,0,0:0:0:0:
256,192,27457,1,0,0:0:0:0:
475,192,27457,1,0,0:0:0:0:
182,192,27531,1,0,0:0:0:0:
109,192,27605,1,0,0:0:0:0:
329,192,27605,1,0,0:0:0:0:
402,192,27605,1,0,0:0:0:0:
256,192,27754,1,0,0:0:0:0:
36,192,27754,1,0,0:0:0:0:
329,192,27828,1,0,0:0:0:0:
402,192,27902,1,0,0:0:0:0:
475,192,27902,1,0,0:0:0:0:
109,192,27902,1,0,0:0:0:0:
182,192,28051,1,0,0:0:0:0:
36,192,28051,1,0,0:0:0:0:
256,192,28125,1,0,0:0:0:0:
329,192,28199,1,0,0:0:0:0:
475,192,28199,1,0,0:0:0:0:
109,192,28199,1,0,0:0:0:0:
402,192,28348,1,0,0:0:0:0:
182,192,28348,1,0,0:0:0:0:
256,192,28422,1,0,0:0:0:0:
329,192,28496,1,0,0:0:0:0:
109,192,28496,1,0,0:0:0:0:
36,192,28496,1,0,0:0:0:0:
475,192,28645,1,0,0:0:0:0:
182,192,28645,1,0,0:0:0:0:
402,192,28719,1,0,0:0:0:0:
329,192,28793,1,0,0:0:0:0:
109,192,28793,1,0,0:0:0:0:
36,192,28793,1,0,0:0:0:0:
256,192,28942,1,0,0:0:0:0:
475,192,28942,1,0,0:0:0:0:
329,192,29016,1,0,0:0:0:0:
402,192,29090,1,0,0:0:0:0:
182,192,29090,1,0,0:0:0:0:
36,192,29090,1,0,0:0:0:0:
109,192,29239,1,0,0:0:0:0:
329,192,29239,1,0,0:0:0:0:
256,192,29313,1,0,0:0:0:0:
402,192,29387,1,0,0:0:0:0:
182,192,29387,1,0,0:0:0:0:
36,192,29387,1,0,0:0:0:0:
256,192,29461,1,0,0:0:0:0:
329,192,29461,1,0,0:0:0:0:
475,192,29536,1,0,0:0:0:0:
36,192,29536,1,0,0:0:0:0:
109,192,29536,1,0,0:0:0:0:
256,192,29610,1,0,0:0:0:0:
182,192,29610,1,0,0:0:0:0:
329,192,29684,1,0,0:0:0:0:
475,192,29684,1,0,0:0:0:0:
36,192,29684,1,0,0:0:0:0:
109,192,29684,128,0,29758:0:0:0:0:
402,192,29758,1,0,0:0:0:0:
475,192,29833,1,0,0:0:0:0:
182,192,29907,128,0,29981:0:0:0:0:
329,192,29907,1,0,0:0:0:0:
36,192,29981,128,0,30130:0:0:0:0:
402,192,29981,1,0,0:0:0:0:
475,192,29981,1,0,0:0:0:0:
402,192,30130,1,0,0:0:0:0:
329,192,30130,1,0,0:0:0:0:
182,192,30204,1,0,0:0:0:0:
256,192,30278,1,0,0:0:0:0:
109,192,30278,128,0,30575:0:0:0:0:
329,192,30278,1,0,0:0:0:0:
402,192,30427,1,0,0:0:0:0:
329,192,30427,1,0,0:0:0:0:
329,192,30575,128,0,30872:0:0:0:0:
475,192,30575,128,0,30872:0:0:0:0:
182,192,30575,1,0,0:0:0:0:
36,192,30575,1,0,0:0:0:0:
256,192,30872,1,0,0:0:0:0:
109,192,30872,1,0,0:0:0:0:
36,192,30872,1,0,0:0:0:0:
182,192,30872,1,0,0:0:0:0:
329,192,30947,1,0,0:0:0:0:
402,192,31021,1,0,0:0:0:0:
182,192,31021,1,0,0:0:0:0:
36,192,31095,1,0,0:0:0:0:
256,192,31095,1,0,0:0:0:0:
475,192,31169,1,0,0:0:0:0:
109,192,31169,1,0,0:0:0:0:
329,192,31169,1,0,0:0:0:0:
182,192,31244,1,0,0:0:0:0:
256,192,31318,1,0,0:0:0:0:
402,192,31318,1,0,0:0:0:0:
109,192,31392,1,0,0:0:0:0:
329,192,31392,1,0,0:0:0:0:
256,192,31466,1,0,0:0:0:0:
36,192,31466,1,0,0:0:0:0:
475,192,31466,1,0,0:0:0:0:
182,192,31541,1,0,0:0:0:0:
109,192,31615,1,0,0:0:0:0:
329,192,31615,1,0,0:0:0:0:
256,192,31689,1,0,0:0:0:0:
475,192,31689,1,0,0:0:0:0:
182,192,31763,1,0,0:0:0:0:
36,192,31763,1,0,0:0:0:0:
109,192,31763,1,0,0:0:0:0:
329,192,31838,1,0,0:0:0:0:
402,192,31838,1,0,0:0:0:0:
109,192,31912,1,0,0:0:0:0:
182,192,31912,1,0,0:0:0:0:
329,192,31986,1,0,0:0:0:0:
402,192,31986,1,0,0:0:0:0:
256,192,32060,1,0,0:0:0:0:
109,192,32060,1,0,0:0:0:0:
36,192,32060,1,0,0:0:0:0:
329,192,32135,1,0,0:0:0:0:
402,192,32209,1,0,0:0:0:0:
182,192,32209,1,0,0:0:0:0:
256,192,32283,1,0,0:0:0:0:
36,192,32283,1,0,0:0:0:0:
329,192,32358,1,0,0:0:0:0:
475,192,32358,1,0,0:0:0:0:
109,192,32358,1,0,0:0:0:0:
182,192,32432,1,0,0:0:0:0:
256,192,32506,1,0,0:0:0:0:
402,192,32506,1,0,0:0:0:0:
329,192,32580,1,0,0:0:0:0:
182,192,32580,1,0,0:0:0:0:
256,192,32655,1,0,0:0:0:0:
475,192,32655,1,0,0:0:0:0:
109,192,32655,1,0,0:0:0:0:
402,192,32729,1,0,0:0:0:0:
329,192,32803,1,0,0:0:0:0:
182,192,32803,1,0,0:0:0:0:
256,192,32877,1,0,0:0:0:0:
109,192,32877,1,0,0:0:0:0:
182,192,32952,1,0,0:0:0:0:
36,192,32952,1,0,0:0:0:0:
475,192,32952,1,0,0:0:0:0:
402,192,33026,1,0,0:0:0:0:
329,192,33026,1,0,0:0:0:0:
182,192,33100,1,0,0:0:0:0:
36,192,33100,1,0,0:0:0:0:
329,192,33174,1,0,0:0:0:0:
402,192,33174,1,0,0:0:0:0:
256,192,33249,1,0,0:0:0:0:
109,192,33249,1,0,0:0:0:0:
36,192,33249,1,0,0:0:0:0:
329,192,33323,1,0,0:0:0:0:
402,192,33397,1,0,0:0:0:0:
182,192,33397,1,0,0:0:0:0:
256,192,33471,1,0,0:0:0:0:
475,192,33471,1,0,0:0:0:0:
329,192,33546,1,0,0:0:0:0:
109,192,33546,1,0,0:0:0:0:
36,192,33546,1,0,0:0:0:0:
182,192,33620,1,0,0:0:0:0:
256,192,33694,1,0,0:0:0:0:
402,192,33694,1,0,0:0:0:0:
329,192,33768,1,0,0:0:0:0:
109,192,33768,1,0,0:0:0:0:
256,192,33843,1,0,0:0:0:0:
36,192,33843,1,0,0:0:0:0:
402,192,33843,1,0,0:0:0:0:
182,192,33917,1,0,0:0:0:0:
109,192,33991,1,0,0:0:0:0:
402,192,33991,1,0,0:0:0:0:
329,192,34065,1,0,0:0:0:0:
256,192,34065,1,0,0:0:0:0:
475,192,34140,1,0,0:0:0:0:
182,192,34140,1,0,0:0:0:0:
36,192,34140,1,0,0:0:0:0:
329,192,34214,1,0,0:0:0:0:
109,192,34214,1,0,0:0:0:0:
256,192,34288,1,0,0:0:0:0:
475,192,34288,1,0,0:0:0:0:
36,192,34288,1,0,0:0:0:0:
182,192,34362,1,0,0:0:0:0:
402,192,34362,1,0,0:0:0:0:
109,192,34437,1,0,0:0:0:0:
36,192,34437,1,0,0:0:0:0:
329,192,34437,1,0,0:0:0:0:
182,192,34585,1,0,0:0:0:0:
329,192,34585,1,0,0:0:0:0:
256,192,34734,1,0,0:0:0:0:
402,192,34734,1,0,0:0:0:0:
109,192,34734,1,0,0:0:0:0:
36,192,34734,1,0,0:0:0:0:
182,192,34882,1,0,0:0:0:0:
402,192,34882,1,0,0:0:0:0:
256,192,34957,1,0,0:0:0:0:
36,192,34957,1,0,0:0:0:0:
109,192,35031,1,0,0:0:0:0:
402,192,35031,1,0,0:0:0:0:
329,192,35031,1,0,0:0:0:0:
256,192,35105,1,0,0:0:0:0:
182,192,35105,1,0,0:0:0:0:
475,192,35179,1,0,0:0:0:0:
402,192,35179,1,0,0:0:0:0:
256,192,35254,1,0,0:0:0:0:
182,192,35254,1,0,0:0:0:0:
329,192,35328,1,0,0:0:0:0:
36,192,35328,1,0,0:0:0:0:
109,192,35328,1,0,0:0:0:0:
402,192,35328,1,0,0:0:0:0:
256,192,35402,1,0,0:0:0:0:
475,192,35402,1,0,0:0:0:0:
182,192,35476,1,0,0:0:0:0:
402,192,35476,1,0,0:0:0:0:
256,192,35551,1,0,0:0:0:0:
36,192,35551,1,0,0:0:0:0:
109,192,35625,1,0,0:0:0:0:
329,192,35625,1,0,0:0:0:0:
475,192,35625,1,0,0:0:0:0:
402,192,35625,1,0,0:0:0:0:
182,192,35699,1,0,0:0:0:0:
256,192,35773,1,0,0:0:0:0:
36,192,35773,1,0,0:0:0:0:
329,192,35848,1,0,0:0:0:0:
402,192,35922,1,0,0:0:0:0:
475,192,35922,1,0,0:0:0:0:
182,192,35922,1,0,0:0:0:0:
36,192,35922,1,0,0:0:0:0:
256,192,35996,1,0,0:0:0:0:
329,192,36070,1,0,0:0:0:0:
109,192,36070,1,0,0:0:0:0:
182,192,36145,1,0,0:0:0:0:
36,192,36219,1,0,0:0:0:0:
475,192,36219,1,0,0:0:0:0:
402,192,36219,1,0,0:0:0:0:
256,192,36219,1,0,0:0:0:0:
109,192,36293,1,0,0:0:0:0:
182,192,36367,1,0,0:0:0:0:
402,192,36367,1,0,0:0:0:0:
329,192,36442,1,0,0:0:0:0:
256,192,36516,1,0,0:0:0:0:
475,192,36516,1,0,0:0:0:0:
402,192,36516,1,0,0:0:0:0:
182,192,36516,1,0,0:0:0:0:
109,192,36590,1,0,0:0:0:0:
36,192,36590,1,0,0:0:0:0:
402,192,36664,1,0,0:0:0:0:
256,192,36664,1,0,0:0:0:0:
109,192,36739,1,0,0:0:0:0:
36,192,36739,1,0,0:0:0:0:
182,192,36813,1,0,0:0:0:0:
329,192,36813,1,0,0:0:0:0:
402,192,36813,1,0,0:0:0:0:
475,192,36813,1,0,0:0:0:0:
256,192,36887,1,0,0:0:0:0:
329,192,36961,1,0,0:0:0:0:
109,192,36961,1,0,0:0:0:0:
182,192,37036,1,0,0:0:0:0:
256,192,37110,1,0,0:0:0:0:
36,192,37110,1,0,0:0:0:0:
475,192,37110,1,0,0:0:0:0:
402,192,37110,1,0,0:0:0:0:
329,192,37184,1,0,0:0:0:0:
402,192,37258,1,0,0:0:0:0:
109,192,37258,1,0,0:0:0:0:
182,192,37333,1,0,0:0:0:0:
256,192,37407,1,0,0:0:0:0:
36,192,37407,1,0,0:0:0:0:
475,192,37407,1,0,0:0:0:0:
329,192,37407,1,0,0:0:0:0:
182,192,37481,1,0,0:0:0:0:
109,192,37556,1,0,0:0:0:0:
402,192,37556,1,0,0:0:0:0:
329,192,37630,1,0,0:0:0:0:
256,192,37704,1,0,0:0:0:0:
182,192,37704,1,0,0:0:0:0:
36,192,37704,1,0,0:0:0:0:
109,192,37704,1,0,0:0:0:0:
475,192,37778,1,0,0:0:0:0:
402,192,37778,1,0,0:0:0:0:
182,192,37853,1,0,0:0:0:0:
109,192,37853,1,0,0:0:0:0:
402,192,37927,1,0,0:0:0:0:
475,192,37927,1,0,0:0:0:0:
256,192,38001,5,0,0:0:0:0:
182,192,38001,1,0,0:0:0:0:
329,192,38001,1,0,0:0:0:0:
36,192,38001,1,0,0:0:0:0:
329,192,38150,1,0,0:0:0:0:
475,192,38150,1,0,0:0:0:0:
109,192,38150,1,0,0:0:0:0:
36,192,38150,1,0,0:0:0:0:
256,192,38224,1,0,0:0:0:0:
182,192,38298,1,0,0:0:0:0:
36,192,38298,1,0,0:0:0:0:
402,192,38298,1,0,0:0:0:0:
109,192,38298,1,0,0:0:0:0:
256,192,38447,1,0,0:0:0:0:
109,192,38447,1,0,0:0:0:0:
475,192,38447,1,0,0:0:0:0:
329,192,38521,1,0,0:0:0:0:
402,192,38595,1,0,0:0:0:0:
182,192,38595,1,0,0:0:0:0:
36,192,38595,1,0,0:0:0:0:
475,192,38595,1,0,0:0:0:0:
256,192,38669,1,0,0:0:0:0:
109,192,38669,1,0,0:0:0:0:
182,192,38744,1,0,0:0:0:0:
402,192,38744,1,0,0:0:0:0:
475,192,38744,1,0,0:0:0:0:
329,192,38818,1,0,0:0:0:0:
109,192,38818,1,0,0:0:0:0:
256,192,38892,1,0,0:0:0:0:
36,192,38892,1,0,0:0:0:0:
475,192,38892,1,0,0:0:0:0:
402,192,38966,1,0,0:0:0:0:
182,192,38966,1,0,0:0:0:0:
329,192,39041,1,0,0:0:0:0:
36,192,39041,1,0,0:0:0:0:
256,192,39041,1,0,0:0:0:0:
109,192,39115,1,0,0:0:0:0:
402,192,39115,1,0,0:0:0:0:
182,192,39189,1,0,0:0:0:0:
36,192,39189,1,0,0:0:0:0:
475,192,39189,1,0,0:0:0:0:
256,192,39189,128,0,39263:0:0:0:0:
329,192,39263,1,0,0:0:0:0:
402,192,39338,1,0,0:0:0:0:
256,192,39412,128,0,39486:0:0:0:0:
36,192,39412,1,0,0:0:0:0:
109,192,39486,1,0,0:0:0:0:
329,192,39486,128,0,39783:0:0:0:0:
475,192,39486,1,0,0:0:0:0:
182,192,39635,1,0,0:0:0:0:
402,192,39635,1,0,0:0:0:0:
256,192,39783,1,0,0:0:0:0:
36,192,39783,1,0,0:0:0:0:
109,192,39783,1,0,0:0:0:0:
182,192,39932,1,0,0:0:0:0:
402,192,39932,1,0,0:0:0:0:
329,192,40080,1,0,0:0:0:0:
475,192,40080,1,0,0:0:0:0:
109,192,40080,1,0,0:0:0:0:
256,192,40229,1,0,0:0:0:0:
36,192,40229,1,0,0:0:0:0:
402,192,40377,1,0,0:0:0:0:
475,192,40377,1,0,0:0:0:0:
256,192,40377,1,0,0:0:0:0:
182,192,40377,1,0,0:0:0:0:
109,192,40452,1,0,0:0:0:0:
36,192,40452,1,0,0:0:0:0:
329,192,40526,1,0,0:0:0:0:
256,192,40526,1,0,0:0:0:0:
182,192,40600,1,0,0:0:0:0:
109,192,40600,1,0,0:0:0:0:
475,192,40674,1,0,0:0:0:0:
402,192,40674,1,0,0:0:0:0:
329,192,40674,1,0,0:0:0:0:
256,192,40749,1,0,0:0:0:0:
182,192,40749,1,0,0:0:0:0:
402,192,40823,1,0,0:0:0:0:
475,192,40823,1,0,0:0:0:0:
109,192,40897,1,0,0:0:0:0:
36,192,40897,1,0,0:0:0:0:
329,192,40971,1,0,0:0:0:0:
475,192,40971,1,0,0:0:0:0:
182,192,40971,1,0,0:0:0:0:
109,192,41120,1,0,0:0:0:0:
329,192,41120,1,0,0:0:0:0:
475,192,41268,128,0,41565:0:0:0:0:
182,192,41268,1,0,0:0:0:0:
402,192,41268,1,0,0:0:0:0:
36,192,41268,1,0,0:0:0:0:
256,192,41417,1,0,0:0:0:0:
109,192,41417,1,0,0:0:0:0:
182,192,41565,1,0,0:0:0:0:
329,192,41565,1,0,0:0:0:0:
402,192,41565,1,0,0:0:0:0:
256,192,41640,1,0,0:0:0:0:
109,192,41640,1,0,0:0:0:0:
182,192,41714,1,0,0:0:0:0:
36,192,41714,1,0,0:0:0:0:
402,192,41714,1,0,0:0:0:0:
256,192,41862,1,0,0:0:0:0:
109,192,41862,1,0,0:0:0:0:
475,192,41862,1,0,0:0:0:0:
182,192,42011,1,0,0:0:0:0:
329,192,42011,1,0,0:0:0:0:
402,192,42011,1,0,0:0:0:0:
256,192,42159,1,0,0:0:0:0:
36,192,42159,1,0,0:0:0:0:
475,192,42159,1,0,0:0:0:0:
182,192,42308,1,0,0:0:0:0:
36,192,42308,1,0,0:0:0:0:
256,192,42358,1,0,0:0:0:0:
329,192,42407,1,0,0:0:0:0:
182,192,42457,1,0,0:0:0:0:
402,192,42457,1,0,0:0:0:0:
475,192,42457,1,0,0:0:0:0:
109,192,42531,1,0,0:0:0:0:
329,192,42531,1,0,0:0:0:0:
256,192,42605,1,0,0:0:0:0:
475,192,42605,1,0,0:0:0:0:
36,192,42605,1,0,0:0:0:0:
402,192,42679,1,0,0:0:0:0:
182,192,42679,1,0,0:0:0:0:
329,192,42754,1,0,0:0:0:0:
109,192,42754,1,0,0:0:0:0:
36,192,42754,1,0,0:0:0:0:
475,192,42754,1,0,0:0:0:0:
329,192,42902,1,0,0:0:0:0:
475,192,42902,1,0,0:0:0:0:
109,192,42902,1,0,0:0:0:0:
36,192,42902,1,0,0:0:0:0:
182,192,43051,1,0,0:0:0:0:
256,192,43051,1,0,0:0:0:0:
329,192,43051,1,0,0:0:0:0:
329,192,43199,1,0,0:0:0:0:
256,192,43273,1,0,0:0:0:0:
182,192,43348,1,0,0:0:0:0:
109,192,43348,1,0,0:0:0:0:
329,192,43348,1,0,0:0:0:0:
475,192,43348,1,0,0:0:0:0:
182,192,43496,1,0,0:0:0:0:
109,192,43496,1,0,0:0:0:0:
329,192,43496,1,0,0:0:0:0:
475,192,43496,1,0,0:0:0:0:
329,192,43645,1,0,0:0:0:0:
256,192,43645,1,0,0:0:0:0:
182,192,43645,1,0,0:0:0:0:
182,192,43793,1,0,0:0:0:0:
329,192,43793,1,0,0:0:0:0:
402,192,43793,1,0,0:0:0:0:
402,192,43942,1,0,0:0:0:0:
475,192,43942,1,0,0:0:0:0:
36,192,43942,128,0,44164:0:0:0:0:
109,192,43942,128,0,44164:0:0:0:0:
182,192,43942,128,0,44164:0:0:0:0:
329,192,44016,1,0,0:0:0:0:
256,192,44016,1,0,0:0:0:0:
475,192,44090,1,0,0:0:0:0:
402,192,44090,1,0,0:0:0:0:
329,192,44164,1,0,0:0:0:0:
256,192,44164,1,0,0:0:0:0:
402,192,44239,1,0,0:0:0:0:
475,192,44239,1,0,0:0:0:0:
36,192,44239,128,0,44461:0:0:0:0:
109,192,44239,128,0,44461:0:0:0:0:
182,192,44239,128,0,44461:0:0:0:0:
402,192,44387,1,0,0:0:0:0:
329,192,44387,1,0,0:0:0:0:
36,192,44536,128,0,44758:0:0:0:0:
109,192,44536,128,0,44758:0:0:0:0:
182,192,44536,128,0,44758:0:0:0:0:
256,192,44536,1,0,0:0:0:0:
402,192,44536,1,0,0:0:0:0:
475,192,44536,1,0,0:0:0:0:
329,192,44684,1,0,0:0:0:0:
256,192,44684,1,0,0:0:0:0:
329,192,44833,1,0,0:0:0:0:
475,192,44833,1,0,0:0:0:0:
109,192,44833,1,0,0:0:0:0:
36,192,44833,1,0,0:0:0:0:
182,192,44833,1,0,0:0:0:0:
256,192,44907,1,0,0:0:0:0:
402,192,44907,1,0,0:0:0:0:
329,192,44981,1,0,0:0:0:0:
109,192,44981,1,0,0:0:0:0:
402,192,45056,1,0,0:0:0:0:
182,192,45056,1,0,0:0:0:0:
109,192,45130,1,0,0:0:0:0:
36,192,45130,1,0,0:0:0:0:
256,192,45130,1,0,0:0:0:0:
329,192,45130,1,0,0:0:0:0:
475,192,45204,1,0,0:0:0:0:
402,192,45204,1,0,0:0:0:0:
182,192,45278,1,0,0:0:0:0:
256,192,45278,1,0,0:0:0:0:
329,192,45353,1,0,0:0:0:0:
402,192,45353,1,0,0:0:0:0:
109,192,45427,1,0,0:0:0:0:
36,192,45427,1,0,0:0:0:0:
182,192,45427,1,0,0:0:0:0:
256,192,45501,1,0,0:0:0:0:
329,192,45501,1,0,0:0:0:0:
36,192,45575,1,0,0:0:0:0:
109,192,45575,1,0,0:0:0:0:
402,192,45650,1,0,0:0:0:0:
329,192,45650,1,0,0:0:0:0:
109,192,45724,1,0,0:0:0:0:
182,192,45724,1,0,0:0:0:0:
475,192,45724,1,0,0:0:0:0:
256,192,45872,1,0,0:0:0:0:
402,192,45872,1,0,0:0:0:0:
329,192,46021,1,0,0:0:0:0:
182,192,46021,1,0,0:0:0:0:
36,192,46021,128,0,46318:0:0:0:0:
109,192,46021,1,0,0:0:0:0:
256,192,46169,1,0,0:0:0:0:
402,192,46169,1,0,0:0:0:0:
329,192,46318,1,0,0:0:0:0:
475,192,46318,1,0,0:0:0:0:
109,192,46318,1,0,0:0:0:0:
182,192,46392,1,0,0:0:0:0:
402,192,46392,1,0,0:0:0:0:
256,192,46466,1,0,0:0:0:0:
36,192,46466,1,0,0:0:0:0:
329,192,46466,1,0,0:0:0:0:
182,192,46615,1,0,0:0:0:0:
109,192,46615,1,0,0:0:0:0:
475,192,46615,1,0,0:0:0:0:
402,192,46763,1,0,0:0:0:0:
256,192,46763,1,0,0:0:0:0:
36,192,46763,1,0,0:0:0:0:
182,192,46912,1,0,0:0:0:0:
36,192,46912,1,0,0:0:0:0:
329,192,46912,1,0,0:0:0:0:
256,192,47060,1,0,0:0:0:0:
475,192,47060,1,0,0:0:0:0:
402,192,47060,1,0,0:0:0:0:
329,192,47209,1,0,0:0:0:0:
402,192,47209,1,0,0:0:0:0:
109,192,47209,1,0,0:0:0:0:
182,192,47358,1,0,0:0:0:0:
36,192,47358,1,0,0:0:0:0:
329,192,47358,1,0,0:0:0:0:
256,192,47506,1,0,0:0:0:0:
109,192,47506,1,0,0:0:0:0:
402,192,47506,1,0,0:0:0:0:
475,192,47506,1,0,0:0:0:0:
109,192,47655,1,0,0:0:0:0:
256,192,47655,1,0,0:0:0:0:
475,192,47655,1,0,0:0:0:0:
402,192,47655,1,0,0:0:0:0:
329,192,47803,1,0,0:0:0:0:
256,192,47803,1,0,0:0:0:0:
182,192,47803,1,0,0:0:0:0:
329,192,47952,1,0,0:0:0:0:
109,192,48026,1,0,0:0:0:0:
256,192,48100,1,0,0:0:0:0:
475,192,48100,1,0,0:0:0:0:
36,192,48100,1,0,0:0:0:0:
329,192,48100,1,0,0:0:0:0:
36,192,48249,1,0,0:0:0:0:
256,192,48249,1,0,0:0:0:0:
329,192,48249,1,0,0:0:0:0:
475,192,48249,1,0,0:0:0:0:
182,192,48323,1,0,0:0:0:0:
256,192,48397,1,0,0:0:0:0:
329,192,48397,1,0,0:0:0:0:
36,192,48397,1,0,0:0:0:0:
109,192,48546,1,0,0:0:0:0:
329,192,48546,1,0,0:0:0:0:
475,192,48546,1,0,0:0:0:0:
182,192,48546,1,0,0:0:0:0:
256,192,48694,1,0,0:0:0:0:
402,192,48694,1,0,0:0:0:0:
36,192,48694,1,0,0:0:0:0:
329,192,48768,1,0,0:0:0:0:
182,192,48768,1,0,0:0:0:0:
256,192,48843,1,0,0:0:0:0:
109,192,48843,1,0,0:0:0:0:
475,192,48843,1,0,0:0:0:0:
329,192,48917,1,0,0:0:0:0:
182,192,48917,1,0,0:0:0:0:
256,192,48991,1,0,0:0:0:0:
36,192,48991,1,0,0:0:0:0:
402,192,48991,1,0,0:0:0:0:
182,192,49065,1,0,0:0:0:0:
329,192,49140,1,0,0:0:0:0:
402,192,49140,1,0,0:0:0:0:
109,192,49140,1,0,0:0:0:0:
256,192,49214,1,0,0:0:0:0:
182,192,49288,1,0,0:0:0:0:
402,192,49288,1,0,0:0:0:0:
475,192,49288,1,0,0:0:0:0:
36,192,49288,1,0,0:0:0:0:
182,192,49437,1,0,0:0:0:0:
109,192,49437,1,0,0:0:0:0:
329,192,49437,1,0,0:0:0:0:
402,192,49437,1,0,0:0:0:0:
182,192,49585,1,0,0:0:0:0:
109,192,49585,1,0,0:0:0:0:
329,192,49585,1,0,0:0:0:0:
402,192,49585,1,0,0:0:0:0:
475,192,49585,1,0,0:0:0:0:
256,192,49659,1,0,0:0:0:0:
109,192,49734,1,0,0:0:0:0:
36,192,49734,1,0,0:0:0:0:
329,192,49734,1,0,0:0:0:0:
182,192,49808,1,0,0:0:0:0:
256,192,49882,1,0,0:0:0:0:
36,192,49882,1,0,0:0:0:0:
109,192,49882,1,0,0:0:0:0:
329,192,49882,1,0,0:0:0:0:
402,192,49957,1,0,0:0:0:0:
475,192,49957,1,0,0:0:0:0:
256,192,50031,1,0,0:0:0:0:
182,192,50031,1,0,0:0:0:0:
36,192,50031,1,0,0:0:0:0:
402,192,50105,1,0,0:0:0:0:
475,192,50105,1,0,0:0:0:0:
36,192,50179,1,0,0:0:0:0:
109,192,50179,1,0,0:0:0:0:
182,192,50179,1,0,0:0:0:0:
329,192,50254,1,0,0:0:0:0:
402,192,50254,1,0,0:0:0:0:
256,192,50328,1,0,0:0:0:0:
182,192,50328,1,0,0:0:0:0:
36,192,50328,1,0,0:0:0:0:
329,192,50402,1,0,0:0:0:0:
402,192,50402,1,0,0:0:0:0:
109,192,50476,1,0,0:0:0:0:
36,192,50476,1,0,0:0:0:0:
475,192,50476,1,0,0:0:0:0:
256,192,50625,1,0,0:0:0:0:
402,192,50625,1,0,0:0:0:0:
109,192,50625,1,0,0:0:0:0:
182,192,50773,1,0,0:0:0:0:
36,192,50773,1,0,0:0:0:0:
402,192,50773,1,0,0:0:0:0:
475,192,50773,128,0,51070:0:0:0:0:
256,192,50922,1,0,0:0:0:0:
329,192,50922,1,0,0:0:0:0:
109,192,50922,1,0,0:0:0:0:
109,192,51070,1,0,0:0:0:0:
329,192,51070,1,0,0:0:0:0:
402,192,51070,1,0,0:0:0:0:
182,192,51070,1,0,0:0:0:0:
256,192,51145,1,0,0:0:0:0:
36,192,51145,1,0,0:0:0:0:
182,192,51219,1,0,0:0:0:0:
402,192,51219,1,0,0:0:0:0:
475,192,51219,1,0,0:0:0:0:
256,192,51367,1,0,0:0:0:0:
36,192,51367,1,0,0:0:0:0:
475,192,51367,1,0,0:0:0:0:
109,192,51367,1,0,0:0:0:0:
256,192,51516,1,0,0:0:0:0:
109,192,51516,1,0,0:0:0:0:
402,192,51516,1,0,0:0:0:0:
329,192,51516,1,0,0:0:0:0:
182,192,51664,1,0,0:0:0:0:
402,192,51664,1,0,0:0:0:0:
475,192,51664,1,0,0:0:0:0:
36,192,51664,1,0,0:0:0:0:
256,192,51813,1,0,0:0:0:0:
402,192,51813,1,0,0:0:0:0:
36,192,51813,1,0,0:0:0:0:
182,192,51862,1,0,0:0:0:0:
109,192,51912,1,0,0:0:0:0:
256,192,51961,1,0,0:0:0:0:
475,192,51961,1,0,0:0:0:0:
402,192,51961,1,0,0:0:0:0:
36,192,51961,1,0,0:0:0:0:
109,192,52110,1,0,0:0:0:0:
329,192,52110,1,0,0:0:0:0:
402,192,52110,1,0,0:0:0:0:
182,192,52110,1,0,0:0:0:0:
329,192,52258,1,0,0:0:0:0:
109,192,52258,1,0,0:0:0:0:
36,192,52258,1,0,0:0:0:0:
475,192,52258,1,0,0:0:0:0:
402,192,52258,1,0,0:0:0:0:
109,192,52407,1,0,0:0:0:0:
36,192,52407,1,0,0:0:0:0:
329,192,52407,1,0,0:0:0:0:
402,192,52407,1,0,0:0:0:0:
475,192,52407,1,0,0:0:0:0:
182,192,52556,1,0,0:0:0:0:
109,192,52556,1,0,0:0:0:0:
329,192,52556,1,0,0:0:0:0:
402,192,52556,1,0,0:0:0:0:
329,192,52704,1,0,0:0:0:0:
256,192,52704,1,0,0:0:0:0:
109,192,52778,1,0,0:0:0:0:
36,192,52778,1,0,0:0:0:0:
182,192,52853,1,0,0:0:0:0:
256,192,52853,1,0,0:0:0:0:
402,192,52853,1,0,0:0:0:0:
475,192,52853,1,0,0:0:0:0:
329,192,52853,1,0,0:0:0:0:
256,192,53001,1,0,0:0:0:0:
182,192,53001,1,0,0:0:0:0:
402,192,53001,1,0,0:0:0:0:
475,192,53001,1,0,0:0:0:0:
329,192,53001,1,0,0:0:0:0:
109,192,53150,1,0,0:0:0:0:
36,192,53150,1,0,0:0:0:0:
256,192,53150,1,0,0:0:0:0:
402,192,53150,1,0,0:0:0:0:
329,192,53298,1,0,0:0:0:0:
109,192,53298,1,0,0:0:0:0:
182,192,53298,1,0,0:0:0:0:
256,192,53447,1,0,0:0:0:0:
475,192,53447,1,0,0:0:0:0:
109,192,53447,1,0,0:0:0:0:
182,192,53521,1,0,0:0:0:0:
329,192,53521,1,0,0:0:0:0:
256,192,53595,1,0,0:0:0:0:
402,192,53595,1,0,0:0:0:0:
36,192,53595,1,0,0:0:0:0:
329,192,53669,1,0,0:0:0:0:
109,192,53669,1,0,0:0:0:0:
182,192,53744,1,0,0:0:0:0:
36,192,53744,1,0,0:0:0:0:
475,192,53744,1,0,0:0:0:0:
256,192,53744,1,0,0:0:0:0:
402,192,53744,1,0,0:0:0:0:
256,192,53892,1,0,0:0:0:0:
109,192,53892,1,0,0:0:0:0:
329,192,53892,1,0,0:0:0:0:
402,192,53892,1,0,0:0:0:0:
182,192,54041,1,0,0:0:0:0:
36,192,54041,1,0,0:0:0:0:
256,192,54041,1,0,0:0:0:0:
475,192,54041,1,0,0:0:0:0:
402,192,54041,1,0,0:0:0:0:
182,192,54189,1,0,0:0:0:0:
109,192,54189,1,0,0:0:0:0:
329,192,54189,1,0,0:0:0:0:
36,192,54189,1,0,0:0:0:0:
109,192,54338,1,0,0:0:0:0:
475,192,54338,1,0,0:0:0:0:
402,192,54338,1,0,0:0:0:0:
256,192,54338,1,0,0:0:0:0:
36,192,54338,1,0,0:0:0:0:
182,192,54412,1,0,0:0:0:0:
329,192,54412,1,0,0:0:0:0:
256,192,54486,1,0,0:0:0:0:
402,192,54486,1,0,0:0:0:0:
36,192,54486,1,0,0:0:0:0:
109,192,54560,1,0,0:0:0:0:
329,192,54560,1,0,0:0:0:0:
182,192,54635,1,0,0:0:0:0:
475,192,54635,1,0,0:0:0:0:
402,192,54635,1,0,0:0:0:0:
256,192,54635,1,0,0:0:0:0:
109,192,54709,1,0,0:0:0:0:
36,192,54709,1,0,0:0:0:0:
256,192,54783,1,0,0:0:0:0:
402,192,54783,1,0,0:0:0:0:
475,192,54783,1,0,0:0:0:0:
109,192,54858,1,0,0:0:0:0:
36,192,54858,1,0,0:0:0:0:
329,192,54932,1,0,0:0:0:0:
402,192,54932,1,0,0:0:0:0:
256,192,54932,1,0,0:0:0:0:
109,192,55006,1,0,0:0:0:0:
182,192,55006,1,0,0:0:0:0:
329,192,55080,1,0,0:0:0:0:
402,192,55080,1,0,0:0:0:0:
475,192,55080,1,0,0:0:0:0:
109,192,55155,1,0,0:0:0:0:
182,192,55155,1,0,0:0:0:0:
256,192,55229,1,0,0:0:0:0:
402,192,55229,1,0,0:0:0:0:
36,192,55229,1,0,0:0:0:0:
329,192,55229,1,0,0:0:0:0:
109,192,55377,1,0,0:0:0:0:
329,192,55377,1,0,0:0:0:0:
475,192,55377,1,0,0:0:0:0:
182,192,55526,1,0,0:0:0:0:
402,192,55526,1,0,0:0:0:0:
256,192,55526,1,0,0:0:0:0:
36,192,55526,1,0,0:0:0:0:
109,192,55674,1,0,0:0:0:0:
402,192,55674,1,0,0:0:0:0:
475,192,55674,1,0,0:0:0:0:
256,192,55674,1,0,0:0:0:0:
36,192,55823,1,0,0:0:0:0:
329,192,55823,1,0,0:0:0:0:
475,192,55823,1,0,0:0:0:0:
256,192,55823,1,0,0:0:0:0:
109,192,55897,1,0,0:0:0:0:
402,192,55897,1,0,0:0:0:0:
182,192,55971,1,0,0:0:0:0:
36,192,55971,1,0,0:0:0:0:
329,192,55971,1,0,0:0:0:0:
256,192,56046,1,0,0:0:0:0:
475,192,56046,1,0,0:0:0:0:
402,192,56120,1,0,0:0:0:0:
182,192,56120,1,0,0:0:0:0:
109,192,56120,1,0,0:0:0:0:
329,192,56194,1,0,0:0:0:0:
256,192,56194,1,0,0:0:0:0:
402,192,56268,1,0,0:0:0:0:
109,192,56268,1,0,0:0:0:0:
475,192,56268,1,0,0:0:0:0:
182,192,56343,1,0,0:0:0:0:
329,192,56343,1,0,0:0:0:0:
36,192,56343,1,0,0:0:0:0:
256,192,56417,1,0,0:0:0:0:
475,192,56417,1,0,0:0:0:0:
109,192,56417,1,0,0:0:0:0:
182,192,56491,1,0,0:0:0:0:
329,192,56491,1,0,0:0:0:0:
256,192,56565,1,0,0:0:0:0:
402,192,56565,1,0,0:0:0:0:
36,192,56565,1,0,0:0:0:0:
109,192,56640,1,0,0:0:0:0:
329,192,56640,1,0,0:0:0:0:
182,192,56714,1,0,0:0:0:0:
475,192,56714,1,0,0:0:0:0:
402,192,56714,1,0,0:0:0:0:
329,192,56788,1,0,0:0:0:0:
256,192,56788,1,0,0:0:0:0:
109,192,56788,1,0,0:0:0:0:
182,192,56862,1,0,0:0:0:0:
36,192,56862,1,0,0:0:0:0:
475,192,56862,1,0,0:0:0:0:
402,192,56937,1,0,0:0:0:0:
256,192,56937,1,0,0:0:0:0:
109,192,56937,1,0,0:0:0:0:
182,192,57011,1,0,0:0:0:0:
329,192,57011,1,0,0:0:0:0:
475,192,57011,1,0,0:0:0:0:
36,192,57011,1,0,0:0:0:0:
36,192,57159,1,0,0:0:0:0:
182,192,57159,1,0,0:0:0:0:
256,192,57159,1,0,0:0:0:0:
329,192,57159,1,0,0:0:0:0:
475,192,57159,1,0,0:0:0:0:
182,192,57308,1,0,0:0:0:0:
109,192,57308,1,0,0:0:0:0:
329,192,57308,1,0,0:0:0:0:
402,192,57308,1,0,0:0:0:0:
402,192,57457,1,0,0:0:0:0:
36,192,57457,1,0,0:0:0:0:
182,192,57457,1,0,0:0:0:0:
109,192,57457,1,0,0:0:0:0:
256,192,57531,1,0,0:0:0:0:
329,192,57531,1,0,0:0:0:0:
475,192,57605,1,0,0:0:0:0:
402,192,57605,1,0,0:0:0:0:
36,192,57605,1,0,0:0:0:0:
182,192,57605,1,0,0:0:0:0:
109,192,57605,1,0,0:0:0:0:
402,192,57754,1,0,0:0:0:0:
475,192,57754,1,0,0:0:0:0:
36,192,57754,1,0,0:0:0:0:
182,192,57754,1,0,0:0:0:0:
109,192,57754,1,0,0:0:0:0:
182,192,57902,1,0,0:0:0:0:
109,192,57902,1,0,0:0:0:0:
329,192,57902,1,0,0:0:0:0:
402,192,57902,1,0,0:0:0:0:
256,192,58051,1,0,0:0:0:0:
182,192,58051,1,0,0:0:0:0:
36,192,58051,1,0,0:0:0:0:
329,192,58051,1,0,0:0:0:0:
475,192,58051,1,0,0:0:0:0:
256,192,58199,5,0,0:0:0:0:
475,192,58199,1,0,0:0:0:0:
109,192,58199,1,0,0:0:0:0:
36,192,58199,1,0,0:0:0:0:
182,192,58273,1,0,0:0:0:0:
329,192,58273,1,0,0:0:0:0:
402,192,58273,1,0,0:0:0:0:
256,192,58348,1,0,0:0:0:0:
475,192,58348,1,0,0:0:0:0:
36,192,58348,1,0,0:0:0:0:
109,192,58422,1,0,0:0:0:0:
329,192,58422,1,0,0:0:0:0:
182,192,58422,1,0,0:0:0:0:
256,192,58496,1,0,0:0:0:0:
402,192,58496,1,0,0:0:0:0:
475,192,58496,1,0,0:0:0:0:
329,192,58570,1,0,0:0:0:0:
182,192,58570,1,0,0:0:0:0:
256,192,58645,1,0,0:0:0:0:
109,192,58645,1,0,0:0:0:0:
36,192,58645,1,0,0:0:0:0:
475,192,58719,1,0,0:0:0:0:
182,192,58719,1,0,0:0:0:0:
256,192,58793,1,0,0:0:0:0:
402,192,58793,1,0,0:0:0:0:
329,192,58793,1,0,0:0:0:0:
36,192,58793,1,0,0:0:0:0:
109,192,58867,1,0,0:0:0:0:
182,192,58867,1,0,0:0:0:0:
36,192,58942,1,0,0:0:0:0:
329,192,58942,128,0,59016:0:0:0:0:
402,192,58942,128,0,59016:0:0:0:0:
475,192,58942,128,0,59016:0:0:0:0:
256,192,58942,1,0,0:0:0:0:
182,192,59016,1,0,0:0:0:0:
329,192,59090,128,0,59387:0:0:0:0:
402,192,59090,128,0,59387:0:0:0:0:
475,192,59090,128,0,59387:0:0:0:0:
109,192,59090,1,0,0:0:0:0:
36,192,59090,1,0,0:0:0:0:
182,192,59164,1,0,0:0:0:0:
256,192,59239,1,0,0:0:0:0:
36,192,59239,1,0,0:0:0:0:
109,192,59313,1,0,0:0:0:0:
256,192,59387,5,0,0:0:0:0:
182,192,59387,1,0,0:0:0:0:
36,192,59387,1,0,0:0:0:0:
109,192,59536,1,0,0:0:0:0:
329,192,59536,1,0,0:0:0:0:
475,192,59536,1,0,0:0:0:0:
402,192,59610,1,0,0:0:0:0:
256,192,59610,1,0,0:0:0:0:
329,192,59684,1,0,0:0:0:0:
475,192,59684,1,0,0:0:0:0:
182,192,59684,1,0,0:0:0:0:
36,192,59684,1,0,0:0:0:0:
256,192,59833,1,0,0:0:0:0:
36,192,59833,1,0,0:0:0:0:
329,192,59907,1,0,0:0:0:0:
402,192,59907,1,0,0:0:0:0:
475,192,59907,1,0,0:0:0:0:
109,192,59907,1,0,0:0:0:0:
182,192,59981,1,0,0:0:0:0:
36,192,59981,1,0,0:0:0:0:
256,192,60056,1,0,0:0:0:0:
182,192,60130,1,0,0:0:0:0:
329,192,60130,1,0,0:0:0:0:
402,192,60130,1,0,0:0:0:0:
475,192,60130,1,0,0:0:0:0:
109,192,60204,1,0,0:0:0:0:
36,192,60278,1,0,0:0:0:0:
182,192,60278,1,0,0:0:0:0:
256,192,60278,1,0,0:0:0:0:
329,192,60353,1,0,0:0:0:0:
402,192,60353,1,0,0:0:0:0:
475,192,60353,1,0,0:0:0:0:
109,192,60427,1,0,0:0:0:0:
36,192,60427,1,0,0:0:0:0:
402,192,60501,1,0,0:0:0:0:
475,192,60501,1,0,0:0:0:0:
329,192,60501,1,0,0:0:0:0:
182,192,60575,1,0,0:0:0:0:
36,192,60575,1,0,0:0:0:0:
109,192,60575,1,0,0:0:0:0:
256,192,60575,1,0,0:0:0:0:
329,192,60724,1,0,0:0:0:0:
109,192,60724,1,0,0:0:0:0:
256,192,60724,1,0,0:0:0:0:
182,192,60798,1,0,0:0:0:0:
402,192,60798,1,0,0:0:0:0:
256,192,60872,1,0,0:0:0:0:
475,192,60872,1,0,0:0:0:0:
36,192,60872,1,0,0:0:0:0:
109,192,60872,1,0,0:0:0:0:
256,192,61021,1,0,0:0:0:0:
109,192,61021,1,0,0:0:0:0:
329,192,61095,1,0,0:0:0:0:
402,192,61095,1,0,0:0:0:0:
475,192,61095,1,0,0:0:0:0:
182,192,61095,1,0,0:0:0:0:
109,192,61169,1,0,0:0:0:0:
36,192,61169,1,0,0:0:0:0:
256,192,61244,1,0,0:0:0:0:
329,192,61318,1,0,0:0:0:0:
402,192,61318,1,0,0:0:0:0:
475,192,61318,1,0,0:0:0:0:
36,192,61318,1,0,0:0:0:0:
109,192,61392,1,0,0:0:0:0:
256,192,61466,1,0,0:0:0:0:
329,192,61466,1,0,0:0:0:0:
475,192,61466,1,0,0:0:0:0:
182,192,61466,1,0,0:0:0:0:
36,192,61466,1,0,0:0:0:0:
256,192,61615,1,0,0:0:0:0:
402,192,61615,1,0,0:0:0:0:
109,192,61615,1,0,0:0:0:0:
36,192,61615,1,0,0:0:0:0:
329,192,61615,1,0,0:0:0:0:
182,192,61763,1,0,0:0:0:0:
109,192,61763,1,0,0:0:0:0:
475,192,61763,1,0,0:0:0:0:
402,192,61763,1,0,0:0:0:0:
329,192,61912,1,0,0:0:0:0:
36,192,61912,1,0,0:0:0:0:
182,192,61912,1,0,0:0:0:0:
256,192,61986,1,0,0:0:0:0:
402,192,61986,1,0,0:0:0:0:
329,192,62060,1,0,0:0:0:0:
475,192,62060,1,0,0:0:0:0:
36,192,62060,1,0,0:0:0:0:
109,192,62060,1,0,0:0:0:0:
182,192,62209,1,0,0:0:0:0:
475,192,62209,1,0,0:0:0:0:
36,192,62283,1,0,0:0:0:0:
329,192,62283,1,0,0:0:0:0:
402,192,62283,1,0,0:0:0:0:
256,192,62283,1,0,0:0:0:0:
109,192,62358,1,0,0:0:0:0:
182,192,62358,1,0,0:0:0:0:
475,192,62432,1,0,0:0:0:0:
36,192,62506,1,0,0:0:0:0:
402,192,62506,1,0,0:0:0:0:
329,192,62506,1,0,0:0:0:0:
256,192,62506,1,0,0:0:0:0:
182,192,62580,1,0,0:0:0:0:
109,192,62655,1,0,0:0:0:0:
36,192,62655,1,0,0:0:0:0:
475,192,62655,1,0,0:0:0:0:
402,192,62729,1,0,0:0:0:0:
329,192,62729,1,0,0:0:0:0:
256,192,62729,1,0,0:0:0:0:
109,192,62803,1,0,0:0:0:0:
36,192,62803,1,0,0:0:0:0:
256,192,62877,1,0,0:0:0:0:
329,192,62877,1,0,0:0:0:0:
402,192,62877,1,0,0:0:0:0:
475,192,62952,1,0,0:0:0:0:
182,192,62952,1,0,0:0:0:0:
36,192,62952,1,0,0:0:0:0:
109,192,62952,1,0,0:0:0:0:
109,192,63100,1,0,0:0:0:0:
402,192,63100,1,0,0:0:0:0:
256,192,63100,1,0,0:0:0:0:
329,192,63174,1,0,0:0:0:0:
182,192,63174,1,0,0:0:0:0:
256,192,63249,1,0,0:0:0:0:
475,192,63249,1,0,0:0:0:0:
402,192,63249,1,0,0:0:0:0:
36,192,63249,1,0,0:0:0:0:
109,192,63397,1,0,0:0:0:0:
329,192,63397,1,0,0:0:0:0:
182,192,63471,1,0,0:0:0:0:
402,192,63471,1,0,0:0:0:0:
475,192,63471,1,0,0:0:0:0:
256,192,63471,1,0,0:0:0:0:
109,192,63546,1,0,0:0:0:0:
36,192,63546,1,0,0:0:0:0:
329,192,63546,1,0,0:0:0:0:
36,192,63694,1,0,0:0:0:0:
402,192,63694,1,0,0:0:0:0:
329,192,63694,1,0,0:0:0:0:
256,192,63694,1,0,0:0:0:0:
109,192,63768,1,0,0:0:0:0:
182,192,63843,1,0,0:0:0:0:
36,192,63843,1,0,0:0:0:0:
329,192,63843,1,0,0:0:0:0:
256,192,63991,1,0,0:0:0:0:
402,192,63991,1,0,0:0:0:0:
109,192,63991,1,0,0:0:0:0:
329,192,63991,1,0,0:0:0:0:
256,192,64140,1,0,0:0:0:0:
182,192,64140,1,0,0:0:0:0:
36,192,64140,1,0,0:0:0:0:
475,192,64140,1,0,0:0:0:0:
109,192,64288,1,0,0:0:0:0:
402,192,64288,1,0,0:0:0:0:
475,192,64288,1,0,0:0:0:0:
329,192,64362,1,0,0:0:0:0:
36,192,64362,1,0,0:0:0:0:
109,192,64437,1,0,0:0:0:0:
256,192,64437,1,0,0:0:0:0:
402,192,64437,1,0,0:0:0:0:
182,192,64437,1,0,0:0:0:0:
256,192,64585,1,0,0:0:0:0:
475,192,64585,1,0,0:0:0:0:
182,192,64659,1,0,0:0:0:0:
109,192,64659,1,0,0:0:0:0:
36,192,64659,1,0,0:0:0:0:
402,192,64659,1,0,0:0:0:0:
329,192,64734,1,0,0:0:0:0:
475,192,64734,1,0,0:0:0:0:
256,192,64808,1,0,0:0:0:0:
182,192,64882,1,0,0:0:0:0:
109,192,64882,1,0,0:0:0:0:
36,192,64882,1,0,0:0:0:0:
329,192,64882,1,0,0:0:0:0:
402,192,64957,1,0,0:0:0:0:
256,192,65031,1,0,0:0:0:0:
329,192,65031,1,0,0:0:0:0:
475,192,65031,1,0,0:0:0:0:
182,192,65105,1,0,0:0:0:0:
109,192,65105,1,0,0:0:0:0:
36,192,65105,1,0,0:0:0:0:
402,192,65179,1,0,0:0:0:0:
475,192,65179,1,0,0:0:0:0:
182,192,65254,1,0,0:0:0:0:
109,192,65254,1,0,0:0:0:0:
36,192,65254,1,0,0:0:0:0:
256,192,65328,1,0,0:0:0:0:
329,192,65328,1,0,0:0:0:0:
402,192,65328,1,0,0:0:0:0:
475,192,65328,1,0,0:0:0:0:
36,192,65476,1,0,0:0:0:0:
182,192,65476,1,0,0:0:0:0:
402,192,65476,1,0,0:0:0:0:
109,192,65551,1,0,0:0:0:0:
329,192,65551,1,0,0:0:0:0:
256,192,65625,1,0,0:0:0:0:
182,192,65625,1,0,0:0:0:0:
402,192,65625,1,0,0:0:0:0:
475,192,65625,1,0,0:0:0:0:
256,192,65773,1,0,0:0:0:0:
475,192,65773,1,0,0:0:0:0:
182,192,65848,1,0,0:0:0:0:
109,192,65848,1,0,0:0:0:0:
36,192,65848,1,0,0:0:0:0:
402,192,65848,1,0,0:0:0:0:
329,192,65922,1,0,0:0:0:0:
475,192,65922,1,0,0:0:0:0:
256,192,65996,1,0,0:0:0:0:
182,192,66070,1,0,0:0:0:0:
109,192,66070,1,0,0:0:0:0:
36,192,66070,1,0,0:0:0:0:
329,192,66070,1,0,0:0:0:0:
475,192,66145,1,0,0:0:0:0:
402,192,66219,1,0,0:0:0:0:
329,192,66219,1,0,0:0:0:0:
182,192,66219,1,0,0:0:0:0:
109,192,66219,1,0,0:0:0:0:
36,192,66219,1,0,0:0:0:0:
109,192,66367,1,0,0:0:0:0:
182,192,66367,1,0,0:0:0:0:
256,192,66367,1,0,0:0:0:0:
329,192,66367,1,0,0:0:0:0:
402,192,66367,1,0,0:0:0:0:
182,192,66516,1,0,0:0:0:0:
36,192,66516,1,0,0:0:0:0:
329,192,66516,1,0,0:0:0:0:
475,192,66516,1,0,0:0:0:0:
256,192,66664,1,0,0:0:0:0:
402,192,66664,1,0,0:0:0:0:
36,192,66664,1,0,0:0:0:0:
109,192,66739,1,0,0:0:0:0:
475,192,66739,1,0,0:0:0:0:
329,192,66813,1,0,0:0:0:0:
256,192,66813,1,0,0:0:0:0:
182,192,66813,1,0,0:0:0:0:
402,192,66813,1,0,0:0:0:0:
36,192,66961,1,0,0:0:0:0:
475,192,66961,1,0,0:0:0:0:
109,192,67036,1,0,0:0:0:0:
256,192,67036,1,0,0:0:0:0:
182,192,67036,1,0,0:0:0:0:
402,192,67036,1,0,0:0:0:0:
329,192,67110,1,0,0:0:0:0:
475,192,67110,1,0,0:0:0:0:
36,192,67184,1,0,0:0:0:0:
109,192,67258,1,0,0:0:0:0:
182,192,67258,1,0,0:0:0:0:
256,192,67258,1,0,0:0:0:0:
475,192,67258,1,0,0:0:0:0:
329,192,67333,1,0,0:0:0:0:
36,192,67407,1,0,0:0:0:0:
402,192,67407,1,0,0:0:0:0:
475,192,67407,1,0,0:0:0:0:
109,192,67481,1,0,0:0:0:0:
182,192,67481,1,0,0:0:0:0:
256,192,67481,1,0,0:0:0:0:
402,192,67556,1,0,0:0:0:0:
475,192,67556,1,0,0:0:0:0:
256,192,67630,1,0,0:0:0:0:
182,192,67630,1,0,0:0:0:0:
329,192,67630,1,0,0:0:0:0:
36,192,67704,1,0,0:0:0:0:
475,192,67704,128,0,67778:0:0:0:0:
402,192,67704,128,0,67778:0:0:0:0:
182,192,67778,1,0,0:0:0:0:
329,192,67853,1,0,0:0:0:0:
36,192,67927,128,0,68001:0:0:0:0:
109,192,67927,128,0,68001:0:0:0:0:
475,192,67927,1,0,0:0:0:0:
182,192,68001,128,0,68224:0:0:0:0:
256,192,68001,128,0,68224:0:0:0:0:
329,192,68001,1,0,0:0:0:0:
402,192,68075,1,0,0:0:0:0:
475,192,68150,1,0,0:0:0:0:
36,192,68224,1,0,0:0:0:0:
109,192,68298,1,0,0:0:0:0:
402,192,68298,1,0,0:0:0:0:
475,192,68298,1,0,0:0:0:0:
329,192,68298,1,0,0:0:0:0:
182,192,68447,1,0,0:0:0:0:
36,192,68447,1,0,0:0:0:0:
256,192,68447,1,0,0:0:0:0:
182,192,68595,1,0,0:0:0:0:
329,192,68595,1,0,0:0:0:0:
402,192,68595,1,0,0:0:0:0:
475,192,68595,1,0,0:0:0:0:
256,192,68744,1,0,0:0:0:0:
36,192,68744,1,0,0:0:0:0:
109,192,68744,1,0,0:0:0:0:
402,192,68892,1,0,0:0:0:0:
475,192,68892,1,0,0:0:0:0:
329,192,68892,1,0,0:0:0:0:
182,192,68892,1,0,0:0:0:0:
256,192,68966,1,0,0:0:0:0:
329,192,69041,1,0,0:0:0:0:
36,192,69041,1,0,0:0:0:0:
475,192,69041,1,0,0:0:0:0:
109,192,69115,1,0,0:0:0:0:
402,192,69115,1,0,0:0:0:0:
182,192,69189,1,0,0:0:0:0:
36,192,69189,1,0,0:0:0:0:
475,192,69189,1,0,0:0:0:0:
329,192,69189,1,0,0:0:0:0:
256,192,69263,1,0,0:0:0:0:
329,192,69338,1,0,0:0:0:0:
109,192,69338,1,0,0:0:0:0:
402,192,69338,1,0,0:0:0:0:
256,192,69412,1,0,0:0:0:0:
182,192,69412,1,0,0:0:0:0:
36,192,69412,1,0,0:0:0:0:
402,192,69486,1,0,0:0:0:0:
475,192,69486,1,0,0:0:0:0:
329,192,69560,1,0,0:0:0:0:
109,192,69560,1,0,0:0:0:0:
36,192,69560,1,0,0:0:0:0:
182,192,69635,1,0,0:0:0:0:
256,192,69635,1,0,0:0:0:0:
475,192,69635,1,0,0:0:0:0:
329,192,69709,1,0,0:0:0:0:
36,192,69783,1,0,0:0:0:0:
402,192,69783,1,0,0:0:0:0:
109,192,69783,1,0,0:0:0:0:
475,192,69857,1,0,0:0:0:0:
329,192,69857,1,0,0:0:0:0:
256,192,69857,1,0,0:0:0:0:
109,192,69932,1,0,0:0:0:0:
36,192,69932,1,0,0:0:0:0:
256,192,70006,1,0,0:0:0:0:
329,192,70006,1,0,0:0:0:0:
475,192,70006,1,0,0:0:0:0:
182,192,70080,1,0,0:0:0:0:
109,192,70080,1,0,0:0:0:0:
402,192,70080,1,0,0:0:0:0:
36,192,70080,1,0,0:0:0:0:
329,192,70155,1,0,0:0:0:0:
256,192,70229,1,0,0:0:0:0:
109,192,70229,1,0,0:0:0:0:
475,192,70229,1,0,0:0:0:0:
402,192,70303,1,0,0:0:0:0:
182,192,70303,1,0,0:0:0:0:
329,192,70377,1,0,0:0:0:0:
109,192,70377,1,0,0:0:0:0:
36,192,70377,1,0,0:0:0:0:
475,192,70377,1,0,0:0:0:0:
256,192,70452,1,0,0:0:0:0:
182,192,70526,1,0,0:0:0:0:
402,192,70526,1,0,0:0:0:0:
475,192,70526,1,0,0:0:0:0:
329,192,70600,1,0,0:0:0:0:
256,192,70600,1,0,0:0:0:0:
109,192,70600,1,0,0:0:0:0:
182,192,70674,1,0,0:0:0:0:
36,192,70674,1,0,0:0:0:0:
329,192,70749,1,0,0:0:0:0:
402,192,70749,1,0,0:0:0:0:
475,192,70749,1,0,0:0:0:0:
256,192,70823,1,0,0:0:0:0:
36,192,70823,1,0,0:0:0:0:
109,192,70823,1,0,0:0:0:0:
182,192,70897,1,0,0:0:0:0:
256,192,70971,1,0,0:0:0:0:
402,192,70971,1,0,0:0:0:0:
36,192,70971,1,0,0:0:0:0:
475,192,70971,1,0,0:0:0:0:
182,192,71120,1,0,0:0:0:0:
36,192,71120,1,0,0:0:0:0:
329,192,71120,1,0,0:0:0:0:
475,192,71120,1,0,0:0:0:0:
256,192,71194,1,0,0:0:0:0:
182,192,71268,1,0,0:0:0:0:
402,192,71268,1,0,0:0:0:0:
475,192,71268,1,0,0:0:0:0:
109,192,71268,1,0,0:0:0:0:
329,192,71343,1,0,0:0:0:0:
256,192,71417,1,0,0:0:0:0:
36,192,71417,1,0,0:0:0:0:
402,192,71417,1,0,0:0:0:0:
182,192,71491,1,0,0:0:0:0:
329,192,71491,1,0,0:0:0:0:
256,192,71565,1,0,0:0:0:0:
109,192,71565,1,0,0:0:0:0:
402,192,71565,1,0,0:0:0:0:
475,192,71565,1,0,0:0:0:0:
182,192,71640,1,0,0:0:0:0:
256,192,71714,1,0,0:0:0:0:
36,192,71714,1,0,0:0:0:0:
402,192,71714,1,0,0:0:0:0:
109,192,71788,1,0,0:0:0:0:
329,192,71788,1,0,0:0:0:0:
475,192,71788,1,0,0:0:0:0:
182,192,71862,1,0,0:0:0:0:
256,192,71862,1,0,0:0:0:0:
109,192,71937,1,0,0:0:0:0:
475,192,71937,1,0,0:0:0:0:
402,192,71937,1,0,0:0:0:0:
329,192,72011,1,0,0:0:0:0:
256,192,72011,1,0,0:0:0:0:
36,192,72011,1,0,0:0:0:0:
182,192,72085,1,0,0:0:0:0:
475,192,72159,1,0,0:0:0:0:
329,192,72159,1,0,0:0:0:0:
256,192,72159,1,0,0:0:0:0:
182,192,72234,1,0,0:0:0:0:
36,192,72234,1,0,0:0:0:0:
109,192,72234,1,0,0:0:0:0:
329,192,72308,1,0,0:0:0:0:
475,192,72308,1,0,0:0:0:0:
182,192,72382,1,0,0:0:0:0:
109,192,72382,1,0,0:0:0:0:
36,192,72382,1,0,0:0:0:0:
256,192,72457,1,0,0:0:0:0:
329,192,72457,1,0,0:0:0:0:
475,192,72457,1,0,0:0:0:0:
402,192,72457,1,0,0:0:0:0:
182,192,72531,1,0,0:0:0:0:
109,192,72605,1,0,0:0:0:0:
402,192,72605,1,0,0:0:0:0:
475,192,72605,1,0,0:0:0:0:
329,192,72679,1,0,0:0:0:0:
36,192,72679,1,0,0:0:0:0:
256,192,72754,1,0,0:0:0:0:
475,192,72754,1,0,0:0:0:0:
402,192,72754,1,0,0:0:0:0:
109,192,72754,1,0,0:0:0:0:
182,192,72828,1,0,0:0:0:0:
256,192,72902,1,0,0:0:0:0:
36,192,72902,1,0,0:0:0:0:
402,192,72902,1,0,0:0:0:0:
109,192,72976,1,0,0:0:0:0:
475,192,72976,1,0,0:0:0:0:
329,192,72976,1,0,0:0:0:0:
182,192,73051,1,0,0:0:0:0:
402,192,73051,1,0,0:0:0:0:
256,192,73125,1,0,0:0:0:0:
329,192,73199,1,0,0:0:0:0:
109,192,73199,1,0,0:0:0:0:
36,192,73199,1,0,0:0:0:0:
475,192,73199,1,0,0:0:0:0:
256,192,73273,1,0,0:0:0:0:
182,192,73348,1,0,0:0:0:0:
475,192,73348,1,0,0:0:0:0:
109,192,73348,1,0,0:0:0:0:
402,192,73348,1,0,0:0:0:0:
256,192,73496,1,0,0:0:0:0:
36,192,73496,1,0,0:0:0:0:
109,192,73496,1,0,0:0:0:0:
402,192,73496,1,0,0:0:0:0:
182,192,73645,1,0,0:0:0:0:
109,192,73645,1,0,0:0:0:0:
475,192,73645,1,0,0:0:0:0:
329,192,73645,1,0,0:0:0:0:
256,192,73719,1,0,0:0:0:0:
329,192,73793,1,0,0:0:0:0:
109,192,73793,1,0,0:0:0:0:
36,192,73793,1,0,0:0:0:0:
182,192,73867,1,0,0:0:0:0:
402,192,73867,1,0,0:0:0:0:
256,192,73942,1,0,0:0:0:0:
475,192,73942,1,0,0:0:0:0:
36,192,73942,1,0,0:0:0:0:
109,192,73942,1,0,0:0:0:0:
329,192,74016,1,0,0:0:0:0:
182,192,74090,1,0,0:0:0:0:
109,192,74090,1,0,0:0:0:0:
402,192,74090,1,0,0:0:0:0:
256,192,74164,1,0,0:0:0:0:
475,192,74164,1,0,0:0:0:0:
329,192,74164,1,0,0:0:0:0:
109,192,74239,1,0,0:0:0:0:
36,192,74239,1,0,0:0:0:0:
182,192,74313,1,0,0:0:0:0:
475,192,74313,1,0,0:0:0:0:
402,192,74313,1,0,0:0:0:0:
329,192,74387,1,0,0:0:0:0:
256,192,74387,1,0,0:0:0:0:
109,192,74387,1,0,0:0:0:0:
182,192,74461,1,0,0:0:0:0:
36,192,74536,1,0,0:0:0:0:
109,192,74536,1,0,0:0:0:0:
402,192,74536,1,0,0:0:0:0:
329,192,74610,1,0,0:0:0:0:
256,192,74610,1,0,0:0:0:0:
182,192,74610,1,0,0:0:0:0:
109,192,74684,1,0,0:0:0:0:
36,192,74684,1,0,0:0:0:0:
256,192,74758,1,0,0:0:0:0:
402,192,74758,1,0,0:0:0:0:
329,192,74758,1,0,0:0:0:0:
182,192,74833,1,0,0:0:0:0:
109,192,74833,1,0,0:0:0:0:
475,192,74833,1,0,0:0:0:0:
36,192,74833,1,0,0:0:0:0:
256,192,74907,1,0,0:0:0:0:
329,192,74981,1,0,0:0:0:0:
109,192,74981,1,0,0:0:0:0:
402,192,74981,1,0,0:0:0:0:
182,192,75056,1,0,0:0:0:0:
475,192,75056,1,0,0:0:0:0:
256,192,75130,1,0,0:0:0:0:
402,192,75130,1,0,0:0:0:0:
36,192,75130,1,0,0:0:0:0:
109,192,75130,1,0,0:0:0:0:
329,192,75204,1,0,0:0:0:0:
402,192,75278,1,0,0:0:0:0:
182,192,75278,1,0,0:0:0:0:
109,192,75278,1,0,0:0:0:0:
256,192,75353,1,0,0:0:0:0:
475,192,75353,1,0,0:0:0:0:
329,192,75353,1,0,0:0:0:0:
182,192,75427,1,0,0:0:0:0:
36,192,75427,1,0,0:0:0:0:
402,192,75501,1,0,0:0:0:0:
475,192,75501,1,0,0:0:0:0:
329,192,75501,1,0,0:0:0:0:
256,192,75575,1,0,0:0:0:0:
182,192,75575,1,0,0:0:0:0:
109,192,75575,1,0,0:0:0:0:
36,192,75650,1,0,0:0:0:0:
329,192,75724,1,0,0:0:0:0:
475,192,75724,1,0,0:0:0:0:
402,192,75724,1,0,0:0:0:0:
256,192,75724,1,0,0:0:0:0:
109,192,75872,1,0,0:0:0:0:
329,192,75872,1,0,0:0:0:0:
256,192,75872,1,0,0:0:0:0:
36,192,75872,1,0,0:0:0:0:
182,192,76021,5,0,0:0:0:0:
109,192,76021,1,0,0:0:0:0:
402,192,76021,1,0,0:0:0:0:
475,192,76021,1,0,0:0:0:0:
329,192,76095,1,0,0:0:0:0:
256,192,76169,1,0,0:0:0:0:
36,192,76169,1,0,0:0:0:0:
402,192,76169,1,0,0:0:0:0:
329,192,76244,1,0,0:0:0:0:
109,192,76244,1,0,0:0:0:0:
182,192,76318,1,0,0:0:0:0:
475,192,76318,1,0,0:0:0:0:
402,192,76318,1,0,0:0:0:0:
36,192,76318,1,0,0:0:0:0:
256,192,76392,1,0,0:0:0:0:
329,192,76466,1,0,0:0:0:0:
109,192,76466,1,0,0:0:0:0:
36,192,76466,1,0,0:0:0:0:
182,192,76541,1,0,0:0:0:0:
402,192,76541,1,0,0:0:0:0:
475,192,76541,1,0,0:0:0:0:
256,192,76615,1,0,0:0:0:0:
36,192,76615,1,0,0:0:0:0:
329,192,76689,1,0,0:0:0:0:
109,192,76689,1,0,0:0:0:0:
475,192,76689,1,0,0:0:0:0:
402,192,76763,1,0,0:0:0:0:
256,192,76763,1,0,0:0:0:0:
182,192,76763,1,0,0:0:0:0:
109,192,76838,1,0,0:0:0:0:
36,192,76912,1,0,0:0:0:0:
329,192,76912,1,0,0:0:0:0:
475,192,76912,1,0,0:0:0:0:
256,192,76986,1,0,0:0:0:0:
182,192,76986,1,0,0:0:0:0:
109,192,76986,1,0,0:0:0:0:
329,192,77060,1,0,0:0:0:0:
475,192,77060,1,0,0:0:0:0:
256,192,77135,1,0,0:0:0:0:
182,192,77135,1,0,0:0:0:0:
109,192,77135,1,0,0:0:0:0:
36,192,77209,1,0,0:0:0:0:
402,192,77209,1,0,0:0:0:0:
475,192,77209,1,0,0:0:0:0:
329,192,77209,1,0,0:0:0:0:
182,192,77357,1,0,0:0:0:0:
329,192,77432,1,0,0:0:0:0:
182,192,77506,128,0,77655:0:0:0:0:
329,192,77655,1,0,0:0:0:0:
475,192,77655,1,0,0:0:0:0:
182,192,77729,1,0,0:0:0:0:
36,192,77729,1,0,0:0:0:0:
329,192,77803,128,0,77952:0:0:0:0:
475,192,77803,128,0,77952:0:0:0:0:
182,192,77952,1,0,0:0:0:0:
36,192,77952,1,0,0:0:0:0:
329,192,78026,1,0,0:0:0:0:
475,192,78026,1,0,0:0:0:0:
182,192,78100,128,0,78249:0:0:0:0:
109,192,78100,128,0,78249:0:0:0:0:
36,192,78100,128,0,78249:0:0:0:0:
402,192,78249,1,0,0:0:0:0:
475,192,78249,1,0,0:0:0:0:
329,192,78249,1,0,0:0:0:0:
182,192,78323,1,0,0:0:0:0:
109,192,78323,1,0,0:0:0:0:
36,192,78323,1,0,0:0:0:0:
256,192,78397,5,0,0:0:0:0:
329,192,78397,1,0,0:0:0:0:
475,192,78397,1,0,0:0:0:0:
402,192,78397,1,0,0:0:0:0:
182,192,78471,1,0,0:0:0:0:
109,192,78546,1,0,0:0:0:0:
402,192,78546,1,0,0:0:0:0:
475,192,78546,1,0,0:0:0:0:
329,192,78620,1,0,0:0:0:0:
36,192,78620,1,0,0:0:0:0:
256,192,78694,1,0,0:0:0:0:
402,192,78694,1,0,0:0:0:0:
109,192,78694,1,0,0:0:0:0:
475,192,78694,1,0,0:0:0:0:
182,192,78768,1,0,0:0:0:0:
256,192,78843,1,0,0:0:0:0:
36,192,78843,1,0,0:0:0:0:
402,192,78843,1,0,0:0:0:0:
329,192,78917,1,0,0:0:0:0:
109,192,78917,1,0,0:0:0:0:
182,192,78991,1,0,0:0:0:0:
36,192,78991,1,0,0:0:0:0:
475,192,78991,1,0,0:0:0:0:
402,192,78991,1,0,0:0:0:0:
256,192,79065,1,0,0:0:0:0:
109,192,79140,1,0,0:0:0:0:
329,192,79140,1,0,0:0:0:0:
475,192,79140,1,0,0:0:0:0:
256,192,79214,1,0,0:0:0:0:
182,192,79288,1,0,0:0:0:0:
36,192,79288,1,0,0:0:0:0:
475,192,79288,1,0,0:0:0:0:
402,192,79288,1,0,0:0:0:0:
329,192,79362,1,0,0:0:0:0:
256,192,79437,1,0,0:0:0:0:
182,192,79437,1,0,0:0:0:0:
109,192,79437,1,0,0:0:0:0:
475,192,79437,1,0,0:0:0:0:
329,192,79511,1,0,0:0:0:0:
402,192,79585,1,0,0:0:0:0:
109,192,79585,1,0,0:0:0:0:
36,192,79585,1,0,0:0:0:0:
475,192,79585,1,0,0:0:0:0:
182,192,79659,1,0,0:0:0:0:
256,192,79734,1,0,0:0:0:0:
36,192,79734,1,0,0:0:0:0:
402,192,79734,1,0,0:0:0:0:
256,192,79808,1,0,0:0:0:0:
109,192,79808,1,0,0:0:0:0:
329,192,79882,1,0,0:0:0:0:
475,192,79882,1,0,0:0:0:0:
182,192,79882,1,0,0:0:0:0:
402,192,79882,1,0,0:0:0:0:
256,192,79957,1,0,0:0:0:0:
182,192,80031,1,0,0:0:0:0:
109,192,80031,1,0,0:0:0:0:
475,192,80031,1,0,0:0:0:0:
36,192,80031,1,0,0:0:0:0:
402,192,80105,1,0,0:0:0:0:
329,192,80179,1,0,0:0:0:0:
109,192,80179,1,0,0:0:0:0:
36,192,80179,1,0,0:0:0:0:
475,192,80179,1,0,0:0:0:0:
256,192,80254,1,0,0:0:0:0:
182,192,80328,1,0,0:0:0:0:
109,192,80328,1,0,0:0:0:0:
475,192,80328,1,0,0:0:0:0:
402,192,80328,1,0,0:0:0:0:
256,192,80402,1,0,0:0:0:0:
329,192,80476,1,0,0:0:0:0:
109,192,80476,1,0,0:0:0:0:
36,192,80476,1,0,0:0:0:0:
475,192,80476,1,0,0:0:0:0:
182,192,80551,1,0,0:0:0:0:
256,192,80625,1,0,0:0:0:0:
36,192,80625,1,0,0:0:0:0:
402,192,80625,1,0,0:0:0:0:
475,192,80625,1,0,0:0:0:0:
109,192,80699,1,0,0:0:0:0:
182,192,80773,1,0,0:0:0:0:
36,192,80773,1,0,0:0:0:0:
256,192,80773,1,0,0:0:0:0:
475,192,80773,1,0,0:0:0:0:
402,192,80773,1,0,0:0:0:0:
329,192,80848,1,0,0:0:0:0:
402,192,80922,1,0,0:0:0:0:
182,192,80922,1,0,0:0:0:0:
36,192,80922,1,0,0:0:0:0:
109,192,80996,1,0,0:0:0:0:
256,192,80996,1,0,0:0:0:0:
182,192,81070,1,0,0:0:0:0:
402,192,81070,1,0,0:0:0:0:
475,192,81070,1,0,0:0:0:0:
329,192,81070,1,0,0:0:0:0:
256,192,81145,1,0,0:0:0:0:
182,192,81219,1,0,0:0:0:0:
475,192,81219,1,0,0:0:0:0:
402,192,81219,1,0,0:0:0:0:
329,192,81293,1,0,0:0:0:0:
109,192,81293,1,0,0:0:0:0:
256,192,81367,1,0,0:0:0:0:
475,192,81367,1,0,0:0:0:0:
36,192,81367,1,0,0:0:0:0:
182,192,81367,1,0,0:0:0:0:
402,192,81442,1,0,0:0:0:0:
329,192,81516,1,0,0:0:0:0:
109,192,81516,1,0,0:0:0:0:
475,192,81516,1,0,0:0:0:0:
182,192,81590,1,0,0:0:0:0:
256,192,81664,1,0,0:0:0:0:
36,192,81664,1,0,0:0:0:0:
475,192,81664,1,0,0:0:0:0:
402,192,81664,1,0,0:0:0:0:
109,192,81739,1,0,0:0:0:0:
182,192,81813,1,0,0:0:0:0:
36,192,81813,1,0,0:0:0:0:
402,192,81813,1,0,0:0:0:0:
475,192,81813,1,0,0:0:0:0:
256,192,81887,1,0,0:0:0:0:
329,192,81961,1,0,0:0:0:0:
475,192,81961,1,0,0:0:0:0:
36,192,81961,1,0,0:0:0:0:
109,192,81961,1,0,0:0:0:0:
256,192,82036,1,0,0:0:0:0:
182,192,82110,1,0,0:0:0:0:
402,192,82110,1,0,0:0:0:0:
475,192,82110,1,0,0:0:0:0:
109,192,82184,1,0,0:0:0:0:
402,192,82184,1,0,0:0:0:0:
256,192,82258,1,0,0:0:0:0:
36,192,82258,1,0,0:0:0:0:
475,192,82258,1,0,0:0:0:0:
329,192,82258,1,0,0:0:0:0:
182,192,82333,1,0,0:0:0:0:
256,192,82407,1,0,0:0:0:0:
36,192,82407,1,0,0:0:0:0:
402,192,82407,1,0,0:0:0:0:
329,192,82407,1,0,0:0:0:0:
109,192,82481,1,0,0:0:0:0:
182,192,82556,1,0,0:0:0:0:
36,192,82556,1,0,0:0:0:0:
475,192,82556,1,0,0:0:0:0:
256,192,82556,1,0,0:0:0:0:
402,192,82630,1,0,0:0:0:0:
329,192,82704,1,0,0:0:0:0:
109,192,82704,1,0,0:0:0:0:
36,192,82704,1,0,0:0:0:0:
475,192,82704,1,0,0:0:0:0:
256,192,82778,1,0,0:0:0:0:
182,192,82853,1,0,0:0:0:0:
402,192,82853,1,0,0:0:0:0:
475,192,82853,1,0,0:0:0:0:
329,192,82853,1,0,0:0:0:0:
109,192,82927,1,0,0:0:0:0:
36,192,83001,1,0,0:0:0:0:
329,192,83001,1,0,0:0:0:0:
475,192,83001,1,0,0:0:0:0:
182,192,83001,1,0,0:0:0:0:
256,192,83075,1,0,0:0:0:0:
329,192,83150,1,0,0:0:0:0:
109,192,83150,1,0,0:0:0:0:
475,192,83150,1,0,0:0:0:0:
36,192,83150,1,0,0:0:0:0:
182,192,83224,1,0,0:0:0:0:
256,192,83298,1,0,0:0:0:0:
36,192,83298,1,0,0:0:0:0:
329,192,83298,1,0,0:0:0:0:
109,192,83372,1,0,0:0:0:0:
402,192,83372,1,0,0:0:0:0:
36,192,83447,1,0,0:0:0:0:
475,192,83447,1,0,0:0:0:0:
182,192,83447,1,0,0:0:0:0:
256,192,83447,1,0,0:0:0:0:
329,192,83521,1,0,0:0:0:0:
402,192,83595,1,0,0:0:0:0:
182,192,83595,1,0,0:0:0:0:
109,192,83595,1,0,0:0:0:0:
256,192,83669,1,0,0:0:0:0:
475,192,83669,1,0,0:0:0:0:
329,192,83744,1,0,0:0:0:0:
109,192,83744,1,0,0:0:0:0:
36,192,83744,1,0,0:0:0:0:
402,192,83744,1,0,0:0:0:0:
256,192,83818,1,0,0:0:0:0:
182,192,83892,1,0,0:0:0:0:
475,192,83892,1,0,0:0:0:0:
402,192,83892,1,0,0:0:0:0:
329,192,83966,1,0,0:0:0:0:
256,192,84041,1,0,0:0:0:0:
36,192,84041,1,0,0:0:0:0:
109,192,84041,1,0,0:0:0:0:
475,192,84041,1,0,0:0:0:0:
402,192,84115,1,0,0:0:0:0:
329,192,84189,1,0,0:0:0:0:
182,192,84189,1,0,0:0:0:0:
36,192,84189,1,0,0:0:0:0:
475,192,84189,1,0,0:0:0:0:
256,192,84263,1,0,0:0:0:0:
329,192,84338,1,0,0:0:0:0:
36,192,84338,1,0,0:0:0:0:
109,192,84338,1,0,0:0:0:0:
182,192,84338,1,0,0:0:0:0:
402,192,84412,1,0,0:0:0:0:
475,192,84486,1,0,0:0:0:0:
256,192,84486,1,0,0:0:0:0:
109,192,84486,1,0,0:0:0:0:
329,192,84560,1,0,0:0:0:0:
109,192,84560,1,0,0:0:0:0:
182,192,84635,1,0,0:0:0:0:
36,192,84635,1,0,0:0:0:0:
402,192,84635,1,0,0:0:0:0:
475,192,84635,1,0,0:0:0:0:
256,192,84709,1,0,0:0:0:0:
329,192,84783,1,0,0:0:0:0:
36,192,84783,1,0,0:0:0:0:
475,192,84783,1,0,0:0:0:0:
109,192,84783,1,0,0:0:0:0:
256,192,84857,1,0,0:0:0:0:
182,192,84932,1,0,0:0:0:0:
402,192,84932,1,0,0:0:0:0:
475,192,84932,1,0,0:0:0:0:
109,192,84932,1,0,0:0:0:0:
329,192,85006,1,0,0:0:0:0:
256,192,85080,1,0,0:0:0:0:
109,192,85080,1,0,0:0:0:0:
36,192,85080,1,0,0:0:0:0:
475,192,85080,1,0,0:0:0:0:
402,192,85155,1,0,0:0:0:0:
329,192,85229,1,0,0:0:0:0:
182,192,85229,1,0,0:0:0:0:
475,192,85229,1,0,0:0:0:0:
36,192,85229,1,0,0:0:0:0:
256,192,85303,1,0,0:0:0:0:
329,192,85377,1,0,0:0:0:0:
109,192,85377,1,0,0:0:0:0:
36,192,85377,1,0,0:0:0:0:
402,192,85377,1,0,0:0:0:0:
182,192,85452,1,0,0:0:0:0:
256,192,85526,1,0,0:0:0:0:
402,192,85526,1,0,0:0:0:0:
109,192,85526,1,0,0:0:0:0:
36,192,85526,1,0,0:0:0:0:
329,192,85600,1,0,0:0:0:0:
402,192,85674,1,0,0:0:0:0:
182,192,85674,1,0,0:0:0:0:
475,192,85674,1,0,0:0:0:0:
256,192,85749,1,0,0:0:0:0:
36,192,85749,1,0,0:0:0:0:
109,192,85823,1,0,0:0:0:0:
329,192,85823,1,0,0:0:0:0:
475,192,85823,1,0,0:0:0:0:
182,192,85823,1,0,0:0:0:0:
256,192,85897,1,0,0:0:0:0:
182,192,85971,1,0,0:0:0:0:
402,192,85971,1,0,0:0:0:0:
475,192,85971,1,0,0:0:0:0:
329,192,86046,1,0,0:0:0:0:
109,192,86046,1,0,0:0:0:0:
256,192,86120,1,0,0:0:0:0:
36,192,86120,1,0,0:0:0:0:
475,192,86120,1,0,0:0:0:0:
182,192,86120,1,0,0:0:0:0:
402,192,86194,1,0,0:0:0:0:
109,192,86268,1,0,0:0:0:0:
475,192,86268,1,0,0:0:0:0:
256,192,86268,1,0,0:0:0:0:
329,192,86343,1,0,0:0:0:0:
256,192,86417,1,0,0:0:0:0:
36,192,86417,1,0,0:0:0:0:
475,192,86417,1,0,0:0:0:0:
402,192,86417,1,0,0:0:0:0:
109,192,86491,1,0,0:0:0:0:
182,192,86565,1,0,0:0:0:0:
36,192,86565,1,0,0:0:0:0:
475,192,86565,1,0,0:0:0:0:
329,192,86565,1,0,0:0:0:0:
256,192,86640,1,0,0:0:0:0:
182,192,86714,1,0,0:0:0:0:
475,192,86714,1,0,0:0:0:0:
402,192,86714,1,0,0:0:0:0:
109,192,86714,1,0,0:0:0:0:
329,192,86788,1,0,0:0:0:0:
256,192,86862,1,0,0:0:0:0:
36,192,86862,1,0,0:0:0:0:
402,192,86862,1,0,0:0:0:0:
182,192,86937,1,0,0:0:0:0:
402,192,86937,1,0,0:0:0:0:
109,192,87011,1,0,0:0:0:0:
256,192,87011,1,0,0:0:0:0:
475,192,87011,1,0,0:0:0:0:
329,192,87011,1,0,0:0:0:0:
182,192,87085,1,0,0:0:0:0:
256,192,87159,1,0,0:0:0:0:
36,192,87159,1,0,0:0:0:0:
329,192,87159,1,0,0:0:0:0:
402,192,87159,1,0,0:0:0:0:
109,192,87234,1,0,0:0:0:0:
182,192,87308,1,0,0:0:0:0:
36,192,87308,1,0,0:0:0:0:
475,192,87308,1,0,0:0:0:0:
256,192,87308,1,0,0:0:0:0:
402,192,87382,1,0,0:0:0:0:
329,192,87457,1,0,0:0:0:0:
109,192,87457,1,0,0:0:0:0:
475,192,87457,1,0,0:0:0:0:
36,192,87457,1,0,0:0:0:0:
256,192,87531,1,0,0:0:0:0:
182,192,87605,1,0,0:0:0:0:
402,192,87605,1,0,0:0:0:0:
475,192,87605,1,0,0:0:0:0:
109,192,87605,1,0,0:0:0:0:
329,192,87679,1,0,0:0:0:0:
256,192,87754,1,0,0:0:0:0:
36,192,87754,1,0,0:0:0:0:
402,192,87754,1,0,0:0:0:0:
182,192,87754,1,0,0:0:0:0:
329,192,87828,1,0,0:0:0:0:
402,192,87902,1,0,0:0:0:0:
182,192,87902,1,0,0:0:0:0:
109,192,87902,1,0,0:0:0:0:
475,192,87902,1,0,0:0:0:0:
36,192,87902,1,0,0:0:0:0:
256,192,87976,1,0,0:0:0:0:
329,192,88051,1,0,0:0:0:0:
109,192,88051,1,0,0:0:0:0:
36,192,88051,1,0,0:0:0:0:
182,192,88125,1,0,0:0:0:0:
402,192,88125,1,0,0:0:0:0:
256,192,88199,1,0,0:0:0:0:
475,192,88199,1,0,0:0:0:0:
36,192,88199,1,0,0:0:0:0:
329,192,88199,1,0,0:0:0:0:
109,192,88273,1,0,0:0:0:0:
182,192,88348,1,0,0:0:0:0:
36,192,88348,1,0,0:0:0:0:
402,192,88348,1,0,0:0:0:0:
329,192,88422,1,0,0:0:0:0:
256,192,88422,1,0,0:0:0:0:
182,192,88496,1,0,0:0:0:0:
109,192,88496,1,0,0:0:0:0:
475,192,88496,1,0,0:0:0:0:
402,192,88496,1,0,0:0:0:0:
256,192,88570,1,0,0:0:0:0:
329,192,88645,1,0,0:0:0:0:
109,192,88645,1,0,0:0:0:0:
36,192,88645,1,0,0:0:0:0:
182,192,88719,1,0,0:0:0:0:
256,192,88793,1,0,0:0:0:0:
402,192,88793,1,0,0:0:0:0:
475,192,88793,1,0,0:0:0:0:
36,192,88793,1,0,0:0:0:0:
182,192,88867,1,0,0:0:0:0:
109,192,88942,1,0,0:0:0:0:
402,192,88942,1,0,0:0:0:0:
475,192,88942,1,0,0:0:0:0:
36,192,88942,1,0,0:0:0:0:
329,192,89016,1,0,0:0:0:0:
256,192,89090,1,0,0:0:0:0:
182,192,89090,1,0,0:0:0:0:
36,192,89090,1,0,0:0:0:0:
475,192,89090,1,0,0:0:0:0:
329,192,89164,1,0,0:0:0:0:
402,192,89239,1,0,0:0:0:0:
182,192,89239,1,0,0:0:0:0:
36,192,89239,1,0,0:0:0:0:
182,192,89313,1,0,0:0:0:0:
329,192,89313,1,0,0:0:0:0:
256,192,89387,1,0,0:0:0:0:
402,192,89387,1,0,0:0:0:0:
36,192,89387,1,0,0:0:0:0:
475,192,89387,1,0,0:0:0:0:
109,192,89461,1,0,0:0:0:0:
182,192,89536,1,0,0:0:0:0:
402,192,89536,1,0,0:0:0:0:
329,192,89536,1,0,0:0:0:0:
475,192,89536,1,0,0:0:0:0:
256,192,89610,1,0,0:0:0:0:
182,192,89684,1,0,0:0:0:0:
36,192,89684,1,0,0:0:0:0:
402,192,89684,1,0,0:0:0:0:
475,192,89684,1,0,0:0:0:0:
329,192,89758,1,0,0:0:0:0:
256,192,89833,1,0,0:0:0:0:
109,192,89833,1,0,0:0:0:0:
36,192,89833,1,0,0:0:0:0:
475,192,89833,1,0,0:0:0:0:
182,192,89907,1,0,0:0:0:0:
256,192,89981,1,0,0:0:0:0:
36,192,89981,1,0,0:0:0:0:
402,192,89981,1,0,0:0:0:0:
475,192,89981,1,0,0:0:0:0:
109,192,90056,1,0,0:0:0:0:
182,192,90130,1,0,0:0:0:0:
36,192,90130,1,0,0:0:0:0:
256,192,90130,1,0,0:0:0:0:
475,192,90130,1,0,0:0:0:0:
402,192,90204,1,0,0:0:0:0:
329,192,90278,1,0,0:0:0:0:
36,192,90278,1,0,0:0:0:0:
475,192,90278,1,0,0:0:0:0:
109,192,90278,1,0,0:0:0:0:
256,192,90353,1,0,0:0:0:0:
182,192,90427,1,0,0:0:0:0:
402,192,90427,1,0,0:0:0:0:
475,192,90427,1,0,0:0:0:0:
329,192,90501,1,0,0:0:0:0:
109,192,90501,1,0,0:0:0:0:
256,192,90575,1,0,0:0:0:0:
36,192,90575,1,0,0:0:0:0:
402,192,90575,1,0,0:0:0:0:
182,192,90575,1,0,0:0:0:0:
329,192,90650,1,0,0:0:0:0:
402,192,90724,1,0,0:0:0:0:
182,192,90724,1,0,0:0:0:0:
109,192,90724,1,0,0:0:0:0:
256,192,90798,1,0,0:0:0:0:
475,192,90798,1,0,0:0:0:0:
329,192,90872,1,0,0:0:0:0:
109,192,90872,1,0,0:0:0:0:
36,192,90872,1,0,0:0:0:0:
182,192,90872,1,0,0:0:0:0:
256,192,90947,1,0,0:0:0:0:
329,192,91021,1,0,0:0:0:0:
109,192,91021,1,0,0:0:0:0:
475,192,91021,1,0,0:0:0:0:
182,192,91095,1,0,0:0:0:0:
256,192,91169,1,0,0:0:0:0:
36,192,91169,1,0,0:0:0:0:
402,192,91169,1,0,0:0:0:0:
475,192,91169,1,0,0:0:0:0:
329,192,91244,1,0,0:0:0:0:
402,192,91318,1,0,0:0:0:0:
109,192,91318,1,0,0:0:0:0:
182,192,91318,1,0,0:0:0:0:
36,192,91318,1,0,0:0:0:0:
256,192,91392,1,0,0:0:0:0:
329,192,91466,1,0,0:0:0:0:
36,192,91466,1,0,0:0:0:0:
475,192,91466,1,0,0:0:0:0:
402,192,91466,1,0,0:0:0:0:
109,192,91541,1,0,0:0:0:0:
182,192,91615,1,0,0:0:0:0:
36,192,91615,1,0,0:0:0:0:
402,192,91615,1,0,0:0:0:0:
182,192,91689,1,0,0:0:0:0:
329,192,91689,1,0,0:0:0:0:
256,192,91763,1,0,0:0:0:0:
402,192,91763,1,0,0:0:0:0:
36,192,91763,1,0,0:0:0:0:
475,192,91763,1,0,0:0:0:0:
109,192,91838,1,0,0:0:0:0:
182,192,91912,1,0,0:0:0:0:
36,192,91912,1,0,0:0:0:0:
402,192,91912,1,0,0:0:0:0:
329,192,91912,1,0,0:0:0:0:
256,192,91986,1,0,0:0:0:0:
182,192,92060,1,0,0:0:0:0:
109,192,92060,1,0,0:0:0:0:
475,192,92060,1,0,0:0:0:0:
402,192,92060,1,0,0:0:0:0:
329,192,92135,1,0,0:0:0:0:
256,192,92209,1,0,0:0:0:0:
109,192,92209,1,0,0:0:0:0:
36,192,92209,1,0,0:0:0:0:
475,192,92209,1,0,0:0:0:0:
182,192,92283,1,0,0:0:0:0:
109,192,92357,1,0,0:0:0:0:
402,192,92357,1,0,0:0:0:0:
475,192,92357,1,0,0:0:0:0:
329,192,92357,1,0,0:0:0:0:
256,192,92432,1,0,0:0:0:0:
329,192,92506,1,0,0:0:0:0:
36,192,92506,1,0,0:0:0:0:
402,192,92506,1,0,0:0:0:0:
109,192,92506,1,0,0:0:0:0:
182,192,92580,1,0,0:0:0:0:
256,192,92655,1,0,0:0:0:0:
36,192,92655,1,0,0:0:0:0:
475,192,92655,1,0,0:0:0:0:
402,192,92655,1,0,0:0:0:0:
109,192,92729,1,0,0:0:0:0:
182,192,92803,1,0,0:0:0:0:
329,192,92803,1,0,0:0:0:0:
475,192,92803,1,0,0:0:0:0:
256,192,92877,1,0,0:0:0:0:
36,192,92877,1,0,0:0:0:0:
109,192,92952,1,0,0:0:0:0:
182,192,92952,1,0,0:0:0:0:
402,192,92952,1,0,0:0:0:0:
475,192,92952,1,0,0:0:0:0:
329,192,93026,1,0,0:0:0:0:
256,192,93100,1,0,0:0:0:0:
36,192,93100,1,0,0:0:0:0:
475,192,93100,1,0,0:0:0:0:
402,192,93174,1,0,0:0:0:0:
182,192,93174,1,0,0:0:0:0:
329,192,93249,1,0,0:0:0:0:
109,192,93249,1,0,0:0:0:0:
36,192,93249,1,0,0:0:0:0:
256,192,93249,1,0,0:0:0:0:
182,192,93323,1,0,0:0:0:0:
109,192,93397,1,0,0:0:0:0:
475,192,93397,1,0,0:0:0:0:
329,192,93397,1,0,0:0:0:0:
256,192,93471,1,0,0:0:0:0:
329,192,93546,1,0,0:0:0:0:
109,192,93546,1,0,0:0:0:0:
475,192,93546,1,0,0:0:0:0:
402,192,93546,1,0,0:0:0:0:
182,192,93620,1,0,0:0:0:0:
256,192,93694,1,0,0:0:0:0:
329,192,93694,1,0,0:0:0:0:
36,192,93694,1,0,0:0:0:0:
475,192,93694,1,0,0:0:0:0:
109,192,93768,1,0,0:0:0:0:
182,192,93843,1,0,0:0:0:0:
402,192,93843,1,0,0:0:0:0:
36,192,93843,1,0,0:0:0:0:
475,192,93843,1,0,0:0:0:0:
329,192,93917,1,0,0:0:0:0:
256,192,93991,1,0,0:0:0:0:
475,192,93991,1,0,0:0:0:0:
109,192,93991,1,0,0:0:0:0:
475,192,94065,1,0,0:0:0:0:
182,192,94065,1,0,0:0:0:0:
256,192,94140,1,0,0:0:0:0:
36,192,94140,1,0,0:0:0:0:
329,192,94140,1,0,0:0:0:0:
402,192,94140,1,0,0:0:0:0:
109,192,94214,1,0,0:0:0:0:
182,192,94288,1,0,0:0:0:0:
36,192,94288,1,0,0:0:0:0:
475,192,94288,1,0,0:0:0:0:
256,192,94288,1,0,0:0:0:0:
402,192,94362,1,0,0:0:0:0:
329,192,94437,1,0,0:0:0:0:
36,192,94437,1,0,0:0:0:0:
109,192,94437,1,0,0:0:0:0:
475,192,94437,1,0,0:0:0:0:
256,192,94511,1,0,0:0:0:0:
182,192,94585,1,0,0:0:0:0:
402,192,94585,1,0,0:0:0:0:
475,192,94585,1,0,0:0:0:0:
329,192,94585,1,0,0:0:0:0:
256,192,94659,1,0,0:0:0:0:
109,192,94734,1,0,0:0:0:0:
36,192,94734,1,0,0:0:0:0:
329,192,94734,1,0,0:0:0:0:
475,192,94734,1,0,0:0:0:0:
182,192,94808,1,0,0:0:0:0:
256,192,94882,1,0,0:0:0:0:
36,192,94882,1,0,0:0:0:0:
402,192,94882,1,0,0:0:0:0:
329,192,94882,1,0,0:0:0:0:
109,192,94957,1,0,0:0:0:0:
182,192,95031,1,0,0:0:0:0:
36,192,95031,1,0,0:0:0:0:
329,192,95031,1,0,0:0:0:0:
475,192,95031,1,0,0:0:0:0:
256,192,95105,1,0,0:0:0:0:
182,192,95179,1,0,0:0:0:0:
402,192,95179,1,0,0:0:0:0:
475,192,95179,1,0,0:0:0:0:
329,192,95254,1,0,0:0:0:0:
109,192,95254,1,0,0:0:0:0:
256,192,95328,1,0,0:0:0:0:
36,192,95328,1,0,0:0:0:0:
402,192,95328,1,0,0:0:0:0:
182,192,95328,1,0,0:0:0:0:
329,192,95402,1,0,0:0:0:0:
402,192,95476,1,0,0:0:0:0:
109,192,95476,1,0,0:0:0:0:
256,192,95476,1,0,0:0:0:0:
182,192,95551,1,0,0:0:0:0:
475,192,95551,1,0,0:0:0:0:
256,192,95625,1,0,0:0:0:0:
329,192,95625,1,0,0:0:0:0:
36,192,95625,1,0,0:0:0:0:
109,192,95625,1,0,0:0:0:0:
402,192,95699,1,0,0:0:0:0:
475,192,95773,1,0,0:0:0:0:
182,192,95773,1,0,0:0:0:0:
36,192,95773,1,0,0:0:0:0:
256,192,95848,1,0,0:0:0:0:
329,192,95922,1,0,0:0:0:0:
109,192,95922,1,0,0:0:0:0:
36,192,95922,1,0,0:0:0:0:
475,192,95922,1,0,0:0:0:0:
256,192,95996,1,0,0:0:0:0:
182,192,96070,1,0,0:0:0:0:
402,192,96070,1,0,0:0:0:0:
475,192,96070,1,0,0:0:0:0:
109,192,96070,1,0,0:0:0:0:
329,192,96145,1,0,0:0:0:0:
256,192,96219,1,0,0:0:0:0:
36,192,96219,1,0,0:0:0:0:
402,192,96219,1,0,0:0:0:0:
109,192,96219,1,0,0:0:0:0:
182,192,96293,1,0,0:0:0:0:
256,192,96367,1,0,0:0:0:0:
36,192,96367,1,0,0:0:0:0:
402,192,96367,1,0,0:0:0:0:
256,192,96442,1,0,0:0:0:0:
109,192,96442,1,0,0:0:0:0:
182,192,96516,1,0,0:0:0:0:
402,192,96516,1,0,0:0:0:0:
475,192,96516,1,0,0:0:0:0:
329,192,96516,1,0,0:0:0:0:
109,192,96590,1,0,0:0:0:0:
36,192,96664,1,0,0:0:0:0:
329,192,96664,1,0,0:0:0:0:
402,192,96664,1,0,0:0:0:0:
475,192,96664,1,0,0:0:0:0:
256,192,96739,1,0,0:0:0:0:
182,192,96813,1,0,0:0:0:0:
475,192,96813,1,0,0:0:0:0:
109,192,96813,1,0,0:0:0:0:
36,192,96813,1,0,0:0:0:0:
329,192,96887,1,0,0:0:0:0:
402,192,96961,1,0,0:0:0:0:
182,192,96961,1,0,0:0:0:0:
475,192,96961,1,0,0:0:0:0:
109,192,96961,1,0,0:0:0:0:
256,192,97036,1,0,0:0:0:0:
329,192,97110,1,0,0:0:0:0:
36,192,97110,1,0,0:0:0:0:
402,192,97110,1,0,0:0:0:0:
109,192,97110,1,0,0:0:0:0:
182,192,97184,1,0,0:0:0:0:
256,192,97258,1,0,0:0:0:0:
36,192,97258,1,0,0:0:0:0:
475,192,97258,1,0,0:0:0:0:
329,192,97258,1,0,0:0:0:0:
109,192,97333,1,0,0:0:0:0:
256,192,97407,5,0,0:0:0:0:
182,192,97407,1,0,0:0:0:0:
36,192,97407,1,0,0:0:0:0:
475,192,97407,1,0,0:0:0:0:
402,192,97407,1,0,0:0:0:0:
182,192,97556,1,0,0:0:0:0:
256,192,97556,1,0,0:0:0:0:
329,192,97556,1,0,0:0:0:0:
109,192,97556,1,0,0:0:0:0:
182,192,97704,1,0,0:0:0:0:
36,192,97704,1,0,0:0:0:0:
475,192,97704,1,0,0:0:0:0:
402,192,97704,1,0,0:0:0:0:
109,192,97704,1,0,0:0:0:0:
256,192,97741,1,0,0:0:0:0:
329,192,97778,1,0,0:0:0:0:
402,192,97815,1,0,0:0:0:0:
109,192,97853,1,0,0:0:0:0:
182,192,97890,1,0,0:0:0:0:
256,192,97927,1,0,0:0:0:0:
329,192,97964,1,0,0:0:0:0:
36,192,98001,1,0,0:0:0:0:
402,192,98001,1,0,0:0:0:0:
109,192,98038,1,0,0:0:0:0:
182,192,98075,1,0,0:0:0:0:
256,192,98112,1,0,0:0:0:0:
329,192,98150,1,0,0:0:0:0:
402,192,98187,1,0,0:0:0:0:
256,192,98224,1,0,0:0:0:0:
182,192,98261,1,0,0:0:0:0:
109,192,98298,1,0,0:0:0:0:
36,192,98298,1,0,0:0:0:0:
475,192,98298,1,0,0:0:0:0:
402,192,98335,1,0,0:0:0:0:
329,192,98372,1,0,0:0:0:0:
256,192,98409,1,0,0:0:0:0:
182,192,98447,1,0,0:0:0:0:
109,192,98484,1,0,0:0:0:0:
36,192,98521,1,0,0:0:0:0:
475,192,98558,1,0,0:0:0:0:
329,192,98595,1,0,0:0:0:0:
402,192,98595,1,0,0:0:0:0:
256,192,98632,1,0,0:0:0:0:
182,192,98669,1,0,0:0:0:0:
109,192,98707,1,0,0:0:0:0:
329,192,98744,1,0,0:0:0:0:
36,192,98744,1,0,0:0:0:0:
475,192,98744,1,0,0:0:0:0:
256,192,98818,1,0,0:0:0:0:
402,192,98818,1,0,0:0:0:0:
182,192,98818,1,0,0:0:0:0:
329,192,98892,1,0,0:0:0:0:
36,192,98892,1,0,0:0:0:0:
109,192,98892,1,0,0:0:0:0:
256,192,98966,1,0,0:0:0:0:
329,192,99041,1,0,0:0:0:0:
109,192,99041,1,0,0:0:0:0:
402,192,99041,1,0,0:0:0:0:
182,192,99115,1,0,0:0:0:0:
256,192,99189,1,0,0:0:0:0:
36,192,99189,1,0,0:0:0:0:
402,192,99189,1,0,0:0:0:0:
475,192,99189,1,0,0:0:0:0:
329,192,99263,1,0,0:0:0:0:
402,192,99338,1,0,0:0:0:0:
182,192,99338,1,0,0:0:0:0:
36,192,99338,1,0,0:0:0:0:
109,192,99338,1,0,0:0:0:0:
256,192,99412,1,0,0:0:0:0:
475,192,99486,1,0,0:0:0:0:
329,192,99486,1,0,0:0:0:0:
109,192,99486,1,0,0:0:0:0:
182,192,99523,1,0,0:0:0:0:
256,192,99560,1,0,0:0:0:0:
329,192,99598,1,0,0:0:0:0:
402,192,99635,1,0,0:0:0:0:
36,192,99635,1,0,0:0:0:0:
182,192,99672,1,0,0:0:0:0:
256,192,99709,1,0,0:0:0:0:
329,192,99746,1,0,0:0:0:0:
36,192,99783,1,0,0:0:0:0:
402,192,99783,1,0,0:0:0:0:
475,192,99783,1,0,0:0:0:0:
109,192,99820,1,0,0:0:0:0:
182,192,99857,1,0,0:0:0:0:
329,192,99895,1,0,0:0:0:0:
402,192,99932,1,0,0:0:0:0:
475,192,99969,1,0,0:0:0:0:
256,192,100006,1,0,0:0:0:0:
182,192,100043,1,0,0:0:0:0:
109,192,100080,1,0,0:0:0:0:
402,192,100080,1,0,0:0:0:0:
36,192,100080,1,0,0:0:0:0:
329,192,100117,1,0,0:0:0:0:
256,192,100155,1,0,0:0:0:0:
182,192,100192,1,0,0:0:0:0:
109,192,100229,1,0,0:0:0:0:
475,192,100266,1,0,0:0:0:0:
402,192,100303,1,0,0:0:0:0:
329,192,100340,1,0,0:0:0:0:
256,192,100377,1,0,0:0:0:0:
36,192,100377,1,0,0:0:0:0:
109,192,100414,1,0,0:0:0:0:
182,192,100452,1,0,0:0:0:0:
329,192,100489,1,0,0:0:0:0:
402,192,100526,1,0,0:0:0:0:
475,192,100563,1,0,0:0:0:0:
182,192,100600,1,0,0:0:0:0:
256,192,100637,1,0,0:0:0:0:
329,192,100674,1,0,0:0:0:0:
36,192,100674,1,0,0:0:0:0:
109,192,100674,1,0,0:0:0:0:
402,192,100711,1,0,0:0:0:0:
475,192,100749,1,0,0:0:0:0:
256,192,100786,1,0,0:0:0:0:
182,192,100823,1,0,0:0:0:0:
109,192,100860,1,0,0:0:0:0:
36,192,100897,1,0,0:0:0:0:
329,192,100934,1,0,0:0:0:0:
256,192,100971,1,0,0:0:0:0:
475,192,100971,1,0,0:0:0:0:
182,192,101008,1,0,0:0:0:0:
109,192,101046,1,0,0:0:0:0:
36,192,101083,1,0,0:0:0:0:
475,192,101120,1,0,0:0:0:0:
329,192,101120,1,0,0:0:0:0:
182,192,101120,1,0,0:0:0:0:
256,192,101194,1,0,0:0:0:0:
402,192,101194,1,0,0:0:0:0:
109,192,101194,1,0,0:0:0:0:
182,192,101268,1,0,0:0:0:0:
329,192,101268,1,0,0:0:0:0:
36,192,101268,1,0,0:0:0:0:
256,192,101343,1,0,0:0:0:0:
109,192,101417,1,0,0:0:0:0:
329,192,101417,1,0,0:0:0:0:
475,192,101417,1,0,0:0:0:0:
182,192,101491,1,0,0:0:0:0:
256,192,101565,1,0,0:0:0:0:
36,192,101565,1,0,0:0:0:0:
402,192,101565,1,0,0:0:0:0:
475,192,101565,1,0,0:0:0:0:
329,192,101640,1,0,0:0:0:0:
402,192,101714,1,0,0:0:0:0:
182,192,101714,1,0,0:0:0:0:
109,192,101714,1,0,0:0:0:0:
36,192,101714,1,0,0:0:0:0:
256,192,101788,1,0,0:0:0:0:
329,192,101862,1,0,0:0:0:0:
475,192,101862,1,0,0:0:0:0:
109,192,101862,1,0,0:0:0:0:
182,192,101900,1,0,0:0:0:0:
256,192,101937,1,0,0:0:0:0:
329,192,101974,1,0,0:0:0:0:
402,192,102011,1,0,0:0:0:0:
36,192,102011,1,0,0:0:0:0:
109,192,102048,1,0,0:0:0:0:
182,192,102085,1,0,0:0:0:0:
256,192,102122,1,0,0:0:0:0:
475,192,102159,1,0,0:0:0:0:
329,192,102159,1,0,0:0:0:0:
402,192,102159,1,0,0:0:0:0:
182,192,102197,1,0,0:0:0:0:
109,192,102234,1,0,0:0:0:0:
36,192,102271,1,0,0:0:0:0:
402,192,102308,1,0,0:0:0:0:
256,192,102345,1,0,0:0:0:0:
182,192,102382,1,0,0:0:0:0:
109,192,102419,1,0,0:0:0:0:
475,192,102457,1,0,0:0:0:0:
402,192,102457,1,0,0:0:0:0:
36,192,102457,1,0,0:0:0:0:
329,192,102494,1,0,0:0:0:0:
256,192,102531,1,0,0:0:0:0:
182,192,102568,1,0,0:0:0:0:
109,192,102605,1,0,0:0:0:0:
329,192,102642,1,0,0:0:0:0:
402,192,102679,1,0,0:0:0:0:
475,192,102716,1,0,0:0:0:0:
109,192,102754,1,0,0:0:0:0:
36,192,102754,1,0,0:0:0:0:
182,192,102791,1,0,0:0:0:0:
256,192,102828,1,0,0:0:0:0:
329,192,102865,1,0,0:0:0:0:
402,192,102902,1,0,0:0:0:0:
182,192,102939,1,0,0:0:0:0:
109,192,102976,1,0,0:0:0:0:
36,192,103013,1,0,0:0:0:0:
256,192,103051,1,0,0:0:0:0:
475,192,103051,1,0,0:0:0:0:
402,192,103051,1,0,0:0:0:0:
182,192,103088,1,0,0:0:0:0:
109,192,103125,1,0,0:0:0:0:
36,192,103162,1,0,0:0:0:0:
256,192,103199,1,0,0:0:0:0:
329,192,103236,1,0,0:0:0:0:
402,192,103273,1,0,0:0:0:0:
475,192,103310,1,0,0:0:0:0:
182,192,103348,1,0,0:0:0:0:
36,192,103348,1,0,0:0:0:0:
256,192,103385,1,0,0:0:0:0:
329,192,103422,1,0,0:0:0:0:
402,192,103459,1,0,0:0:0:0:
475,192,103496,1,0,0:0:0:0:
182,192,103496,1,0,0:0:0:0:
36,192,103496,1,0,0:0:0:0:
109,192,103570,1,0,0:0:0:0:
256,192,103570,1,0,0:0:0:0:
329,192,103570,1,0,0:0:0:0:
182,192,103645,1,0,0:0:0:0:
402,192,103645,1,0,0:0:0:0:
475,192,103645,1,0,0:0:0:0:
256,192,103719,1,0,0:0:0:0:
329,192,103793,1,0,0:0:0:0:
475,192,103793,1,0,0:0:0:0:
109,192,103793,1,0,0:0:0:0:
182,192,103867,1,0,0:0:0:0:
256,192,103942,1,0,0:0:0:0:
36,192,103942,1,0,0:0:0:0:
109,192,103942,1,0,0:0:0:0:
402,192,103942,1,0,0:0:0:0:
329,192,104016,1,0,0:0:0:0:
402,192,104090,1,0,0:0:0:0:
182,192,104090,1,0,0:0:0:0:
109,192,104090,1,0,0:0:0:0:
475,192,104090,1,0,0:0:0:0:
256,192,104164,1,0,0:0:0:0:
329,192,104239,1,0,0:0:0:0:
475,192,104239,1,0,0:0:0:0:
36,192,104239,1,0,0:0:0:0:
256,192,104276,1,0,0:0:0:0:
182,192,104313,1,0,0:0:0:0:
109,192,104350,1,0,0:0:0:0:
402,192,104387,1,0,0:0:0:0:
36,192,104387,1,0,0:0:0:0:
329,192,104424,1,0,0:0:0:0:
256,192,104461,1,0,0:0:0:0:
182,192,104499,1,0,0:0:0:0:
475,192,104536,1,0,0:0:0:0:
109,192,104536,1,0,0:0:0:0:
36,192,104536,1,0,0:0:0:0:
256,192,104573,1,0,0:0:0:0:
329,192,104610,1,0,0:0:0:0:
402,192,104647,1,0,0:0:0:0:
36,192,104684,1,0,0:0:0:0:
109,192,104721,1,0,0:0:0:0:
182,192,104758,1,0,0:0:0:0:
256,192,104796,1,0,0:0:0:0:
329,192,104833,1,0,0:0:0:0:
475,192,104833,1,0,0:0:0:0:
402,192,104833,1,0,0:0:0:0:
109,192,104870,1,0,0:0:0:0:
182,192,104907,1,0,0:0:0:0:
256,192,104944,1,0,0:0:0:0:
329,192,104981,1,0,0:0:0:0:
402,192,105018,1,0,0:0:0:0:
182,192,105056,1,0,0:0:0:0:
109,192,105093,1,0,0:0:0:0:
36,192,105130,1,0,0:0:0:0:
475,192,105130,1,0,0:0:0:0:
402,192,105167,1,0,0:0:0:0:
329,192,105204,1,0,0:0:0:0:
256,192,105241,1,0,0:0:0:0:
182,192,105278,1,0,0:0:0:0:
109,192,105315,1,0,0:0:0:0:
402,192,105353,1,0,0:0:0:0:
329,192,105390,1,0,0:0:0:0:
256,192,105427,1,0,0:0:0:0:
475,192,105427,1,0,0:0:0:0:
182,192,105427,1,0,0:0:0:0:
109,192,105464,1,0,0:0:0:0:
36,192,105501,1,0,0:0:0:0:
402,192,105538,1,0,0:0:0:0:
329,192,105575,1,0,0:0:0:0:
256,192,105612,1,0,0:0:0:0:
109,192,105650,1,0,0:0:0:0:
182,192,105687,1,0,0:0:0:0:
256,192,105724,1,0,0:0:0:0:
36,192,105724,1,0,0:0:0:0:
329,192,105761,1,0,0:0:0:0:
402,192,105798,1,0,0:0:0:0:
475,192,105835,1,0,0:0:0:0:
36,192,105872,1,0,0:0:0:0:
182,192,105872,1,0,0:0:0:0:
256,192,105872,1,0,0:0:0:0:
329,192,105947,1,0,0:0:0:0:
475,192,105947,1,0,0:0:0:0:
109,192,105947,1,0,0:0:0:0:
402,192,106021,1,0,0:0:0:0:
256,192,106021,1,0,0:0:0:0:
36,192,106021,1,0,0:0:0:0:
182,192,106095,1,0,0:0:0:0:
109,192,106169,1,0,0:0:0:0:
329,192,106169,1,0,0:0:0:0:
475,192,106169,1,0,0:0:0:0:
256,192,106244,1,0,0:0:0:0:
182,192,106318,1,0,0:0:0:0:
109,192,106318,1,0,0:0:0:0:
36,192,106318,1,0,0:0:0:0:
402,192,106318,1,0,0:0:0:0:
329,192,106392,1,0,0:0:0:0:
256,192,106392,1,0,0:0:0:0:
402,192,106466,1,0,0:0:0:0:
475,192,106466,1,0,0:0:0:0:
36,192,106466,1,0,0:0:0:0:
182,192,106466,1,0,0:0:0:0:
256,192,106541,1,0,0:0:0:0:
475,192,106615,1,0,0:0:0:0:
109,192,106615,1,0,0:0:0:0:
329,192,106615,1,0,0:0:0:0:
182,192,106652,1,0,0:0:0:0:
256,192,106689,1,0,0:0:0:0:
329,192,106726,1,0,0:0:0:0:
402,192,106763,1,0,0:0:0:0:
36,192,106763,1,0,0:0:0:0:
109,192,106801,1,0,0:0:0:0:
182,192,106838,1,0,0:0:0:0:
256,192,106875,1,0,0:0:0:0:
329,192,106912,1,0,0:0:0:0:
402,192,106912,1,0,0:0:0:0:
475,192,106912,1,0,0:0:0:0:
36,192,106912,1,0,0:0:0:0:
182,192,106949,1,0,0:0:0:0:
109,192,106986,1,0,0:0:0:0:
402,192,107023,1,0,0:0:0:0:
329,192,107060,1,0,0:0:0:0:
256,192,107098,1,0,0:0:0:0:
182,192,107135,1,0,0:0:0:0:
109,192,107172,1,0,0:0:0:0:
402,192,107209,1,0,0:0:0:0:
36,192,107209,1,0,0:0:0:0:
475,192,107209,1,0,0:0:0:0:
329,192,107246,1,0,0:0:0:0:
256,192,107283,1,0,0:0:0:0:
182,192,107320,1,0,0:0:0:0:
36,192,107357,1,0,0:0:0:0:
475,192,107395,1,0,0:0:0:0:
402,192,107432,1,0,0:0:0:0:
329,192,107469,1,0,0:0:0:0:
36,192,107506,1,0,0:0:0:0:
256,192,107506,1,0,0:0:0:0:
109,192,107543,1,0,0:0:0:0:
182,192,107580,1,0,0:0:0:0:
256,192,107617,1,0,0:0:0:0:
329,192,107655,1,0,0:0:0:0:
402,192,107692,1,0,0:0:0:0:
182,192,107729,1,0,0:0:0:0:
256,192,107766,1,0,0:0:0:0:
329,192,107803,1,0,0:0:0:0:
36,192,107803,1,0,0:0:0:0:
109,192,107803,1,0,0:0:0:0:
402,192,107840,1,0,0:0:0:0:
475,192,107877,1,0,0:0:0:0:
256,192,107914,1,0,0:0:0:0:
182,192,107952,1,0,0:0:0:0:
109,192,107989,1,0,0:0:0:0:
402,192,108026,1,0,0:0:0:0:
329,192,108063,1,0,0:0:0:0:
256,192,108100,1,0,0:0:0:0:
475,192,108100,1,0,0:0:0:0:
182,192,108137,1,0,0:0:0:0:
109,192,108174,1,0,0:0:0:0:
329,192,108211,1,0,0:0:0:0:
256,192,108249,1,0,0:0:0:0:
36,192,108249,1,0,0:0:0:0:
475,192,108249,1,0,0:0:0:0:
402,192,108323,1,0,0:0:0:0:
182,192,108323,1,0,0:0:0:0:
329,192,108323,1,0,0:0:0:0:
256,192,108397,1,0,0:0:0:0:
109,192,108397,1,0,0:0:0:0:
36,192,108397,1,0,0:0:0:0:
329,192,108471,1,0,0:0:0:0:
402,192,108546,1,0,0:0:0:0:
182,192,108546,1,0,0:0:0:0:
36,192,108546,1,0,0:0:0:0:
256,192,108620,1,0,0:0:0:0:
329,192,108694,1,0,0:0:0:0:
402,192,108694,1,0,0:0:0:0:
475,192,108694,1,0,0:0:0:0:
109,192,108694,1,0,0:0:0:0:
182,192,108768,1,0,0:0:0:0:
256,192,108843,1,0,0:0:0:0:
36,192,108843,1,0,0:0:0:0:
475,192,108843,1,0,0:0:0:0:
109,192,108843,1,0,0:0:0:0:
329,192,108917,1,0,0:0:0:0:
402,192,108991,1,0,0:0:0:0:
182,192,108991,1,0,0:0:0:0:
36,192,108991,1,0,0:0:0:0:
256,192,109028,1,0,0:0:0:0:
329,192,109065,1,0,0:0:0:0:
109,192,109103,1,0,0:0:0:0:
182,192,109140,1,0,0:0:0:0:
475,192,109140,1,0,0:0:0:0:
256,192,109177,1,0,0:0:0:0:
329,192,109214,1,0,0:0:0:0:
402,192,109251,1,0,0:0:0:0:
36,192,109288,1,0,0:0:0:0:
475,192,109288,1,0,0:0:0:0:
109,192,109288,1,0,0:0:0:0:
182,192,109325,1,0,0:0:0:0:
256,192,109362,1,0,0:0:0:0:
329,192,109400,1,0,0:0:0:0:
402,192,109437,1,0,0:0:0:0:
256,192,109474,1,0,0:0:0:0:
182,192,109511,1,0,0:0:0:0:
109,192,109548,1,0,0:0:0:0:
475,192,109585,1,0,0:0:0:0:
36,192,109585,1,0,0:0:0:0:
402,192,109585,1,0,0:0:0:0:
329,192,109622,1,0,0:0:0:0:
256,192,109659,1,0,0:0:0:0:
182,192,109697,1,0,0:0:0:0:
109,192,109734,1,0,0:0:0:0:
256,192,109771,1,0,0:0:0:0:
182,192,109808,1,0,0:0:0:0:
109,192,109845,1,0,0:0:0:0:
36,192,109882,1,0,0:0:0:0:
329,192,109882,1,0,0:0:0:0:
402,192,109919,1,0,0:0:0:0:
475,192,109957,1,0,0:0:0:0:
182,192,109994,1,0,0:0:0:0:
256,192,110031,1,0,0:0:0:0:
329,192,110068,1,0,0:0:0:0:
402,192,110105,1,0,0:0:0:0:
475,192,110142,1,0,0:0:0:0:
109,192,110179,1,0,0:0:0:0:
36,192,110179,1,0,0:0:0:0:
256,192,110179,1,0,0:0:0:0:
329,192,110216,1,0,0:0:0:0:
402,192,110254,1,0,0:0:0:0:
475,192,110291,1,0,0:0:0:0:
256,192,110328,1,0,0:0:0:0:
182,192,110365,1,0,0:0:0:0:
109,192,110402,1,0,0:0:0:0:
36,192,110439,1,0,0:0:0:0:
256,192,110476,5,0,0:0:0:0:
475,192,110476,1,0,0:0:0:0:
402,192,110513,1,0,0:0:0:0:
329,192,110551,1,0,0:0:0:0:
182,192,110588,1,0,0:0:0:0:
109,192,110625,1,0,0:0:0:0:
475,192,110625,1,0,0:0:0:0:
36,192,110625,1,0,0:0:0:0:
402,192,110699,1,0,0:0:0:0:
329,192,110699,1,0,0:0:0:0:
256,192,110699,1,0,0:0:0:0:
182,192,110773,1,0,0:0:0:0:
36,192,110773,1,0,0:0:0:0:
475,192,110773,1,0,0:0:0:0:
256,192,110848,1,0,0:0:0:0:
329,192,110922,1,0,0:0:0:0:
109,192,110922,1,0,0:0:0:0:
36,192,110922,1,0,0:0:0:0:
182,192,110996,1,0,0:0:0:0:
256,192,111070,1,0,0:0:0:0:
109,192,111070,1,0,0:0:0:0:
402,192,111070,1,0,0:0:0:0:
475,192,111070,1,0,0:0:0:0:
329,192,111145,1,0,0:0:0:0:
402,192,111219,1,0,0:0:0:0:
182,192,111219,1,0,0:0:0:0:
109,192,111219,1,0,0:0:0:0:
36,192,111219,1,0,0:0:0:0:
256,192,111293,1,0,0:0:0:0:
329,192,111367,1,0,0:0:0:0:
475,192,111367,1,0,0:0:0:0:
109,192,111367,1,0,0:0:0:0:
256,192,111405,1,0,0:0:0:0:
182,192,111442,1,0,0:0:0:0:
36,192,111479,1,0,0:0:0:0:
475,192,111516,1,0,0:0:0:0:
402,192,111516,1,0,0:0:0:0:
329,192,111553,1,0,0:0:0:0:
256,192,111590,1,0,0:0:0:0:
182,192,111627,1,0,0:0:0:0:
36,192,111664,1,0,0:0:0:0:
475,192,111664,1,0,0:0:0:0:
109,192,111664,1,0,0:0:0:0:
402,192,111702,1,0,0:0:0:0:
329,192,111739,1,0,0:0:0:0:
182,192,111776,1,0,0:0:0:0:
109,192,111813,1,0,0:0:0:0:
402,192,111813,1,0,0:0:0:0:
329,192,111850,1,0,0:0:0:0:
256,192,111887,1,0,0:0:0:0:
182,192,111924,1,0,0:0:0:0:
109,192,111961,1,0,0:0:0:0:
475,192,111961,1,0,0:0:0:0:
256,192,111999,1,0,0:0:0:0:
329,192,112036,1,0,0:0:0:0:
402,192,112073,1,0,0:0:0:0:
36,192,112110,1,0,0:0:0:0:
475,192,112110,1,0,0:0:0:0:
182,192,112147,1,0,0:0:0:0:
256,192,112184,1,0,0:0:0:0:
329,192,112221,1,0,0:0:0:0:
402,192,112258,1,0,0:0:0:0:
36,192,112258,1,0,0:0:0:0:
109,192,112296,1,0,0:0:0:0:
182,192,112333,1,0,0:0:0:0:
256,192,112370,1,0,0:0:0:0:
475,192,112407,1,0,0:0:0:0:
329,192,112407,1,0,0:0:0:0:
182,192,112444,1,0,0:0:0:0:
109,192,112481,1,0,0:0:0:0:
36,192,112518,1,0,0:0:0:0:
402,192,112518,1,0,0:0:0:0:
329,192,112556,1,0,0:0:0:0:
256,192,112556,1,0,0:0:0:0:
182,192,112593,1,0,0:0:0:0:
109,192,112630,1,0,0:0:0:0:
475,192,112667,1,0,0:0:0:0:
402,192,112704,1,0,0:0:0:0:
182,192,112704,1,0,0:0:0:0:
256,192,112741,1,0,0:0:0:0:
329,192,112778,1,0,0:0:0:0:
402,192,112815,1,0,0:0:0:0:
256,192,112853,5,0,0:0:0:0:
475,192,112853,1,0,0:0:0:0:
109,192,112853,1,0,0:0:0:0:
36,192,112853,1,0,0:0:0:0:
182,192,112927,1,0,0:0:0:0:
329,192,112927,1,0,0:0:0:0:
256,192,113001,1,0,0:0:0:0:
402,192,113001,1,0,0:0:0:0:
36,192,113001,1,0,0:0:0:0:
109,192,113075,1,0,0:0:0:0:
329,192,113075,1,0,0:0:0:0:
182,192,113150,1,0,0:0:0:0:
36,192,113150,1,0,0:0:0:0:
475,192,113150,1,0,0:0:0:0:
402,192,113150,1,0,0:0:0:0:
329,192,113224,1,0,0:0:0:0:
256,192,113224,1,0,0:0:0:0:
182,192,113298,1,0,0:0:0:0:
36,192,113298,1,0,0:0:0:0:
475,192,113298,1,0,0:0:0:0:
402,192,113372,1,0,0:0:0:0:
256,192,113372,1,0,0:0:0:0:
329,192,113447,1,0,0:0:0:0:
109,192,113447,1,0,0:0:0:0:
36,192,113447,1,0,0:0:0:0:
475,192,113447,1,0,0:0:0:0:
182,192,113521,1,0,0:0:0:0:
402,192,113521,1,0,0:0:0:0:
256,192,113595,1,0,0:0:0:0:
36,192,113595,1,0,0:0:0:0:
329,192,113595,1,0,0:0:0:0:
109,192,113669,1,0,0:0:0:0:
402,192,113669,1,0,0:0:0:0:
182,192,113744,1,0,0:0:0:0:
36,192,113744,1,0,0:0:0:0:
475,192,113744,1,0,0:0:0:0:
256,192,113818,1,0,0:0:0:0:
402,192,113818,1,0,0:0:0:0:
329,192,113892,1,0,0:0:0:0:
109,192,113892,1,0,0:0:0:0:
36,192,113892,1,0,0:0:0:0:
256,192,113966,1,0,0:0:0:0:
475,192,113966,1,0,0:0:0:0:
182,192,114041,5,0,0:0:0:0:
109,192,114041,1,0,0:0:0:0:
36,192,114041,1,0,0:0:0:0:
402,192,114041,1,0,0:0:0:0:
329,192,114041,1,0,0:0:0:0:
182,192,114189,1,0,0:0:0:0:
109,192,114189,1,0,0:0:0:0:
36,192,114189,1,0,0:0:0:0:
329,192,114189,1,0,0:0:0:0:
402,192,114189,1,0,0:0:0:0:
475,192,114189,1,0,0:0:0:0:
182,192,114486,1,0,0:0:0:0:
109,192,114486,1,0,0:0:0:0:
36,192,114486,1,0,0:0:0:0:
329,192,114486,1,0,0:0:0:0:
402,192,114486,1,0,0:0:0:0:
475,192,114486,1,0,0:0:0:0:
256,192,114560,1,0,0:0:0:0:
182,192,114635,1,0,0:0:0:0:
109,192,114635,1,0,0:0:0:0:
36,192,114635,1,0,0:0:0:0:
329,192,114635,1,0,0:0:0:0:
402,192,114635,1,0,0:0:0:0:
475,192,114635,1,0,0:0:0:0:
182,192,114932,1,0,0:0:0:0:
109,192,114932,1,0,0:0:0:0:
36,192,114932,1,0,0:0:0:0:
329,192,114932,1,0,0:0:0:0:
402,192,114932,1,0,0:0:0:0:
475,192,114932,1,0,0:0:0:0:
182,192,115080,1,0,0:0:0:0:
109,192,115080,1,0,0:0:0:0:
36,192,115080,1,0,0:0:0:0:
329,192,115080,1,0,0:0:0:0:
475,192,115080,1,0,0:0:0:0:
402,192,115080,1,0,0:0:0:0:
256,192,115377,1,0,0:0:0:0:
182,192,115377,1,0,0:0:0:0:
109,192,115377,1,0,0:0:0:0:
329,192,115377,1,0,0:0:0:0:
36,192,115377,1,0,0:0:0:0:
402,192,115377,1,0,0:0:0:0:
329,192,115526,1,0,0:0:0:0:
256,192,115526,1,0,0:0:0:0:
182,192,115526,1,0,0:0:0:0:
109,192,115526,1,0,0:0:0:0:
36,192,115526,1,0,0:0:0:0:
402,192,115526,1,0,0:0:0:0:
109,192,115674,1,0,0:0:0:0:
182,192,115674,1,0,0:0:0:0:
256,192,115674,1,0,0:0:0:0:
329,192,115674,1,0,0:0:0:0:
402,192,115674,1,0,0:0:0:0:
475,192,115674,1,0,0:0:0:0:
402,192,115823,1,0,0:0:0:0:
329,192,115823,1,0,0:0:0:0:
256,192,115823,1,0,0:0:0:0:
182,192,115823,1,0,0:0:0:0:
109,192,115823,1,0,0:0:0:0:
36,192,115823,128,0,116417:0:0:0:0:
256,192,116417,1,0,0:0:0:0:
182,192,116417,1,0,0:0:0:0:
109,192,116417,1,0,0:0:0:0:
329,192,116417,1,0,0:0:0:0:
36,192,116565,1,0,0:0:0:0:
256,192,116565,1,0,0:0:0:0:
475,192,116565,1,0,0:0:0:0:
329,192,116640,1,0,0:0:0:0:
182,192,116640,1,0,0:0:0:0:
256,192,116714,1,0,0:0:0:0:
402,192,116714,1,0,0:0:0:0:
109,192,116714,1,0,0:0:0:0:
36,192,116714,1,0,0:0:0:0:
109,192,116862,1,0,0:0:0:0:
475,192,116862,1,0,0:0:0:0:
182,192,116937,1,0,0:0:0:0:
402,192,116937,1,0,0:0:0:0:
329,192,116937,1,0,0:0:0:0:
256,192,116937,1,0,0:0:0:0:
109,192,117011,1,0,0:0:0:0:
36,192,117011,1,0,0:0:0:0:
475,192,117085,1,0,0:0:0:0:
402,192,117159,1,0,0:0:0:0:
329,192,117159,1,0,0:0:0:0:
256,192,117159,1,0,0:0:0:0:
36,192,117159,1,0,0:0:0:0:
182,192,117234,1,0,0:0:0:0:
109,192,117308,1,0,0:0:0:0:
36,192,117308,1,0,0:0:0:0:
256,192,117382,1,0,0:0:0:0:
329,192,117382,1,0,0:0:0:0:
402,192,117382,1,0,0:0:0:0:
475,192,117382,1,0,0:0:0:0:
109,192,117457,1,0,0:0:0:0:
36,192,117457,1,0,0:0:0:0:
182,192,117531,1,0,0:0:0:0:
256,192,117531,1,0,0:0:0:0:
329,192,117531,1,0,0:0:0:0:
402,192,117531,1,0,0:0:0:0:
475,192,117605,1,0,0:0:0:0:
109,192,117605,1,0,0:0:0:0:
36,192,117605,1,0,0:0:0:0:
182,192,117754,1,0,0:0:0:0:
402,192,117754,1,0,0:0:0:0:
475,192,117754,1,0,0:0:0:0:
329,192,117828,1,0,0:0:0:0:
109,192,117828,1,0,0:0:0:0:
256,192,117902,1,0,0:0:0:0:
36,192,117902,1,0,0:0:0:0:
182,192,117902,1,0,0:0:0:0:
475,192,117902,1,0,0:0:0:0:
256,192,118051,1,0,0:0:0:0:
36,192,118051,1,0,0:0:0:0:
329,192,118125,1,0,0:0:0:0:
402,192,118125,1,0,0:0:0:0:
475,192,118125,1,0,0:0:0:0:
182,192,118125,1,0,0:0:0:0:
109,192,118199,1,0,0:0:0:0:
36,192,118199,1,0,0:0:0:0:
256,192,118273,1,0,0:0:0:0:
329,192,118348,1,0,0:0:0:0:
402,192,118348,1,0,0:0:0:0:
475,192,118348,1,0,0:0:0:0:
109,192,118348,1,0,0:0:0:0:
182,192,118422,1,0,0:0:0:0:
109,192,118496,1,0,0:0:0:0:
36,192,118496,1,0,0:0:0:0:
256,192,118496,1,0,0:0:0:0:
329,192,118496,1,0,0:0:0:0:
475,192,118496,1,0,0:0:0:0:
329,192,118645,1,0,0:0:0:0:
182,192,118645,1,0,0:0:0:0:
109,192,118645,1,0,0:0:0:0:
475,192,118645,1,0,0:0:0:0:
256,192,118645,1,0,0:0:0:0:
182,192,118793,1,0,0:0:0:0:
402,192,118793,1,0,0:0:0:0:
36,192,118793,1,0,0:0:0:0:
329,192,118793,1,0,0:0:0:0:
256,192,118942,1,0,0:0:0:0:
109,192,118942,1,0,0:0:0:0:
475,192,118942,1,0,0:0:0:0:
329,192,119016,1,0,0:0:0:0:
182,192,119016,1,0,0:0:0:0:
256,192,119090,1,0,0:0:0:0:
402,192,119090,1,0,0:0:0:0:
36,192,119090,1,0,0:0:0:0:
109,192,119090,1,0,0:0:0:0:
36,192,119239,1,0,0:0:0:0:
475,192,119239,1,0,0:0:0:0:
109,192,119313,1,0,0:0:0:0:
182,192,119313,1,0,0:0:0:0:
256,192,119313,1,0,0:0:0:0:
329,192,119313,1,0,0:0:0:0:
402,192,119387,1,0,0:0:0:0:
475,192,119387,1,0,0:0:0:0:
36,192,119461,1,0,0:0:0:0:
109,192,119536,1,0,0:0:0:0:
182,192,119536,1,0,0:0:0:0:
256,192,119536,1,0,0:0:0:0:
402,192,119536,1,0,0:0:0:0:
329,192,119610,1,0,0:0:0:0:
402,192,119684,1,0,0:0:0:0:
475,192,119684,1,0,0:0:0:0:
182,192,119758,1,0,0:0:0:0:
256,192,119758,1,0,0:0:0:0:
109,192,119758,1,0,0:0:0:0:
36,192,119758,1,0,0:0:0:0:
402,192,119833,1,0,0:0:0:0:
475,192,119833,1,0,0:0:0:0:
329,192,119907,1,0,0:0:0:0:
256,192,119907,1,0,0:0:0:0:
109,192,119907,1,0,0:0:0:0:
182,192,119907,1,0,0:0:0:0:
36,192,119981,1,0,0:0:0:0:
475,192,119981,1,0,0:0:0:0:
402,192,119981,1,0,0:0:0:0:
109,192,120130,1,0,0:0:0:0:
329,192,120130,1,0,0:0:0:0:
475,192,120130,1,0,0:0:0:0:
256,192,120204,1,0,0:0:0:0:
36,192,120204,1,0,0:0:0:0:
402,192,120278,1,0,0:0:0:0:
182,192,120278,1,0,0:0:0:0:
329,192,120278,1,0,0:0:0:0:
475,192,120278,1,0,0:0:0:0:
256,192,120427,1,0,0:0:0:0:
402,192,120427,1,0,0:0:0:0:
182,192,120501,1,0,0:0:0:0:
109,192,120501,1,0,0:0:0:0:
36,192,120501,1,0,0:0:0:0:
329,192,120501,1,0,0:0:0:0:
402,192,120575,1,0,0:0:0:0:
475,192,120575,1,0,0:0:0:0:
182,192,120724,1,0,0:0:0:0:
109,192,120724,1,0,0:0:0:0:
36,192,120724,1,0,0:0:0:0:
402,192,120724,1,0,0:0:0:0:
256,192,120724,1,0,0:0:0:0:
329,192,120872,1,0,0:0:0:0:
109,192,120872,1,0,0:0:0:0:
256,192,120872,1,0,0:0:0:0:
475,192,120872,1,0,0:0:0:0:
36,192,121021,1,0,0:0:0:0:
182,192,121021,1,0,0:0:0:0:
402,192,121021,1,0,0:0:0:0:
256,192,121021,1,0,0:0:0:0:
329,192,121021,1,0,0:0:0:0:
182,192,121169,1,0,0:0:0:0:
36,192,121169,1,0,0:0:0:0:
329,192,121169,1,0,0:0:0:0:
475,192,121169,1,0,0:0:0:0:
256,192,121318,1,0,0:0:0:0:
109,192,121318,1,0,0:0:0:0:
475,192,121318,1,0,0:0:0:0:
182,192,121392,1,0,0:0:0:0:
329,192,121392,1,0,0:0:0:0:
256,192,121466,1,0,0:0:0:0:
402,192,121466,1,0,0:0:0:0:
36,192,121466,1,0,0:0:0:0:
109,192,121466,1,0,0:0:0:0:
329,192,121615,1,0,0:0:0:0:
182,192,121615,1,0,0:0:0:0:
402,192,121689,1,0,0:0:0:0:
475,192,121689,1,0,0:0:0:0:
256,192,121689,1,0,0:0:0:0:
36,192,121689,1,0,0:0:0:0:
109,192,121763,1,0,0:0:0:0:
182,192,121763,1,0,0:0:0:0:
329,192,121838,1,0,0:0:0:0:
256,192,121912,1,0,0:0:0:0:
402,192,121912,1,0,0:0:0:0:
475,192,121912,1,0,0:0:0:0:
109,192,121912,1,0,0:0:0:0:
36,192,121986,1,0,0:0:0:0:
109,192,122060,1,0,0:0:0:0:
182,192,122060,1,0,0:0:0:0:
256,192,122135,1,0,0:0:0:0:
329,192,122135,1,0,0:0:0:0:
402,192,122135,1,0,0:0:0:0:
475,192,122135,1,0,0:0:0:0:
109,192,122209,1,0,0:0:0:0:
36,192,122209,1,0,0:0:0:0:
329,192,122283,1,0,0:0:0:0:
256,192,122283,1,0,0:0:0:0:
402,192,122283,1,0,0:0:0:0:
475,192,122283,1,0,0:0:0:0:
36,192,122357,1,0,0:0:0:0:
182,192,122357,1,0,0:0:0:0:
109,192,122357,1,0,0:0:0:0:
402,192,122506,1,0,0:0:0:0:
475,192,122506,1,0,0:0:0:0:
182,192,122506,1,0,0:0:0:0:
329,192,122580,1,0,0:0:0:0:
36,192,122580,1,0,0:0:0:0:
109,192,122655,1,0,0:0:0:0:
256,192,122655,1,0,0:0:0:0:
182,192,122655,1,0,0:0:0:0:
475,192,122655,1,0,0:0:0:0:
402,192,122803,1,0,0:0:0:0:
109,192,122803,1,0,0:0:0:0:
329,192,122877,1,0,0:0:0:0:
256,192,122877,1,0,0:0:0:0:
475,192,122877,1,0,0:0:0:0:
36,192,122877,1,0,0:0:0:0:
109,192,122952,1,0,0:0:0:0:
182,192,122952,1,0,0:0:0:0:
402,192,123026,1,0,0:0:0:0:
329,192,123100,1,0,0:0:0:0:
256,192,123100,1,0,0:0:0:0:
475,192,123100,1,0,0:0:0:0:
182,192,123100,1,0,0:0:0:0:
36,192,123174,1,0,0:0:0:0:
109,192,123249,1,0,0:0:0:0:
182,192,123249,1,0,0:0:0:0:
256,192,123249,1,0,0:0:0:0:
402,192,123249,1,0,0:0:0:0:
475,192,123249,1,0,0:0:0:0:
329,192,123397,1,0,0:0:0:0:
402,192,123397,1,0,0:0:0:0:
182,192,123397,1,0,0:0:0:0:
256,192,123397,1,0,0:0:0:0:
36,192,123397,1,0,0:0:0:0:
109,192,123546,1,0,0:0:0:0:
36,192,123546,1,0,0:0:0:0:
402,192,123546,1,0,0:0:0:0:
475,192,123546,1,0,0:0:0:0:
256,192,123546,1,0,0:0:0:0:
329,192,123694,1,0,0:0:0:0:
36,192,123694,1,0,0:0:0:0:
182,192,123694,1,0,0:0:0:0:
109,192,123768,1,0,0:0:0:0:
256,192,123768,1,0,0:0:0:0:
182,192,123843,1,0,0:0:0:0:
402,192,123843,1,0,0:0:0:0:
475,192,123843,1,0,0:0:0:0:
329,192,123843,1,0,0:0:0:0:
182,192,123991,1,0,0:0:0:0:
329,192,123991,1,0,0:0:0:0:
109,192,124065,1,0,0:0:0:0:
256,192,124065,1,0,0:0:0:0:
36,192,124065,1,0,0:0:0:0:
475,192,124065,1,0,0:0:0:0:
402,192,124140,1,0,0:0:0:0:
329,192,124140,1,0,0:0:0:0:
182,192,124214,1,0,0:0:0:0:
36,192,124288,1,0,0:0:0:0:
109,192,124288,1,0,0:0:0:0:
256,192,124288,1,0,0:0:0:0:
402,192,124288,1,0,0:0:0:0:
475,192,124362,1,0,0:0:0:0:
402,192,124437,1,0,0:0:0:0:
329,192,124437,1,0,0:0:0:0:
256,192,124511,1,0,0:0:0:0:
182,192,124511,1,0,0:0:0:0:
109,192,124511,1,0,0:0:0:0:
36,192,124511,1,0,0:0:0:0:
329,192,124585,1,0,0:0:0:0:
475,192,124585,1,0,0:0:0:0:
256,192,124659,1,0,0:0:0:0:
182,192,124659,1,0,0:0:0:0:
109,192,124659,1,0,0:0:0:0:
36,192,124659,1,0,0:0:0:0:
475,192,124734,1,0,0:0:0:0:
402,192,124734,1,0,0:0:0:0:
329,192,124734,1,0,0:0:0:0:
329,192,124882,1,0,0:0:0:0:
36,192,124882,1,0,0:0:0:0:
475,192,124882,1,0,0:0:0:0:
109,192,124957,1,0,0:0:0:0:
256,192,124957,1,0,0:0:0:0:
182,192,125031,1,0,0:0:0:0:
402,192,125031,1,0,0:0:0:0:
475,192,125031,1,0,0:0:0:0:
329,192,125031,1,0,0:0:0:0:
109,192,125179,1,0,0:0:0:0:
329,192,125179,1,0,0:0:0:0:
182,192,125254,1,0,0:0:0:0:
256,192,125254,1,0,0:0:0:0:
36,192,125254,1,0,0:0:0:0:
475,192,125254,1,0,0:0:0:0:
402,192,125328,1,0,0:0:0:0:
329,192,125328,1,0,0:0:0:0:
109,192,125328,1,0,0:0:0:0:
182,192,125402,1,0,0:0:0:0:
475,192,125402,1,0,0:0:0:0:
256,192,125476,1,0,0:0:0:0:
36,192,125476,1,0,0:0:0:0:
402,192,125476,1,0,0:0:0:0:
109,192,125551,1,0,0:0:0:0:
329,192,125551,1,0,0:0:0:0:
182,192,125625,1,0,0:0:0:0:
402,192,125625,1,0,0:0:0:0:
475,192,125625,1,0,0:0:0:0:
256,192,125699,1,0,0:0:0:0:
329,192,125699,1,0,0:0:0:0:
182,192,125773,1,0,0:0:0:0:
109,192,125773,1,0,0:0:0:0:
475,192,125773,1,0,0:0:0:0:
402,192,125848,1,0,0:0:0:0:
36,192,125848,1,0,0:0:0:0:
256,192,125922,1,0,0:0:0:0:
109,192,125922,1,0,0:0:0:0:
475,192,125922,1,0,0:0:0:0:
182,192,125922,1,0,0:0:0:0:
402,192,125996,1,0,0:0:0:0:
329,192,125996,1,0,0:0:0:0:
475,192,126070,1,0,0:0:0:0:
36,192,126070,1,0,0:0:0:0:
402,192,126145,1,0,0:0:0:0:
329,192,126145,1,0,0:0:0:0:
109,192,126145,1,0,0:0:0:0:
475,192,126219,1,0,0:0:0:0:
182,192,126219,1,0,0:0:0:0:
36,192,126219,1,0,0:0:0:0:
475,192,126367,1,0,0:0:0:0:
36,192,126367,1,0,0:0:0:0:
402,192,126442,1,0,0:0:0:0:
329,192,126442,1,0,0:0:0:0:
182,192,126442,1,0,0:0:0:0:
109,192,126442,1,0,0:0:0:0:
475,192,126516,1,0,0:0:0:0:
402,192,126590,1,0,0:0:0:0:
329,192,126590,1,0,0:0:0:0:
36,192,126590,1,0,0:0:0:0:
475,192,126664,1,0,0:0:0:0:
109,192,126664,1,0,0:0:0:0:
182,192,126664,1,0,0:0:0:0:
475,192,126813,1,0,0:0:0:0:
256,192,126813,1,0,0:0:0:0:
182,192,126813,1,0,0:0:0:0:
402,192,126887,1,0,0:0:0:0:
329,192,126887,1,0,0:0:0:0:
36,192,126887,1,0,0:0:0:0:
475,192,126961,1,0,0:0:0:0:
182,192,126961,1,0,0:0:0:0:
256,192,126961,1,0,0:0:0:0:
402,192,127036,1,0,0:0:0:0:
329,192,127036,1,0,0:0:0:0:
36,192,127036,1,0,0:0:0:0:
475,192,127110,1,0,0:0:0:0:
182,192,127110,1,0,0:0:0:0:
109,192,127110,1,0,0:0:0:0:
256,192,127258,1,0,0:0:0:0:
109,192,127258,1,0,0:0:0:0:
182,192,127258,1,0,0:0:0:0:
329,192,127333,1,0,0:0:0:0:
475,192,127333,1,0,0:0:0:0:
256,192,127407,1,0,0:0:0:0:
36,192,127407,1,0,0:0:0:0:
402,192,127407,1,0,0:0:0:0:
329,192,127481,1,0,0:0:0:0:
182,192,127481,1,0,0:0:0:0:
256,192,127556,1,0,0:0:0:0:
109,192,127556,1,0,0:0:0:0:
475,192,127556,1,0,0:0:0:0:
402,192,127630,1,0,0:0:0:0:
182,192,127630,1,0,0:0:0:0:
256,192,127704,1,0,0:0:0:0:
36,192,127704,1,0,0:0:0:0:
329,192,127704,1,0,0:0:0:0:
109,192,127778,1,0,0:0:0:0:
402,192,127778,1,0,0:0:0:0:
182,192,127853,1,0,0:0:0:0:
36,192,127853,1,0,0:0:0:0:
475,192,127853,1,0,0:0:0:0:
256,192,127927,1,0,0:0:0:0:
109,192,127927,1,0,0:0:0:0:
182,192,128001,1,0,0:0:0:0:
402,192,128001,1,0,0:0:0:0:
475,192,128001,1,0,0:0:0:0:
329,192,128075,1,0,0:0:0:0:
109,192,128075,1,0,0:0:0:0:
256,192,128150,1,0,0:0:0:0:
36,192,128150,1,0,0:0:0:0:
475,192,128150,1,0,0:0:0:0:
402,192,128224,1,0,0:0:0:0:
182,192,128224,1,0,0:0:0:0:
329,192,128298,1,0,0:0:0:0:
475,192,128298,1,0,0:0:0:0:
36,192,128298,1,0,0:0:0:0:
109,192,128372,1,0,0:0:0:0:
182,192,128372,1,0,0:0:0:0:
36,192,128447,1,0,0:0:0:0:
329,192,128447,1,0,0:0:0:0:
109,192,128521,1,0,0:0:0:0:
182,192,128521,1,0,0:0:0:0:
402,192,128521,1,0,0:0:0:0:
36,192,128595,1,0,0:0:0:0:
329,192,128595,1,0,0:0:0:0:
475,192,128595,1,0,0:0:0:0:
36,192,128744,1,0,0:0:0:0:
475,192,128744,1,0,0:0:0:0:
109,192,128818,1,0,0:0:0:0:
182,192,128818,1,0,0:0:0:0:
402,192,128818,1,0,0:0:0:0:
329,192,128818,1,0,0:0:0:0:
36,192,128892,1,0,0:0:0:0:
109,192,128966,1,0,0:0:0:0:
182,192,128966,1,0,0:0:0:0:
475,192,128966,1,0,0:0:0:0:
36,192,129041,1,0,0:0:0:0:
402,192,129041,1,0,0:0:0:0:
329,192,129041,1,0,0:0:0:0:
36,192,129189,1,0,0:0:0:0:
329,192,129189,1,0,0:0:0:0:
109,192,129263,1,0,0:0:0:0:
182,192,129263,1,0,0:0:0:0:
402,192,129263,1,0,0:0:0:0:
475,192,129263,1,0,0:0:0:0:
36,192,129338,1,0,0:0:0:0:
329,192,129338,1,0,0:0:0:0:
109,192,129412,1,0,0:0:0:0:
182,192,129412,1,0,0:0:0:0:
402,192,129412,1,0,0:0:0:0:
475,192,129412,1,0,0:0:0:0:
36,192,129486,128,0,129635:0:0:0:0:
329,192,129486,1,0,0:0:0:0:
256,192,129486,1,0,0:0:0:0:
109,192,129635,1,0,0:0:0:0:
329,192,129635,1,0,0:0:0:0:
475,192,129635,1,0,0:0:0:0:
402,192,129709,1,0,0:0:0:0:
182,192,129709,1,0,0:0:0:0:
256,192,129783,1,0,0:0:0:0:
475,192,129783,1,0,0:0:0:0:
36,192,129783,1,0,0:0:0:0:
109,192,129857,1,0,0:0:0:0:
329,192,129857,1,0,0:0:0:0:
182,192,129932,1,0,0:0:0:0:
36,192,129932,1,0,0:0:0:0:
475,192,129932,1,0,0:0:0:0:
402,192,130006,1,0,0:0:0:0:
256,192,130006,1,0,0:0:0:0:
329,192,130080,1,0,0:0:0:0:
109,192,130080,1,0,0:0:0:0:
36,192,130080,1,0,0:0:0:0:
256,192,130155,1,0,0:0:0:0:
475,192,130155,1,0,0:0:0:0:
329,192,130229,1,0,0:0:0:0:
182,192,130229,1,0,0:0:0:0:
402,192,130229,1,0,0:0:0:0:
256,192,130303,1,0,0:0:0:0:
109,192,130303,1,0,0:0:0:0:
182,192,130377,1,0,0:0:0:0:
36,192,130377,1,0,0:0:0:0:
475,192,130377,1,0,0:0:0:0:
402,192,130452,1,0,0:0:0:0:
256,192,130452,1,0,0:0:0:0:
329,192,130526,1,0,0:0:0:0:
109,192,130526,1,0,0:0:0:0:
36,192,130526,1,0,0:0:0:0:
182,192,130600,1,0,0:0:0:0:
402,192,130600,1,0,0:0:0:0:
256,192,130674,1,0,0:0:0:0:
475,192,130674,1,0,0:0:0:0:
36,192,130674,1,0,0:0:0:0:
109,192,130749,1,0,0:0:0:0:
182,192,130749,1,0,0:0:0:0:
329,192,130749,1,0,0:0:0:0:
256,192,130823,1,0,0:0:0:0:
36,192,130823,1,0,0:0:0:0:
475,192,130823,1,0,0:0:0:0:
329,192,130897,1,0,0:0:0:0:
182,192,130897,1,0,0:0:0:0:
109,192,130897,1,0,0:0:0:0:
256,192,130971,1,0,0:0:0:0:
36,192,130971,1,0,0:0:0:0:
475,192,130971,1,0,0:0:0:0:
402,192,130971,1,0,0:0:0:0:
329,192,131120,1,0,0:0:0:0:
475,192,131120,1,0,0:0:0:0:
109,192,131120,1,0,0:0:0:0:
182,192,131194,1,0,0:0:0:0:
256,192,131194,1,0,0:0:0:0:
402,192,131194,1,0,0:0:0:0:
329,192,131268,1,0,0:0:0:0:
109,192,131268,1,0,0:0:0:0:
475,192,131268,1,0,0:0:0:0:
402,192,131343,1,0,0:0:0:0:
256,192,131343,1,0,0:0:0:0:
182,192,131343,1,0,0:0:0:0:
109,192,131417,1,0,0:0:0:0:
329,192,131417,1,0,0:0:0:0:
475,192,131417,1,0,0:0:0:0:
36,192,131417,1,0,0:0:0:0:
36,192,131565,1,0,0:0:0:0:
109,192,131565,1,0,0:0:0:0:
402,192,131565,1,0,0:0:0:0:
329,192,131640,1,0,0:0:0:0:
182,192,131640,1,0,0:0:0:0:
475,192,131640,1,0,0:0:0:0:
402,192,131714,1,0,0:0:0:0:
109,192,131714,1,0,0:0:0:0:
36,192,131714,1,0,0:0:0:0:
182,192,131788,1,0,0:0:0:0:
329,192,131788,1,0,0:0:0:0:
475,192,131788,1,0,0:0:0:0:
402,192,131862,1,0,0:0:0:0:
256,192,131862,1,0,0:0:0:0:
109,192,131862,1,0,0:0:0:0:
36,192,131862,1,0,0:0:0:0:
402,192,132011,1,0,0:0:0:0:
182,192,132011,1,0,0:0:0:0:
36,192,132011,1,0,0:0:0:0:
109,192,132085,1,0,0:0:0:0:
256,192,132085,1,0,0:0:0:0:
475,192,132085,1,0,0:0:0:0:
402,192,132159,1,0,0:0:0:0:
182,192,132159,1,0,0:0:0:0:
36,192,132159,1,0,0:0:0:0:
109,192,132234,1,0,0:0:0:0:
256,192,132234,1,0,0:0:0:0:
475,192,132234,1,0,0:0:0:0:
402,192,132308,1,0,0:0:0:0:
182,192,132308,1,0,0:0:0:0:
329,192,132308,1,0,0:0:0:0:
256,192,132382,1,0,0:0:0:0:
109,192,132382,1,0,0:0:0:0:
36,192,132382,1,0,0:0:0:0:
182,192,132457,1,0,0:0:0:0:
475,192,132457,1,0,0:0:0:0:
402,192,132457,1,0,0:0:0:0:
329,192,132531,1,0,0:0:0:0:
256,192,132531,1,0,0:0:0:0:
109,192,132531,1,0,0:0:0:0:
36,192,132605,1,0,0:0:0:0:
182,192,132605,1,0,0:0:0:0:
475,192,132605,1,0,0:0:0:0:
256,192,132679,1,0,0:0:0:0:
109,192,132679,1,0,0:0:0:0:
402,192,132679,1,0,0:0:0:0:
182,192,132754,1,0,0:0:0:0:
329,192,132754,1,0,0:0:0:0:
475,192,132754,1,0,0:0:0:0:
256,192,132828,1,0,0:0:0:0:
36,192,132828,1,0,0:0:0:0:
402,192,132828,1,0,0:0:0:0:
109,192,132902,1,0,0:0:0:0:
329,192,132902,1,0,0:0:0:0:
182,192,132902,1,0,0:0:0:0:
256,192,132976,1,0,0:0:0:0:
402,192,132976,1,0,0:0:0:0:
475,192,132976,1,0,0:0:0:0:
329,192,133051,1,0,0:0:0:0:
182,192,133051,1,0,0:0:0:0:
109,192,133051,1,0,0:0:0:0:
36,192,133051,1,0,0:0:0:0:
256,192,133125,1,0,0:0:0:0:
402,192,133125,1,0,0:0:0:0:
475,192,133125,1,0,0:0:0:0:
329,192,133199,1,0,0:0:0:0:
182,192,133199,1,0,0:0:0:0:
36,192,133199,1,0,0:0:0:0:
256,192,133273,1,0,0:0:0:0:
402,192,133273,1,0,0:0:0:0:
475,192,133273,1,0,0:0:0:0:
329,192,133348,1,0,0:0:0:0:
182,192,133348,1,0,0:0:0:0:
36,192,133348,1,0,0:0:0:0:
256,192,133422,1,0,0:0:0:0:
109,192,133422,1,0,0:0:0:0:
402,192,133422,1,0,0:0:0:0:
182,192,133496,1,0,0:0:0:0:
329,192,133496,1,0,0:0:0:0:
475,192,133496,1,0,0:0:0:0:
402,192,133570,1,0,0:0:0:0:
256,192,133570,1,0,0:0:0:0:
109,192,133570,1,0,0:0:0:0:
475,192,133645,1,0,0:0:0:0:
36,192,133645,1,0,0:0:0:0:
182,192,133645,1,0,0:0:0:0:
256,192,133719,1,0,0:0:0:0:
109,192,133719,1,0,0:0:0:0:
402,192,133719,1,0,0:0:0:0:
329,192,133793,1,0,0:0:0:0:
182,192,133793,1,0,0:0:0:0:
475,192,133793,1,0,0:0:0:0:
402,192,133867,1,0,0:0:0:0:
256,192,133867,1,0,0:0:0:0:
36,192,133867,1,0,0:0:0:0:
109,192,133942,1,0,0:0:0:0:
329,192,133942,1,0,0:0:0:0:
475,192,133942,1,0,0:0:0:0:
402,192,134016,1,0,0:0:0:0:
182,192,134016,1,0,0:0:0:0:
36,192,134016,1,0,0:0:0:0:
109,192,134090,1,0,0:0:0:0:
256,192,134090,1,0,0:0:0:0:
475,192,134090,1,0,0:0:0:0:
402,192,134164,1,0,0:0:0:0:
329,192,134164,1,0,0:0:0:0:
182,192,134164,1,0,0:0:0:0:
256,192,134239,1,0,0:0:0:0:
109,192,134239,1,0,0:0:0:0:
36,192,134239,128,0,134833:0:0:0:0:
475,192,134239,128,0,134833:0:0:0:0:
256,192,134833,1,0,0:0:0:0:
402,192,134833,1,0,0:0:0:0:
329,192,134833,1,0,0:0:0:0:
109,192,134907,1,0,0:0:0:0:
182,192,134907,1,0,0:0:0:0:
36,192,134907,1,0,0:0:0:0:
329,192,134981,1,0,0:0:0:0:
402,192,134981,1,0,0:0:0:0:
475,192,134981,1,0,0:0:0:0:
182,192,135056,1,0,0:0:0:0:
109,192,135056,1,0,0:0:0:0:
36,192,135056,1,0,0:0:0:0:
256,192,135130,1,0,0:0:0:0:
402,192,135130,1,0,0:0:0:0:
475,192,135130,1,0,0:0:0:0:
109,192,135204,1,0,0:0:0:0:
36,192,135204,1,0,0:0:0:0:
182,192,135204,1,0,0:0:0:0:
329,192,135278,1,0,0:0:0:0:
402,192,135278,1,0,0:0:0:0:
475,192,135278,1,0,0:0:0:0:
182,192,135353,1,0,0:0:0:0:
109,192,135353,1,0,0:0:0:0:
36,192,135353,1,0,0:0:0:0:
475,192,135427,1,0,0:0:0:0:
402,192,135427,1,0,0:0:0:0:
329,192,135427,1,0,0:0:0:0:
256,192,135427,128,0,135724:0:0:0:0:
36,192,135501,1,0,0:0:0:0:
329,192,135575,1,0,0:0:0:0:
36,192,135650,1,0,0:0:0:0:
475,192,135724,128,0,136021:0:0:0:0:
109,192,135724,1,0,0:0:0:0:
329,192,135724,1,0,0:0:0:0:
182,192,135872,1,0,0:0:0:0:
329,192,135947,1,0,0:0:0:0:
402,192,136021,1,0,0:0:0:0:
182,192,136021,1,0,0:0:0:0:
329,192,136095,1,0,0:0:0:0:
36,192,136169,1,0,0:0:0:0:
182,192,136169,1,0,0:0:0:0:
256,192,136318,1,0,0:0:0:0:
109,192,136318,1,0,0:0:0:0:
182,192,136318,1,0,0:0:0:0:
329,192,136392,1,0,0:0:0:0:
475,192,136392,1,0,0:0:0:0:
402,192,136392,1,0,0:0:0:0:
182,192,136466,1,0,0:0:0:0:
109,192,136466,1,0,0:0:0:0:
36,192,136466,1,0,0:0:0:0:
256,192,136541,1,0,0:0:0:0:
329,192,136541,1,0,0:0:0:0:
402,192,136541,1,0,0:0:0:0:
109,192,136615,1,0,0:0:0:0:
182,192,136615,1,0,0:0:0:0:
475,192,136615,128,0,136838:0:0:0:0:
36,192,136763,1,0,0:0:0:0:
329,192,136838,1,0,0:0:0:0:
36,192,136912,1,0,0:0:0:0:
182,192,136912,128,0,137135:0:0:0:0:
109,192,136912,1,0,0:0:0:0:
329,192,136986,1,0,0:0:0:0:
402,192,136986,1,0,0:0:0:0:
256,192,137060,1,0,0:0:0:0:
109,192,137060,1,0,0:0:0:0:
475,192,137135,1,0,0:0:0:0:
402,192,137135,1,0,0:0:0:0:
329,192,137209,1,0,0:0:0:0:
256,192,137209,1,0,0:0:0:0:
36,192,137209,1,0,0:0:0:0:
182,192,137283,1,0,0:0:0:0:
109,192,137283,1,0,0:0:0:0:
402,192,137358,1,0,0:0:0:0:
475,192,137358,1,0,0:0:0:0:
256,192,137432,1,0,0:0:0:0:
36,192,137432,1,0,0:0:0:0:
109,192,137506,1,0,0:0:0:0:
329,192,137506,1,0,0:0:0:0:
182,192,137580,1,0,0:0:0:0:
475,192,137580,1,0,0:0:0:0:
256,192,137655,1,0,0:0:0:0:
36,192,137655,1,0,0:0:0:0:
109,192,137729,1,0,0:0:0:0:
329,192,137729,1,0,0:0:0:0:
182,192,137803,1,0,0:0:0:0:
475,192,137803,1,0,0:0:0:0:
402,192,137803,1,0,0:0:0:0:
36,192,137877,1,0,0:0:0:0:
329,192,137877,1,0,0:0:0:0:
256,192,137877,1,0,0:0:0:0:
182,192,137952,1,0,0:0:0:0:
402,192,137952,1,0,0:0:0:0:
475,192,137952,1,0,0:0:0:0:
36,192,138026,1,0,0:0:0:0:
329,192,138026,1,0,0:0:0:0:
256,192,138026,1,0,0:0:0:0:
402,192,138100,1,0,0:0:0:0:
475,192,138100,1,0,0:0:0:0:
109,192,138100,1,0,0:0:0:0:
256,192,138249,1,0,0:0:0:0:
402,192,138323,1,0,0:0:0:0:
36,192,138397,1,0,0:0:0:0:
109,192,138397,1,0,0:0:0:0:
329,192,138397,1,0,0:0:0:0:
402,192,138471,1,0,0:0:0:0:
109,192,138496,1,0,0:0:0:0:
182,192,138496,1,0,0:0:0:0:
475,192,138546,1,0,0:0:0:0:
182,192,138595,1,0,0:0:0:0:
256,192,138595,1,0,0:0:0:0:
475,192,138694,1,0,0:0:0:0:
402,192,138694,1,0,0:0:0:0:
36,192,138694,1,0,0:0:0:0:
182,192,138768,1,0,0:0:0:0:
402,192,138793,1,0,0:0:0:0:
329,192,138793,1,0,0:0:0:0:
109,192,138843,1,0,0:0:0:0:
329,192,138892,1,0,0:0:0:0:
256,192,138892,1,0,0:0:0:0:
36,192,138917,1,0,0:0:0:0:
182,192,138991,1,0,0:0:0:0:
475,192,138991,1,0,0:0:0:0:
402,192,138991,128,0,139140:0:0:0:0:
329,192,139140,1,0,0:0:0:0:
109,192,139140,1,0,0:0:0:0:
256,192,139214,1,0,0:0:0:0:
36,192,139214,1,0,0:0:0:0:
182,192,139288,1,0,0:0:0:0:
475,192,139288,1,0,0:0:0:0:
402,192,139288,1,0,0:0:0:0:
329,192,139362,1,0,0:0:0:0:
36,192,139362,1,0,0:0:0:0:
109,192,139437,1,0,0:0:0:0:
256,192,139437,1,0,0:0:0:0:
182,192,139511,1,0,0:0:0:0:
329,192,139511,1,0,0:0:0:0:
256,192,139585,1,0,0:0:0:0:
402,192,139585,1,0,0:0:0:0:
36,192,139585,1,0,0:0:0:0:
109,192,139659,1,0,0:0:0:0:
329,192,139659,1,0,0:0:0:0:
475,192,139734,1,0,0:0:0:0:
182,192,139734,1,0,0:0:0:0:
402,192,139808,1,0,0:0:0:0:
256,192,139808,1,0,0:0:0:0:
329,192,139882,1,0,0:0:0:0:
109,192,139882,1,0,0:0:0:0:
36,192,139882,1,0,0:0:0:0:
475,192,139882,1,0,0:0:0:0:
182,192,139957,1,0,0:0:0:0:
402,192,139957,1,0,0:0:0:0:
256,192,140031,1,0,0:0:0:0:
36,192,140031,1,0,0:0:0:0:
109,192,140105,1,0,0:0:0:0:
329,192,140105,1,0,0:0:0:0:
182,192,140179,1,0,0:0:0:0:
36,192,140179,1,0,0:0:0:0:
475,192,140179,1,0,0:0:0:0:
402,192,140254,1,0,0:0:0:0:
256,192,140254,1,0,0:0:0:0:
475,192,140328,1,0,0:0:0:0:
182,192,140328,1,0,0:0:0:0:
256,192,140402,1,0,0:0:0:0:
402,192,140402,1,0,0:0:0:0:
329,192,140476,1,0,0:0:0:0:
36,192,140476,1,0,0:0:0:0:
109,192,140476,1,0,0:0:0:0:
182,192,140625,1,0,0:0:0:0:
36,192,140625,1,0,0:0:0:0:
256,192,140699,1,0,0:0:0:0:
329,192,140699,1,0,0:0:0:0:
36,192,140773,1,0,0:0:0:0:
475,192,140773,1,0,0:0:0:0:
109,192,140773,1,0,0:0:0:0:
182,192,140773,1,0,0:0:0:0:
329,192,140848,1,0,0:0:0:0:
402,192,140848,1,0,0:0:0:0:
256,192,140848,1,0,0:0:0:0:
36,192,140922,1,0,0:0:0:0:
109,192,140922,1,0,0:0:0:0:
475,192,140922,128,0,140996:0:0:0:0:
182,192,140922,1,0,0:0:0:0:
256,192,141070,1,0,0:0:0:0:
182,192,141070,1,0,0:0:0:0:
36,192,141070,1,0,0:0:0:0:
475,192,141070,128,0,141367:0:0:0:0:
329,192,141145,1,0,0:0:0:0:
402,192,141145,1,0,0:0:0:0:
182,192,141219,1,0,0:0:0:0:
36,192,141219,1,0,0:0:0:0:
329,192,141293,1,0,0:0:0:0:
402,192,141293,1,0,0:0:0:0:
256,192,141293,1,0,0:0:0:0:
36,192,141367,128,0,141516:0:0:0:0:
109,192,141367,128,0,141516:0:0:0:0:
182,192,141367,128,0,141516:0:0:0:0:
256,192,141516,1,0,0:0:0:0:
329,192,141516,1,0,0:0:0:0:
402,192,141516,1,0,0:0:0:0:
475,192,141590,1,0,0:0:0:0:
182,192,141664,128,0,141813:0:0:0:0:
109,192,141664,128,0,141813:0:0:0:0:
36,192,141664,128,0,141813:0:0:0:0:
329,192,141664,1,0,0:0:0:0:
475,192,141739,1,0,0:0:0:0:
329,192,141813,1,0,0:0:0:0:
256,192,141813,1,0,0:0:0:0:
475,192,141887,1,0,0:0:0:0:
402,192,141887,1,0,0:0:0:0:
256,192,141961,1,0,0:0:0:0:
36,192,141961,1,0,0:0:0:0:
109,192,141961,1,0,0:0:0:0:
329,192,142036,1,0,0:0:0:0:
182,192,142036,1,0,0:0:0:0:
256,192,142110,1,0,0:0:0:0:
402,192,142110,1,0,0:0:0:0:
329,192,142184,1,0,0:0:0:0:
109,192,142184,1,0,0:0:0:0:
402,192,142258,1,0,0:0:0:0:
182,192,142258,1,0,0:0:0:0:
475,192,142258,1,0,0:0:0:0:
256,192,142333,1,0,0:0:0:0:
36,192,142333,1,0,0:0:0:0:
475,192,142407,1,0,0:0:0:0:
109,192,142407,1,0,0:0:0:0:
329,192,142407,1,0,0:0:0:0:
329,192,142556,1,0,0:0:0:0:
109,192,142556,1,0,0:0:0:0:
36,192,142556,1,0,0:0:0:0:
475,192,142630,1,0,0:0:0:0:
182,192,142630,1,0,0:0:0:0:
402,192,142630,1,0,0:0:0:0:
36,192,142704,1,0,0:0:0:0:
329,192,142704,1,0,0:0:0:0:
109,192,142704,1,0,0:0:0:0:
182,192,142778,1,0,0:0:0:0:
475,192,142778,1,0,0:0:0:0:
402,192,142778,1,0,0:0:0:0:
329,192,142853,1,0,0:0:0:0:
109,192,142853,1,0,0:0:0:0:
36,192,142853,1,0,0:0:0:0:
182,192,143001,1,0,0:0:0:0:
36,192,143001,1,0,0:0:0:0:
475,192,143001,1,0,0:0:0:0:
402,192,143075,1,0,0:0:0:0:
256,192,143075,1,0,0:0:0:0:
475,192,143150,1,0,0:0:0:0:
182,192,143150,1,0,0:0:0:0:
329,192,143150,1,0,0:0:0:0:
402,192,143224,1,0,0:0:0:0:
256,192,143224,1,0,0:0:0:0:
109,192,143224,1,0,0:0:0:0:
182,192,143298,1,0,0:0:0:0:
36,192,143298,1,0,0:0:0:0:
329,192,143298,1,0,0:0:0:0:
256,192,143372,1,0,0:0:0:0:
109,192,143372,1,0,0:0:0:0:
182,192,143447,1,0,0:0:0:0:
475,192,143447,1,0,0:0:0:0:
329,192,143447,1,0,0:0:0:0:
402,192,143521,1,0,0:0:0:0:
256,192,143521,1,0,0:0:0:0:
36,192,143521,1,0,0:0:0:0:
109,192,143595,1,0,0:0:0:0:
329,192,143595,1,0,0:0:0:0:
182,192,143595,1,0,0:0:0:0:
402,192,143669,1,0,0:0:0:0:
475,192,143669,1,0,0:0:0:0:
182,192,143744,5,0,0:0:0:0:
36,192,143744,1,0,0:0:0:0:
256,192,143744,1,0,0:0:0:0:
109,192,143744,1,0,0:0:0:0:
475,192,143892,1,0,0:0:0:0:
256,192,143892,1,0,0:0:0:0:
182,192,143966,1,0,0:0:0:0:
402,192,143966,1,0,0:0:0:0:
329,192,144041,1,0,0:0:0:0:
36,192,144041,1,0,0:0:0:0:
256,192,144041,1,0,0:0:0:0:
109,192,144115,1,0,0:0:0:0:
402,192,144115,1,0,0:0:0:0:
182,192,144189,1,0,0:0:0:0:
36,192,144189,1,0,0:0:0:0:
475,192,144189,1,0,0:0:0:0:
256,192,144263,1,0,0:0:0:0:
109,192,144263,1,0,0:0:0:0:
182,192,144338,1,0,0:0:0:0:
329,192,144338,1,0,0:0:0:0:
475,192,144338,1,0,0:0:0:0:
256,192,144412,1,0,0:0:0:0:
109,192,144412,1,0,0:0:0:0:
182,192,144486,1,0,0:0:0:0:
36,192,144486,1,0,0:0:0:0:
329,192,144486,1,0,0:0:0:0:
256,192,144560,1,0,0:0:0:0:
402,192,144560,1,0,0:0:0:0:
329,192,144635,1,0,0:0:0:0:
475,192,144635,1,0,0:0:0:0:
109,192,144635,1,0,0:0:0:0:
182,192,144709,1,0,0:0:0:0:
402,192,144709,1,0,0:0:0:0:
36,192,144709,1,0,0:0:0:0:
109,192,144783,1,0,0:0:0:0:
256,192,144783,1,0,0:0:0:0:
475,192,144783,1,0,0:0:0:0:
402,192,144858,1,0,0:0:0:0:
329,192,144858,1,0,0:0:0:0:
182,192,144858,1,0,0:0:0:0:
256,192,144932,5,0,0:0:0:0:
109,192,144932,1,0,0:0:0:0:
36,192,144932,1,0,0:0:0:0:
475,192,144932,1,0,0:0:0:0:
182,192,145006,1,0,0:0:0:0:
475,192,145080,1,0,0:0:0:0:
329,192,145080,1,0,0:0:0:0:
182,192,145155,1,0,0:0:0:0:
36,192,145155,1,0,0:0:0:0:
475,192,145229,1,0,0:0:0:0:
256,192,145229,1,0,0:0:0:0:
402,192,145229,1,0,0:0:0:0:
109,192,145377,1,0,0:0:0:0:
329,192,145452,1,0,0:0:0:0:
109,192,145526,1,0,0:0:0:0:
182,192,145526,1,0,0:0:0:0:
329,192,145600,1,0,0:0:0:0:
475,192,145600,1,0,0:0:0:0:
109,192,145674,1,0,0:0:0:0:
182,192,145674,1,0,0:0:0:0:
329,192,145749,1,0,0:0:0:0:
402,192,145749,1,0,0:0:0:0:
256,192,145823,1,0,0:0:0:0:
36,192,145823,1,0,0:0:0:0:
109,192,145823,1,0,0:0:0:0:
329,192,145897,1,0,0:0:0:0:
475,192,145897,1,0,0:0:0:0:
182,192,145971,1,0,0:0:0:0:
109,192,145971,1,0,0:0:0:0:
256,192,145971,1,0,0:0:0:0:
329,192,146046,1,0,0:0:0:0:
256,192,146120,1,0,0:0:0:0:
36,192,146120,128,0,146194:0:0:0:0:
182,192,146194,128,0,146268:0:0:0:0:
402,192,146268,1,0,0:0:0:0:
36,192,146268,128,0,146343:0:0:0:0:
182,192,146343,128,0,146417:0:0:0:0:
329,192,146343,1,0,0:0:0:0:
109,192,146417,128,0,146491:0:0:0:0:
402,192,146417,1,0,0:0:0:0:
256,192,146491,128,0,146565:0:0:0:0:
329,192,146491,1,0,0:0:0:0:
182,192,146565,128,0,146640:0:0:0:0:
475,192,146565,1,0,0:0:0:0:
36,192,146640,128,0,146714:0:0:0:0:
329,192,146640,1,0,0:0:0:0:
256,192,146714,1,0,0:0:0:0:
475,192,146714,128,0,146788:0:0:0:0:
329,192,146788,128,0,146862:0:0:0:0:
109,192,146788,1,0,0:0:0:0:
475,192,146862,128,0,146937:0:0:0:0:
182,192,146862,1,0,0:0:0:0:
329,192,146937,128,0,147011:0:0:0:0:
36,192,146937,1,0,0:0:0:0:
402,192,147011,128,0,147085:0:0:0:0:
109,192,147011,1,0,0:0:0:0:
256,192,147085,128,0,147159:0:0:0:0:
182,192,147085,1,0,0:0:0:0:
402,192,147159,128,0,147308:0:0:0:0:
109,192,147159,1,0,0:0:0:0:
182,192,147308,1,0,0:0:0:0:
329,192,147308,1,0,0:0:0:0:
109,192,147308,1,0,0:0:0:0:
475,192,147382,1,0,0:0:0:0:
182,192,147457,1,0,0:0:0:0:
475,192,147531,1,0,0:0:0:0:
109,192,147531,1,0,0:0:0:0:
36,192,147531,1,0,0:0:0:0:
256,192,147605,1,0,0:0:0:0:
182,192,147605,1,0,0:0:0:0:
329,192,147605,1,0,0:0:0:0:
402,192,147679,1,0,0:0:0:0:
256,192,147754,1,0,0:0:0:0:
109,192,147754,1,0,0:0:0:0:
36,192,147754,1,0,0:0:0:0:
329,192,147828,1,0,0:0:0:0:
36,192,147902,1,0,0:0:0:0:
182,192,147902,1,0,0:0:0:0:
109,192,147902,1,0,0:0:0:0:
329,192,147976,1,0,0:0:0:0:
475,192,147976,1,0,0:0:0:0:
402,192,147976,1,0,0:0:0:0:
36,192,148051,1,0,0:0:0:0:
256,192,148125,1,0,0:0:0:0:
182,192,148125,1,0,0:0:0:0:
109,192,148199,1,0,0:0:0:0:
36,192,148199,1,0,0:0:0:0:
475,192,148199,1,0,0:0:0:0:
329,192,148273,1,0,0:0:0:0:
475,192,148348,1,0,0:0:0:0:
329,192,148422,1,0,0:0:0:0:
182,192,148496,1,0,0:0:0:0:
36,192,148496,1,0,0:0:0:0:
475,192,148496,128,0,148645:0:0:0:0:
329,192,148645,1,0,0:0:0:0:
109,192,148645,1,0,0:0:0:0:
256,192,148719,1,0,0:0:0:0:
36,192,148719,1,0,0:0:0:0:
182,192,148793,1,0,0:0:0:0:
402,192,148793,1,0,0:0:0:0:
475,192,148793,1,0,0:0:0:0:
329,192,148867,1,0,0:0:0:0:
36,192,148867,1,0,0:0:0:0:
109,192,148942,1,0,0:0:0:0:
256,192,148942,1,0,0:0:0:0:
182,192,149016,1,0,0:0:0:0:
329,192,149016,1,0,0:0:0:0:
256,192,149090,1,0,0:0:0:0:
402,192,149090,1,0,0:0:0:0:
36,192,149090,1,0,0:0:0:0:
109,192,149164,1,0,0:0:0:0:
329,192,149164,1,0,0:0:0:0:
182,192,149239,1,0,0:0:0:0:
475,192,149239,1,0,0:0:0:0:
402,192,149313,1,0,0:0:0:0:
256,192,149313,1,0,0:0:0:0:
329,192,149387,1,0,0:0:0:0:
109,192,149387,1,0,0:0:0:0:
36,192,149387,1,0,0:0:0:0:
256,192,149461,1,0,0:0:0:0:
475,192,149461,1,0,0:0:0:0:
402,192,149536,1,0,0:0:0:0:
182,192,149536,1,0,0:0:0:0:
329,192,149610,1,0,0:0:0:0:
109,192,149610,1,0,0:0:0:0:
256,192,149684,1,0,0:0:0:0:
36,192,149684,1,0,0:0:0:0:
475,192,149684,1,0,0:0:0:0:
402,192,149758,1,0,0:0:0:0:
182,192,149758,1,0,0:0:0:0:
475,192,149833,1,0,0:0:0:0:
256,192,149833,1,0,0:0:0:0:
402,192,149907,1,0,0:0:0:0:
182,192,149907,1,0,0:0:0:0:
256,192,149981,1,0,0:0:0:0:
475,192,149981,1,0,0:0:0:0:
402,192,150130,1,0,0:0:0:0:
36,192,150130,1,0,0:0:0:0:
256,192,150204,1,0,0:0:0:0:
182,192,150204,1,0,0:0:0:0:
36,192,150278,1,0,0:0:0:0:
402,192,150278,1,0,0:0:0:0:
475,192,150278,128,0,150427:0:0:0:0:
256,192,150353,1,0,0:0:0:0:
182,192,150353,1,0,0:0:0:0:
36,192,150427,1,0,0:0:0:0:
402,192,150427,1,0,0:0:0:0:
329,192,150427,1,0,0:0:0:0:
329,192,150575,1,0,0:0:0:0:
109,192,150575,1,0,0:0:0:0:
402,192,150650,1,0,0:0:0:0:
475,192,150650,1,0,0:0:0:0:
329,192,150724,1,0,0:0:0:0:
109,192,150724,1,0,0:0:0:0:
402,192,150798,1,0,0:0:0:0:
475,192,150798,1,0,0:0:0:0:
329,192,150872,5,0,0:0:0:0:
109,192,150872,1,0,0:0:0:0:
36,192,150872,128,0,151021:0:0:0:0:
475,192,151021,1,0,0:0:0:0:
256,192,151021,1,0,0:0:0:0:
402,192,151021,1,0,0:0:0:0:
182,192,151095,1,0,0:0:0:0:
109,192,151095,1,0,0:0:0:0:
36,192,151095,1,0,0:0:0:0:
256,192,151169,1,0,0:0:0:0:
475,192,151169,1,0,0:0:0:0:
402,192,151169,1,0,0:0:0:0:
182,192,151244,1,0,0:0:0:0:
109,192,151244,1,0,0:0:0:0:
36,192,151244,1,0,0:0:0:0:
256,192,151318,1,0,0:0:0:0:
402,192,151318,1,0,0:0:0:0:
329,192,151318,1,0,0:0:0:0:
36,192,151392,1,0,0:0:0:0:
475,192,151392,1,0,0:0:0:0:
109,192,151466,1,0,0:0:0:0:
256,192,151466,1,0,0:0:0:0:
402,192,151466,1,0,0:0:0:0:
182,192,151466,1,0,0:0:0:0:
329,192,151541,1,0,0:0:0:0:
475,192,151541,1,0,0:0:0:0:
256,192,151615,1,0,0:0:0:0:
109,192,151615,1,0,0:0:0:0:
182,192,151689,1,0,0:0:0:0:
36,192,151689,1,0,0:0:0:0:
475,192,151763,1,0,0:0:0:0:
329,192,151763,1,0,0:0:0:0:
402,192,151763,1,0,0:0:0:0:
256,192,151838,1,0,0:0:0:0:
109,192,151838,1,0,0:0:0:0:
182,192,151912,1,0,0:0:0:0:
36,192,151912,1,0,0:0:0:0:
402,192,151912,1,0,0:0:0:0:
329,192,152060,1,0,0:0:0:0:
109,192,152060,1,0,0:0:0:0:
36,192,152060,128,0,152283:0:0:0:0:
182,192,152060,1,0,0:0:0:0:
256,192,152135,1,0,0:0:0:0:
475,192,152135,1,0,0:0:0:0:
329,192,152209,1,0,0:0:0:0:
182,192,152209,1,0,0:0:0:0:
256,192,152283,1,0,0:0:0:0:
475,192,152283,1,0,0:0:0:0:
36,192,152358,128,0,152580:0:0:0:0:
329,192,152358,1,0,0:0:0:0:
182,192,152358,1,0,0:0:0:0:
256,192,152506,1,0,0:0:0:0:
402,192,152506,1,0,0:0:0:0:
182,192,152580,1,0,0:0:0:0:
475,192,152580,1,0,0:0:0:0:
36,192,152655,128,0,152877:0:0:0:0:
402,192,152655,1,0,0:0:0:0:
256,192,152655,1,0,0:0:0:0:
182,192,152729,1,0,0:0:0:0:
475,192,152729,1,0,0:0:0:0:
402,192,152803,1,0,0:0:0:0:
256,192,152803,1,0,0:0:0:0:
36,192,152952,128,0,153397:0:0:0:0:
329,192,152952,1,0,0:0:0:0:
182,192,152952,1,0,0:0:0:0:
256,192,153026,1,0,0:0:0:0:
475,192,153026,1,0,0:0:0:0:
329,192,153100,1,0,0:0:0:0:
182,192,153100,1,0,0:0:0:0:
256,192,153174,1,0,0:0:0:0:
475,192,153174,1,0,0:0:0:0:
329,192,153249,1,0,0:0:0:0:
182,192,153249,1,0,0:0:0:0:
475,192,153397,1,0,0:0:0:0:
256,192,153397,1,0,0:0:0:0:
109,192,153397,1,0,0:0:0:0:
182,192,153471,1,0,0:0:0:0:
402,192,153471,1,0,0:0:0:0:
256,192,153546,1,0,0:0:0:0:
36,192,153546,1,0,0:0:0:0:
329,192,153546,1,0,0:0:0:0:
109,192,153620,1,0,0:0:0:0:
402,192,153620,1,0,0:0:0:0:
182,192,153694,1,0,0:0:0:0:
36,192,153694,1,0,0:0:0:0:
256,192,153768,1,0,0:0:0:0:
475,192,153768,1,0,0:0:0:0:
402,192,153843,1,0,0:0:0:0:
329,192,153843,1,0,0:0:0:0:
109,192,153843,1,0,0:0:0:0:
256,192,153917,1,0,0:0:0:0:
36,192,153917,1,0,0:0:0:0:
182,192,153991,1,0,0:0:0:0:
475,192,153991,1,0,0:0:0:0:
402,192,153991,1,0,0:0:0:0:
329,192,154065,1,0,0:0:0:0:
109,192,154065,1,0,0:0:0:0:
256,192,154140,1,0,0:0:0:0:
36,192,154140,1,0,0:0:0:0:
475,192,154140,1,0,0:0:0:0:
402,192,154214,1,0,0:0:0:0:
109,192,154214,1,0,0:0:0:0:
329,192,154214,1,0,0:0:0:0:
182,192,154288,1,0,0:0:0:0:
256,192,154288,1,0,0:0:0:0:
475,192,154288,1,0,0:0:0:0:
329,192,154362,1,0,0:0:0:0:
109,192,154362,1,0,0:0:0:0:
36,192,154362,1,0,0:0:0:0:
182,192,154437,128,0,154734:0:0:0:0:
256,192,154437,128,0,154734:0:0:0:0:
402,192,154437,128,0,154734:0:0:0:0:
475,192,154437,128,0,154734:0:0:0:0:
109,192,154734,1,0,0:0:0:0:
36,192,154734,1,0,0:0:0:0:
182,192,154882,128,0,155179:0:0:0:0:
256,192,154882,128,0,155179:0:0:0:0:
475,192,154882,128,0,155328:0:0:0:0:
402,192,154882,128,0,155328:0:0:0:0:
109,192,155179,1,0,0:0:0:0:
36,192,155179,1,0,0:0:0:0:
329,192,155254,1,0,0:0:0:0:
256,192,155254,1,0,0:0:0:0:
182,192,155328,1,0,0:0:0:0:
36,192,155328,128,0,155625:0:0:0:0:
109,192,155328,1,0,0:0:0:0:
256,192,155402,1,0,0:0:0:0:
329,192,155402,1,0,0:0:0:0:
402,192,155476,1,0,0:0:0:0:
475,192,155476,1,0,0:0:0:0:
329,192,155551,1,0,0:0:0:0:
256,192,155551,1,0,0:0:0:0:
109,192,155625,128,0,155922:0:0:0:0:
182,192,155625,128,0,155922:0:0:0:0:
475,192,155625,128,0,155922:0:0:0:0:
402,192,155625,128,0,155922:0:0:0:0:
329,192,155922,1,0,0:0:0:0:
256,192,155922,1,0,0:0:0:0:
109,192,156070,128,0,156516:0:0:0:0:
182,192,156070,128,0,156516:0:0:0:0:
402,192,156070,128,0,156367:0:0:0:0:
475,192,156070,128,0,156367:0:0:0:0:
329,192,156367,1,0,0:0:0:0:
256,192,156367,1,0,0:0:0:0:
402,192,156516,1,0,0:0:0:0:
475,192,156516,1,0,0:0:0:0:
36,192,156516,128,0,156813:0:0:0:0:
329,192,156590,1,0,0:0:0:0:
256,192,156590,1,0,0:0:0:0:
402,192,156664,1,0,0:0:0:0:
475,192,156664,1,0,0:0:0:0:
329,192,156813,128,0,157110:0:0:0:0:
109,192,156813,128,0,157110:0:0:0:0:
475,192,156813,128,0,157110:0:0:0:0:
182,192,156813,128,0,157110:0:0:0:0:
256,192,157110,1,0,0:0:0:0:
402,192,157110,1,0,0:0:0:0:
109,192,157258,128,0,157704:0:0:0:0:
182,192,157258,128,0,157704:0:0:0:0:
475,192,157258,128,0,157407:0:0:0:0:
329,192,157258,128,0,157407:0:0:0:0:
256,192,157407,1,0,0:0:0:0:
36,192,157407,1,0,0:0:0:0:
475,192,157481,1,0,0:0:0:0:
329,192,157481,1,0,0:0:0:0:
256,192,157556,1,0,0:0:0:0:
402,192,157556,1,0,0:0:0:0:
329,192,157630,1,0,0:0:0:0:
36,192,157630,1,0,0:0:0:0:
475,192,157704,128,0,158001:0:0:0:0:
256,192,157704,1,0,0:0:0:0:
402,192,157704,1,0,0:0:0:0:
329,192,157778,1,0,0:0:0:0:
36,192,157778,1,0,0:0:0:0:
109,192,157853,1,0,0:0:0:0:
256,192,157853,1,0,0:0:0:0:
182,192,157927,1,0,0:0:0:0:
329,192,157927,1,0,0:0:0:0:
36,192,158001,128,0,158298:0:0:0:0:
109,192,158001,128,0,158298:0:0:0:0:
402,192,158001,128,0,158298:0:0:0:0:
256,192,158001,128,0,158298:0:0:0:0:
329,192,158298,1,0,0:0:0:0:
475,192,158298,1,0,0:0:0:0:
182,192,158447,128,0,158892:0:0:0:0:
109,192,158447,128,0,158892:0:0:0:0:
256,192,158447,128,0,158595:0:0:0:0:
329,192,158447,128,0,158595:0:0:0:0:
402,192,158595,1,0,0:0:0:0:
475,192,158595,1,0,0:0:0:0:
256,192,158669,1,0,0:0:0:0:
329,192,158669,1,0,0:0:0:0:
402,192,158744,1,0,0:0:0:0:
475,192,158744,1,0,0:0:0:0:
329,192,158818,1,0,0:0:0:0:
256,192,158818,1,0,0:0:0:0:
475,192,158892,1,0,0:0:0:0:
402,192,158892,1,0,0:0:0:0:
36,192,158892,1,0,0:0:0:0:
109,192,158966,1,0,0:0:0:0:
256,192,158966,1,0,0:0:0:0:
182,192,159041,1,0,0:0:0:0:
329,192,159041,1,0,0:0:0:0:
475,192,159041,1,0,0:0:0:0:
256,192,159115,1,0,0:0:0:0:
109,192,159115,1,0,0:0:0:0:
182,192,159189,1,0,0:0:0:0:
36,192,159189,1,0,0:0:0:0:
402,192,159189,1,0,0:0:0:0:
475,192,159189,1,0,0:0:0:0:
329,192,159189,1,0,0:0:0:0:
36,192,159486,1,0,0:0:0:0:
182,192,159486,1,0,0:0:0:0:
329,192,159486,1,0,0:0:0:0:
402,192,159486,1,0,0:0:0:0:
475,192,159486,1,0,0:0:0:0:
182,192,159783,1,0,0:0:0:0:
36,192,159783,1,0,0:0:0:0:
329,192,159783,1,0,0:0:0:0:
475,192,159783,1,0,0:0:0:0:
402,192,159783,1,0,0:0:0:0:
182,192,160080,1,0,0:0:0:0:
36,192,160080,1,0,0:0:0:0:
329,192,160080,1,0,0:0:0:0:
402,192,160080,1,0,0:0:0:0:
475,192,160080,1,0,0:0:0:0:
182,192,160377,1,0,0:0:0:0:
109,192,160377,1,0,0:0:0:0:
256,192,160377,1,0,0:0:0:0:
475,192,160377,1,0,0:0:0:0:
402,192,160377,1,0,0:0:0:0:
182,192,160526,1,0,0:0:0:0:
109,192,160526,1,0,0:0:0:0:
402,192,160526,1,0,0:0:0:0:
475,192,160526,1,0,0:0:0:0:
182,192,160674,1,0,0:0:0:0:
109,192,160674,1,0,0:0:0:0:
402,192,160674,1,0,0:0:0:0:
475,192,160674,1,0,0:0:0:0:
182,192,160823,1,0,0:0:0:0:
109,192,160823,1,0,0:0:0:0:
475,192,160823,1,0,0:0:0:0:
402,192,160823,1,0,0:0:0:0:
256,192,160971,1,0,0:0:0:0:
402,192,160971,1,0,0:0:0:0:
329,192,160971,1,0,0:0:0:0:
36,192,160971,1,0,0:0:0:0:
182,192,160971,1,0,0:0:0:0:
36,192,161120,1,0,0:0:0:0:
256,192,161120,1,0,0:0:0:0:
402,192,161120,1,0,0:0:0:0:
182,192,161120,1,0,0:0:0:0:
256,192,161268,1,0,0:0:0:0:
182,192,161268,1,0,0:0:0:0:
36,192,161268,1,0,0:0:0:0:
402,192,161268,1,0,0:0:0:0:
402,192,161417,1,0,0:0:0:0:
256,192,161417,1,0,0:0:0:0:
182,192,161417,1,0,0:0:0:0:
36,192,161417,1,0,0:0:0:0:
256,192,161565,1,0,0:0:0:0:
109,192,161565,1,0,0:0:0:0:
36,192,161565,1,0,0:0:0:0:
475,192,161565,1,0,0:0:0:0:
329,192,161640,1,0,0:0:0:0:
182,192,161640,1,0,0:0:0:0:
256,192,161714,1,0,0:0:0:0:
402,192,161714,1,0,0:0:0:0:
36,192,161714,1,0,0:0:0:0:
109,192,161788,1,0,0:0:0:0:
329,192,161788,1,0,0:0:0:0:
182,192,161862,1,0,0:0:0:0:
36,192,161862,1,0,0:0:0:0:
475,192,161862,1,0,0:0:0:0:
402,192,161862,1,0,0:0:0:0:
329,192,161937,1,0,0:0:0:0:
256,192,161937,1,0,0:0:0:0:
182,192,162011,1,0,0:0:0:0:
109,192,162011,1,0,0:0:0:0:
475,192,162011,1,0,0:0:0:0:
402,192,162085,1,0,0:0:0:0:
256,192,162085,1,0,0:0:0:0:
329,192,162159,1,0,0:0:0:0:
475,192,162159,1,0,0:0:0:0:
109,192,162159,1,0,0:0:0:0:
36,192,162159,1,0,0:0:0:0:
402,192,162234,1,0,0:0:0:0:
182,192,162234,1,0,0:0:0:0:
256,192,162308,1,0,0:0:0:0:
36,192,162308,1,0,0:0:0:0:
475,192,162308,1,0,0:0:0:0:
109,192,162382,1,0,0:0:0:0:
329,192,162382,1,0,0:0:0:0:
182,192,162457,1,0,0:0:0:0:
36,192,162457,1,0,0:0:0:0:
402,192,162457,1,0,0:0:0:0:
475,192,162457,1,0,0:0:0:0:
329,192,162531,1,0,0:0:0:0:
256,192,162531,1,0,0:0:0:0:
182,192,162605,1,0,0:0:0:0:
109,192,162605,1,0,0:0:0:0:
475,192,162605,1,0,0:0:0:0:
402,192,162679,1,0,0:0:0:0:
256,192,162679,1,0,0:0:0:0:
182,192,162754,1,0,0:0:0:0:
109,192,162754,1,0,0:0:0:0:
329,192,162754,1,0,0:0:0:0:
36,192,162902,1,0,0:0:0:0:
36,192,162976,1,0,0:0:0:0:
109,192,163051,1,0,0:0:0:0:
256,192,163051,1,0,0:0:0:0:
402,192,163051,1,0,0:0:0:0:
329,192,163199,1,0,0:0:0:0:
182,192,163199,1,0,0:0:0:0:
475,192,163199,1,0,0:0:0:0:
36,192,163348,128,0,163570:0:0:0:0:
182,192,163348,128,0,163570:0:0:0:0:
256,192,163348,128,0,163570:0:0:0:0:
329,192,163348,128,0,163570:0:0:0:0:
475,192,163348,128,0,163570:0:0:0:0:
109,192,163348,128,0,163570:0:0:0:0:
402,192,163348,128,0,163570:0:0:0:0:
36,192,163645,128,0,163867:0:0:0:0:
109,192,163645,128,0,163867:0:0:0:0:
256,192,163645,128,0,163867:0:0:0:0:
402,192,163645,128,0,163867:0:0:0:0:
475,192,163645,128,0,163867:0:0:0:0:
329,192,163645,128,0,163867:0:0:0:0:
182,192,163645,128,0,163867:0:0:0:0:
182,192,163942,1,0,0:0:0:0:
36,192,163942,1,0,0:0:0:0:
475,192,163942,1,0,0:0:0:0:
256,192,163942,1,0,0:0:0:0:
402,192,163942,1,0,0:0:0:0:
329,192,164016,1,0,0:0:0:0:
402,192,164090,1,0,0:0:0:0:
182,192,164090,1,0,0:0:0:0:
109,192,164090,1,0,0:0:0:0:
256,192,164164,1,0,0:0:0:0:
475,192,164164,1,0,0:0:0:0:
402,192,164239,1,0,0:0:0:0:
329,192,164239,1,0,0:0:0:0:
109,192,164239,1,0,0:0:0:0:
36,192,164239,1,0,0:0:0:0:
256,192,164313,1,0,0:0:0:0:
182,192,164387,1,0,0:0:0:0:
475,192,164387,1,0,0:0:0:0:
402,192,164387,1,0,0:0:0:0:
329,192,164461,1,0,0:0:0:0:
109,192,164461,1,0,0:0:0:0:
256,192,164536,1,0,0:0:0:0:
36,192,164536,1,0,0:0:0:0:
475,192,164536,1,0,0:0:0:0:
402,192,164536,1,0,0:0:0:0:
182,192,164610,1,0,0:0:0:0:
109,192,164684,1,0,0:0:0:0:
329,192,164684,1,0,0:0:0:0:
475,192,164684,1,0,0:0:0:0:
256,192,164758,1,0,0:0:0:0:
109,192,164833,1,0,0:0:0:0:
36,192,164833,1,0,0:0:0:0:
182,192,164833,1,0,0:0:0:0:
402,192,164833,1,0,0:0:0:0:
475,192,164833,1,0,0:0:0:0:
256,192,164907,1,0,0:0:0:0:
475,192,164981,1,0,0:0:0:0:
329,192,164981,1,0,0:0:0:0:
109,192,164981,1,0,0:0:0:0:
402,192,164981,1,0,0:0:0:0:
182,192,165056,1,0,0:0:0:0:
256,192,165130,1,0,0:0:0:0:
36,192,165130,1,0,0:0:0:0:
402,192,165130,1,0,0:0:0:0:
109,192,165130,1,0,0:0:0:0:
329,192,165204,1,0,0:0:0:0:
256,192,165278,1,0,0:0:0:0:
109,192,165278,1,0,0:0:0:0:
475,192,165278,1,0,0:0:0:0:
402,192,165353,1,0,0:0:0:0:
109,192,165353,1,0,0:0:0:0:
256,192,165427,1,0,0:0:0:0:
475,192,165427,1,0,0:0:0:0:
329,192,165427,1,0,0:0:0:0:
36,192,165427,1,0,0:0:0:0:
109,192,165501,1,0,0:0:0:0:
182,192,165575,1,0,0:0:0:0:
36,192,165575,1,0,0:0:0:0:
475,192,165575,1,0,0:0:0:0:
256,192,165575,1,0,0:0:0:0:
402,192,165650,1,0,0:0:0:0:
256,192,165724,1,0,0:0:0:0:
109,192,165724,1,0,0:0:0:0:
329,192,165724,1,0,0:0:0:0:
475,192,165724,1,0,0:0:0:0:
36,192,165724,1,0,0:0:0:0:
182,192,165798,1,0,0:0:0:0:
256,192,165872,1,0,0:0:0:0:
36,192,165872,1,0,0:0:0:0:
475,192,165872,1,0,0:0:0:0:
402,192,165872,1,0,0:0:0:0:
109,192,165947,1,0,0:0:0:0:
182,192,166021,1,0,0:0:0:0:
475,192,166021,1,0,0:0:0:0:
36,192,166021,1,0,0:0:0:0:
256,192,166021,1,0,0:0:0:0:
329,192,166021,1,0,0:0:0:0:
402,192,166095,1,0,0:0:0:0:
329,192,166169,1,0,0:0:0:0:
36,192,166169,1,0,0:0:0:0:
475,192,166169,1,0,0:0:0:0:
182,192,166169,1,0,0:0:0:0:
256,192,166244,1,0,0:0:0:0:
182,192,166318,1,0,0:0:0:0:
109,192,166318,1,0,0:0:0:0:
402,192,166318,1,0,0:0:0:0:
475,192,166318,1,0,0:0:0:0:
329,192,166318,1,0,0:0:0:0:
256,192,166392,1,0,0:0:0:0:
329,192,166466,1,0,0:0:0:0:
109,192,166466,1,0,0:0:0:0:
36,192,166466,1,0,0:0:0:0:
182,192,166541,1,0,0:0:0:0:
402,192,166541,1,0,0:0:0:0:
256,192,166615,1,0,0:0:0:0:
475,192,166615,1,0,0:0:0:0:
109,192,166615,1,0,0:0:0:0:
36,192,166615,1,0,0:0:0:0:
182,192,166689,1,0,0:0:0:0:
109,192,166763,1,0,0:0:0:0:
402,192,166763,1,0,0:0:0:0:
475,192,166763,1,0,0:0:0:0:
329,192,166838,1,0,0:0:0:0:
36,192,166838,1,0,0:0:0:0:
256,192,166912,1,0,0:0:0:0:
182,192,166912,1,0,0:0:0:0:
475,192,166912,1,0,0:0:0:0:
402,192,166912,1,0,0:0:0:0:
329,192,166986,1,0,0:0:0:0:
402,192,167060,1,0,0:0:0:0:
109,192,167060,1,0,0:0:0:0:
36,192,167060,1,0,0:0:0:0:
182,192,167135,1,0,0:0:0:0:
475,192,167135,1,0,0:0:0:0:
256,192,167209,1,0,0:0:0:0:
402,192,167209,1,0,0:0:0:0:
329,192,167209,1,0,0:0:0:0:
36,192,167209,1,0,0:0:0:0:
109,192,167209,1,0,0:0:0:0:
182,192,167283,1,0,0:0:0:0:
109,192,167358,1,0,0:0:0:0:
402,192,167358,1,0,0:0:0:0:
475,192,167358,1,0,0:0:0:0:
329,192,167358,1,0,0:0:0:0:
256,192,167432,1,0,0:0:0:0:
182,192,167506,1,0,0:0:0:0:
109,192,167506,1,0,0:0:0:0:
36,192,167506,1,0,0:0:0:0:
402,192,167506,1,0,0:0:0:0:
475,192,167506,1,0,0:0:0:0:
256,192,167580,1,0,0:0:0:0:
329,192,167655,1,0,0:0:0:0:
109,192,167655,1,0,0:0:0:0:
475,192,167655,1,0,0:0:0:0:
402,192,167729,1,0,0:0:0:0:
109,192,167729,1,0,0:0:0:0:
256,192,167803,1,0,0:0:0:0:
36,192,167803,1,0,0:0:0:0:
475,192,167803,1,0,0:0:0:0:
182,192,167803,1,0,0:0:0:0:
329,192,167877,1,0,0:0:0:0:
182,192,167952,1,0,0:0:0:0:
402,192,167952,1,0,0:0:0:0:
36,192,167952,1,0,0:0:0:0:
109,192,167952,1,0,0:0:0:0:
256,192,168026,1,0,0:0:0:0:
109,192,168100,1,0,0:0:0:0:
36,192,168100,1,0,0:0:0:0:
182,192,168100,1,0,0:0:0:0:
402,192,168100,1,0,0:0:0:0:
475,192,168100,1,0,0:0:0:0:
329,192,168174,1,0,0:0:0:0:
256,192,168249,1,0,0:0:0:0:
36,192,168249,1,0,0:0:0:0:
475,192,168249,1,0,0:0:0:0:
402,192,168249,1,0,0:0:0:0:
182,192,168323,1,0,0:0:0:0:
109,192,168397,1,0,0:0:0:0:
36,192,168397,1,0,0:0:0:0:
329,192,168397,1,0,0:0:0:0:
475,192,168397,1,0,0:0:0:0:
402,192,168397,1,0,0:0:0:0:
256,192,168471,1,0,0:0:0:0:
329,192,168546,1,0,0:0:0:0:
109,192,168546,1,0,0:0:0:0:
402,192,168546,1,0,0:0:0:0:
182,192,168546,1,0,0:0:0:0:
256,192,168620,1,0,0:0:0:0:
329,192,168694,1,0,0:0:0:0:
36,192,168694,1,0,0:0:0:0:
109,192,168694,1,0,0:0:0:0:
402,192,168694,1,0,0:0:0:0:
475,192,168694,1,0,0:0:0:0:
182,192,168768,1,0,0:0:0:0:
256,192,168843,1,0,0:0:0:0:
36,192,168843,1,0,0:0:0:0:
402,192,168843,1,0,0:0:0:0:
109,192,168917,1,0,0:0:0:0:
329,192,168917,1,0,0:0:0:0:
182,192,168991,1,0,0:0:0:0:
36,192,168991,1,0,0:0:0:0:
475,192,168991,1,0,0:0:0:0:
402,192,168991,1,0,0:0:0:0:
329,192,169065,1,0,0:0:0:0:
256,192,169140,1,0,0:0:0:0:
475,192,169140,1,0,0:0:0:0:
36,192,169140,1,0,0:0:0:0:
182,192,169214,1,0,0:0:0:0:
402,192,169214,1,0,0:0:0:0:
109,192,169288,1,0,0:0:0:0:
329,192,169288,1,0,0:0:0:0:
475,192,169288,1,0,0:0:0:0:
256,192,169288,1,0,0:0:0:0:
182,192,169362,1,0,0:0:0:0:
256,192,169437,1,0,0:0:0:0:
36,192,169437,1,0,0:0:0:0:
402,192,169437,1,0,0:0:0:0:
109,192,169511,1,0,0:0:0:0:
329,192,169511,1,0,0:0:0:0:
182,192,169585,1,0,0:0:0:0:
402,192,169585,1,0,0:0:0:0:
475,192,169585,1,0,0:0:0:0:
36,192,169585,1,0,0:0:0:0:
256,192,169585,1,0,0:0:0:0:
329,192,169659,1,0,0:0:0:0:
256,192,169734,1,0,0:0:0:0:
109,192,169734,1,0,0:0:0:0:
36,192,169734,1,0,0:0:0:0:
475,192,169734,1,0,0:0:0:0:
402,192,169808,1,0,0:0:0:0:
329,192,169882,1,0,0:0:0:0:
109,192,169882,1,0,0:0:0:0:
36,192,169882,1,0,0:0:0:0:
475,192,169882,1,0,0:0:0:0:
182,192,169957,1,0,0:0:0:0:
256,192,170031,1,0,0:0:0:0:
109,192,170031,1,0,0:0:0:0:
475,192,170031,1,0,0:0:0:0:
182,192,170105,1,0,0:0:0:0:
475,192,170105,1,0,0:0:0:0:
256,192,170179,1,0,0:0:0:0:
402,192,170179,1,0,0:0:0:0:
36,192,170179,1,0,0:0:0:0:
109,192,170179,1,0,0:0:0:0:
182,192,170254,1,0,0:0:0:0:
109,192,170328,1,0,0:0:0:0:
402,192,170328,1,0,0:0:0:0:
475,192,170328,1,0,0:0:0:0:
329,192,170328,1,0,0:0:0:0:
256,192,170402,1,0,0:0:0:0:
182,192,170476,1,0,0:0:0:0:
36,192,170476,1,0,0:0:0:0:
475,192,170476,1,0,0:0:0:0:
109,192,170476,1,0,0:0:0:0:
402,192,170476,1,0,0:0:0:0:
256,192,170551,1,0,0:0:0:0:
329,192,170625,1,0,0:0:0:0:
36,192,170625,1,0,0:0:0:0:
475,192,170625,1,0,0:0:0:0:
402,192,170625,1,0,0:0:0:0:
109,192,170699,1,0,0:0:0:0:
182,192,170773,1,0,0:0:0:0:
36,192,170773,1,0,0:0:0:0:
475,192,170773,1,0,0:0:0:0:
256,192,170773,1,0,0:0:0:0:
329,192,170773,1,0,0:0:0:0:
402,192,170848,1,0,0:0:0:0:
329,192,170922,1,0,0:0:0:0:
109,192,170922,1,0,0:0:0:0:
475,192,170922,1,0,0:0:0:0:
182,192,170922,1,0,0:0:0:0:
256,192,170996,1,0,0:0:0:0:
182,192,171070,1,0,0:0:0:0:
36,192,171070,1,0,0:0:0:0:
109,192,171070,1,0,0:0:0:0:
402,192,171070,1,0,0:0:0:0:
475,192,171070,1,0,0:0:0:0:
329,192,171145,1,0,0:0:0:0:
256,192,171219,1,0,0:0:0:0:
475,192,171219,1,0,0:0:0:0:
36,192,171219,1,0,0:0:0:0:
182,192,171293,1,0,0:0:0:0:
329,192,171293,1,0,0:0:0:0:
256,192,171367,1,0,0:0:0:0:
36,192,171367,1,0,0:0:0:0:
475,192,171367,1,0,0:0:0:0:
402,192,171367,1,0,0:0:0:0:
109,192,171442,1,0,0:0:0:0:
182,192,171516,1,0,0:0:0:0:
36,192,171516,1,0,0:0:0:0:
475,192,171516,1,0,0:0:0:0:
256,192,171590,1,0,0:0:0:0:
402,192,171590,1,0,0:0:0:0:
329,192,171664,1,0,0:0:0:0:
36,192,171664,1,0,0:0:0:0:
109,192,171664,1,0,0:0:0:0:
475,192,171664,1,0,0:0:0:0:
182,192,171739,1,0,0:0:0:0:
256,192,171813,1,0,0:0:0:0:
36,192,171813,1,0,0:0:0:0:
402,192,171813,1,0,0:0:0:0:
109,192,171887,1,0,0:0:0:0:
329,192,171887,1,0,0:0:0:0:
182,192,171961,1,0,0:0:0:0:
36,192,171961,1,0,0:0:0:0:
402,192,171961,1,0,0:0:0:0:
475,192,171961,1,0,0:0:0:0:
256,192,171961,1,0,0:0:0:0:
329,192,172036,1,0,0:0:0:0:
402,192,172110,1,0,0:0:0:0:
182,192,172110,1,0,0:0:0:0:
109,192,172110,1,0,0:0:0:0:
36,192,172110,1,0,0:0:0:0:
256,192,172184,1,0,0:0:0:0:
329,192,172258,1,0,0:0:0:0:
109,192,172258,1,0,0:0:0:0:
475,192,172258,1,0,0:0:0:0:
402,192,172258,1,0,0:0:0:0:
256,192,172333,1,0,0:0:0:0:
36,192,172407,1,0,0:0:0:0:
182,192,172407,1,0,0:0:0:0:
475,192,172407,1,0,0:0:0:0:
109,192,172481,1,0,0:0:0:0:
475,192,172481,1,0,0:0:0:0:
182,192,172556,1,0,0:0:0:0:
329,192,172556,1,0,0:0:0:0:
402,192,172556,1,0,0:0:0:0:
36,192,172556,1,0,0:0:0:0:
256,192,172630,1,0,0:0:0:0:
329,192,172704,1,0,0:0:0:0:
109,192,172704,1,0,0:0:0:0:
36,192,172704,1,0,0:0:0:0:
475,192,172704,1,0,0:0:0:0:
256,192,172778,1,0,0:0:0:0:
182,192,172853,1,0,0:0:0:0:
109,192,172853,1,0,0:0:0:0:
402,192,172853,1,0,0:0:0:0:
329,192,172853,1,0,0:0:0:0:
475,192,172853,1,0,0:0:0:0:
256,192,172927,1,0,0:0:0:0:
329,192,173001,1,0,0:0:0:0:
109,192,173001,1,0,0:0:0:0:
36,192,173001,1,0,0:0:0:0:
475,192,173001,1,0,0:0:0:0:
182,192,173075,1,0,0:0:0:0:
256,192,173150,1,0,0:0:0:0:
475,192,173150,1,0,0:0:0:0:
329,192,173150,1,0,0:0:0:0:
36,192,173150,1,0,0:0:0:0:
182,192,173224,1,0,0:0:0:0:
109,192,173298,1,0,0:0:0:0:
402,192,173298,1,0,0:0:0:0:
475,192,173298,1,0,0:0:0:0:
256,192,173298,1,0,0:0:0:0:
329,192,173372,1,0,0:0:0:0:
256,192,173447,1,0,0:0:0:0:
182,192,173447,1,0,0:0:0:0:
109,192,173447,1,0,0:0:0:0:
36,192,173447,1,0,0:0:0:0:
475,192,173447,1,0,0:0:0:0:
329,192,173521,1,0,0:0:0:0:
402,192,173595,1,0,0:0:0:0:
109,192,173595,1,0,0:0:0:0:
36,192,173595,1,0,0:0:0:0:
182,192,173669,1,0,0:0:0:0:
329,192,173669,1,0,0:0:0:0:
256,192,173744,1,0,0:0:0:0:
36,192,173744,1,0,0:0:0:0:
475,192,173744,1,0,0:0:0:0:
109,192,173744,1,0,0:0:0:0:
182,192,173818,1,0,0:0:0:0:
109,192,173892,1,0,0:0:0:0:
36,192,173892,1,0,0:0:0:0:
329,192,173892,1,0,0:0:0:0:
256,192,173966,1,0,0:0:0:0:
475,192,173966,1,0,0:0:0:0:
402,192,174041,1,0,0:0:0:0:
329,192,174041,1,0,0:0:0:0:
182,192,174041,1,0,0:0:0:0:
36,192,174041,1,0,0:0:0:0:
109,192,174115,1,0,0:0:0:0:
182,192,174189,1,0,0:0:0:0:
475,192,174189,1,0,0:0:0:0:
256,192,174189,1,0,0:0:0:0:
329,192,174263,1,0,0:0:0:0:
36,192,174263,1,0,0:0:0:0:
109,192,174338,1,0,0:0:0:0:
475,192,174338,1,0,0:0:0:0:
402,192,174338,1,0,0:0:0:0:
182,192,174338,1,0,0:0:0:0:
256,192,174338,1,0,0:0:0:0:
329,192,174412,1,0,0:0:0:0:
256,192,174486,1,0,0:0:0:0:
36,192,174486,1,0,0:0:0:0:
475,192,174486,1,0,0:0:0:0:
109,192,174486,1,0,0:0:0:0:
182,192,174560,1,0,0:0:0:0:
109,192,174635,1,0,0:0:0:0:
402,192,174635,1,0,0:0:0:0:
475,192,174635,1,0,0:0:0:0:
329,192,174635,1,0,0:0:0:0:
256,192,174709,1,0,0:0:0:0:
182,192,174783,1,0,0:0:0:0:
36,192,174783,1,0,0:0:0:0:
402,192,174783,1,0,0:0:0:0:
256,192,174858,1,0,0:0:0:0:
36,192,174858,1,0,0:0:0:0:
182,192,174932,1,0,0:0:0:0:
402,192,174932,1,0,0:0:0:0:
475,192,174932,1,0,0:0:0:0:
329,192,174932,1,0,0:0:0:0:
256,192,175006,1,0,0:0:0:0:
329,192,175080,1,0,0:0:0:0:
36,192,175080,1,0,0:0:0:0:
109,192,175080,1,0,0:0:0:0:
475,192,175080,1,0,0:0:0:0:
256,192,175155,1,0,0:0:0:0:
182,192,175229,1,0,0:0:0:0:
402,192,175229,1,0,0:0:0:0:
475,192,175229,1,0,0:0:0:0:
109,192,175229,1,0,0:0:0:0:
36,192,175229,1,0,0:0:0:0:
329,192,175303,1,0,0:0:0:0:
256,192,175377,1,0,0:0:0:0:
402,192,175377,1,0,0:0:0:0:
36,192,175377,1,0,0:0:0:0:
109,192,175377,1,0,0:0:0:0:
182,192,175452,1,0,0:0:0:0:
402,192,175526,1,0,0:0:0:0:
109,192,175526,1,0,0:0:0:0:
475,192,175526,1,0,0:0:0:0:
256,192,175526,1,0,0:0:0:0:
36,192,175526,1,0,0:0:0:0:
329,192,175600,1,0,0:0:0:0:
182,192,175674,1,0,0:0:0:0:
475,192,175674,1,0,0:0:0:0:
402,192,175674,1,0,0:0:0:0:
36,192,175674,1,0,0:0:0:0:
256,192,175749,1,0,0:0:0:0:
329,192,175823,1,0,0:0:0:0:
109,192,175823,1,0,0:0:0:0:
182,192,175823,1,0,0:0:0:0:
402,192,175823,1,0,0:0:0:0:
475,192,175823,1,0,0:0:0:0:
256,192,175897,1,0,0:0:0:0:
182,192,175971,1,0,0:0:0:0:
36,192,175971,1,0,0:0:0:0:
475,192,175971,1,0,0:0:0:0:
402,192,176046,1,0,0:0:0:0:
109,192,176046,1,0,0:0:0:0:
182,192,176120,1,0,0:0:0:0:
329,192,176120,1,0,0:0:0:0:
475,192,176120,1,0,0:0:0:0:
36,192,176120,1,0,0:0:0:0:
256,192,176194,1,0,0:0:0:0:
329,192,176268,1,0,0:0:0:0:
109,192,176268,1,0,0:0:0:0:
36,192,176268,1,0,0:0:0:0:
182,192,176343,1,0,0:0:0:0:
402,192,176343,1,0,0:0:0:0:
256,192,176417,1,0,0:0:0:0:
36,192,176417,1,0,0:0:0:0:
475,192,176417,1,0,0:0:0:0:
329,192,176417,1,0,0:0:0:0:
182,192,176491,1,0,0:0:0:0:
109,192,176565,1,0,0:0:0:0:
475,192,176565,1,0,0:0:0:0:
402,192,176565,1,0,0:0:0:0:
329,192,176640,1,0,0:0:0:0:
36,192,176640,1,0,0:0:0:0:
182,192,176714,1,0,0:0:0:0:
256,192,176714,1,0,0:0:0:0:
475,192,176714,1,0,0:0:0:0:
402,192,176714,1,0,0:0:0:0:
109,192,176714,1,0,0:0:0:0:
329,192,176788,1,0,0:0:0:0:
402,192,176862,1,0,0:0:0:0:
182,192,176862,1,0,0:0:0:0:
36,192,176862,1,0,0:0:0:0:
475,192,176862,1,0,0:0:0:0:
256,192,176937,1,0,0:0:0:0:
109,192,177011,1,0,0:0:0:0:
475,192,177011,1,0,0:0:0:0:
36,192,177011,1,0,0:0:0:0:
329,192,177011,1,0,0:0:0:0:
182,192,177085,1,0,0:0:0:0:
256,192,177159,1,0,0:0:0:0:
36,192,177159,1,0,0:0:0:0:
475,192,177159,1,0,0:0:0:0:
256,192,177234,1,0,0:0:0:0:
109,192,177234,1,0,0:0:0:0:
182,192,177308,1,0,0:0:0:0:
402,192,177308,1,0,0:0:0:0:
475,192,177308,1,0,0:0:0:0:
329,192,177308,1,0,0:0:0:0:
256,192,177382,1,0,0:0:0:0:
182,192,177457,1,0,0:0:0:0:
109,192,177457,1,0,0:0:0:0:
475,192,177457,1,0,0:0:0:0:
402,192,177457,1,0,0:0:0:0:
329,192,177531,1,0,0:0:0:0:
256,192,177605,1,0,0:0:0:0:
36,192,177605,1,0,0:0:0:0:
109,192,177605,1,0,0:0:0:0:
475,192,177605,1,0,0:0:0:0:
402,192,177605,1,0,0:0:0:0:
182,192,177679,1,0,0:0:0:0:
256,192,177754,1,0,0:0:0:0:
36,192,177754,1,0,0:0:0:0:
329,192,177754,1,0,0:0:0:0:
475,192,177754,1,0,0:0:0:0:
109,192,177828,1,0,0:0:0:0:
182,192,177902,1,0,0:0:0:0:
36,192,177902,1,0,0:0:0:0:
256,192,177902,1,0,0:0:0:0:
475,192,177902,1,0,0:0:0:0:
329,192,177902,1,0,0:0:0:0:
402,192,177976,1,0,0:0:0:0:
329,192,178051,1,0,0:0:0:0:
182,192,178051,1,0,0:0:0:0:
36,192,178051,1,0,0:0:0:0:
109,192,178051,1,0,0:0:0:0:
256,192,178125,1,0,0:0:0:0:
182,192,178199,1,0,0:0:0:0:
475,192,178199,1,0,0:0:0:0:
402,192,178199,1,0,0:0:0:0:
329,192,178199,1,0,0:0:0:0:
109,192,178199,1,0,0:0:0:0:
36,192,178273,1,0,0:0:0:0:
256,192,178348,1,0,0:0:0:0:
475,192,178348,1,0,0:0:0:0:
329,192,178348,1,0,0:0:0:0:
182,192,178422,1,0,0:0:0:0:
36,192,178422,1,0,0:0:0:0:
109,192,178496,1,0,0:0:0:0:
256,192,178496,1,0,0:0:0:0:
475,192,178496,1,0,0:0:0:0:
402,192,178496,1,0,0:0:0:0:
329,192,178570,1,0,0:0:0:0:
402,192,178645,1,0,0:0:0:0:
182,192,178645,1,0,0:0:0:0:
36,192,178645,1,0,0:0:0:0:
256,192,178719,1,0,0:0:0:0:
475,192,178719,1,0,0:0:0:0:
402,192,178793,1,0,0:0:0:0:
329,192,178793,1,0,0:0:0:0:
109,192,178793,1,0,0:0:0:0:
36,192,178793,1,0,0:0:0:0:
256,192,178867,1,0,0:0:0:0:
182,192,178942,1,0,0:0:0:0:
475,192,178942,1,0,0:0:0:0:
329,192,178942,1,0,0:0:0:0:
256,192,179016,1,0,0:0:0:0:
36,192,179016,1,0,0:0:0:0:
182,192,179090,1,0,0:0:0:0:
109,192,179090,1,0,0:0:0:0:
402,192,179090,1,0,0:0:0:0:
329,192,179090,1,0,0:0:0:0:
475,192,179090,1,0,0:0:0:0:
256,192,179164,1,0,0:0:0:0:
329,192,179239,1,0,0:0:0:0:
109,192,179239,1,0,0:0:0:0:
36,192,179239,1,0,0:0:0:0:
402,192,179239,1,0,0:0:0:0:
182,192,179313,1,0,0:0:0:0:
256,192,179387,1,0,0:0:0:0:
475,192,179387,1,0,0:0:0:0:
36,192,179387,1,0,0:0:0:0:
402,192,179387,1,0,0:0:0:0:
109,192,179461,1,0,0:0:0:0:
182,192,179536,1,0,0:0:0:0:
36,192,179536,1,0,0:0:0:0:
475,192,179536,1,0,0:0:0:0:
36,192,179610,1,0,0:0:0:0:
256,192,179610,1,0,0:0:0:0:
329,192,179684,1,0,0:0:0:0:
475,192,179684,1,0,0:0:0:0:
402,192,179684,1,0,0:0:0:0:
109,192,179684,1,0,0:0:0:0:
182,192,179758,1,0,0:0:0:0:
256,192,179833,1,0,0:0:0:0:
36,192,179833,1,0,0:0:0:0:
402,192,179833,1,0,0:0:0:0:
109,192,179833,1,0,0:0:0:0:
182,192,179907,1,0,0:0:0:0:
109,192,179981,1,0,0:0:0:0:
329,192,179981,1,0,0:0:0:0:
475,192,179981,1,0,0:0:0:0:
402,192,179981,1,0,0:0:0:0:
36,192,179981,1,0,0:0:0:0:
256,192,180056,1,0,0:0:0:0:
182,192,180130,1,0,0:0:0:0:
402,192,180130,1,0,0:0:0:0:
109,192,180130,1,0,0:0:0:0:
475,192,180130,1,0,0:0:0:0:
329,192,180204,1,0,0:0:0:0:
402,192,180278,1,0,0:0:0:0:
256,192,180278,1,0,0:0:0:0:
36,192,180278,1,0,0:0:0:0:
475,192,180278,1,0,0:0:0:0:
182,192,180278,1,0,0:0:0:0:
109,192,180353,1,0,0:0:0:0:
182,192,180427,1,0,0:0:0:0:
36,192,180427,1,0,0:0:0:0:
402,192,180427,1,0,0:0:0:0:
256,192,180427,1,0,0:0:0:0:
329,192,180501,1,0,0:0:0:0:
402,192,180575,1,0,0:0:0:0:
475,192,180575,1,0,0:0:0:0:
109,192,180575,1,0,0:0:0:0:
182,192,180575,1,0,0:0:0:0:
36,192,180575,1,0,0:0:0:0:
256,192,180650,1,0,0:0:0:0:
329,192,180724,1,0,0:0:0:0:
36,192,180724,1,0,0:0:0:0:
475,192,180724,1,0,0:0:0:0:
109,192,180798,1,0,0:0:0:0:
402,192,180798,1,0,0:0:0:0:
329,192,180872,1,0,0:0:0:0:
256,192,180872,1,0,0:0:0:0:
36,192,180872,1,0,0:0:0:0:
475,192,180872,1,0,0:0:0:0:
182,192,180947,1,0,0:0:0:0:
109,192,181021,1,0,0:0:0:0:
402,192,181021,1,0,0:0:0:0:
475,192,181021,1,0,0:0:0:0:
329,192,181095,1,0,0:0:0:0:
36,192,181095,1,0,0:0:0:0:
182,192,181169,1,0,0:0:0:0:
109,192,181169,1,0,0:0:0:0:
256,192,181169,1,0,0:0:0:0:
475,192,181169,1,0,0:0:0:0:
329,192,181244,1,0,0:0:0:0:
402,192,181318,1,0,0:0:0:0:
182,192,181318,1,0,0:0:0:0:
36,192,181318,1,0,0:0:0:0:
109,192,181392,1,0,0:0:0:0:
329,192,181392,1,0,0:0:0:0:
256,192,181466,1,0,0:0:0:0:
182,192,181466,1,0,0:0:0:0:
475,192,181466,1,0,0:0:0:0:
402,192,181466,1,0,0:0:0:0:
36,192,181466,1,0,0:0:0:0:
329,192,181541,1,0,0:0:0:0:
256,192,181615,1,0,0:0:0:0:
109,192,181615,1,0,0:0:0:0:
475,192,181615,1,0,0:0:0:0:
36,192,181615,1,0,0:0:0:0:
182,192,181689,1,0,0:0:0:0:
256,192,181763,5,0,0:0:0:0:
36,192,181763,1,0,0:0:0:0:
402,192,181763,1,0,0:0:0:0:
475,192,181763,1,0,0:0:0:0:
109,192,181838,1,0,0:0:0:0:
182,192,181912,1,0,0:0:0:0:
36,192,181912,1,0,0:0:0:0:
329,192,181912,1,0,0:0:0:0:
182,192,181986,1,0,0:0:0:0:
256,192,182060,1,0,0:0:0:0:
36,192,182060,1,0,0:0:0:0:
475,192,182060,1,0,0:0:0:0:
402,192,182060,1,0,0:0:0:0:
182,192,182135,1,0,0:0:0:0:
109,192,182209,1,0,0:0:0:0:
402,192,182209,1,0,0:0:0:0:
475,192,182209,1,0,0:0:0:0:
329,192,182209,1,0,0:0:0:0:
256,192,182283,1,0,0:0:0:0:
182,192,182358,1,0,0:0:0:0:
109,192,182358,1,0,0:0:0:0:
36,192,182358,1,0,0:0:0:0:
475,192,182358,1,0,0:0:0:0:
402,192,182432,1,0,0:0:0:0:
329,192,182506,1,0,0:0:0:0:
36,192,182506,1,0,0:0:0:0:
182,192,182506,1,0,0:0:0:0:
256,192,182580,1,0,0:0:0:0:
402,192,182580,1,0,0:0:0:0:
475,192,182580,1,0,0:0:0:0:
329,192,182655,1,0,0:0:0:0:
182,192,182655,1,0,0:0:0:0:
36,192,182655,1,0,0:0:0:0:
182,192,182803,1,0,0:0:0:0:
36,192,182803,1,0,0:0:0:0:
402,192,182803,1,0,0:0:0:0:
475,192,182803,1,0,0:0:0:0:
182,192,182952,1,0,0:0:0:0:
36,192,182952,1,0,0:0:0:0:
475,192,182952,1,0,0:0:0:0:
402,192,182952,1,0,0:0:0:0:
109,192,182952,1,0,0:0:0:0:
256,192,183100,1,0,0:0:0:0:
109,192,183100,1,0,0:0:0:0:
329,192,183100,1,0,0:0:0:0:
402,192,183100,1,0,0:0:0:0:
256,192,183249,1,0,0:0:0:0:
36,192,183249,1,0,0:0:0:0:
475,192,183249,1,0,0:0:0:0:
329,192,183249,1,0,0:0:0:0:
402,192,183249,1,0,0:0:0:0:
182,192,183286,1,0,0:0:0:0:
109,192,183323,1,0,0:0:0:0:
329,192,183360,1,0,0:0:0:0:
256,192,183397,1,0,0:0:0:0:
182,192,183434,1,0,0:0:0:0:
109,192,183471,1,0,0:0:0:0:
36,192,183508,1,0,0:0:0:0:
182,192,183546,1,0,0:0:0:0:
475,192,183546,1,0,0:0:0:0:
256,192,183583,1,0,0:0:0:0:
329,192,183620,1,0,0:0:0:0:
402,192,183657,1,0,0:0:0:0:
36,192,183694,1,0,0:0:0:0:
182,192,183731,1,0,0:0:0:0:
256,192,183768,1,0,0:0:0:0:
329,192,183806,1,0,0:0:0:0:
475,192,183843,1,0,0:0:0:0:
402,192,183843,1,0,0:0:0:0:
109,192,183843,1,0,0:0:0:0:
182,192,183880,1,0,0:0:0:0:
256,192,183917,1,0,0:0:0:0:
329,192,183954,1,0,0:0:0:0:
402,192,183991,1,0,0:0:0:0:
182,192,184028,1,0,0:0:0:0:
109,192,184065,1,0,0:0:0:0:
36,192,184103,1,0,0:0:0:0:
475,192,184140,1,0,0:0:0:0:
329,192,184140,1,0,0:0:0:0:
256,192,184177,1,0,0:0:0:0:
182,192,184214,1,0,0:0:0:0:
109,192,184251,1,0,0:0:0:0:
36,192,184288,1,0,0:0:0:0:
329,192,184288,1,0,0:0:0:0:
475,192,184288,1,0,0:0:0:0:
402,192,184362,1,0,0:0:0:0:
182,192,184362,1,0,0:0:0:0:
256,192,184362,1,0,0:0:0:0:
109,192,184437,1,0,0:0:0:0:
36,192,184437,1,0,0:0:0:0:
329,192,184437,1,0,0:0:0:0:
256,192,184511,1,0,0:0:0:0:
182,192,184585,1,0,0:0:0:0:
109,192,184585,1,0,0:0:0:0:
475,192,184585,1,0,0:0:0:0:
402,192,184659,1,0,0:0:0:0:
329,192,184734,1,0,0:0:0:0:
36,192,184734,1,0,0:0:0:0:
109,192,184734,1,0,0:0:0:0:
182,192,184734,1,0,0:0:0:0:
256,192,184808,1,0,0:0:0:0:
329,192,184882,1,0,0:0:0:0:
475,192,184882,1,0,0:0:0:0:
402,192,184882,1,0,0:0:0:0:
109,192,184882,1,0,0:0:0:0:
182,192,184957,1,0,0:0:0:0:
36,192,185031,1,0,0:0:0:0:
475,192,185031,1,0,0:0:0:0:
256,192,185031,1,0,0:0:0:0:
329,192,185068,1,0,0:0:0:0:
109,192,185105,1,0,0:0:0:0:
256,192,185142,1,0,0:0:0:0:
475,192,185179,1,0,0:0:0:0:
36,192,185179,1,0,0:0:0:0:
182,192,185216,1,0,0:0:0:0:
329,192,185254,1,0,0:0:0:0:
402,192,185291,1,0,0:0:0:0:
36,192,185328,1,0,0:0:0:0:
109,192,185328,1,0,0:0:0:0:
475,192,185328,1,0,0:0:0:0:
256,192,185365,1,0,0:0:0:0:
329,192,185402,1,0,0:0:0:0:
402,192,185439,1,0,0:0:0:0:
475,192,185476,1,0,0:0:0:0:
182,192,185513,1,0,0:0:0:0:
256,192,185551,1,0,0:0:0:0:
329,192,185588,1,0,0:0:0:0:
402,192,185625,1,0,0:0:0:0:
36,192,185625,1,0,0:0:0:0:
109,192,185625,1,0,0:0:0:0:
182,192,185662,1,0,0:0:0:0:
256,192,185699,1,0,0:0:0:0:
329,192,185736,1,0,0:0:0:0:
475,192,185773,1,0,0:0:0:0:
256,192,185810,1,0,0:0:0:0:
182,192,185848,1,0,0:0:0:0:
109,192,185885,1,0,0:0:0:0:
36,192,185922,1,0,0:0:0:0:
402,192,185922,1,0,0:0:0:0:
329,192,185959,1,0,0:0:0:0:
256,192,185996,1,0,0:0:0:0:
182,192,186033,1,0,0:0:0:0:
109,192,186070,1,0,0:0:0:0:
475,192,186108,1,0,0:0:0:0:
329,192,186145,1,0,0:0:0:0:
256,192,186182,1,0,0:0:0:0:
182,192,186219,1,0,0:0:0:0:
36,192,186219,1,0,0:0:0:0:
475,192,186219,1,0,0:0:0:0:
329,192,186256,1,0,0:0:0:0:
402,192,186293,1,0,0:0:0:0:
109,192,186330,1,0,0:0:0:0:
182,192,186367,1,0,0:0:0:0:
329,192,186405,1,0,0:0:0:0:
402,192,186442,1,0,0:0:0:0:
475,192,186479,1,0,0:0:0:0:
182,192,186516,1,0,0:0:0:0:
36,192,186516,1,0,0:0:0:0:
256,192,186553,1,0,0:0:0:0:
329,192,186590,1,0,0:0:0:0:
402,192,186627,1,0,0:0:0:0:
475,192,186664,1,0,0:0:0:0:
182,192,186664,1,0,0:0:0:0:
36,192,186664,1,0,0:0:0:0:
256,192,186739,1,0,0:0:0:0:
402,192,186739,1,0,0:0:0:0:
109,192,186739,1,0,0:0:0:0:
329,192,186813,1,0,0:0:0:0:
475,192,186813,1,0,0:0:0:0:
182,192,186813,1,0,0:0:0:0:
109,192,186887,1,0,0:0:0:0:
36,192,186961,1,0,0:0:0:0:
402,192,186961,1,0,0:0:0:0:
256,192,186961,1,0,0:0:0:0:
182,192,187036,1,0,0:0:0:0:
109,192,187110,1,0,0:0:0:0:
329,192,187110,1,0,0:0:0:0:
475,192,187110,1,0,0:0:0:0:
36,192,187110,1,0,0:0:0:0:
256,192,187184,1,0,0:0:0:0:
109,192,187258,1,0,0:0:0:0:
182,192,187258,1,0,0:0:0:0:
402,192,187258,1,0,0:0:0:0:
475,192,187258,1,0,0:0:0:0:
329,192,187333,1,0,0:0:0:0:
256,192,187407,1,0,0:0:0:0:
36,192,187407,1,0,0:0:0:0:
402,192,187407,1,0,0:0:0:0:
182,192,187444,1,0,0:0:0:0:
109,192,187481,1,0,0:0:0:0:
475,192,187518,1,0,0:0:0:0:
329,192,187556,1,0,0:0:0:0:
182,192,187556,1,0,0:0:0:0:
36,192,187593,1,0,0:0:0:0:
402,192,187630,1,0,0:0:0:0:
256,192,187667,1,0,0:0:0:0:
36,192,187704,1,0,0:0:0:0:
475,192,187704,1,0,0:0:0:0:
109,192,187704,1,0,0:0:0:0:
329,192,187741,1,0,0:0:0:0:
256,192,187778,1,0,0:0:0:0:
182,192,187815,1,0,0:0:0:0:
36,192,187853,1,0,0:0:0:0:
402,192,187890,1,0,0:0:0:0:
329,192,187927,1,0,0:0:0:0:
256,192,187964,1,0,0:0:0:0:
475,192,188001,1,0,0:0:0:0:
182,192,188001,1,0,0:0:0:0:
36,192,188001,1,0,0:0:0:0:
402,192,188038,1,0,0:0:0:0:
256,192,188075,1,0,0:0:0:0:
109,192,188112,1,0,0:0:0:0:
475,192,188150,1,0,0:0:0:0:
36,192,188150,1,0,0:0:0:0:
329,192,188187,1,0,0:0:0:0:
256,192,188224,1,0,0:0:0:0:
182,192,188261,1,0,0:0:0:0:
109,192,188298,1,0,0:0:0:0:
402,192,188298,1,0,0:0:0:0:
329,192,188335,1,0,0:0:0:0:
256,192,188372,1,0,0:0:0:0:
36,192,188409,1,0,0:0:0:0:
109,192,188447,1,0,0:0:0:0:
182,192,188484,1,0,0:0:0:0:
329,192,188521,1,0,0:0:0:0:
402,192,188558,1,0,0:0:0:0:
475,192,188595,1,0,0:0:0:0:
36,192,188595,1,0,0:0:0:0:
109,192,188595,1,0,0:0:0:0:
182,192,188632,1,0,0:0:0:0:
256,192,188669,1,0,0:0:0:0:
329,192,188707,1,0,0:0:0:0:
402,192,188744,1,0,0:0:0:0:
109,192,188781,1,0,0:0:0:0:
182,192,188818,1,0,0:0:0:0:
256,192,188855,1,0,0:0:0:0:
475,192,188892,1,0,0:0:0:0:
329,192,188892,1,0,0:0:0:0:
182,192,188929,1,0,0:0:0:0:
109,192,188966,1,0,0:0:0:0:
36,192,189004,1,0,0:0:0:0:
402,192,189041,1,0,0:0:0:0:
256,192,189041,1,0,0:0:0:0:
475,192,189041,1,0,0:0:0:0:
329,192,189115,1,0,0:0:0:0:
182,192,189115,1,0,0:0:0:0:
36,192,189115,1,0,0:0:0:0:
109,192,189189,1,0,0:0:0:0:
256,192,189189,1,0,0:0:0:0:
475,192,189189,1,0,0:0:0:0:
329,192,189263,1,0,0:0:0:0:
402,192,189338,1,0,0:0:0:0:
182,192,189338,1,0,0:0:0:0:
36,192,189338,1,0,0:0:0:0:
256,192,189412,1,0,0:0:0:0:
329,192,189486,1,0,0:0:0:0:
475,192,189486,1,0,0:0:0:0:
402,192,189486,1,0,0:0:0:0:
109,192,189486,1,0,0:0:0:0:
182,192,189560,1,0,0:0:0:0:
256,192,189635,1,0,0:0:0:0:
109,192,189635,1,0,0:0:0:0:
36,192,189635,1,0,0:0:0:0:
402,192,189635,1,0,0:0:0:0:
329,192,189709,1,0,0:0:0:0:
402,192,189783,1,0,0:0:0:0:
182,192,189783,1,0,0:0:0:0:
36,192,189783,1,0,0:0:0:0:
256,192,189820,1,0,0:0:0:0:
475,192,189858,1,0,0:0:0:0:
109,192,189895,1,0,0:0:0:0:
182,192,189932,1,0,0:0:0:0:
329,192,189932,1,0,0:0:0:0:
402,192,189969,1,0,0:0:0:0:
36,192,190006,1,0,0:0:0:0:
109,192,190043,1,0,0:0:0:0:
475,192,190080,1,0,0:0:0:0:
182,192,190080,1,0,0:0:0:0:
402,192,190080,1,0,0:0:0:0:
329,192,190117,1,0,0:0:0:0:
256,192,190155,1,0,0:0:0:0:
109,192,190192,1,0,0:0:0:0:
36,192,190229,1,0,0:0:0:0:
402,192,190266,1,0,0:0:0:0:
329,192,190303,1,0,0:0:0:0:
256,192,190340,1,0,0:0:0:0:
182,192,190377,1,0,0:0:0:0:
36,192,190377,1,0,0:0:0:0:
475,192,190377,1,0,0:0:0:0:
402,192,190414,1,0,0:0:0:0:
329,192,190452,1,0,0:0:0:0:
109,192,190489,1,0,0:0:0:0:
182,192,190526,1,0,0:0:0:0:
256,192,190563,1,0,0:0:0:0:
402,192,190600,1,0,0:0:0:0:
475,192,190637,1,0,0:0:0:0:
36,192,190674,1,0,0:0:0:0:
182,192,190674,1,0,0:0:0:0:
256,192,190711,1,0,0:0:0:0:
329,192,190749,1,0,0:0:0:0:
402,192,190786,1,0,0:0:0:0:
256,192,190823,1,0,0:0:0:0:
182,192,190860,1,0,0:0:0:0:
109,192,190897,1,0,0:0:0:0:
36,192,190934,1,0,0:0:0:0:
329,192,190971,1,0,0:0:0:0:
475,192,190971,1,0,0:0:0:0:
256,192,190971,1,0,0:0:0:0:
182,192,191008,1,0,0:0:0:0:
109,192,191046,1,0,0:0:0:0:
402,192,191083,1,0,0:0:0:0:
329,192,191120,1,0,0:0:0:0:
182,192,191157,1,0,0:0:0:0:
109,192,191194,1,0,0:0:0:0:
36,192,191231,1,0,0:0:0:0:
475,192,191268,1,0,0:0:0:0:
256,192,191268,1,0,0:0:0:0:
182,192,191306,1,0,0:0:0:0:
109,192,191343,1,0,0:0:0:0:
36,192,191380,1,0,0:0:0:0:
182,192,191417,1,0,0:0:0:0:
402,192,191417,1,0,0:0:0:0:
475,192,191417,1,0,0:0:0:0:
329,192,191491,1,0,0:0:0:0:
109,192,191491,1,0,0:0:0:0:
256,192,191491,1,0,0:0:0:0:
182,192,191565,1,0,0:0:0:0:
36,192,191565,1,0,0:0:0:0:
475,192,191565,1,0,0:0:0:0:
256,192,191640,1,0,0:0:0:0:
329,192,191714,1,0,0:0:0:0:
475,192,191714,1,0,0:0:0:0:
109,192,191714,1,0,0:0:0:0:
182,192,191788,1,0,0:0:0:0:
256,192,191862,1,0,0:0:0:0:
109,192,191862,1,0,0:0:0:0:
36,192,191862,1,0,0:0:0:0:
402,192,191862,1,0,0:0:0:0:
329,192,191937,1,0,0:0:0:0:
402,192,192011,1,0,0:0:0:0:
182,192,192011,1,0,0:0:0:0:
36,192,192011,1,0,0:0:0:0:
475,192,192011,1,0,0:0:0:0:
256,192,192085,1,0,0:0:0:0:
475,192,192159,1,0,0:0:0:0:
36,192,192159,1,0,0:0:0:0:
329,192,192159,1,0,0:0:0:0:
182,192,192197,1,0,0:0:0:0:
402,192,192234,1,0,0:0:0:0:
256,192,192271,1,0,0:0:0:0:
36,192,192308,1,0,0:0:0:0:
109,192,192308,1,0,0:0:0:0:
475,192,192345,1,0,0:0:0:0:
329,192,192382,1,0,0:0:0:0:
256,192,192419,1,0,0:0:0:0:
182,192,192457,1,0,0:0:0:0:
36,192,192457,1,0,0:0:0:0:
475,192,192457,1,0,0:0:0:0:
109,192,192457,1,0,0:0:0:0:
402,192,192494,1,0,0:0:0:0:
329,192,192531,1,0,0:0:0:0:
256,192,192568,1,0,0:0:0:0:
182,192,192605,1,0,0:0:0:0:
109,192,192642,1,0,0:0:0:0:
402,192,192679,1,0,0:0:0:0:
329,192,192716,1,0,0:0:0:0:
256,192,192754,1,0,0:0:0:0:
36,192,192754,1,0,0:0:0:0:
475,192,192754,1,0,0:0:0:0:
182,192,192791,1,0,0:0:0:0:
109,192,192828,1,0,0:0:0:0:
402,192,192865,1,0,0:0:0:0:
329,192,192902,1,0,0:0:0:0:
256,192,192939,1,0,0:0:0:0:
36,192,192976,1,0,0:0:0:0:
109,192,193013,1,0,0:0:0:0:
182,192,193051,1,0,0:0:0:0:
475,192,193051,1,0,0:0:0:0:
256,192,193088,1,0,0:0:0:0:
329,192,193125,1,0,0:0:0:0:
402,192,193162,1,0,0:0:0:0:
109,192,193199,1,0,0:0:0:0:
182,192,193236,1,0,0:0:0:0:
256,192,193273,1,0,0:0:0:0:
329,192,193310,1,0,0:0:0:0:
36,192,193348,1,0,0:0:0:0:
402,192,193348,1,0,0:0:0:0:
475,192,193348,1,0,0:0:0:0:
256,192,193385,1,0,0:0:0:0:
182,192,193422,1,0,0:0:0:0:
109,192,193459,1,0,0:0:0:0:
402,192,193496,1,0,0:0:0:0:
329,192,193533,1,0,0:0:0:0:
256,192,193570,1,0,0:0:0:0:
182,192,193608,1,0,0:0:0:0:
36,192,193645,1,0,0:0:0:0:
475,192,193645,1,0,0:0:0:0:
329,192,193682,1,0,0:0:0:0:
256,192,193719,1,0,0:0:0:0:
182,192,193756,1,0,0:0:0:0:
109,192,193793,1,0,0:0:0:0:
402,192,193793,1,0,0:0:0:0:
475,192,193793,1,0,0:0:0:0:
329,192,193867,1,0,0:0:0:0:
182,192,193867,1,0,0:0:0:0:
36,192,193867,1,0,0:0:0:0:
256,192,193942,1,0,0:0:0:0:
109,192,193942,1,0,0:0:0:0:
475,192,193942,1,0,0:0:0:0:
329,192,194016,1,0,0:0:0:0:
402,192,194090,1,0,0:0:0:0:
182,192,194090,1,0,0:0:0:0:
36,192,194090,1,0,0:0:0:0:
256,192,194164,1,0,0:0:0:0:
329,192,194239,1,0,0:0:0:0:
475,192,194239,1,0,0:0:0:0:
109,192,194239,1,0,0:0:0:0:
36,192,194239,1,0,0:0:0:0:
182,192,194313,1,0,0:0:0:0:
256,192,194387,1,0,0:0:0:0:
109,192,194387,1,0,0:0:0:0:
402,192,194387,1,0,0:0:0:0:
475,192,194387,1,0,0:0:0:0:
329,192,194461,1,0,0:0:0:0:
36,192,194536,1,0,0:0:0:0:
256,192,194536,1,0,0:0:0:0:
402,192,194536,1,0,0:0:0:0:
109,192,194573,1,0,0:0:0:0:
329,192,194610,1,0,0:0:0:0:
475,192,194647,1,0,0:0:0:0:
182,192,194684,1,0,0:0:0:0:
36,192,194684,1,0,0:0:0:0:
256,192,194721,1,0,0:0:0:0:
402,192,194758,1,0,0:0:0:0:
475,192,194796,1,0,0:0:0:0:
109,192,194833,1,0,0:0:0:0:
36,192,194833,1,0,0:0:0:0:
329,192,194833,1,0,0:0:0:0:
182,192,194870,1,0,0:0:0:0:
256,192,194907,1,0,0:0:0:0:
329,192,194944,1,0,0:0:0:0:
402,192,194981,1,0,0:0:0:0:
109,192,195018,1,0,0:0:0:0:
182,192,195056,1,0,0:0:0:0:
256,192,195093,1,0,0:0:0:0:
475,192,195130,1,0,0:0:0:0:
402,192,195130,1,0,0:0:0:0:
329,192,195130,1,0,0:0:0:0:
182,192,195167,1,0,0:0:0:0:
109,192,195204,1,0,0:0:0:0:
36,192,195241,1,0,0:0:0:0:
402,192,195278,1,0,0:0:0:0:
329,192,195315,1,0,0:0:0:0:
256,192,195353,1,0,0:0:0:0:
182,192,195390,1,0,0:0:0:0:
475,192,195427,1,0,0:0:0:0:
109,192,195427,1,0,0:0:0:0:
402,192,195464,1,0,0:0:0:0:
329,192,195501,1,0,0:0:0:0:
256,192,195538,1,0,0:0:0:0:
109,192,195575,1,0,0:0:0:0:
182,192,195612,1,0,0:0:0:0:
329,192,195650,1,0,0:0:0:0:
402,192,195687,1,0,0:0:0:0:
36,192,195724,1,0,0:0:0:0:
475,192,195724,1,0,0:0:0:0:
109,192,195724,1,0,0:0:0:0:
182,192,195761,1,0,0:0:0:0:
256,192,195798,1,0,0:0:0:0:
329,192,195835,1,0,0:0:0:0:
402,192,195872,1,0,0:0:0:0:
109,192,195909,1,0,0:0:0:0:
256,192,195947,1,0,0:0:0:0:
329,192,195984,1,0,0:0:0:0:
402,192,196021,1,0,0:0:0:0:
36,192,196021,1,0,0:0:0:0:
256,192,196058,1,0,0:0:0:0:
182,192,196095,1,0,0:0:0:0:
109,192,196132,1,0,0:0:0:0:
475,192,196169,1,0,0:0:0:0:
329,192,196169,1,0,0:0:0:0:
36,192,196169,1,0,0:0:0:0:
256,192,196244,1,0,0:0:0:0:
402,192,196244,1,0,0:0:0:0:
182,192,196244,1,0,0:0:0:0:
109,192,196318,1,0,0:0:0:0:
36,192,196318,1,0,0:0:0:0:
329,192,196318,1,0,0:0:0:0:
256,192,196392,1,0,0:0:0:0:
182,192,196466,1,0,0:0:0:0:
36,192,196466,1,0,0:0:0:0:
475,192,196466,1,0,0:0:0:0:
329,192,196541,1,0,0:0:0:0:
256,192,196615,1,0,0:0:0:0:
109,192,196615,1,0,0:0:0:0:
36,192,196615,1,0,0:0:0:0:
475,192,196615,1,0,0:0:0:0:
329,192,196689,1,0,0:0:0:0:
402,192,196763,1,0,0:0:0:0:
182,192,196763,1,0,0:0:0:0:
109,192,196763,1,0,0:0:0:0:
36,192,196763,1,0,0:0:0:0:
256,192,196838,1,0,0:0:0:0:
475,192,196912,1,0,0:0:0:0:
329,192,196912,1,0,0:0:0:0:
36,192,196912,1,0,0:0:0:0:
182,192,196949,1,0,0:0:0:0:
402,192,196986,1,0,0:0:0:0:
36,192,197023,1,0,0:0:0:0:
256,192,197060,1,0,0:0:0:0:
475,192,197060,1,0,0:0:0:0:
329,192,197098,1,0,0:0:0:0:
109,192,197135,1,0,0:0:0:0:
182,192,197172,1,0,0:0:0:0:
329,192,197209,5,0,0:0:0:0:
475,192,197209,1,0,0:0:0:0:
36,192,197209,1,0,0:0:0:0:
402,192,197209,1,0,0:0:0:0:
256,192,197283,1,0,0:0:0:0:
182,192,197358,1,0,0:0:0:0:
36,192,197358,1,0,0:0:0:0:
475,192,197358,1,0,0:0:0:0:
402,192,197358,1,0,0:0:0:0:
329,192,197432,1,0,0:0:0:0:
256,192,197506,1,0,0:0:0:0:
109,192,197506,1,0,0:0:0:0:
36,192,197506,1,0,0:0:0:0:
475,192,197506,1,0,0:0:0:0:
182,192,197506,1,0,0:0:0:0:
329,192,197580,1,0,0:0:0:0:
402,192,197655,1,0,0:0:0:0:
182,192,197655,1,0,0:0:0:0:
36,192,197655,1,0,0:0:0:0:
475,192,197655,1,0,0:0:0:0:
256,192,197729,1,0,0:0:0:0:
109,192,197729,1,0,0:0:0:0:
329,192,197803,1,0,0:0:0:0:
475,192,197803,1,0,0:0:0:0:
402,192,197803,1,0,0:0:0:0:
182,192,197803,1,0,0:0:0:0:
256,192,197877,1,0,0:0:0:0:
36,192,197952,1,0,0:0:0:0:
402,192,197952,1,0,0:0:0:0:
109,192,197952,1,0,0:0:0:0:
182,192,197952,1,0,0:0:0:0:
329,192,198026,1,0,0:0:0:0:
256,192,198100,5,0,0:0:0:0:
182,192,198100,1,0,0:0:0:0:
402,192,198100,1,0,0:0:0:0:
109,192,198100,1,0,0:0:0:0:
475,192,198100,1,0,0:0:0:0:
36,192,198100,1,0,0:0:0:0:
329,192,198174,1,0,0:0:0:0:
256,192,198249,1,0,0:0:0:0:
36,192,198249,1,0,0:0:0:0:
402,192,198249,1,0,0:0:0:0:
182,192,198249,1,0,0:0:0:0:
109,192,198323,1,0,0:0:0:0:
182,192,198397,5,0,0:0:0:0:
36,192,198397,1,0,0:0:0:0:
475,192,198397,1,0,0:0:0:0:
256,192,198397,1,0,0:0:0:0:
402,192,198434,1,0,0:0:0:0:
329,192,198471,1,0,0:0:0:0:
256,192,198508,1,0,0:0:0:0:
182,192,198546,1,0,0:0:0:0:
36,192,198546,1,0,0:0:0:0:
402,192,198583,1,0,0:0:0:0:
329,192,198620,1,0,0:0:0:0:
182,192,198657,1,0,0:0:0:0:
36,192,198694,1,0,0:0:0:0:
475,192,198694,1,0,0:0:0:0:
256,192,198731,1,0,0:0:0:0:
329,192,198768,1,0,0:0:0:0:
402,192,198806,1,0,0:0:0:0:
109,192,198843,1,0,0:0:0:0:
475,192,198843,1,0,0:0:0:0:
182,192,198880,1,0,0:0:0:0:
256,192,198917,1,0,0:0:0:0:
329,192,198954,1,0,0:0:0:0:
402,192,198991,1,0,0:0:0:0:
36,192,198991,1,0,0:0:0:0:
256,192,199028,1,0,0:0:0:0:
182,192,199065,1,0,0:0:0:0:
109,192,199103,1,0,0:0:0:0:
475,192,199140,1,0,0:0:0:0:
402,192,199140,1,0,0:0:0:0:
329,192,199177,1,0,0:0:0:0:
256,192,199214,1,0,0:0:0:0:
109,192,199251,1,0,0:0:0:0:
182,192,199288,1,0,0:0:0:0:
475,192,199288,1,0,0:0:0:0:
329,192,199325,1,0,0:0:0:0:
402,192,199362,1,0,0:0:0:0:
475,192,199400,1,0,0:0:0:0:
36,192,199437,1,0,0:0:0:0:
182,192,199437,1,0,0:0:0:0:
256,192,199474,1,0,0:0:0:0:
329,192,199511,1,0,0:0:0:0:
402,192,199548,1,0,0:0:0:0:
475,192,199585,1,0,0:0:0:0:
256,192,199585,1,0,0:0:0:0:
182,192,199585,1,0,0:0:0:0:
109,192,199585,1,0,0:0:0:0:
36,192,199585,1,0,0:0:0:0:
256,192,199734,1,0,0:0:0:0:
182,192,199734,1,0,0:0:0:0:
109,192,199734,1,0,0:0:0:0:
36,192,199734,1,0,0:0:0:0:
475,192,199734,1,0,0:0:0:0:
402,192,199734,1,0,0:0:0:0:
256,192,200031,1,0,0:0:0:0:
182,192,200031,1,0,0:0:0:0:
109,192,200031,1,0,0:0:0:0:
36,192,200031,1,0,0:0:0:0:
475,192,200031,1,0,0:0:0:0:
402,192,200031,1,0,0:0:0:0:
329,192,200105,1,0,0:0:0:0:
475,192,200179,1,0,0:0:0:0:
256,192,200179,1,0,0:0:0:0:
182,192,200179,1,0,0:0:0:0:
109,192,200179,1,0,0:0:0:0:
36,192,200179,1,0,0:0:0:0:
402,192,200179,1,0,0:0:0:0:
256,192,200476,1,0,0:0:0:0:
182,192,200476,1,0,0:0:0:0:
36,192,200476,1,0,0:0:0:0:
109,192,200476,1,0,0:0:0:0:
475,192,200476,1,0,0:0:0:0:
402,192,200476,1,0,0:0:0:0:
402,192,200625,1,0,0:0:0:0:
475,192,200625,1,0,0:0:0:0:
256,192,200625,1,0,0:0:0:0:
182,192,200625,1,0,0:0:0:0:
109,192,200625,1,0,0:0:0:0:
36,192,200625,1,0,0:0:0:0:
182,192,200922,1,0,0:0:0:0:
475,192,200922,1,0,0:0:0:0:
329,192,200922,1,0,0:0:0:0:
256,192,200922,1,0,0:0:0:0:
36,192,200922,1,0,0:0:0:0:
402,192,200922,1,0,0:0:0:0:
182,192,201070,1,0,0:0:0:0:
329,192,201070,1,0,0:0:0:0:
475,192,201070,1,0,0:0:0:0:
402,192,201070,1,0,0:0:0:0:
256,192,201070,1,0,0:0:0:0:
36,192,201070,1,0,0:0:0:0:
182,192,201219,1,0,0:0:0:0:
109,192,201219,1,0,0:0:0:0:
36,192,201219,1,0,0:0:0:0:
329,192,201219,1,0,0:0:0:0:
475,192,201219,1,0,0:0:0:0:
402,192,201219,1,0,0:0:0:0:
256,192,201367,1,0,0:0:0:0:
182,192,201367,1,0,0:0:0:0:
109,192,201367,1,0,0:0:0:0:
36,192,201367,1,0,0:0:0:0:
402,192,201367,1,0,0:0:0:0:
475,192,201367,128,0,201664:0:0:0:0:
36,192,201664,128,0,201961:0:0:0:0:
182,192,201664,1,0,0:0:0:0:
109,192,201664,1,0,0:0:0:0:
256,192,201739,1,0,0:0:0:0:
329,192,201739,1,0,0:0:0:0:
402,192,201813,1,0,0:0:0:0:
475,192,201813,1,0,0:0:0:0:
182,192,201887,1,0,0:0:0:0:
256,192,201961,1,0,0:0:0:0:
329,192,201961,1,0,0:0:0:0:
475,192,201961,1,0,0:0:0:0:
402,192,201961,1,0,0:0:0:0:
109,192,201961,1,0,0:0:0:0:
182,192,202036,1,0,0:0:0:0:
475,192,202110,1,0,0:0:0:0:
329,192,202110,1,0,0:0:0:0:
109,192,202110,1,0,0:0:0:0:
36,192,202110,1,0,0:0:0:0:
256,192,202184,1,0,0:0:0:0:
182,192,202258,1,0,0:0:0:0:
36,192,202258,1,0,0:0:0:0:
402,192,202258,1,0,0:0:0:0:
475,192,202258,1,0,0:0:0:0:
256,192,202333,1,0,0:0:0:0:
329,192,202407,1,0,0:0:0:0:
402,192,202407,1,0,0:0:0:0:
475,192,202407,1,0,0:0:0:0:
109,192,202407,1,0,0:0:0:0:
182,192,202481,1,0,0:0:0:0:
256,192,202556,1,0,0:0:0:0:
36,192,202556,1,0,0:0:0:0:
402,192,202556,1,0,0:0:0:0:
329,192,202556,1,0,0:0:0:0:
475,192,202556,1,0,0:0:0:0:
109,192,202630,1,0,0:0:0:0:
182,192,202704,1,0,0:0:0:0:
36,192,202704,1,0,0:0:0:0:
475,192,202704,1,0,0:0:0:0:
402,192,202704,1,0,0:0:0:0:
329,192,202778,1,0,0:0:0:0:
256,192,202853,1,0,0:0:0:0:
36,192,202853,1,0,0:0:0:0:
109,192,202853,1,0,0:0:0:0:
402,192,202853,1,0,0:0:0:0:
182,192,202927,1,0,0:0:0:0:
109,192,203001,1,0,0:0:0:0:
402,192,203001,1,0,0:0:0:0:
475,192,203001,1,0,0:0:0:0:
329,192,203001,1,0,0:0:0:0:
256,192,203075,1,0,0:0:0:0:
182,192,203150,1,0,0:0:0:0:
109,192,203150,1,0,0:0:0:0:
36,192,203150,1,0,0:0:0:0:
475,192,203150,1,0,0:0:0:0:
329,192,203150,1,0,0:0:0:0:
256,192,203224,1,0,0:0:0:0:
329,192,203298,1,0,0:0:0:0:
402,192,203298,1,0,0:0:0:0:
109,192,203298,1,0,0:0:0:0:
36,192,203298,1,0,0:0:0:0:
182,192,203372,1,0,0:0:0:0:
256,192,203447,1,0,0:0:0:0:
36,192,203447,1,0,0:0:0:0:
402,192,203447,1,0,0:0:0:0:
475,192,203447,1,0,0:0:0:0:
109,192,203521,1,0,0:0:0:0:
182,192,203595,1,0,0:0:0:0:
36,192,203595,1,0,0:0:0:0:
402,192,203595,1,0,0:0:0:0:
329,192,203595,1,0,0:0:0:0:
256,192,203669,1,0,0:0:0:0:
329,192,203744,1,0,0:0:0:0:
109,192,203744,1,0,0:0:0:0:
36,192,203744,1,0,0:0:0:0:
475,192,203744,1,0,0:0:0:0:
402,192,203744,1,0,0:0:0:0:
182,192,203818,1,0,0:0:0:0:
402,192,203892,1,0,0:0:0:0:
475,192,203892,1,0,0:0:0:0:
256,192,203892,1,0,0:0:0:0:
36,192,203892,1,0,0:0:0:0:
329,192,203966,1,0,0:0:0:0:
36,192,204041,1,0,0:0:0:0:
256,192,204041,1,0,0:0:0:0:
109,192,204041,1,0,0:0:0:0:
475,192,204041,1,0,0:0:0:0:
182,192,204115,1,0,0:0:0:0:
109,192,204189,1,0,0:0:0:0:
36,192,204189,1,0,0:0:0:0:
402,192,204189,1,0,0:0:0:0:
256,192,204189,1,0,0:0:0:0:
182,192,204263,1,0,0:0:0:0:
329,192,204263,1,0,0:0:0:0:
256,192,204338,1,0,0:0:0:0:
36,192,204338,1,0,0:0:0:0:
475,192,204338,1,0,0:0:0:0:
402,192,204338,1,0,0:0:0:0:
109,192,204338,1,0,0:0:0:0:
182,192,204412,1,0,0:0:0:0:
36,192,204486,1,0,0:0:0:0:
402,192,204486,1,0,0:0:0:0:
329,192,204486,1,0,0:0:0:0:
109,192,204486,1,0,0:0:0:0:
256,192,204560,1,0,0:0:0:0:
182,192,204635,1,0,0:0:0:0:
475,192,204635,1,0,0:0:0:0:
402,192,204635,1,0,0:0:0:0:
36,192,204635,1,0,0:0:0:0:
329,192,204709,1,0,0:0:0:0:
256,192,204783,1,0,0:0:0:0:
402,192,204783,1,0,0:0:0:0:
36,192,204783,1,0,0:0:0:0:
109,192,204783,1,0,0:0:0:0:
182,192,204858,1,0,0:0:0:0:
109,192,204932,1,0,0:0:0:0:
36,192,204932,1,0,0:0:0:0:
402,192,204932,1,0,0:0:0:0:
475,192,204932,1,0,0:0:0:0:
256,192,204932,1,0,0:0:0:0:
329,192,205006,1,0,0:0:0:0:
402,192,205080,1,0,0:0:0:0:
182,192,205080,1,0,0:0:0:0:
109,192,205080,1,0,0:0:0:0:
36,192,205080,1,0,0:0:0:0:
256,192,205155,1,0,0:0:0:0:
329,192,205229,1,0,0:0:0:0:
109,192,205229,1,0,0:0:0:0:
36,192,205229,1,0,0:0:0:0:
475,192,205229,1,0,0:0:0:0:
182,192,205303,1,0,0:0:0:0:
256,192,205377,1,0,0:0:0:0:
475,192,205377,1,0,0:0:0:0:
36,192,205377,1,0,0:0:0:0:
402,192,205377,1,0,0:0:0:0:
109,192,205452,1,0,0:0:0:0:
256,192,205526,1,0,0:0:0:0:
182,192,205526,1,0,0:0:0:0:
36,192,205526,1,0,0:0:0:0:
475,192,205526,1,0,0:0:0:0:
329,192,205600,1,0,0:0:0:0:
109,192,205600,1,0,0:0:0:0:
182,192,205674,1,0,0:0:0:0:
475,192,205674,1,0,0:0:0:0:
36,192,205674,1,0,0:0:0:0:
256,192,205674,1,0,0:0:0:0:
402,192,205749,1,0,0:0:0:0:
329,192,205749,1,0,0:0:0:0:
256,192,205823,1,0,0:0:0:0:
182,192,205823,1,0,0:0:0:0:
109,192,205823,1,0,0:0:0:0:
36,192,205823,1,0,0:0:0:0:
329,192,205848,1,0,0:0:0:0:
402,192,205872,1,0,0:0:0:0:
475,192,205897,1,0,0:0:0:0:
109,192,205922,1,0,0:0:0:0:
182,192,205947,1,0,0:0:0:0:
256,192,205971,1,0,0:0:0:0:
329,192,205996,1,0,0:0:0:0:
402,192,206021,1,0,0:0:0:0:
36,192,206046,1,0,0:0:0:0:
109,192,206070,1,0,0:0:0:0:
182,192,206095,1,0,0:0:0:0:
329,192,206120,128,0,206343:0:0:0:0:
256,192,206120,128,0,206343:0:0:0:0:
402,192,206120,128,0,206343:0:0:0:0:
475,192,206120,128,0,206343:0:0:0:0:
256,192,206417,128,0,206640:0:0:0:0:
329,192,206417,128,0,206640:0:0:0:0:
402,192,206417,128,0,206640:0:0:0:0:
475,192,206417,128,0,206640:0:0:0:0:
36,192,206417,1,0,0:0:0:0:
109,192,206417,1,0,0:0:0:0:
182,192,206714,1,0,0:0:0:0:
36,192,206714,1,0,0:0:0:0:
329,192,206714,1,0,0:0:0:0:
475,192,206714,1,0,0:0:0:0:
109,192,206714,1,0,0:0:0:0:
256,192,206788,1,0,0:0:0:0:
329,192,206862,1,0,0:0:0:0:
109,192,206862,1,0,0:0:0:0:
402,192,206862,1,0,0:0:0:0:
36,192,206862,1,0,0:0:0:0:
256,192,206937,1,0,0:0:0:0:
182,192,207011,1,0,0:0:0:0:
36,192,207011,1,0,0:0:0:0:
475,192,207011,1,0,0:0:0:0:
402,192,207011,1,0,0:0:0:0:
329,192,207085,1,0,0:0:0:0:
256,192,207159,1,0,0:0:0:0:
36,192,207159,1,0,0:0:0:0:
475,192,207159,1,0,0:0:0:0:
402,192,207159,1,0,0:0:0:0:
182,192,207234,1,0,0:0:0:0:
109,192,207308,1,0,0:0:0:0:
36,192,207308,1,0,0:0:0:0:
256,192,207308,1,0,0:0:0:0:
402,192,207308,1,0,0:0:0:0:
475,192,207308,1,0,0:0:0:0:
329,192,207382,1,0,0:0:0:0:
402,192,207457,1,0,0:0:0:0:
182,192,207457,1,0,0:0:0:0:
109,192,207457,1,0,0:0:0:0:
36,192,207457,1,0,0:0:0:0:
256,192,207531,1,0,0:0:0:0:
329,192,207605,1,0,0:0:0:0:
475,192,207605,1,0,0:0:0:0:
109,192,207605,1,0,0:0:0:0:
36,192,207605,1,0,0:0:0:0:
182,192,207679,1,0,0:0:0:0:
256,192,207754,1,0,0:0:0:0:
36,192,207754,1,0,0:0:0:0:
402,192,207754,1,0,0:0:0:0:
329,192,207754,1,0,0:0:0:0:
109,192,207828,1,0,0:0:0:0:
182,192,207902,1,0,0:0:0:0:
36,192,207902,1,0,0:0:0:0:
475,192,207902,1,0,0:0:0:0:
256,192,207902,1,0,0:0:0:0:
329,192,207902,1,0,0:0:0:0:
402,192,207976,1,0,0:0:0:0:
329,192,208051,1,0,0:0:0:0:
109,192,208051,1,0,0:0:0:0:
36,192,208051,1,0,0:0:0:0:
182,192,208051,1,0,0:0:0:0:
256,192,208125,1,0,0:0:0:0:
182,192,208199,1,0,0:0:0:0:
475,192,208199,1,0,0:0:0:0:
402,192,208199,1,0,0:0:0:0:
109,192,208199,1,0,0:0:0:0:
256,192,208273,1,0,0:0:0:0:
329,192,208348,1,0,0:0:0:0:
109,192,208348,1,0,0:0:0:0:
36,192,208348,1,0,0:0:0:0:
402,192,208348,1,0,0:0:0:0:
182,192,208422,1,0,0:0:0:0:
256,192,208496,1,0,0:0:0:0:
36,192,208496,1,0,0:0:0:0:
475,192,208496,1,0,0:0:0:0:
329,192,208496,1,0,0:0:0:0:
109,192,208496,1,0,0:0:0:0:
182,192,208570,1,0,0:0:0:0:
402,192,208645,1,0,0:0:0:0:
475,192,208645,1,0,0:0:0:0:
109,192,208645,1,0,0:0:0:0:
256,192,208645,1,0,0:0:0:0:
329,192,208719,1,0,0:0:0:0:
36,192,208793,1,0,0:0:0:0:
475,192,208793,1,0,0:0:0:0:
256,192,208793,1,0,0:0:0:0:
182,192,208793,1,0,0:0:0:0:
329,192,208867,1,0,0:0:0:0:
402,192,208867,1,0,0:0:0:0:
256,192,208942,1,0,0:0:0:0:
36,192,208942,1,0,0:0:0:0:
182,192,208942,1,0,0:0:0:0:
475,192,208942,1,0,0:0:0:0:
329,192,209016,1,0,0:0:0:0:
109,192,209016,1,0,0:0:0:0:
182,192,209090,1,0,0:0:0:0:
36,192,209090,1,0,0:0:0:0:
402,192,209090,1,0,0:0:0:0:
475,192,209090,1,0,0:0:0:0:
256,192,209090,1,0,0:0:0:0:
329,192,209164,1,0,0:0:0:0:
402,192,209239,1,0,0:0:0:0:
182,192,209239,1,0,0:0:0:0:
109,192,209239,1,0,0:0:0:0:
36,192,209239,1,0,0:0:0:0:
256,192,209313,1,0,0:0:0:0:
329,192,209387,1,0,0:0:0:0:
109,192,209387,1,0,0:0:0:0:
36,192,209387,1,0,0:0:0:0:
475,192,209387,1,0,0:0:0:0:
182,192,209461,1,0,0:0:0:0:
256,192,209536,1,0,0:0:0:0:
36,192,209536,1,0,0:0:0:0:
402,192,209536,1,0,0:0:0:0:
475,192,209536,1,0,0:0:0:0:
109,192,209610,1,0,0:0:0:0:
182,192,209684,1,0,0:0:0:0:
36,192,209684,1,0,0:0:0:0:
329,192,209684,1,0,0:0:0:0:
256,192,209684,1,0,0:0:0:0:
475,192,209684,1,0,0:0:0:0:
402,192,209758,1,0,0:0:0:0:
329,192,209833,1,0,0:0:0:0:
109,192,209833,1,0,0:0:0:0:
36,192,209833,1,0,0:0:0:0:
475,192,209833,1,0,0:0:0:0:
256,192,209907,1,0,0:0:0:0:
182,192,209981,1,0,0:0:0:0:
475,192,209981,1,0,0:0:0:0:
402,192,209981,1,0,0:0:0:0:
109,192,209981,1,0,0:0:0:0:
256,192,210056,1,0,0:0:0:0:
329,192,210130,1,0,0:0:0:0:
109,192,210130,1,0,0:0:0:0:
36,192,210130,1,0,0:0:0:0:
475,192,210130,1,0,0:0:0:0:
182,192,210204,1,0,0:0:0:0:
256,192,210278,1,0,0:0:0:0:
475,192,210278,128,0,210501:0:0:0:0:
402,192,210278,1,0,0:0:0:0:
36,192,210278,128,0,210427:0:0:0:0:
329,192,210278,1,0,0:0:0:0:
109,192,210427,1,0,0:0:0:0:
402,192,210427,1,0,0:0:0:0:
329,192,210501,1,0,0:0:0:0:
182,192,210501,1,0,0:0:0:0:
256,192,210575,1,0,0:0:0:0:
36,192,210575,1,0,0:0:0:0:
402,192,210575,1,0,0:0:0:0:
475,192,210575,1,0,0:0:0:0:
109,192,210650,1,0,0:0:0:0:
329,192,210650,1,0,0:0:0:0:
182,192,210724,1,0,0:0:0:0:
36,192,210724,1,0,0:0:0:0:
402,192,210724,1,0,0:0:0:0:
475,192,210724,1,0,0:0:0:0:
329,192,210798,1,0,0:0:0:0:
256,192,210798,1,0,0:0:0:0:
36,192,210872,128,0,211169:0:0:0:0:
109,192,210872,128,0,211169:0:0:0:0:
182,192,210872,128,0,211169:0:0:0:0:
402,192,210872,128,0,211021:0:0:0:0:
475,192,210872,128,0,211021:0:0:0:0:
329,192,211021,1,0,0:0:0:0:
256,192,211070,1,0,0:0:0:0:
475,192,211120,1,0,0:0:0:0:
402,192,211169,1,0,0:0:0:0:
329,192,211169,1,0,0:0:0:0:
329,192,211318,1,0,0:0:0:0:
256,192,211318,1,0,0:0:0:0:
182,192,211318,1,0,0:0:0:0:
182,192,211466,1,0,0:0:0:0:
109,192,211466,1,0,0:0:0:0:
36,192,211466,1,0,0:0:0:0:
475,192,211466,1,0,0:0:0:0:
402,192,211466,1,0,0:0:0:0:
256,192,211541,1,0,0:0:0:0:
329,192,211615,1,0,0:0:0:0:
109,192,211615,1,0,0:0:0:0:
36,192,211615,1,0,0:0:0:0:
475,192,211615,1,0,0:0:0:0:
182,192,211689,1,0,0:0:0:0:
256,192,211763,1,0,0:0:0:0:
36,192,211763,1,0,0:0:0:0:
402,192,211763,1,0,0:0:0:0:
475,192,211763,1,0,0:0:0:0:
329,192,211838,1,0,0:0:0:0:
109,192,211838,1,0,0:0:0:0:
36,192,211912,1,0,0:0:0:0:
402,192,211912,1,0,0:0:0:0:
182,192,211912,1,0,0:0:0:0:
475,192,211912,1,0,0:0:0:0:
329,192,211986,1,0,0:0:0:0:
256,192,211986,1,0,0:0:0:0:
402,192,212060,1,0,0:0:0:0:
475,192,212060,1,0,0:0:0:0:
109,192,212060,1,0,0:0:0:0:
36,192,212060,1,0,0:0:0:0:
182,192,212135,1,0,0:0:0:0:
329,192,212135,1,0,0:0:0:0:
256,192,212209,1,0,0:0:0:0:
402,192,212209,1,0,0:0:0:0:
36,192,212209,1,0,0:0:0:0:
475,192,212209,1,0,0:0:0:0:
329,192,212283,1,0,0:0:0:0:
109,192,212283,1,0,0:0:0:0:
182,192,212358,1,0,0:0:0:0:
36,192,212358,1,0,0:0:0:0:
402,192,212358,1,0,0:0:0:0:
475,192,212358,1,0,0:0:0:0:
256,192,212358,1,0,0:0:0:0:
329,192,212432,1,0,0:0:0:0:
182,192,212506,1,0,0:0:0:0:
109,192,212506,1,0,0:0:0:0:
36,192,212506,1,0,0:0:0:0:
402,192,212506,1,0,0:0:0:0:
475,192,212506,1,0,0:0:0:0:
329,192,212580,1,0,0:0:0:0:
36,192,212655,1,0,0:0:0:0:
475,192,212655,1,0,0:0:0:0:
402,192,212655,1,0,0:0:0:0:
182,192,212655,1,0,0:0:0:0:
109,192,212729,1,0,0:0:0:0:
329,192,212729,1,0,0:0:0:0:
475,192,212803,1,0,0:0:0:0:
256,192,212803,1,0,0:0:0:0:
182,192,212803,1,0,0:0:0:0:
402,192,212803,1,0,0:0:0:0:
109,192,212877,1,0,0:0:0:0:
36,192,212952,1,0,0:0:0:0:
329,192,212952,1,0,0:0:0:0:
475,192,212952,1,0,0:0:0:0:
402,192,212952,1,0,0:0:0:0:
182,192,212952,1,0,0:0:0:0:
256,192,213026,1,0,0:0:0:0:
182,192,213100,1,0,0:0:0:0:
36,192,213100,1,0,0:0:0:0:
402,192,213100,1,0,0:0:0:0:
475,192,213100,1,0,0:0:0:0:
329,192,213174,1,0,0:0:0:0:
109,192,213174,1,0,0:0:0:0:
182,192,213249,1,0,0:0:0:0:
36,192,213249,1,0,0:0:0:0:
256,192,213249,1,0,0:0:0:0:
475,192,213249,1,0,0:0:0:0:
329,192,213323,1,0,0:0:0:0:
402,192,213397,1,0,0:0:0:0:
182,192,213397,1,0,0:0:0:0:
109,192,213397,1,0,0:0:0:0:
36,192,213397,1,0,0:0:0:0:
256,192,213471,1,0,0:0:0:0:
109,192,213546,1,0,0:0:0:0:
36,192,213546,1,0,0:0:0:0:
402,192,213546,1,0,0:0:0:0:
475,192,213546,1,0,0:0:0:0:
182,192,213620,1,0,0:0:0:0:
329,192,213620,1,0,0:0:0:0:
256,192,213620,1,0,0:0:0:0:
36,192,213694,1,0,0:0:0:0:
109,192,213694,1,0,0:0:0:0:
475,192,213694,1,0,0:0:0:0:
402,192,213768,1,0,0:0:0:0:
329,192,213768,1,0,0:0:0:0:
182,192,213843,1,0,0:0:0:0:
109,192,213843,1,0,0:0:0:0:
36,192,213843,1,0,0:0:0:0:
256,192,213843,1,0,0:0:0:0:
475,192,213843,1,0,0:0:0:0:
329,192,213917,1,0,0:0:0:0:
402,192,213991,1,0,0:0:0:0:
109,192,213991,1,0,0:0:0:0:
36,192,213991,1,0,0:0:0:0:
256,192,213991,1,0,0:0:0:0:
182,192,214065,1,0,0:0:0:0:
256,192,214140,1,0,0:0:0:0:
402,192,214140,1,0,0:0:0:0:
475,192,214140,1,0,0:0:0:0:
36,192,214140,1,0,0:0:0:0:
109,192,214214,1,0,0:0:0:0:
329,192,214214,1,0,0:0:0:0:
182,192,214288,1,0,0:0:0:0:
475,192,214288,1,0,0:0:0:0:
256,192,214288,1,0,0:0:0:0:
36,192,214288,1,0,0:0:0:0:
402,192,214362,1,0,0:0:0:0:
329,192,214362,1,0,0:0:0:0:
256,192,214437,1,0,0:0:0:0:
182,192,214437,1,0,0:0:0:0:
109,192,214437,1,0,0:0:0:0:
36,192,214437,1,0,0:0:0:0:
329,192,214511,1,0,0:0:0:0:
475,192,214511,1,0,0:0:0:0:
256,192,214585,1,0,0:0:0:0:
182,192,214585,1,0,0:0:0:0:
109,192,214585,1,0,0:0:0:0:
36,192,214585,1,0,0:0:0:0:
475,192,214659,1,0,0:0:0:0:
402,192,214659,1,0,0:0:0:0:
329,192,214734,1,0,0:0:0:0:
256,192,214734,1,0,0:0:0:0:
109,192,214734,1,0,0:0:0:0:
36,192,214734,1,0,0:0:0:0:
182,192,214734,1,0,0:0:0:0:
402,192,214808,1,0,0:0:0:0:
475,192,214882,1,0,0:0:0:0:
329,192,214882,1,0,0:0:0:0:
36,192,214882,1,0,0:0:0:0:
109,192,214882,1,0,0:0:0:0:
182,192,214882,1,0,0:0:0:0:
256,192,214957,1,0,0:0:0:0:
182,192,215031,1,0,0:0:0:0:
36,192,215031,1,0,0:0:0:0:
109,192,215031,1,0,0:0:0:0:
402,192,215031,1,0,0:0:0:0:
329,192,215105,1,0,0:0:0:0:
256,192,215105,1,0,0:0:0:0:
475,192,215179,1,0,0:0:0:0:
182,192,215179,1,0,0:0:0:0:
109,192,215179,1,0,0:0:0:0:
36,192,215179,1,0,0:0:0:0:
329,192,215254,1,0,0:0:0:0:
256,192,215328,1,0,0:0:0:0:
182,192,215328,1,0,0:0:0:0:
109,192,215328,1,0,0:0:0:0:
36,192,215328,1,0,0:0:0:0:
475,192,215402,1,0,0:0:0:0:
402,192,215402,1,0,0:0:0:0:
256,192,215476,1,0,0:0:0:0:
182,192,215476,1,0,0:0:0:0:
109,192,215476,1,0,0:0:0:0:
36,192,215476,1,0,0:0:0:0:
329,192,215551,1,0,0:0:0:0:
256,192,215625,1,0,0:0:0:0:
182,192,215625,1,0,0:0:0:0:
36,192,215625,1,0,0:0:0:0:
109,192,215625,1,0,0:0:0:0:
329,192,215699,1,0,0:0:0:0:
402,192,215699,1,0,0:0:0:0:
475,192,215699,1,0,0:0:0:0:
256,192,215773,1,0,0:0:0:0:
109,192,215773,1,0,0:0:0:0:
36,192,215773,1,0,0:0:0:0:
182,192,215848,1,0,0:0:0:0:
402,192,215848,1,0,0:0:0:0:
475,192,215848,1,0,0:0:0:0:
329,192,215922,1,0,0:0:0:0:
256,192,215922,1,0,0:0:0:0:
109,192,215922,1,0,0:0:0:0:
36,192,215922,1,0,0:0:0:0:
182,192,215996,1,0,0:0:0:0:
402,192,215996,1,0,0:0:0:0:
256,192,216070,1,0,0:0:0:0:
475,192,216070,1,0,0:0:0:0:
36,192,216070,1,0,0:0:0:0:
109,192,216070,1,0,0:0:0:0:
182,192,216145,1,0,0:0:0:0:
329,192,216145,1,0,0:0:0:0:
256,192,216219,1,0,0:0:0:0:
36,192,216219,1,0,0:0:0:0:
402,192,216219,1,0,0:0:0:0:
475,192,216219,1,0,0:0:0:0:
109,192,216293,1,0,0:0:0:0:
182,192,216367,1,0,0:0:0:0:
329,192,216367,1,0,0:0:0:0:
402,192,216367,1,0,0:0:0:0:
475,192,216367,1,0,0:0:0:0:
256,192,216442,1,0,0:0:0:0:
329,192,216516,1,0,0:0:0:0:
109,192,216516,1,0,0:0:0:0:
36,192,216516,1,0,0:0:0:0:
182,192,216516,1,0,0:0:0:0:
475,192,216590,1,0,0:0:0:0:
256,192,216590,1,0,0:0:0:0:
329,192,216664,1,0,0:0:0:0:
109,192,216664,1,0,0:0:0:0:
36,192,216664,1,0,0:0:0:0:
402,192,216664,1,0,0:0:0:0:
256,192,216739,1,0,0:0:0:0:
182,192,216739,1,0,0:0:0:0:
109,192,216813,1,0,0:0:0:0:
36,192,216813,1,0,0:0:0:0:
402,192,216813,1,0,0:0:0:0:
475,192,216813,1,0,0:0:0:0:
329,192,216887,1,0,0:0:0:0:
256,192,216887,1,0,0:0:0:0:
36,192,216961,1,0,0:0:0:0:
475,192,216961,1,0,0:0:0:0:
182,192,216961,1,0,0:0:0:0:
402,192,216961,1,0,0:0:0:0:
109,192,217036,1,0,0:0:0:0:
256,192,217036,1,0,0:0:0:0:
182,192,217110,1,0,0:0:0:0:
402,192,217110,1,0,0:0:0:0:
475,192,217110,1,0,0:0:0:0:
329,192,217110,1,0,0:0:0:0:
36,192,217110,1,0,0:0:0:0:
256,192,217184,1,0,0:0:0:0:
109,192,217258,1,0,0:0:0:0:
329,192,217258,1,0,0:0:0:0:
475,192,217258,1,0,0:0:0:0:
36,192,217258,1,0,0:0:0:0:
402,192,217258,1,0,0:0:0:0:
182,192,217333,1,0,0:0:0:0:
256,192,217407,1,0,0:0:0:0:
36,192,217407,1,0,0:0:0:0:
402,192,217407,1,0,0:0:0:0:
475,192,217407,1,0,0:0:0:0:
329,192,217407,1,0,0:0:0:0:
182,192,217481,1,0,0:0:0:0:
109,192,217556,1,0,0:0:0:0:
36,192,217556,1,0,0:0:0:0:
402,192,217556,1,0,0:0:0:0:
475,192,217556,1,0,0:0:0:0:
329,192,217630,1,0,0:0:0:0:
256,192,217704,1,0,0:0:0:0:
36,192,217704,1,0,0:0:0:0:
109,192,217704,1,0,0:0:0:0:
475,192,217704,1,0,0:0:0:0:
402,192,217704,1,0,0:0:0:0:
182,192,217778,1,0,0:0:0:0:
256,192,217853,1,0,0:0:0:0:
36,192,217853,1,0,0:0:0:0:
402,192,217853,1,0,0:0:0:0:
329,192,217853,1,0,0:0:0:0:
109,192,217927,1,0,0:0:0:0:
256,192,218001,1,0,0:0:0:0:
182,192,218001,1,0,0:0:0:0:
36,192,218001,1,0,0:0:0:0:
475,192,218001,1,0,0:0:0:0:
329,192,218075,1,0,0:0:0:0:
109,192,218075,1,0,0:0:0:0:
182,192,218150,1,0,0:0:0:0:
475,192,218150,1,0,0:0:0:0:
402,192,218150,1,0,0:0:0:0:
256,192,218224,1,0,0:0:0:0:
36,192,218224,1,0,0:0:0:0:
109,192,218298,1,0,0:0:0:0:
182,192,218298,1,0,0:0:0:0:
475,192,218298,1,0,0:0:0:0:
402,192,218372,1,0,0:0:0:0:
329,192,218372,1,0,0:0:0:0:
256,192,218372,1,0,0:0:0:0:
182,192,218447,1,0,0:0:0:0:
36,192,218447,1,0,0:0:0:0:
475,192,218447,1,0,0:0:0:0:
256,192,218521,1,0,0:0:0:0:
109,192,218521,1,0,0:0:0:0:
402,192,218521,1,0,0:0:0:0:
182,192,218595,1,0,0:0:0:0:
329,192,218595,1,0,0:0:0:0:
475,192,218595,1,0,0:0:0:0:
36,192,218595,1,0,0:0:0:0:
36,192,218744,1,0,0:0:0:0:
329,192,218744,1,0,0:0:0:0:
475,192,218744,1,0,0:0:0:0:
182,192,218744,1,0,0:0:0:0:
109,192,218744,1,0,0:0:0:0:
402,192,218744,1,0,0:0:0:0:
36,192,218892,128,0,219115:0:0:0:0:
109,192,218892,128,0,219115:0:0:0:0:
182,192,218892,128,0,219115:0:0:0:0:
329,192,218892,128,0,219115:0:0:0:0:
402,192,218892,128,0,219115:0:0:0:0:
475,192,218892,128,0,219115:0:0:0:0:
256,192,219189,1,0,0:0:0:0:
182,192,219189,1,0,0:0:0:0:
109,192,219189,1,0,0:0:0:0:
329,192,219189,1,0,0:0:0:0:
475,192,219189,1,0,0:0:0:0:
402,192,219189,1,0,0:0:0:0:
109,192,219338,1,0,0:0:0:0:
182,192,219338,1,0,0:0:0:0:
256,192,219338,1,0,0:0:0:0:
329,192,219338,1,0,0:0:0:0:
402,192,219338,1,0,0:0:0:0:
475,192,219338,1,0,0:0:0:0:
329,192,219486,1,0,0:0:0:0:
256,192,219486,1,0,0:0:0:0:
36,192,219486,1,0,0:0:0:0:
109,192,219486,1,0,0:0:0:0:
402,192,219486,1,0,0:0:0:0:
475,192,219486,1,0,0:0:0:0:
329,192,219635,1,0,0:0:0:0:
182,192,219635,1,0,0:0:0:0:
109,192,219635,1,0,0:0:0:0:
36,192,219635,1,0,0:0:0:0:
256,192,219635,1,0,0:0:0:0:
402,192,219635,1,0,0:0:0:0:
475,192,219783,1,0,0:0:0:0:
329,192,219783,1,0,0:0:0:0:
182,192,219783,1,0,0:0:0:0:
36,192,219858,1,0,0:0:0:0:
182,192,219932,1,0,0:0:0:0:
329,192,219932,1,0,0:0:0:0:
475,192,219932,1,0,0:0:0:0:
36,192,220006,1,0,0:0:0:0:
256,192,220080,1,0,0:0:0:0:
109,192,220080,128,0,220155:0:0:0:0:
182,192,220080,128,0,220155:0:0:0:0:
402,192,220155,1,0,0:0:0:0:
475,192,220155,1,0,0:0:0:0:
256,192,220229,1,0,0:0:0:0:
109,192,220229,128,0,220303:0:0:0:0:
182,192,220229,128,0,220303:0:0:0:0:
475,192,220303,1,0,0:0:0:0:
402,192,220303,1,0,0:0:0:0:
36,192,220377,128,0,220600:0:0:0:0:
109,192,220377,128,0,220600:0:0:0:0:
182,192,220377,128,0,220600:0:0:0:0:
256,192,220377,128,0,220600:0:0:0:0:
329,192,220377,128,0,220600:0:0:0:0:
329,192,220674,128,0,220897:0:0:0:0:
256,192,220674,128,0,220897:0:0:0:0:
182,192,220674,128,0,220897:0:0:0:0:
109,192,220674,128,0,220897:0:0:0:0:
36,192,220674,128,0,220897:0:0:0:0:
475,192,220971,1,0,0:0:0:0:
402,192,220971,1,0,0:0:0:0:
36,192,220971,1,0,0:0:0:0:
109,192,220971,1,0,0:0:0:0:
256,192,220971,128,0,222159:0:0:0:0:
36,192,222159,1,0,0:0:0:0:
36,192,222308,1,0,0:0:0:0:
36,192,222457,1,0,0:0:0:0:
329,192,222605,1,0,0:0:0:0:
329,192,222754,1,0,0:0:0:0:
329,192,222902,1,0,0:0:0:0:
109,192,223051,1,0,0:0:0:0:
36,192,223199,1,0,0:0:0:0:
402,192,223348,1,0,0:0:0:0:
402,192,223496,1,0,0:0:0:0:
402,192,223645,1,0,0:0:0:0:
182,192,223793,1,0,0:0:0:0:
182,192,223942,1,0,0:0:0:0:
182,192,224090,1,0,0:0:0:0:
182,192,224239,1,0,0:0:0:0:
182,192,224387,1,0,0:0:0:0:
402,192,224536,1,0,0:0:0:0:
182,192,224684,1,0,0:0:0:0:
402,192,224833,1,0,0:0:0:0:
475,192,224981,1,0,0:0:0:0:
329,192,225130,1,0,0:0:0:0:
329,192,225278,1,0,0:0:0:0:
109,192,225427,1,0,0:0:0:0:
36,192,225575,1,0,0:0:0:0:
182,192,225724,1,0,0:0:0:0:
182,192,225872,1,0,0:0:0:0:
182,192,226021,1,0,0:0:0:0:
475,192,226169,1,0,0:0:0:0:
475,192,226318,1,0,0:0:0:0:
475,192,226466,1,0,0:0:0:0:
475,192,226615,1,0,0:0:0:0:
475,192,226763,1,0,0:0:0:0:
36,192,226912,1,0,0:0:0:0:
36,192,227060,1,0,0:0:0:0:
36,192,227209,1,0,0:0:0:0:
402,192,227358,1,0,0:0:0:0:
402,192,227506,1,0,0:0:0:0:
402,192,227655,1,0,0:0:0:0:
182,192,227803,1,0,0:0:0:0:
109,192,227952,1,0,0:0:0:0:
329,192,228100,1,0,0:0:0:0:
329,192,228249,1,0,0:0:0:0:
329,192,228397,1,0,0:0:0:0:
182,192,228546,1,0,0:0:0:0:
182,192,228694,1,0,0:0:0:0:
182,192,228843,1,0,0:0:0:0:
182,192,228991,1,0,0:0:0:0:
182,192,229140,1,0,0:0:0:0:
329,192,229288,1,0,0:0:0:0:
182,192,229437,1,0,0:0:0:0:
329,192,229585,1,0,0:0:0:0:
475,192,229734,1,0,0:0:0:0:
109,192,229882,1,0,0:0:0:0:
109,192,230031,1,0,0:0:0:0:
182,192,230179,1,0,0:0:0:0:
256,192,230328,1,0,0:0:0:0:
329,192,230476,1,0,0:0:0:0:
329,192,230625,1,0,0:0:0:0:
329,192,230773,1,0,0:0:0:0:
109,192,230922,1,0,0:0:0:0:
109,192,231070,1,0,0:0:0:0:
109,192,231219,1,0,0:0:0:0:
109,192,231367,1,0,0:0:0:0:
109,192,231516,1,0,0:0:0:0:
402,192,231664,1,0,0:0:0:0:
402,192,231813,1,0,0:0:0:0:
402,192,231961,1,0,0:0:0:0:
36,192,232110,1,0,0:0:0:0:
36,192,232258,1,0,0:0:0:0:
36,192,232407,1,0,0:0:0:0:
182,192,232556,1,0,0:0:0:0:
329,192,232704,1,0,0:0:0:0:
109,192,232853,1,0,0:0:0:0:
109,192,233001,1,0,0:0:0:0:
109,192,233150,1,0,0:0:0:0:
475,192,233298,1,0,0:0:0:0:
475,192,233447,1,0,0:0:0:0:
475,192,233595,1,0,0:0:0:0:
475,192,233744,1,0,0:0:0:0:
475,192,233892,1,0,0:0:0:0:
109,192,234041,1,0,0:0:0:0:
182,192,234189,1,0,0:0:0:0:
109,192,234338,1,0,0:0:0:0:
402,192,234486,1,0,0:0:0:0:
329,192,234635,1,0,0:0:0:0:
329,192,234783,1,0,0:0:0:0:
182,192,234932,1,0,0:0:0:0:
36,192,235080,1,0,0:0:0:0:
475,192,235229,128,0,235303:0:0:0:0:
475,192,235377,128,0,235452:0:0:0:0:
475,192,235526,128,0,235600:0:0:0:0:
256,192,235674,128,0,235749:0:0:0:0:
256,192,235823,128,0,235897:0:0:0:0:
256,192,235971,128,0,236046:0:0:0:0:
256,192,236120,128,0,236194:0:0:0:0:
256,192,236268,128,0,236343:0:0:0:0:
109,192,236417,128,0,236491:0:0:0:0:
109,192,236565,128,0,236640:0:0:0:0:
109,192,236714,128,0,236788:0:0:0:0:
402,192,236862,128,0,236937:0:0:0:0:
402,192,237011,128,0,237085:0:0:0:0:
402,192,237159,128,0,237234:0:0:0:0:
329,192,237308,128,0,237382:0:0:0:0:
109,192,237457,128,0,237531:0:0:0:0:
402,192,237605,128,0,237679:0:0:0:0:
402,192,237754,128,0,237828:0:0:0:0:
402,192,237902,128,0,237976:0:0:0:0:
36,192,238051,128,0,238125:0:0:0:0:
36,192,238199,128,0,238273:0:0:0:0:
36,192,238348,128,0,238422:0:0:0:0:
36,192,238496,128,0,238570:0:0:0:0:
36,192,238645,128,0,238719:0:0:0:0:
402,192,238793,128,0,238867:0:0:0:0:
182,192,238942,128,0,239016:0:0:0:0:
402,192,239090,128,0,239164:0:0:0:0:
109,192,239239,128,0,239313:0:0:0:0:
182,192,239387,128,0,239461:0:0:0:0:
182,192,239536,128,0,239610:0:0:0:0:
329,192,239684,128,0,239758:0:0:0:0:
402,192,239833,128,0,239907:0:0:0:0:
256,192,239981,1,0,0:0:0:0:
109,192,239981,1,0,0:0:0:0:
36,192,239981,1,0,0:0:0:0:
329,192,240056,1,0,0:0:0:0:
475,192,240130,1,0,0:0:0:0:
182,192,240204,1,0,0:0:0:0:
329,192,240278,1,0,0:0:0:0:
109,192,240353,1,0,0:0:0:0:
36,192,240427,1,0,0:0:0:0:
256,192,240427,1,0,0:0:0:0:
475,192,240501,1,0,0:0:0:0:
329,192,240575,1,0,0:0:0:0:
109,192,240575,1,0,0:0:0:0:
36,192,240575,1,0,0:0:0:0:
256,192,240650,1,0,0:0:0:0:
109,192,240724,1,0,0:0:0:0:
329,192,240798,1,0,0:0:0:0:
36,192,240872,1,0,0:0:0:0:
182,192,240947,1,0,0:0:0:0:
329,192,241021,1,0,0:0:0:0:
109,192,241021,1,0,0:0:0:0:
475,192,241095,1,0,0:0:0:0:
182,192,241095,1,0,0:0:0:0:
109,192,241169,1,0,0:0:0:0:
256,192,241169,1,0,0:0:0:0:
402,192,241244,1,0,0:0:0:0:
182,192,241318,1,0,0:0:0:0:
36,192,241392,1,0,0:0:0:0:
256,192,241392,1,0,0:0:0:0:
475,192,241466,1,0,0:0:0:0:
329,192,241541,1,0,0:0:0:0:
36,192,241615,1,0,0:0:0:0:
256,192,241615,1,0,0:0:0:0:
109,192,241689,1,0,0:0:0:0:
475,192,241763,1,0,0:0:0:0:
182,192,241763,1,0,0:0:0:0:
402,192,241763,1,0,0:0:0:0:
256,192,241838,1,0,0:0:0:0:
329,192,241912,1,0,0:0:0:0:
36,192,241912,1,0,0:0:0:0:
109,192,241986,1,0,0:0:0:0:
475,192,242060,1,0,0:0:0:0:
182,192,242060,1,0,0:0:0:0:
256,192,242135,1,0,0:0:0:0:
329,192,242135,1,0,0:0:0:0:
475,192,242209,1,0,0:0:0:0:
36,192,242209,1,0,0:0:0:0:
182,192,242283,1,0,0:0:0:0:
402,192,242358,1,0,0:0:0:0:
256,192,242358,1,0,0:0:0:0:
36,192,242432,1,0,0:0:0:0:
182,192,242506,1,0,0:0:0:0:
475,192,242580,1,0,0:0:0:0:
402,192,242655,1,0,0:0:0:0:
329,192,242729,1,0,0:0:0:0:
182,192,242803,1,0,0:0:0:0:
36,192,242803,1,0,0:0:0:0:
256,192,242877,1,0,0:0:0:0:
329,192,242952,1,0,0:0:0:0:
109,192,242952,1,0,0:0:0:0:
475,192,242952,1,0,0:0:0:0:
182,192,243026,1,0,0:0:0:0:
329,192,243100,1,0,0:0:0:0:
475,192,243174,1,0,0:0:0:0:
109,192,243249,1,0,0:0:0:0:
329,192,243323,1,0,0:0:0:0:
182,192,243397,1,0,0:0:0:0:
402,192,243397,1,0,0:0:0:0:
36,192,243471,1,0,0:0:0:0:
329,192,243471,1,0,0:0:0:0:
182,192,243546,1,0,0:0:0:0:
475,192,243546,1,0,0:0:0:0:
329,192,243620,1,0,0:0:0:0:
109,192,243694,1,0,0:0:0:0:
256,192,243694,1,0,0:0:0:0:
182,192,243694,1,0,0:0:0:0:
36,192,243768,1,0,0:0:0:0:
475,192,243768,1,0,0:0:0:0:
329,192,243843,1,0,0:0:0:0:
109,192,243917,1,0,0:0:0:0:
36,192,243991,1,0,0:0:0:0:
402,192,243991,1,0,0:0:0:0:
182,192,244065,1,0,0:0:0:0:
329,192,244140,1,0,0:0:0:0:
475,192,244140,1,0,0:0:0:0:
36,192,244140,1,0,0:0:0:0:
109,192,244214,1,0,0:0:0:0:
256,192,244288,1,0,0:0:0:0:
402,192,244288,1,0,0:0:0:0:
182,192,244362,1,0,0:0:0:0:
109,192,244437,1,0,0:0:0:0:
329,192,244437,1,0,0:0:0:0:
475,192,244511,1,0,0:0:0:0:
182,192,244511,1,0,0:0:0:0:
329,192,244585,1,0,0:0:0:0:
36,192,244585,1,0,0:0:0:0:
182,192,244659,1,0,0:0:0:0:
256,192,244734,1,0,0:0:0:0:
475,192,244734,1,0,0:0:0:0:
329,192,244808,1,0,0:0:0:0:
402,192,244882,1,0,0:0:0:0:
109,192,244957,1,0,0:0:0:0:
256,192,245031,1,0,0:0:0:0:
329,192,245105,1,0,0:0:0:0:
475,192,245179,1,0,0:0:0:0:
182,192,245179,1,0,0:0:0:0:
109,192,245254,1,0,0:0:0:0:
36,192,245328,1,0,0:0:0:0:
329,192,245328,1,0,0:0:0:0:
256,192,245328,1,0,0:0:0:0:
475,192,245402,1,0,0:0:0:0:
256,192,245476,1,0,0:0:0:0:
109,192,245551,1,0,0:0:0:0:
36,192,245625,1,0,0:0:0:0:
402,192,245699,1,0,0:0:0:0:
329,192,245773,1,0,0:0:0:0:
109,192,245773,1,0,0:0:0:0:
256,192,245848,1,0,0:0:0:0:
475,192,245848,1,0,0:0:0:0:
402,192,245922,1,0,0:0:0:0:
182,192,245922,1,0,0:0:0:0:
36,192,245996,1,0,0:0:0:0:
329,192,246070,1,0,0:0:0:0:
109,192,246145,1,0,0:0:0:0:
475,192,246145,1,0,0:0:0:0:
182,192,246219,1,0,0:0:0:0:
256,192,246293,1,0,0:0:0:0:
329,192,246367,1,0,0:0:0:0:
36,192,246367,1,0,0:0:0:0:
475,192,246367,1,0,0:0:0:0:
182,192,246442,1,0,0:0:0:0:
109,192,246516,1,0,0:0:0:0:
475,192,246516,1,0,0:0:0:0:
256,192,246516,1,0,0:0:0:0:
402,192,246590,1,0,0:0:0:0:
329,192,246664,1,0,0:0:0:0:
256,192,246664,1,0,0:0:0:0:
182,192,246739,1,0,0:0:0:0:
36,192,246813,1,0,0:0:0:0:
475,192,246813,1,0,0:0:0:0:
329,192,246887,1,0,0:0:0:0:
109,192,246887,1,0,0:0:0:0:
182,192,246961,1,0,0:0:0:0:
402,192,246961,1,0,0:0:0:0:
256,192,247036,1,0,0:0:0:0:
329,192,247110,1,0,0:0:0:0:
36,192,247110,1,0,0:0:0:0:
109,192,247184,1,0,0:0:0:0:
182,192,247258,1,0,0:0:0:0:
475,192,247333,1,0,0:0:0:0:
329,192,247407,1,0,0:0:0:0:
182,192,247481,1,0,0:0:0:0:
475,192,247556,1,0,0:0:0:0:
36,192,247556,1,0,0:0:0:0:
109,192,247630,1,0,0:0:0:0:
182,192,247704,1,0,0:0:0:0:
402,192,247704,1,0,0:0:0:0:
475,192,247704,1,0,0:0:0:0:
256,192,247778,1,0,0:0:0:0:
329,192,247853,1,0,0:0:0:0:
109,192,247927,1,0,0:0:0:0:
256,192,248001,1,0,0:0:0:0:
182,192,248075,1,0,0:0:0:0:
402,192,248150,1,0,0:0:0:0:
36,192,248150,1,0,0:0:0:0:
329,192,248224,1,0,0:0:0:0:
109,192,248224,1,0,0:0:0:0:
256,192,248298,1,0,0:0:0:0:
475,192,248298,1,0,0:0:0:0:
182,192,248372,1,0,0:0:0:0:
329,192,248447,1,0,0:0:0:0:
475,192,248447,1,0,0:0:0:0:
402,192,248447,1,0,0:0:0:0:
36,192,248521,1,0,0:0:0:0:
256,192,248521,1,0,0:0:0:0:
109,192,248595,1,0,0:0:0:0:
329,192,248669,1,0,0:0:0:0:
182,192,248744,1,0,0:0:0:0:
36,192,248744,1,0,0:0:0:0:
475,192,248818,1,0,0:0:0:0:
329,192,248892,1,0,0:0:0:0:
109,192,248892,1,0,0:0:0:0:
36,192,248892,1,0,0:0:0:0:
256,192,248966,1,0,0:0:0:0:
402,192,249041,1,0,0:0:0:0:
109,192,249041,1,0,0:0:0:0:
182,192,249115,1,0,0:0:0:0:
256,192,249189,1,0,0:0:0:0:
475,192,249189,1,0,0:0:0:0:
36,192,249263,1,0,0:0:0:0:
109,192,249263,1,0,0:0:0:0:
329,192,249338,1,0,0:0:0:0:
402,192,249338,1,0,0:0:0:0:
256,192,249412,1,0,0:0:0:0:
182,192,249486,1,0,0:0:0:0:
402,192,249486,1,0,0:0:0:0:
109,192,249486,1,0,0:0:0:0:
36,192,249486,1,0,0:0:0:0:
329,192,249560,1,0,0:0:0:0:
36,192,249635,1,0,0:0:0:0:
256,192,249635,1,0,0:0:0:0:
475,192,249709,1,0,0:0:0:0:
36,192,249783,1,0,0:0:0:0:
329,192,249783,1,0,0:0:0:0:
402,192,249858,1,0,0:0:0:0:
109,192,249932,1,0,0:0:0:0:
256,192,249932,1,0,0:0:0:0:
182,192,249932,1,0,0:0:0:0:
329,192,250006,1,0,0:0:0:0:
109,192,250080,1,0,0:0:0:0:
402,192,250080,1,0,0:0:0:0:
182,192,250080,1,0,0:0:0:0:
475,192,250080,1,0,0:0:0:0:
256,192,250155,1,0,0:0:0:0:
109,192,250229,1,0,0:0:0:0:
329,192,250229,1,0,0:0:0:0:
475,192,250303,1,0,0:0:0:0:
109,192,250377,1,0,0:0:0:0:
402,192,250377,1,0,0:0:0:0:
329,192,250452,1,0,0:0:0:0:
109,192,250526,1,0,0:0:0:0:
256,192,250526,1,0,0:0:0:0:
475,192,250526,1,0,0:0:0:0:
402,192,250600,1,0,0:0:0:0:
182,192,250600,1,0,0:0:0:0:
36,192,250674,1,0,0:0:0:0:
329,192,250674,1,0,0:0:0:0:
109,192,250674,1,0,0:0:0:0:
256,192,250749,1,0,0:0:0:0:
36,192,250823,1,0,0:0:0:0:
475,192,250823,1,0,0:0:0:0:
182,192,250897,1,0,0:0:0:0:
329,192,250897,1,0,0:0:0:0:
36,192,250971,1,0,0:0:0:0:
402,192,250971,1,0,0:0:0:0:
475,192,251046,1,0,0:0:0:0:
182,192,251120,1,0,0:0:0:0:
329,192,251120,1,0,0:0:0:0:
109,192,251120,1,0,0:0:0:0:
256,192,251194,1,0,0:0:0:0:
182,192,251268,1,0,0:0:0:0:
475,192,251268,1,0,0:0:0:0:
109,192,251268,1,0,0:0:0:0:
36,192,251268,1,0,0:0:0:0:
402,192,251343,1,0,0:0:0:0:
182,192,251417,1,0,0:0:0:0:
329,192,251417,1,0,0:0:0:0:
36,192,251417,1,0,0:0:0:0:
256,192,251491,1,0,0:0:0:0:
109,192,251565,1,0,0:0:0:0:
475,192,251565,1,0,0:0:0:0:
402,192,251640,1,0,0:0:0:0:
182,192,251640,1,0,0:0:0:0:
36,192,251714,1,0,0:0:0:0:
329,192,251714,1,0,0:0:0:0:
182,192,251788,1,0,0:0:0:0:
256,192,251862,1,0,0:0:0:0:
475,192,251862,1,0,0:0:0:0:
402,192,251862,1,0,0:0:0:0:
109,192,251937,1,0,0:0:0:0:
475,192,252011,1,0,0:0:0:0:
36,192,252011,1,0,0:0:0:0:
182,192,252085,1,0,0:0:0:0:
475,192,252159,1,0,0:0:0:0:
256,192,252159,1,0,0:0:0:0:
36,192,252234,1,0,0:0:0:0:
402,192,252308,1,0,0:0:0:0:
329,192,252308,1,0,0:0:0:0:
109,192,252308,1,0,0:0:0:0:
182,192,252382,1,0,0:0:0:0:
402,192,252457,1,0,0:0:0:0:
329,192,252457,1,0,0:0:0:0:
256,192,252457,1,0,0:0:0:0:
36,192,252457,1,0,0:0:0:0:
182,192,252531,1,0,0:0:0:0:
402,192,252605,1,0,0:0:0:0:
109,192,252605,1,0,0:0:0:0:
182,192,252679,1,0,0:0:0:0:
402,192,252754,1,0,0:0:0:0:
256,192,252754,1,0,0:0:0:0:
36,192,252828,1,0,0:0:0:0:
402,192,252902,1,0,0:0:0:0:
109,192,252902,1,0,0:0:0:0:
256,192,252902,1,0,0:0:0:0:
182,192,252976,1,0,0:0:0:0:
329,192,252976,1,0,0:0:0:0:
475,192,253051,1,0,0:0:0:0:
256,192,253051,1,0,0:0:0:0:
36,192,253051,1,0,0:0:0:0:
182,192,253125,1,0,0:0:0:0:
475,192,253199,1,0,0:0:0:0:
36,192,253199,1,0,0:0:0:0:
402,192,253199,1,0,0:0:0:0:
329,192,253273,1,0,0:0:0:0:
109,192,253273,1,0,0:0:0:0:
475,192,253348,1,0,0:0:0:0:
182,192,253348,1,0,0:0:0:0:
256,192,253422,1,0,0:0:0:0:
329,192,253496,1,0,0:0:0:0:
402,192,253496,1,0,0:0:0:0:
36,192,253496,1,0,0:0:0:0:
182,192,253570,1,0,0:0:0:0:
329,192,253645,1,0,0:0:0:0:
402,192,253645,1,0,0:0:0:0:
475,192,253645,1,0,0:0:0:0:
109,192,253645,1,0,0:0:0:0:
36,192,253719,1,0,0:0:0:0:
329,192,253793,1,0,0:0:0:0:
256,192,253793,1,0,0:0:0:0:
475,192,253793,1,0,0:0:0:0:
182,192,253867,1,0,0:0:0:0:
402,192,253942,1,0,0:0:0:0:
109,192,253942,1,0,0:0:0:0:
329,192,253942,1,0,0:0:0:0:
256,192,254016,1,0,0:0:0:0:
36,192,254016,1,0,0:0:0:0:
475,192,254090,1,0,0:0:0:0:
182,192,254090,1,0,0:0:0:0:
329,192,254090,1,0,0:0:0:0:
402,192,254164,1,0,0:0:0:0:
109,192,254239,1,0,0:0:0:0:
182,192,254239,1,0,0:0:0:0:
256,192,254239,1,0,0:0:0:0:
329,192,254313,1,0,0:0:0:0:
109,192,254387,1,0,0:0:0:0:
475,192,254387,1,0,0:0:0:0:
329,192,254461,1,0,0:0:0:0:
109,192,254536,1,0,0:0:0:0:
256,192,254536,1,0,0:0:0:0:
402,192,254610,1,0,0:0:0:0:
36,192,254684,1,0,0:0:0:0:
182,192,254684,1,0,0:0:0:0:
475,192,254684,1,0,0:0:0:0:
329,192,254758,1,0,0:0:0:0:
36,192,254833,1,0,0:0:0:0:
182,192,254833,1,0,0:0:0:0:
109,192,254833,1,0,0:0:0:0:
256,192,254833,1,0,0:0:0:0:
329,192,254907,1,0,0:0:0:0:
36,192,254981,1,0,0:0:0:0:
402,192,254981,1,0,0:0:0:0:
256,192,255056,1,0,0:0:0:0:
36,192,255130,1,0,0:0:0:0:
475,192,255130,1,0,0:0:0:0:
329,192,255204,1,0,0:0:0:0:
36,192,255278,1,0,0:0:0:0:
256,192,255278,1,0,0:0:0:0:
475,192,255278,1,0,0:0:0:0:
402,192,255353,1,0,0:0:0:0:
182,192,255353,1,0,0:0:0:0:
109,192,255427,1,0,0:0:0:0:
329,192,255427,1,0,0:0:0:0:
36,192,255427,1,0,0:0:0:0:
475,192,255501,1,0,0:0:0:0:
109,192,255575,1,0,0:0:0:0:
256,192,255575,1,0,0:0:0:0:
182,192,255650,1,0,0:0:0:0:
329,192,255650,1,0,0:0:0:0:
109,192,255724,1,0,0:0:0:0:
402,192,255724,1,0,0:0:0:0:
475,192,255798,1,0,0:0:0:0:
182,192,255872,1,0,0:0:0:0:
36,192,255872,1,0,0:0:0:0:
329,192,255872,1,0,0:0:0:0:
256,192,255947,1,0,0:0:0:0:
182,192,256021,1,0,0:0:0:0:
36,192,256021,1,0,0:0:0:0:
109,192,256021,1,0,0:0:0:0:
402,192,256021,1,0,0:0:0:0:
329,192,256095,1,0,0:0:0:0:
182,192,256169,1,0,0:0:0:0:
256,192,256169,1,0,0:0:0:0:
475,192,256244,1,0,0:0:0:0:
109,192,256318,1,0,0:0:0:0:
402,192,256318,1,0,0:0:0:0:
256,192,256318,1,0,0:0:0:0:
329,192,256392,1,0,0:0:0:0:
182,192,256392,1,0,0:0:0:0:
36,192,256466,1,0,0:0:0:0:
256,192,256466,1,0,0:0:0:0:
475,192,256466,1,0,0:0:0:0:
109,192,256541,1,0,0:0:0:0:
402,192,256615,1,0,0:0:0:0:
329,192,256615,1,0,0:0:0:0:
182,192,256615,1,0,0:0:0:0:
256,192,256689,1,0,0:0:0:0:
402,192,256763,1,0,0:0:0:0:
36,192,256763,1,0,0:0:0:0:
109,192,256838,1,0,0:0:0:0:
402,192,256912,1,0,0:0:0:0:
182,192,256912,1,0,0:0:0:0:
36,192,256986,1,0,0:0:0:0:
329,192,257060,1,0,0:0:0:0:
256,192,257060,1,0,0:0:0:0:
182,192,257060,1,0,0:0:0:0:
109,192,257135,1,0,0:0:0:0:
329,192,257209,1,0,0:0:0:0:
256,192,257209,1,0,0:0:0:0:
475,192,257209,1,0,0:0:0:0:
36,192,257209,1,0,0:0:0:0:
182,192,257283,1,0,0:0:0:0:
329,192,257358,1,0,0:0:0:0:
36,192,257358,1,0,0:0:0:0:
109,192,257432,1,0,0:0:0:0:
329,192,257506,1,0,0:0:0:0:
256,192,257506,1,0,0:0:0:0:
36,192,257580,1,0,0:0:0:0:
182,192,257655,1,0,0:0:0:0:
402,192,257655,1,0,0:0:0:0:
109,192,257729,1,0,0:0:0:0:
329,192,257729,1,0,0:0:0:0:
402,192,257803,5,0,0:0:0:0:
475,192,257803,1,0,0:0:0:0:
36,192,257803,1,0,0:0:0:0:
256,192,257803,1,0,0:0:0:0:
182,192,257877,1,0,0:0:0:0:
109,192,257952,1,0,0:0:0:0:
329,192,257952,1,0,0:0:0:0:
475,192,257952,1,0,0:0:0:0:
256,192,258026,1,0,0:0:0:0:
36,192,258026,1,0,0:0:0:0:
402,192,258100,1,0,0:0:0:0:
182,192,258100,1,0,0:0:0:0:
36,192,258174,1,0,0:0:0:0:
475,192,258249,1,0,0:0:0:0:
329,192,258249,1,0,0:0:0:0:
109,192,258249,1,0,0:0:0:0:
182,192,258323,1,0,0:0:0:0:
475,192,258397,1,0,0:0:0:0:
256,192,258397,1,0,0:0:0:0:
329,192,258397,1,0,0:0:0:0:
36,192,258397,1,0,0:0:0:0:
109,192,258471,1,0,0:0:0:0:
475,192,258546,1,0,0:0:0:0:
256,192,258546,1,0,0:0:0:0:
182,192,258546,1,0,0:0:0:0:
36,192,258620,1,0,0:0:0:0:
402,192,258694,1,0,0:0:0:0:
182,192,258694,1,0,0:0:0:0:
329,192,258694,1,0,0:0:0:0:
256,192,258768,1,0,0:0:0:0:
109,192,258768,1,0,0:0:0:0:
329,192,258843,1,0,0:0:0:0:
182,192,258843,1,0,0:0:0:0:
36,192,258843,1,0,0:0:0:0:
402,192,258917,1,0,0:0:0:0:
256,192,258991,5,0,0:0:0:0:
475,192,258991,1,0,0:0:0:0:
109,192,258991,1,0,0:0:0:0:
36,192,258991,1,0,0:0:0:0:
329,192,259065,1,0,0:0:0:0:
182,192,259140,1,0,0:0:0:0:
256,192,259214,1,0,0:0:0:0:
329,192,259288,1,0,0:0:0:0:
402,192,259288,1,0,0:0:0:0:
36,192,259288,1,0,0:0:0:0:
109,192,259362,1,0,0:0:0:0:
182,192,259437,1,0,0:0:0:0:
256,192,259511,1,0,0:0:0:0:
402,192,259585,1,0,0:0:0:0:
36,192,259585,1,0,0:0:0:0:
329,192,259585,1,0,0:0:0:0:
182,192,259659,1,0,0:0:0:0:
109,192,259734,1,0,0:0:0:0:
329,192,259734,1,0,0:0:0:0:
256,192,259808,1,0,0:0:0:0:
182,192,259882,1,0,0:0:0:0:
36,192,259882,1,0,0:0:0:0:
402,192,259882,1,0,0:0:0:0:
256,192,259957,1,0,0:0:0:0:
329,192,260031,1,0,0:0:0:0:
109,192,260031,1,0,0:0:0:0:
182,192,260105,1,0,0:0:0:0:
256,192,260179,1,0,0:0:0:0:
36,192,260179,1,0,0:0:0:0:
475,192,260179,1,0,0:0:0:0:
109,192,260254,1,0,0:0:0:0:
182,192,260328,1,0,0:0:0:0:
475,192,260328,1,0,0:0:0:0:
402,192,260402,1,0,0:0:0:0:
329,192,260476,1,0,0:0:0:0:
109,192,260476,1,0,0:0:0:0:
36,192,260476,1,0,0:0:0:0:
256,192,260551,1,0,0:0:0:0:
182,192,260625,1,0,0:0:0:0:
475,192,260625,1,0,0:0:0:0:
402,192,260699,1,0,0:0:0:0:
329,192,260773,1,0,0:0:0:0:
36,192,260773,1,0,0:0:0:0:
256,192,260773,1,0,0:0:0:0:
109,192,260848,1,0,0:0:0:0:
182,192,260922,1,0,0:0:0:0:
402,192,260922,1,0,0:0:0:0:
256,192,260996,1,0,0:0:0:0:
329,192,261070,1,0,0:0:0:0:
36,192,261070,1,0,0:0:0:0:
475,192,261070,1,0,0:0:0:0:
109,192,261145,1,0,0:0:0:0:
182,192,261219,1,0,0:0:0:0:
402,192,261219,1,0,0:0:0:0:
475,192,261219,1,0,0:0:0:0:
329,192,261293,1,0,0:0:0:0:
256,192,261367,1,0,0:0:0:0:
36,192,261367,1,0,0:0:0:0:
402,192,261367,1,0,0:0:0:0:
182,192,261442,1,0,0:0:0:0:
109,192,261516,1,0,0:0:0:0:
329,192,261516,1,0,0:0:0:0:
402,192,261590,1,0,0:0:0:0:
475,192,261664,1,0,0:0:0:0:
256,192,261664,1,0,0:0:0:0:
36,192,261664,1,0,0:0:0:0:
329,192,261739,1,0,0:0:0:0:
402,192,261813,1,0,0:0:0:0:
109,192,261813,1,0,0:0:0:0:
182,192,261887,1,0,0:0:0:0:
256,192,261961,1,0,0:0:0:0:
36,192,261961,1,0,0:0:0:0:
402,192,261961,1,0,0:0:0:0:
182,192,262036,1,0,0:0:0:0:
109,192,262110,1,0,0:0:0:0:
329,192,262110,1,0,0:0:0:0:
402,192,262184,1,0,0:0:0:0:
475,192,262258,1,0,0:0:0:0:
256,192,262258,1,0,0:0:0:0:
36,192,262258,1,0,0:0:0:0:
329,192,262333,1,0,0:0:0:0:
402,192,262407,1,0,0:0:0:0:
109,192,262407,1,0,0:0:0:0:
182,192,262481,1,0,0:0:0:0:
256,192,262556,1,0,0:0:0:0:
475,192,262556,1,0,0:0:0:0:
36,192,262556,1,0,0:0:0:0:
402,192,262630,1,0,0:0:0:0:
329,192,262704,1,0,0:0:0:0:
109,192,262704,1,0,0:0:0:0:
256,192,262778,1,0,0:0:0:0:
182,192,262853,1,0,0:0:0:0:
36,192,262853,1,0,0:0:0:0:
402,192,262853,1,0,0:0:0:0:
329,192,262927,1,0,0:0:0:0:
256,192,263001,1,0,0:0:0:0:
109,192,263001,1,0,0:0:0:0:
329,192,263075,1,0,0:0:0:0:
402,192,263150,1,0,0:0:0:0:
109,192,263150,1,0,0:0:0:0:
475,192,263150,1,0,0:0:0:0:
182,192,263224,1,0,0:0:0:0:
256,192,263298,1,0,0:0:0:0:
36,192,263298,1,0,0:0:0:0:
402,192,263372,1,0,0:0:0:0:
475,192,263372,1,0,0:0:0:0:
329,192,263447,1,0,0:0:0:0:
36,192,263447,1,0,0:0:0:0:
182,192,263447,1,0,0:0:0:0:
256,192,263521,1,0,0:0:0:0:
329,192,263595,1,0,0:0:0:0:
109,192,263595,1,0,0:0:0:0:
36,192,263595,1,0,0:0:0:0:
182,192,263669,1,0,0:0:0:0:
256,192,263744,1,0,0:0:0:0:
36,192,263744,1,0,0:0:0:0:
475,192,263744,1,0,0:0:0:0:
402,192,263744,1,0,0:0:0:0:
109,192,263818,1,0,0:0:0:0:
182,192,263892,1,0,0:0:0:0:
402,192,263892,1,0,0:0:0:0:
475,192,263892,1,0,0:0:0:0:
329,192,263966,1,0,0:0:0:0:
256,192,264041,1,0,0:0:0:0:
36,192,264041,1,0,0:0:0:0:
402,192,264041,1,0,0:0:0:0:
182,192,264115,1,0,0:0:0:0:
109,192,264189,1,0,0:0:0:0:
329,192,264189,1,0,0:0:0:0:
475,192,264189,1,0,0:0:0:0:
256,192,264263,1,0,0:0:0:0:
182,192,264338,1,0,0:0:0:0:
36,192,264338,1,0,0:0:0:0:
402,192,264338,1,0,0:0:0:0:
256,192,264412,1,0,0:0:0:0:
402,192,264486,1,0,0:0:0:0:
475,192,264486,1,0,0:0:0:0:
109,192,264486,1,0,0:0:0:0:
182,192,264560,1,0,0:0:0:0:
256,192,264635,1,0,0:0:0:0:
36,192,264635,1,0,0:0:0:0:
329,192,264635,1,0,0:0:0:0:
109,192,264709,1,0,0:0:0:0:
182,192,264783,1,0,0:0:0:0:
36,192,264783,1,0,0:0:0:0:
402,192,264783,1,0,0:0:0:0:
256,192,264858,1,0,0:0:0:0:
329,192,264932,1,0,0:0:0:0:
109,192,264932,1,0,0:0:0:0:
36,192,264932,1,0,0:0:0:0:
475,192,264932,1,0,0:0:0:0:
256,192,265006,1,0,0:0:0:0:
182,192,265080,1,0,0:0:0:0:
475,192,265080,1,0,0:0:0:0:
109,192,265080,1,0,0:0:0:0:
402,192,265155,1,0,0:0:0:0:
329,192,265229,1,0,0:0:0:0:
36,192,265229,1,0,0:0:0:0:
256,192,265229,1,0,0:0:0:0:
182,192,265303,1,0,0:0:0:0:
109,192,265377,1,0,0:0:0:0:
329,192,265377,1,0,0:0:0:0:
475,192,265377,1,0,0:0:0:0:
182,192,265452,1,0,0:0:0:0:
256,192,265526,1,0,0:0:0:0:
36,192,265526,1,0,0:0:0:0:
402,192,265526,1,0,0:0:0:0:
109,192,265600,1,0,0:0:0:0:
182,192,265674,1,0,0:0:0:0:
36,192,265674,1,0,0:0:0:0:
475,192,265674,1,0,0:0:0:0:
256,192,265749,1,0,0:0:0:0:
329,192,265823,1,0,0:0:0:0:
475,192,265823,1,0,0:0:0:0:
109,192,265823,1,0,0:0:0:0:
182,192,265897,1,0,0:0:0:0:
256,192,265971,1,0,0:0:0:0:
475,192,265971,1,0,0:0:0:0:
36,192,265971,1,0,0:0:0:0:
402,192,266046,1,0,0:0:0:0:
256,192,266120,1,0,0:0:0:0:
109,192,266120,1,0,0:0:0:0:
36,192,266120,1,0,0:0:0:0:
329,192,266120,1,0,0:0:0:0:
182,192,266194,1,0,0:0:0:0:
402,192,266194,1,0,0:0:0:0:
256,192,266268,1,0,0:0:0:0:
475,192,266268,1,0,0:0:0:0:
36,192,266268,1,0,0:0:0:0:
109,192,266343,1,0,0:0:0:0:
329,192,266343,1,0,0:0:0:0:
182,192,266417,1,0,0:0:0:0:
36,192,266417,1,0,0:0:0:0:
475,192,266417,1,0,0:0:0:0:
402,192,266491,1,0,0:0:0:0:
256,192,266491,1,0,0:0:0:0:
329,192,266565,1,0,0:0:0:0:
109,192,266565,1,0,0:0:0:0:
36,192,266565,1,0,0:0:0:0:
256,192,266640,1,0,0:0:0:0:
475,192,266640,1,0,0:0:0:0:
402,192,266714,1,0,0:0:0:0:
182,192,266714,1,0,0:0:0:0:
329,192,266714,1,0,0:0:0:0:
36,192,266714,1,0,0:0:0:0:
109,192,266788,1,0,0:0:0:0:
256,192,266788,1,0,0:0:0:0:
182,192,266862,1,0,0:0:0:0:
402,192,266862,1,0,0:0:0:0:
256,192,266937,1,0,0:0:0:0:
36,192,266937,1,0,0:0:0:0:
109,192,267011,1,0,0:0:0:0:
329,192,267011,1,0,0:0:0:0:
402,192,267011,1,0,0:0:0:0:
256,192,267085,1,0,0:0:0:0:
182,192,267085,1,0,0:0:0:0:
109,192,267159,1,0,0:0:0:0:
402,192,267159,1,0,0:0:0:0:
475,192,267159,1,0,0:0:0:0:
329,192,267234,1,0,0:0:0:0:
36,192,267234,1,0,0:0:0:0:
256,192,267308,1,0,0:0:0:0:
182,192,267308,1,0,0:0:0:0:
109,192,267308,1,0,0:0:0:0:
402,192,267308,1,0,0:0:0:0:
329,192,267382,1,0,0:0:0:0:
475,192,267382,1,0,0:0:0:0:
256,192,267457,1,0,0:0:0:0:
182,192,267457,1,0,0:0:0:0:
109,192,267531,1,0,0:0:0:0:
36,192,267531,1,0,0:0:0:0:
256,192,267605,1,0,0:0:0:0:
402,192,267605,1,0,0:0:0:0:
329,192,267679,1,0,0:0:0:0:
109,192,267679,1,0,0:0:0:0:
182,192,267754,1,0,0:0:0:0:
402,192,267754,1,0,0:0:0:0:
256,192,267828,1,0,0:0:0:0:
475,192,267828,1,0,0:0:0:0:
109,192,267902,1,0,0:0:0:0:
36,192,267902,1,0,0:0:0:0:
256,192,267976,1,0,0:0:0:0:
402,192,267976,1,0,0:0:0:0:
329,192,268051,1,0,0:0:0:0:
109,192,268051,1,0,0:0:0:0:
256,192,268125,1,0,0:0:0:0:
36,192,268125,1,0,0:0:0:0:
182,192,268199,1,0,0:0:0:0:
475,192,268199,1,0,0:0:0:0:
402,192,268273,1,0,0:0:0:0:
256,192,268273,1,0,0:0:0:0:
329,192,268348,1,0,0:0:0:0:
109,192,268348,1,0,0:0:0:0:
182,192,268422,1,0,0:0:0:0:
402,192,268422,1,0,0:0:0:0:
256,192,268496,1,0,0:0:0:0:
36,192,268496,1,0,0:0:0:0:
475,192,268496,1,0,0:0:0:0:
109,192,268496,1,0,0:0:0:0:
182,192,268645,1,0,0:0:0:0:
329,192,268645,1,0,0:0:0:0:
256,192,268793,1,0,0:0:0:0:
36,192,268793,1,0,0:0:0:0:
402,192,268793,1,0,0:0:0:0:
109,192,268793,1,0,0:0:0:0:
182,192,268942,1,0,0:0:0:0:
329,192,268942,1,0,0:0:0:0:
256,192,269090,1,0,0:0:0:0:
475,192,269090,1,0,0:0:0:0:
109,192,269090,1,0,0:0:0:0:
402,192,269090,1,0,0:0:0:0:
182,192,269239,1,0,0:0:0:0:
329,192,269239,1,0,0:0:0:0:
256,192,269387,1,0,0:0:0:0:
402,192,269387,1,0,0:0:0:0:
36,192,269387,1,0,0:0:0:0:
475,192,269387,1,0,0:0:0:0:
109,192,269536,1,0,0:0:0:0:
36,192,269536,1,0,0:0:0:0:
329,192,269536,1,0,0:0:0:0:
256,192,269536,1,0,0:0:0:0:
182,192,269684,1,0,0:0:0:0:
402,192,269684,1,0,0:0:0:0:
109,192,269684,1,0,0:0:0:0:
256,192,269833,1,0,0:0:0:0:
36,192,269833,1,0,0:0:0:0:
475,192,269833,1,0,0:0:0:0:
329,192,269833,1,0,0:0:0:0:
329,192,269981,1,0,0:0:0:0:
109,192,269981,1,0,0:0:0:0:
182,192,269981,1,0,0:0:0:0:
182,192,270130,1,0,0:0:0:0:
402,192,270130,1,0,0:0:0:0:
36,192,270130,1,0,0:0:0:0:
256,192,270130,1,0,0:0:0:0:
256,192,270278,1,0,0:0:0:0:
475,192,270278,1,0,0:0:0:0:
109,192,270278,1,0,0:0:0:0:
182,192,270353,1,0,0:0:0:0:
402,192,270353,1,0,0:0:0:0:
329,192,270427,1,0,0:0:0:0:
109,192,270427,1,0,0:0:0:0:
256,192,270501,1,0,0:0:0:0:
36,192,270501,1,0,0:0:0:0:
182,192,270575,1,0,0:0:0:0:
475,192,270575,1,0,0:0:0:0:
329,192,270575,1,0,0:0:0:0:
36,192,270612,1,0,0:0:0:0:
256,192,270650,1,0,0:0:0:0:
402,192,270650,1,0,0:0:0:0:
109,192,270687,1,0,0:0:0:0:
329,192,270724,1,0,0:0:0:0:
475,192,270724,1,0,0:0:0:0:
182,192,270761,1,0,0:0:0:0:
402,192,270798,1,0,0:0:0:0:
36,192,270798,1,0,0:0:0:0:
256,192,270835,1,0,0:0:0:0:
329,192,270872,1,0,0:0:0:0:
475,192,270872,1,0,0:0:0:0:
109,192,270872,1,0,0:0:0:0:
182,192,270947,1,0,0:0:0:0:
475,192,271021,1,0,0:0:0:0:
256,192,271021,1,0,0:0:0:0:
36,192,271021,1,0,0:0:0:0:
109,192,271095,1,0,0:0:0:0:
329,192,271095,1,0,0:0:0:0:
256,192,271169,1,0,0:0:0:0:
475,192,271169,1,0,0:0:0:0:
402,192,271169,1,0,0:0:0:0:
182,192,271169,1,0,0:0:0:0:
109,192,271244,1,0,0:0:0:0:
36,192,271318,1,0,0:0:0:0:
402,192,271318,1,0,0:0:0:0:
475,192,271318,1,0,0:0:0:0:
329,192,271392,1,0,0:0:0:0:
256,192,271392,1,0,0:0:0:0:
182,192,271466,1,0,0:0:0:0:
36,192,271466,1,0,0:0:0:0:
402,192,271466,1,0,0:0:0:0:
109,192,271466,1,0,0:0:0:0:
256,192,271541,1,0,0:0:0:0:
329,192,271615,1,0,0:0:0:0:
109,192,271615,1,0,0:0:0:0:
475,192,271615,1,0,0:0:0:0:
182,192,271689,1,0,0:0:0:0:
402,192,271689,1,0,0:0:0:0:
256,192,271763,1,0,0:0:0:0:
36,192,271763,1,0,0:0:0:0:
475,192,271763,1,0,0:0:0:0:
109,192,271763,1,0,0:0:0:0:
182,192,271838,1,0,0:0:0:0:
109,192,271912,1,0,0:0:0:0:
36,192,271912,1,0,0:0:0:0:
402,192,271912,1,0,0:0:0:0:
475,192,271912,1,0,0:0:0:0:
329,192,271912,1,0,0:0:0:0:
256,192,271986,1,0,0:0:0:0:
36,192,272060,1,0,0:0:0:0:
182,192,272060,1,0,0:0:0:0:
402,192,272060,1,0,0:0:0:0:
475,192,272060,1,0,0:0:0:0:
256,192,272135,1,0,0:0:0:0:
329,192,272209,1,0,0:0:0:0:
109,192,272209,1,0,0:0:0:0:
475,192,272209,1,0,0:0:0:0:
182,192,272283,1,0,0:0:0:0:
36,192,272283,1,0,0:0:0:0:
475,192,272283,1,0,0:0:0:0:
109,192,272358,1,0,0:0:0:0:
256,192,272358,1,0,0:0:0:0:
329,192,272358,1,0,0:0:0:0:
402,192,272358,1,0,0:0:0:0:
182,192,272432,1,0,0:0:0:0:
256,192,272506,1,0,0:0:0:0:
36,192,272506,1,0,0:0:0:0:
402,192,272506,1,0,0:0:0:0:
329,192,272506,1,0,0:0:0:0:
182,192,272580,1,0,0:0:0:0:
109,192,272655,1,0,0:0:0:0:
36,192,272655,1,0,0:0:0:0:
329,192,272655,1,0,0:0:0:0:
475,192,272655,1,0,0:0:0:0:
402,192,272655,1,0,0:0:0:0:
256,192,272729,1,0,0:0:0:0:
182,192,272803,1,0,0:0:0:0:
402,192,272803,1,0,0:0:0:0:
109,192,272803,1,0,0:0:0:0:
475,192,272803,1,0,0:0:0:0:
329,192,272877,1,0,0:0:0:0:
256,192,272952,1,0,0:0:0:0:
402,192,272952,1,0,0:0:0:0:
475,192,272952,1,0,0:0:0:0:
182,192,272952,1,0,0:0:0:0:
36,192,272952,1,0,0:0:0:0:
109,192,273026,1,0,0:0:0:0:
182,192,273100,1,0,0:0:0:0:
36,192,273100,1,0,0:0:0:0:
402,192,273100,1,0,0:0:0:0:
475,192,273100,1,0,0:0:0:0:
256,192,273174,1,0,0:0:0:0:
329,192,273249,1,0,0:0:0:0:
475,192,273249,1,0,0:0:0:0:
109,192,273249,1,0,0:0:0:0:
36,192,273249,1,0,0:0:0:0:
402,192,273249,1,0,0:0:0:0:
182,192,273323,1,0,0:0:0:0:
256,192,273397,1,0,0:0:0:0:
36,192,273397,1,0,0:0:0:0:
402,192,273397,1,0,0:0:0:0:
329,192,273471,1,0,0:0:0:0:
109,192,273471,1,0,0:0:0:0:
182,192,273546,1,0,0:0:0:0:
36,192,273546,1,0,0:0:0:0:
402,192,273546,1,0,0:0:0:0:
475,192,273546,1,0,0:0:0:0:
256,192,273620,1,0,0:0:0:0:
329,192,273694,1,0,0:0:0:0:
475,192,273694,1,0,0:0:0:0:
109,192,273694,1,0,0:0:0:0:
402,192,273768,1,0,0:0:0:0:
256,192,273768,1,0,0:0:0:0:
182,192,273843,1,0,0:0:0:0:
36,192,273843,1,0,0:0:0:0:
329,192,273843,1,0,0:0:0:0:
475,192,273843,1,0,0:0:0:0:
256,192,273917,1,0,0:0:0:0:
329,192,273991,1,0,0:0:0:0:
182,192,273991,1,0,0:0:0:0:
256,192,274065,1,0,0:0:0:0:
109,192,274065,1,0,0:0:0:0:
182,192,274140,1,0,0:0:0:0:
36,192,274140,1,0,0:0:0:0:
402,192,274140,1,0,0:0:0:0:
475,192,274140,1,0,0:0:0:0:
329,192,274214,1,0,0:0:0:0:
256,192,274288,1,0,0:0:0:0:
36,192,274288,1,0,0:0:0:0:
109,192,274288,1,0,0:0:0:0:
475,192,274288,1,0,0:0:0:0:
402,192,274288,1,0,0:0:0:0:
182,192,274362,1,0,0:0:0:0:
256,192,274437,1,0,0:0:0:0:
36,192,274437,1,0,0:0:0:0:
402,192,274437,1,0,0:0:0:0:
329,192,274437,1,0,0:0:0:0:
109,192,274511,1,0,0:0:0:0:
182,192,274585,1,0,0:0:0:0:
36,192,274585,1,0,0:0:0:0:
475,192,274585,1,0,0:0:0:0:
256,192,274659,1,0,0:0:0:0:
402,192,274659,1,0,0:0:0:0:
36,192,274659,1,0,0:0:0:0:
475,192,274734,1,0,0:0:0:0:
329,192,274734,1,0,0:0:0:0:
109,192,274734,1,0,0:0:0:0:
182,192,274734,1,0,0:0:0:0:
256,192,274808,1,0,0:0:0:0:
36,192,274882,1,0,0:0:0:0:
182,192,274882,1,0,0:0:0:0:
402,192,274882,1,0,0:0:0:0:
109,192,274882,1,0,0:0:0:0:
329,192,274957,1,0,0:0:0:0:
256,192,275031,1,0,0:0:0:0:
109,192,275031,1,0,0:0:0:0:
475,192,275031,1,0,0:0:0:0:
402,192,275031,1,0,0:0:0:0:
36,192,275031,1,0,0:0:0:0:
182,192,275105,1,0,0:0:0:0:
256,192,275179,1,0,0:0:0:0:
475,192,275179,1,0,0:0:0:0:
36,192,275179,1,0,0:0:0:0:
109,192,275179,1,0,0:0:0:0:
329,192,275254,1,0,0:0:0:0:
402,192,275328,1,0,0:0:0:0:
475,192,275328,1,0,0:0:0:0:
182,192,275328,1,0,0:0:0:0:
109,192,275328,1,0,0:0:0:0:
36,192,275328,1,0,0:0:0:0:
256,192,275402,1,0,0:0:0:0:
329,192,275476,1,0,0:0:0:0:
109,192,275476,1,0,0:0:0:0:
475,192,275476,1,0,0:0:0:0:
402,192,275476,1,0,0:0:0:0:
182,192,275551,1,0,0:0:0:0:
109,192,275625,1,0,0:0:0:0:
36,192,275625,1,0,0:0:0:0:
329,192,275625,1,0,0:0:0:0:
475,192,275625,1,0,0:0:0:0:
402,192,275625,1,0,0:0:0:0:
182,192,275699,1,0,0:0:0:0:
256,192,275773,1,0,0:0:0:0:
402,192,275773,1,0,0:0:0:0:
36,192,275773,1,0,0:0:0:0:
109,192,275848,1,0,0:0:0:0:
329,192,275848,1,0,0:0:0:0:
182,192,275922,1,0,0:0:0:0:
36,192,275922,1,0,0:0:0:0:
475,192,275922,1,0,0:0:0:0:
256,192,275922,1,0,0:0:0:0:
402,192,275996,1,0,0:0:0:0:
329,192,276070,1,0,0:0:0:0:
182,192,276070,1,0,0:0:0:0:
475,192,276070,1,0,0:0:0:0:
256,192,276145,1,0,0:0:0:0:
109,192,276145,1,0,0:0:0:0:
182,192,276219,1,0,0:0:0:0:
36,192,276219,1,0,0:0:0:0:
402,192,276219,1,0,0:0:0:0:
475,192,276219,1,0,0:0:0:0:
256,192,276293,1,0,0:0:0:0:
109,192,276367,1,0,0:0:0:0:
329,192,276367,1,0,0:0:0:0:
402,192,276367,1,0,0:0:0:0:
182,192,276442,1,0,0:0:0:0:
475,192,276442,1,0,0:0:0:0:
256,192,276516,1,0,0:0:0:0:
329,192,276516,1,0,0:0:0:0:
109,192,276516,1,0,0:0:0:0:
36,192,276516,1,0,0:0:0:0:
182,192,276590,1,0,0:0:0:0:
109,192,276664,1,0,0:0:0:0:
402,192,276664,1,0,0:0:0:0:
475,192,276664,1,0,0:0:0:0:
329,192,276664,1,0,0:0:0:0:
256,192,276664,1,0,0:0:0:0:
36,192,276739,1,0,0:0:0:0:
182,192,276813,1,0,0:0:0:0:
475,192,276813,1,0,0:0:0:0:
256,192,276813,1,0,0:0:0:0:
109,192,276813,1,0,0:0:0:0:
329,192,276887,1,0,0:0:0:0:
402,192,276961,1,0,0:0:0:0:
182,192,276961,1,0,0:0:0:0:
36,192,276961,1,0,0:0:0:0:
256,192,277036,1,0,0:0:0:0:
402,192,277036,1,0,0:0:0:0:
109,192,277036,1,0,0:0:0:0:
329,192,277110,1,0,0:0:0:0:
475,192,277110,1,0,0:0:0:0:
182,192,277110,1,0,0:0:0:0:
36,192,277110,1,0,0:0:0:0:
256,192,277184,1,0,0:0:0:0:
329,192,277258,1,0,0:0:0:0:
109,192,277258,1,0,0:0:0:0:
36,192,277258,1,0,0:0:0:0:
402,192,277258,1,0,0:0:0:0:
182,192,277333,1,0,0:0:0:0:
256,192,277407,1,0,0:0:0:0:
36,192,277407,1,0,0:0:0:0:
475,192,277407,1,0,0:0:0:0:
402,192,277407,1,0,0:0:0:0:
329,192,277407,1,0,0:0:0:0:
182,192,277481,1,0,0:0:0:0:
109,192,277556,1,0,0:0:0:0:
256,192,277556,1,0,0:0:0:0:
36,192,277556,1,0,0:0:0:0:
402,192,277556,1,0,0:0:0:0:
329,192,277630,1,0,0:0:0:0:
256,192,277704,1,0,0:0:0:0:
182,192,277704,1,0,0:0:0:0:
109,192,277704,1,0,0:0:0:0:
475,192,277704,1,0,0:0:0:0:
36,192,277704,1,0,0:0:0:0:
329,192,277778,1,0,0:0:0:0:
402,192,277853,1,0,0:0:0:0:
475,192,277853,1,0,0:0:0:0:
109,192,277853,1,0,0:0:0:0:
182,192,277853,1,0,0:0:0:0:
256,192,277927,1,0,0:0:0:0:
329,192,278001,1,0,0:0:0:0:
109,192,278001,1,0,0:0:0:0:
36,192,278001,1,0,0:0:0:0:
402,192,278001,1,0,0:0:0:0:
475,192,278001,1,0,0:0:0:0:
182,192,278075,1,0,0:0:0:0:
256,192,278150,1,0,0:0:0:0:
36,192,278150,1,0,0:0:0:0:
402,192,278150,1,0,0:0:0:0:
329,192,278224,1,0,0:0:0:0:
182,192,278224,1,0,0:0:0:0:
256,192,278298,1,0,0:0:0:0:
109,192,278298,1,0,0:0:0:0:
36,192,278298,1,0,0:0:0:0:
475,192,278298,1,0,0:0:0:0:
402,192,278372,1,0,0:0:0:0:
329,192,278447,1,0,0:0:0:0:
182,192,278447,1,0,0:0:0:0:
36,192,278447,1,0,0:0:0:0:
256,192,278521,1,0,0:0:0:0:
109,192,278521,1,0,0:0:0:0:
182,192,278595,1,0,0:0:0:0:
329,192,278595,1,0,0:0:0:0:
402,192,278595,1,0,0:0:0:0:
475,192,278595,1,0,0:0:0:0:
256,192,278669,1,0,0:0:0:0:
329,192,278744,1,0,0:0:0:0:
36,192,278744,1,0,0:0:0:0:
109,192,278744,1,0,0:0:0:0:
256,192,278818,1,0,0:0:0:0:
475,192,278818,1,0,0:0:0:0:
402,192,278892,1,0,0:0:0:0:
182,192,278892,1,0,0:0:0:0:
109,192,278892,1,0,0:0:0:0:
329,192,278892,1,0,0:0:0:0:
256,192,278966,1,0,0:0:0:0:
329,192,279041,1,0,0:0:0:0:
36,192,279041,1,0,0:0:0:0:
109,192,279041,1,0,0:0:0:0:
402,192,279041,1,0,0:0:0:0:
475,192,279041,1,0,0:0:0:0:
182,192,279115,1,0,0:0:0:0:
256,192,279189,1,0,0:0:0:0:
36,192,279189,1,0,0:0:0:0:
402,192,279189,1,0,0:0:0:0:
329,192,279189,1,0,0:0:0:0:
109,192,279263,1,0,0:0:0:0:
182,192,279338,1,0,0:0:0:0:
36,192,279338,1,0,0:0:0:0:
402,192,279338,1,0,0:0:0:0:
402,192,279412,1,0,0:0:0:0:
256,192,279412,1,0,0:0:0:0:
109,192,279412,1,0,0:0:0:0:
182,192,279486,1,0,0:0:0:0:
329,192,279486,1,0,0:0:0:0:
475,192,279486,1,0,0:0:0:0:
36,192,279486,1,0,0:0:0:0:
256,192,279560,1,0,0:0:0:0:
329,192,279635,1,0,0:0:0:0:
109,192,279635,1,0,0:0:0:0:
36,192,279635,1,0,0:0:0:0:
402,192,279635,1,0,0:0:0:0:
182,192,279709,1,0,0:0:0:0:
256,192,279783,1,0,0:0:0:0:
36,192,279783,1,0,0:0:0:0:
475,192,279783,1,0,0:0:0:0:
402,192,279783,1,0,0:0:0:0:
329,192,279783,1,0,0:0:0:0:
182,192,279858,1,0,0:0:0:0:
109,192,279932,1,0,0:0:0:0:
329,192,279932,1,0,0:0:0:0:
475,192,279932,1,0,0:0:0:0:
402,192,279932,1,0,0:0:0:0:
256,192,280006,1,0,0:0:0:0:
182,192,280080,1,0,0:0:0:0:
109,192,280080,1,0,0:0:0:0:
36,192,280080,1,0,0:0:0:0:
475,192,280080,1,0,0:0:0:0:
402,192,280080,1,0,0:0:0:0:
329,192,280155,1,0,0:0:0:0:
256,192,280229,1,0,0:0:0:0:
182,192,280229,1,0,0:0:0:0:
36,192,280229,1,0,0:0:0:0:
475,192,280229,1,0,0:0:0:0:
109,192,280303,1,0,0:0:0:0:
256,192,280377,1,0,0:0:0:0:
36,192,280377,1,0,0:0:0:0:
402,192,280377,1,0,0:0:0:0:
475,192,280377,1,0,0:0:0:0:
329,192,280377,1,0,0:0:0:0:
182,192,280452,1,0,0:0:0:0:
109,192,280526,1,0,0:0:0:0:
329,192,280526,1,0,0:0:0:0:
475,192,280526,1,0,0:0:0:0:
256,192,280600,1,0,0:0:0:0:
402,192,280600,1,0,0:0:0:0:
182,192,280674,1,0,0:0:0:0:
36,192,280674,1,0,0:0:0:0:
329,192,280674,1,0,0:0:0:0:
475,192,280674,1,0,0:0:0:0:
109,192,280749,1,0,0:0:0:0:
182,192,280823,1,0,0:0:0:0:
329,192,280823,1,0,0:0:0:0:
475,192,280823,1,0,0:0:0:0:
256,192,280897,1,0,0:0:0:0:
402,192,280897,1,0,0:0:0:0:
329,192,280971,1,0,0:0:0:0:
475,192,280971,1,0,0:0:0:0:
109,192,280971,1,0,0:0:0:0:
36,192,280971,1,0,0:0:0:0:
182,192,281046,1,0,0:0:0:0:
36,192,281120,1,0,0:0:0:0:
256,192,281120,1,0,0:0:0:0:
402,192,281120,1,0,0:0:0:0:
329,192,281194,1,0,0:0:0:0:
109,192,281194,1,0,0:0:0:0:
182,192,281268,1,0,0:0:0:0:
36,192,281268,1,0,0:0:0:0:
256,192,281268,1,0,0:0:0:0:
475,192,281268,1,0,0:0:0:0:
402,192,281343,1,0,0:0:0:0:
329,192,281417,1,0,0:0:0:0:
109,192,281417,1,0,0:0:0:0:
475,192,281417,1,0,0:0:0:0:
36,192,281417,1,0,0:0:0:0:
256,192,281417,1,0,0:0:0:0:
182,192,281491,1,0,0:0:0:0:
109,192,281565,1,0,0:0:0:0:
329,192,281565,1,0,0:0:0:0:
475,192,281565,1,0,0:0:0:0:
402,192,281565,1,0,0:0:0:0:
256,192,281640,1,0,0:0:0:0:
182,192,281714,1,0,0:0:0:0:
36,192,281714,1,0,0:0:0:0:
402,192,281714,1,0,0:0:0:0:
182,192,281788,1,0,0:0:0:0:
256,192,281788,1,0,0:0:0:0:
475,192,281788,1,0,0:0:0:0:
329,192,281862,1,0,0:0:0:0:
402,192,281862,1,0,0:0:0:0:
109,192,281862,1,0,0:0:0:0:
36,192,281862,1,0,0:0:0:0:
256,192,281937,1,0,0:0:0:0:
182,192,282011,1,0,0:0:0:0:
36,192,282011,1,0,0:0:0:0:
402,192,282011,1,0,0:0:0:0:
475,192,282011,1,0,0:0:0:0:
329,192,282085,1,0,0:0:0:0:
256,192,282159,1,0,0:0:0:0:
109,192,282159,1,0,0:0:0:0:
36,192,282159,1,0,0:0:0:0:
475,192,282159,1,0,0:0:0:0:
402,192,282159,1,0,0:0:0:0:
182,192,282234,1,0,0:0:0:0:
109,192,282308,1,0,0:0:0:0:
329,192,282308,1,0,0:0:0:0:
475,192,282308,1,0,0:0:0:0:
402,192,282308,1,0,0:0:0:0:
256,192,282382,1,0,0:0:0:0:
329,192,282457,1,0,0:0:0:0:
182,192,282457,1,0,0:0:0:0:
36,192,282457,1,0,0:0:0:0:
402,192,282457,1,0,0:0:0:0:
475,192,282457,1,0,0:0:0:0:
109,192,282531,1,0,0:0:0:0:
182,192,282605,1,0,0:0:0:0:
402,192,282605,1,0,0:0:0:0:
475,192,282605,1,0,0:0:0:0:
256,192,282605,1,0,0:0:0:0:
329,192,282679,1,0,0:0:0:0:
402,192,282754,1,0,0:0:0:0:
182,192,282754,1,0,0:0:0:0:
36,192,282754,1,0,0:0:0:0:
109,192,282754,1,0,0:0:0:0:
256,192,282754,1,0,0:0:0:0:
329,192,282828,1,0,0:0:0:0:
256,192,282902,1,0,0:0:0:0:
475,192,282902,1,0,0:0:0:0:
109,192,282902,1,0,0:0:0:0:
182,192,282976,1,0,0:0:0:0:
36,192,282976,1,0,0:0:0:0:
109,192,283051,1,0,0:0:0:0:
329,192,283051,1,0,0:0:0:0:
475,192,283051,1,0,0:0:0:0:
402,192,283051,1,0,0:0:0:0:
182,192,283125,1,0,0:0:0:0:
256,192,283199,1,0,0:0:0:0:
36,192,283199,1,0,0:0:0:0:
329,192,283199,1,0,0:0:0:0:
182,192,283273,1,0,0:0:0:0:
475,192,283273,1,0,0:0:0:0:
402,192,283348,1,0,0:0:0:0:
109,192,283348,1,0,0:0:0:0:
329,192,283348,1,0,0:0:0:0:
256,192,283348,1,0,0:0:0:0:
182,192,283422,1,0,0:0:0:0:
256,192,283496,1,0,0:0:0:0:
329,192,283496,1,0,0:0:0:0:
36,192,283496,1,0,0:0:0:0:
109,192,283570,1,0,0:0:0:0:
402,192,283570,1,0,0:0:0:0:
182,192,283645,1,0,0:0:0:0:
36,192,283645,1,0,0:0:0:0:
475,192,283645,1,0,0:0:0:0:
256,192,283645,1,0,0:0:0:0:
329,192,283719,1,0,0:0:0:0:
402,192,283793,1,0,0:0:0:0:
256,192,283793,1,0,0:0:0:0:
182,192,283793,1,0,0:0:0:0:
36,192,283793,1,0,0:0:0:0:
475,192,283793,1,0,0:0:0:0:
109,192,283867,1,0,0:0:0:0:
182,192,283942,1,0,0:0:0:0:
36,192,283942,1,0,0:0:0:0:
475,192,283942,1,0,0:0:0:0:
329,192,283942,1,0,0:0:0:0:
256,192,284016,1,0,0:0:0:0:
182,192,284090,1,0,0:0:0:0:
475,192,284090,1,0,0:0:0:0:
402,192,284090,1,0,0:0:0:0:
329,192,284164,1,0,0:0:0:0:
475,192,284164,1,0,0:0:0:0:
109,192,284164,1,0,0:0:0:0:
256,192,284239,1,0,0:0:0:0:
182,192,284239,1,0,0:0:0:0:
36,192,284239,1,0,0:0:0:0:
402,192,284239,1,0,0:0:0:0:
329,192,284313,1,0,0:0:0:0:
402,192,284387,1,0,0:0:0:0:
182,192,284387,1,0,0:0:0:0:
36,192,284387,1,0,0:0:0:0:
109,192,284387,1,0,0:0:0:0:
256,192,284461,1,0,0:0:0:0:
402,192,284536,1,0,0:0:0:0:
329,192,284536,1,0,0:0:0:0:
36,192,284536,1,0,0:0:0:0:
475,192,284536,1,0,0:0:0:0:
182,192,284536,1,0,0:0:0:0:
109,192,284610,1,0,0:0:0:0:
329,192,284684,1,0,0:0:0:0:
475,192,284684,1,0,0:0:0:0:
182,192,284684,1,0,0:0:0:0:
36,192,284684,1,0,0:0:0:0:
402,192,284758,1,0,0:0:0:0:
329,192,284833,1,0,0:0:0:0:
182,192,284833,1,0,0:0:0:0:
109,192,284833,1,0,0:0:0:0:
36,192,284833,1,0,0:0:0:0:
475,192,284833,1,0,0:0:0:0:
256,192,284907,1,0,0:0:0:0:
182,192,284981,1,0,0:0:0:0:
402,192,284981,1,0,0:0:0:0:
475,192,284981,1,0,0:0:0:0:
329,192,284981,1,0,0:0:0:0:
109,192,285056,1,0,0:0:0:0:
36,192,285130,1,0,0:0:0:0:
256,192,285130,1,0,0:0:0:0:
475,192,285130,1,0,0:0:0:0:
182,192,285130,1,0,0:0:0:0:
402,192,285130,1,0,0:0:0:0:
329,192,285204,1,0,0:0:0:0:
402,192,285278,1,0,0:0:0:0:
182,192,285278,1,0,0:0:0:0:
36,192,285278,1,0,0:0:0:0:
256,192,285353,1,0,0:0:0:0:
109,192,285353,1,0,0:0:0:0:
182,192,285427,1,0,0:0:0:0:
329,192,285427,1,0,0:0:0:0:
402,192,285427,1,0,0:0:0:0:
475,192,285427,1,0,0:0:0:0:
256,192,285501,1,0,0:0:0:0:
329,192,285575,1,0,0:0:0:0:
109,192,285575,1,0,0:0:0:0:
475,192,285575,1,0,0:0:0:0:
402,192,285650,1,0,0:0:0:0:
182,192,285650,1,0,0:0:0:0:
256,192,285724,1,0,0:0:0:0:
475,192,285724,1,0,0:0:0:0:
109,192,285724,1,0,0:0:0:0:
36,192,285724,1,0,0:0:0:0:
182,192,285798,1,0,0:0:0:0:
256,192,285872,1,0,0:0:0:0:
36,192,285872,1,0,0:0:0:0:
402,192,285872,1,0,0:0:0:0:
329,192,285947,1,0,0:0:0:0:
182,192,285947,1,0,0:0:0:0:
256,192,286021,1,0,0:0:0:0:
109,192,286021,1,0,0:0:0:0:
475,192,286021,1,0,0:0:0:0:
402,192,286021,1,0,0:0:0:0:
182,192,286095,1,0,0:0:0:0:
109,192,286169,1,0,0:0:0:0:
329,192,286169,1,0,0:0:0:0:
475,192,286169,1,0,0:0:0:0:
36,192,286169,1,0,0:0:0:0:
402,192,286169,1,0,0:0:0:0:
256,192,286244,1,0,0:0:0:0:
182,192,286318,1,0,0:0:0:0:
36,192,286318,1,0,0:0:0:0:
402,192,286318,1,0,0:0:0:0:
475,192,286318,1,0,0:0:0:0:
256,192,286392,1,0,0:0:0:0:
329,192,286466,1,0,0:0:0:0:
109,192,286466,1,0,0:0:0:0:
475,192,286466,1,0,0:0:0:0:
182,192,286541,1,0,0:0:0:0:
402,192,286541,1,0,0:0:0:0:
109,192,286541,1,0,0:0:0:0:
256,192,286615,1,0,0:0:0:0:
36,192,286615,1,0,0:0:0:0:
329,192,286615,1,0,0:0:0:0:
475,192,286615,1,0,0:0:0:0:
182,192,286689,1,0,0:0:0:0:
109,192,286763,1,0,0:0:0:0:
329,192,286763,1,0,0:0:0:0:
475,192,286763,1,0,0:0:0:0:
402,192,286763,1,0,0:0:0:0:
256,192,286838,1,0,0:0:0:0:
182,192,286912,1,0,0:0:0:0:
36,192,286912,1,0,0:0:0:0:
402,192,286912,1,0,0:0:0:0:
475,192,286912,1,0,0:0:0:0:
329,192,286912,1,0,0:0:0:0:
256,192,286986,1,0,0:0:0:0:
329,192,287060,1,0,0:0:0:0:
109,192,287060,1,0,0:0:0:0:
36,192,287060,1,0,0:0:0:0:
402,192,287060,1,0,0:0:0:0:
182,192,287135,1,0,0:0:0:0:
256,192,287209,1,0,0:0:0:0:
36,192,287209,1,0,0:0:0:0:
402,192,287209,1,0,0:0:0:0:
329,192,287209,1,0,0:0:0:0:
475,192,287209,1,0,0:0:0:0:
109,192,287283,1,0,0:0:0:0:
182,192,287358,1,0,0:0:0:0:
36,192,287358,1,0,0:0:0:0:
256,192,287358,1,0,0:0:0:0:
475,192,287358,1,0,0:0:0:0:
402,192,287432,1,0,0:0:0:0:
329,192,287506,1,0,0:0:0:0:
109,192,287506,1,0,0:0:0:0:
36,192,287506,1,0,0:0:0:0:
475,192,287506,1,0,0:0:0:0:
256,192,287506,1,0,0:0:0:0:
182,192,287580,1,0,0:0:0:0:
109,192,287655,1,0,0:0:0:0:
329,192,287655,1,0,0:0:0:0:
475,192,287655,1,0,0:0:0:0:
402,192,287729,1,0,0:0:0:0:
256,192,287729,1,0,0:0:0:0:
329,192,287803,1,0,0:0:0:0:
182,192,287803,1,0,0:0:0:0:
36,192,287803,1,0,0:0:0:0:
475,192,287803,1,0,0:0:0:0:
256,192,287877,1,0,0:0:0:0:
329,192,287952,1,0,0:0:0:0:
109,192,287952,1,0,0:0:0:0:
36,192,287952,1,0,0:0:0:0:
182,192,288026,1,0,0:0:0:0:
402,192,288026,1,0,0:0:0:0:
256,192,288100,5,0,0:0:0:0:
475,192,288100,1,0,0:0:0:0:
36,192,288100,1,0,0:0:0:0:
329,192,288100,1,0,0:0:0:0:
109,192,288174,1,0,0:0:0:0:
182,192,288249,1,0,0:0:0:0:
402,192,288249,1,0,0:0:0:0:
329,192,288249,1,0,0:0:0:0:
256,192,288323,1,0,0:0:0:0:
109,192,288323,1,0,0:0:0:0:
182,192,288397,1,0,0:0:0:0:
36,192,288397,1,0,0:0:0:0:
475,192,288397,1,0,0:0:0:0:
402,192,288397,1,0,0:0:0:0:
329,192,288471,1,0,0:0:0:0:
256,192,288546,1,0,0:0:0:0:
475,192,288546,1,0,0:0:0:0:
402,192,288546,1,0,0:0:0:0:
109,192,288546,1,0,0:0:0:0:
36,192,288546,1,0,0:0:0:0:
182,192,288620,1,0,0:0:0:0:
256,192,288694,1,0,0:0:0:0:
36,192,288694,1,0,0:0:0:0:
402,192,288694,1,0,0:0:0:0:
329,192,288694,1,0,0:0:0:0:
109,192,288768,1,0,0:0:0:0:
182,192,288843,1,0,0:0:0:0:
329,192,288843,1,0,0:0:0:0:
402,192,288843,1,0,0:0:0:0:
256,192,288917,1,0,0:0:0:0:
109,192,288917,1,0,0:0:0:0:
402,192,288917,1,0,0:0:0:0:
182,192,288991,1,0,0:0:0:0:
329,192,288991,1,0,0:0:0:0:
475,192,288991,1,0,0:0:0:0:
36,192,288991,1,0,0:0:0:0:
256,192,289065,1,0,0:0:0:0:
329,192,289140,1,0,0:0:0:0:
109,192,289140,1,0,0:0:0:0:
36,192,289140,1,0,0:0:0:0:
402,192,289140,1,0,0:0:0:0:
182,192,289214,1,0,0:0:0:0:
256,192,289288,5,0,0:0:0:0:
36,192,289288,1,0,0:0:0:0:
329,192,289288,128,0,289437:0:0:0:0:
109,192,289362,1,0,0:0:0:0:
475,192,289437,128,0,289511:0:0:0:0:
182,192,289437,1,0,0:0:0:0:
256,192,289437,1,0,0:0:0:0:
329,192,289511,128,0,289585:0:0:0:0:
109,192,289511,1,0,0:0:0:0:
402,192,289585,128,0,289734:0:0:0:0:
36,192,289585,1,0,0:0:0:0:
256,192,289585,1,0,0:0:0:0:
182,192,289659,1,0,0:0:0:0:
329,192,289734,128,0,289882:0:0:0:0:
109,192,289734,1,0,0:0:0:0:
36,192,289734,1,0,0:0:0:0:
182,192,289808,1,0,0:0:0:0:
256,192,289882,1,0,0:0:0:0:
36,192,289882,1,0,0:0:0:0:
475,192,289882,1,0,0:0:0:0:
402,192,289882,1,0,0:0:0:0:
109,192,289882,1,0,0:0:0:0:
256,192,290031,1,0,0:0:0:0:
182,192,290031,1,0,0:0:0:0:
109,192,290031,1,0,0:0:0:0:
36,192,290031,1,0,0:0:0:0:
402,192,290031,1,0,0:0:0:0:
329,192,290179,1,0,0:0:0:0:
402,192,290179,1,0,0:0:0:0:
475,192,290179,1,0,0:0:0:0:
256,192,290179,1,0,0:0:0:0:
36,192,290179,1,0,0:0:0:0:
109,192,290179,1,0,0:0:0:0:
182,192,290254,1,0,0:0:0:0:
256,192,290328,1,0,0:0:0:0:
402,192,290328,1,0,0:0:0:0:
36,192,290328,1,0,0:0:0:0:
109,192,290402,1,0,0:0:0:0:
182,192,290476,1,0,0:0:0:0:
329,192,290476,1,0,0:0:0:0:
475,192,290476,1,0,0:0:0:0:
402,192,290476,1,0,0:0:0:0:
36,192,290476,1,0,0:0:0:0:
256,192,290551,1,0,0:0:0:0:
109,192,290625,1,0,0:0:0:0:
475,192,290625,1,0,0:0:0:0:
402,192,290625,1,0,0:0:0:0:
329,192,290625,1,0,0:0:0:0:
256,192,290699,1,0,0:0:0:0:
182,192,290773,1,0,0:0:0:0:
109,192,290773,1,0,0:0:0:0:
36,192,290773,1,0,0:0:0:0:
402,192,290773,1,0,0:0:0:0:
475,192,290773,1,0,0:0:0:0:
329,192,290848,1,0,0:0:0:0:
256,192,290922,1,0,0:0:0:0:
402,192,290922,1,0,0:0:0:0:
109,192,290922,1,0,0:0:0:0:
36,192,290922,1,0,0:0:0:0:
182,192,290996,1,0,0:0:0:0:
109,192,291070,1,0,0:0:0:0:
402,192,291070,1,0,0:0:0:0:
475,192,291070,1,0,0:0:0:0:
256,192,291070,1,0,0:0:0:0:
329,192,291145,1,0,0:0:0:0:
402,192,291219,1,0,0:0:0:0:
182,192,291219,1,0,0:0:0:0:
109,192,291219,1,0,0:0:0:0:
256,192,291293,1,0,0:0:0:0:
329,192,291367,1,0,0:0:0:0:
36,192,291367,1,0,0:0:0:0:
475,192,291367,1,0,0:0:0:0:
402,192,291367,1,0,0:0:0:0:
182,192,291442,1,0,0:0:0:0:
109,192,291516,1,0,0:0:0:0:
402,192,291516,1,0,0:0:0:0:
329,192,291516,1,0,0:0:0:0:
256,192,291590,1,0,0:0:0:0:
36,192,291590,1,0,0:0:0:0:
182,192,291664,1,0,0:0:0:0:
475,192,291664,1,0,0:0:0:0:
402,192,291664,1,0,0:0:0:0:
329,192,291664,1,0,0:0:0:0:
256,192,291739,1,0,0:0:0:0:
329,192,291813,1,0,0:0:0:0:
36,192,291813,1,0,0:0:0:0:
109,192,291813,1,0,0:0:0:0:
402,192,291862,1,0,0:0:0:0:
182,192,291887,1,0,0:0:0:0:
475,192,291912,1,0,0:0:0:0:
256,192,291961,1,0,0:0:0:0:
36,192,291961,1,0,0:0:0:0:
109,192,291961,1,0,0:0:0:0:
329,192,291961,1,0,0:0:0:0:
402,192,292036,1,0,0:0:0:0:
475,192,292110,1,0,0:0:0:0:
36,192,292110,1,0,0:0:0:0:
256,192,292110,1,0,0:0:0:0:
109,192,292110,1,0,0:0:0:0:
182,192,292184,1,0,0:0:0:0:
109,192,292258,1,0,0:0:0:0:
402,192,292258,1,0,0:0:0:0:
475,192,292258,1,0,0:0:0:0:
329,192,292258,1,0,0:0:0:0:
36,192,292258,1,0,0:0:0:0:
256,192,292333,1,0,0:0:0:0:
182,192,292407,1,0,0:0:0:0:
36,192,292407,1,0,0:0:0:0:
402,192,292407,1,0,0:0:0:0:
475,192,292407,1,0,0:0:0:0:
256,192,292481,1,0,0:0:0:0:
329,192,292556,1,0,0:0:0:0:
109,192,292556,1,0,0:0:0:0:
36,192,292556,1,0,0:0:0:0:
475,192,292556,1,0,0:0:0:0:
182,192,292630,1,0,0:0:0:0:
402,192,292630,1,0,0:0:0:0:
256,192,292704,1,0,0:0:0:0:
475,192,292704,1,0,0:0:0:0:
36,192,292704,1,0,0:0:0:0:
109,192,292778,1,0,0:0:0:0:
402,192,292778,1,0,0:0:0:0:
329,192,292853,1,0,0:0:0:0:
182,192,292853,1,0,0:0:0:0:
36,192,292853,1,0,0:0:0:0:
475,192,292853,1,0,0:0:0:0:
256,192,292927,1,0,0:0:0:0:
109,192,292927,1,0,0:0:0:0:
182,192,293001,1,0,0:0:0:0:
475,192,293001,1,0,0:0:0:0:
402,192,293001,1,0,0:0:0:0:
329,192,293075,1,0,0:0:0:0:
109,192,293075,1,0,0:0:0:0:
256,192,293150,1,0,0:0:0:0:
402,192,293150,1,0,0:0:0:0:
182,192,293150,1,0,0:0:0:0:
36,192,293150,1,0,0:0:0:0:
109,192,293224,1,0,0:0:0:0:
329,192,293224,1,0,0:0:0:0:
402,192,293298,1,0,0:0:0:0:
475,192,293298,1,0,0:0:0:0:
256,192,293298,1,0,0:0:0:0:
329,192,293372,1,0,0:0:0:0:
182,192,293372,1,0,0:0:0:0:
256,192,293447,1,0,0:0:0:0:
109,192,293447,1,0,0:0:0:0:
36,192,293447,1,0,0:0:0:0:
475,192,293447,1,0,0:0:0:0:
402,192,293447,1,0,0:0:0:0:
329,192,293521,1,0,0:0:0:0:
109,192,293595,1,0,0:0:0:0:
36,192,293595,1,0,0:0:0:0:
182,192,293595,1,0,0:0:0:0:
402,192,293595,1,0,0:0:0:0:
475,192,293595,1,0,0:0:0:0:
256,192,293669,1,0,0:0:0:0:
475,192,293744,1,0,0:0:0:0:
36,192,293744,1,0,0:0:0:0:
329,192,293744,1,0,0:0:0:0:
182,192,293744,1,0,0:0:0:0:
109,192,293818,1,0,0:0:0:0:
256,192,293818,1,0,0:0:0:0:
182,192,293892,1,0,0:0:0:0:
329,192,293892,1,0,0:0:0:0:
475,192,293892,1,0,0:0:0:0:
402,192,293966,1,0,0:0:0:0:
256,192,293966,1,0,0:0:0:0:
329,192,294041,1,0,0:0:0:0:
109,192,294041,1,0,0:0:0:0:
36,192,294041,1,0,0:0:0:0:
182,192,294041,1,0,0:0:0:0:
256,192,294115,1,0,0:0:0:0:
402,192,294115,1,0,0:0:0:0:
329,192,294189,1,0,0:0:0:0:
182,192,294189,1,0,0:0:0:0:
36,192,294189,1,0,0:0:0:0:
109,192,294263,1,0,0:0:0:0:
256,192,294263,1,0,0:0:0:0:
182,192,294338,1,0,0:0:0:0:
402,192,294338,1,0,0:0:0:0:
475,192,294338,1,0,0:0:0:0:
329,192,294338,1,0,0:0:0:0:
36,192,294338,1,0,0:0:0:0:
256,192,294412,1,0,0:0:0:0:
329,192,294486,1,0,0:0:0:0:
109,192,294486,1,0,0:0:0:0:
36,192,294486,1,0,0:0:0:0:
402,192,294486,1,0,0:0:0:0:
182,192,294486,1,0,0:0:0:0:
256,192,294560,1,0,0:0:0:0:
182,192,294635,1,0,0:0:0:0:
36,192,294635,1,0,0:0:0:0:
475,192,294635,1,0,0:0:0:0:
402,192,294635,1,0,0:0:0:0:
329,192,294635,1,0,0:0:0:0:
256,192,294709,1,0,0:0:0:0:
329,192,294783,1,0,0:0:0:0:
36,192,294783,1,0,0:0:0:0:
109,192,294783,1,0,0:0:0:0:
182,192,294858,1,0,0:0:0:0:
109,192,294858,1,0,0:0:0:0:
402,192,294858,1,0,0:0:0:0:
256,192,294932,1,0,0:0:0:0:
475,192,294932,1,0,0:0:0:0:
36,192,294932,1,0,0:0:0:0:
329,192,294932,1,0,0:0:0:0:
182,192,295006,1,0,0:0:0:0:
109,192,295080,1,0,0:0:0:0:
402,192,295080,1,0,0:0:0:0:
475,192,295080,1,0,0:0:0:0:
329,192,295080,1,0,0:0:0:0:
256,192,295155,1,0,0:0:0:0:
182,192,295229,1,0,0:0:0:0:
36,192,295229,1,0,0:0:0:0:
402,192,295229,1,0,0:0:0:0:
329,192,295229,1,0,0:0:0:0:
329,192,295303,1,0,0:0:0:0:
109,192,295303,1,0,0:0:0:0:
402,192,295303,1,0,0:0:0:0:
182,192,295377,1,0,0:0:0:0:
475,192,295377,1,0,0:0:0:0:
36,192,295377,1,0,0:0:0:0:
256,192,295377,1,0,0:0:0:0:
329,192,295452,1,0,0:0:0:0:
109,192,295526,1,0,0:0:0:0:
475,192,295526,1,0,0:0:0:0:
402,192,295526,1,0,0:0:0:0:
256,192,295526,1,0,0:0:0:0:
36,192,295526,1,0,0:0:0:0:
182,192,295600,1,0,0:0:0:0:
256,192,295674,1,0,0:0:0:0:
36,192,295674,1,0,0:0:0:0:
402,192,295674,1,0,0:0:0:0:
329,192,295674,1,0,0:0:0:0:
109,192,295749,1,0,0:0:0:0:
256,192,295749,1,0,0:0:0:0:
329,192,295749,1,0,0:0:0:0:
402,192,295749,1,0,0:0:0:0:
182,192,295823,1,0,0:0:0:0:
36,192,295823,1,0,0:0:0:0:
475,192,295823,1,0,0:0:0:0:
402,192,295897,1,0,0:0:0:0:
329,192,295971,1,0,0:0:0:0:
109,192,295971,1,0,0:0:0:0:
36,192,295971,1,0,0:0:0:0:
475,192,295971,1,0,0:0:0:0:
256,192,295971,1,0,0:0:0:0:
182,192,296046,1,0,0:0:0:0:
329,192,296120,1,0,0:0:0:0:
475,192,296120,1,0,0:0:0:0:
36,192,296120,1,0,0:0:0:0:
109,192,296169,1,0,0:0:0:0:
402,192,296194,1,0,0:0:0:0:
182,192,296219,1,0,0:0:0:0:
256,192,296268,1,0,0:0:0:0:
36,192,296268,1,0,0:0:0:0:
475,192,296268,1,0,0:0:0:0:
329,192,296268,1,0,0:0:0:0:
109,192,296343,1,0,0:0:0:0:
402,192,296417,1,0,0:0:0:0:
475,192,296417,1,0,0:0:0:0:
256,192,296417,1,0,0:0:0:0:
182,192,296417,1,0,0:0:0:0:
329,192,296491,1,0,0:0:0:0:
36,192,296491,1,0,0:0:0:0:
109,192,296565,1,0,0:0:0:0:
256,192,296565,1,0,0:0:0:0:
402,192,296565,1,0,0:0:0:0:
182,192,296640,1,0,0:0:0:0:
329,192,296640,1,0,0:0:0:0:
256,192,296714,1,0,0:0:0:0:
402,192,296714,1,0,0:0:0:0:
36,192,296714,1,0,0:0:0:0:
475,192,296714,1,0,0:0:0:0:
329,192,296788,1,0,0:0:0:0:
182,192,296788,1,0,0:0:0:0:
256,192,296862,1,0,0:0:0:0:
109,192,296862,1,0,0:0:0:0:
475,192,296862,1,0,0:0:0:0:
182,192,296937,1,0,0:0:0:0:
36,192,296937,1,0,0:0:0:0:
109,192,297011,1,0,0:0:0:0:
329,192,297011,1,0,0:0:0:0:
475,192,297011,1,0,0:0:0:0:
402,192,297011,1,0,0:0:0:0:
256,192,297011,1,0,0:0:0:0:
182,192,297085,1,0,0:0:0:0:
256,192,297159,1,0,0:0:0:0:
36,192,297159,1,0,0:0:0:0:
402,192,297159,1,0,0:0:0:0:
329,192,297159,1,0,0:0:0:0:
475,192,297159,1,0,0:0:0:0:
109,192,297234,1,0,0:0:0:0:
182,192,297308,1,0,0:0:0:0:
36,192,297308,1,0,0:0:0:0:
329,192,297308,1,0,0:0:0:0:
475,192,297308,1,0,0:0:0:0:
402,192,297382,1,0,0:0:0:0:
256,192,297382,1,0,0:0:0:0:
329,192,297457,1,0,0:0:0:0:
109,192,297457,1,0,0:0:0:0:
475,192,297457,1,0,0:0:0:0:
182,192,297531,1,0,0:0:0:0:
402,192,297531,1,0,0:0:0:0:
256,192,297605,1,0,0:0:0:0:
36,192,297605,1,0,0:0:0:0:
329,192,297605,1,0,0:0:0:0:
109,192,297605,1,0,0:0:0:0:
182,192,297679,1,0,0:0:0:0:
475,192,297679,1,0,0:0:0:0:
402,192,297754,1,0,0:0:0:0:
256,192,297754,1,0,0:0:0:0:
109,192,297754,1,0,0:0:0:0:
329,192,297828,1,0,0:0:0:0:
182,192,297828,1,0,0:0:0:0:
256,192,297902,1,0,0:0:0:0:
36,192,297902,1,0,0:0:0:0:
402,192,297902,1,0,0:0:0:0:
475,192,297902,1,0,0:0:0:0:
109,192,297976,1,0,0:0:0:0:
329,192,297976,1,0,0:0:0:0:
182,192,298051,1,0,0:0:0:0:
402,192,298051,1,0,0:0:0:0:
475,192,298051,1,0,0:0:0:0:
256,192,298125,1,0,0:0:0:0:
36,192,298125,1,0,0:0:0:0:
109,192,298199,1,0,0:0:0:0:
329,192,298199,1,0,0:0:0:0:
475,192,298199,1,0,0:0:0:0:
182,192,298199,1,0,0:0:0:0:
402,192,298273,1,0,0:0:0:0:
256,192,298273,1,0,0:0:0:0:
329,192,298348,1,0,0:0:0:0:
182,192,298348,1,0,0:0:0:0:
36,192,298348,1,0,0:0:0:0:
109,192,298422,1,0,0:0:0:0:
256,192,298422,1,0,0:0:0:0:
402,192,298496,1,0,0:0:0:0:
475,192,298496,1,0,0:0:0:0:
182,192,298496,1,0,0:0:0:0:
329,192,298496,1,0,0:0:0:0:
256,192,298570,1,0,0:0:0:0:
329,192,298645,1,0,0:0:0:0:
109,192,298645,1,0,0:0:0:0:
36,192,298645,1,0,0:0:0:0:
402,192,298694,1,0,0:0:0:0:
182,192,298719,1,0,0:0:0:0:
475,192,298744,1,0,0:0:0:0:
329,192,298793,1,0,0:0:0:0:
256,192,298793,1,0,0:0:0:0:
109,192,298793,1,0,0:0:0:0:
36,192,298793,1,0,0:0:0:0:
182,192,298867,1,0,0:0:0:0:
475,192,298867,1,0,0:0:0:0:
402,192,298867,1,0,0:0:0:0:
329,192,298942,1,0,0:0:0:0:
256,192,298942,1,0,0:0:0:0:
36,192,298942,1,0,0:0:0:0:
109,192,299016,1,0,0:0:0:0:
402,192,299016,1,0,0:0:0:0:
182,192,299090,1,0,0:0:0:0:
475,192,299090,1,0,0:0:0:0:
256,192,299090,1,0,0:0:0:0:
36,192,299090,1,0,0:0:0:0:
329,192,299090,1,0,0:0:0:0:
109,192,299164,1,0,0:0:0:0:
402,192,299164,1,0,0:0:0:0:
182,192,299239,1,0,0:0:0:0:
329,192,299239,1,0,0:0:0:0:
475,192,299239,1,0,0:0:0:0:
256,192,299313,1,0,0:0:0:0:
36,192,299313,1,0,0:0:0:0:
329,192,299387,1,0,0:0:0:0:
109,192,299387,1,0,0:0:0:0:
402,192,299387,1,0,0:0:0:0:
475,192,299387,1,0,0:0:0:0:
256,192,299461,1,0,0:0:0:0:
182,192,299536,1,0,0:0:0:0:
402,192,299536,1,0,0:0:0:0:
36,192,299536,1,0,0:0:0:0:
329,192,299610,1,0,0:0:0:0:
109,192,299610,1,0,0:0:0:0:
182,192,299684,1,0,0:0:0:0:
475,192,299684,1,0,0:0:0:0:
402,192,299684,1,0,0:0:0:0:
256,192,299758,1,0,0:0:0:0:
36,192,299758,1,0,0:0:0:0:
329,192,299758,1,0,0:0:0:0:
109,192,299833,1,0,0:0:0:0:
182,192,299833,1,0,0:0:0:0:
475,192,299833,1,0,0:0:0:0:
402,192,299907,1,0,0:0:0:0:
329,192,299907,1,0,0:0:0:0:
256,192,299907,1,0,0:0:0:0:
182,192,299981,1,0,0:0:0:0:
109,192,299981,1,0,0:0:0:0:
36,192,299981,1,0,0:0:0:0:
256,192,300056,1,0,0:0:0:0:
475,192,300056,1,0,0:0:0:0:
402,192,300056,1,0,0:0:0:0:
329,192,300130,1,0,0:0:0:0:
182,192,300130,1,0,0:0:0:0:
36,192,300130,1,0,0:0:0:0:
109,192,300204,1,0,0:0:0:0:
402,192,300204,1,0,0:0:0:0:
256,192,300204,1,0,0:0:0:0:
182,192,300278,1,0,0:0:0:0:
329,192,300278,1,0,0:0:0:0:
475,192,300278,1,0,0:0:0:0:
36,192,300315,1,0,0:0:0:0:
256,192,300353,1,0,0:0:0:0:
402,192,300353,1,0,0:0:0:0:
109,192,300390,1,0,0:0:0:0:
329,192,300427,1,0,0:0:0:0:
475,192,300427,1,0,0:0:0:0:
182,192,300464,1,0,0:0:0:0:
402,192,300501,1,0,0:0:0:0:
36,192,300501,1,0,0:0:0:0:
256,192,300538,1,0,0:0:0:0:
109,192,300575,1,0,0:0:0:0:
329,192,300575,1,0,0:0:0:0:
475,192,300575,1,0,0:0:0:0:
182,192,300650,1,0,0:0:0:0:
256,192,300724,1,0,0:0:0:0:
36,192,300724,1,0,0:0:0:0:
402,192,300724,1,0,0:0:0:0:
109,192,300798,1,0,0:0:0:0:
182,192,300872,1,0,0:0:0:0:
36,192,300872,1,0,0:0:0:0:
402,192,300872,1,0,0:0:0:0:
475,192,300872,1,0,0:0:0:0:
329,192,300947,1,0,0:0:0:0:
256,192,300947,1,0,0:0:0:0:
109,192,301021,1,0,0:0:0:0:
182,192,301021,1,0,0:0:0:0:
402,192,301021,1,0,0:0:0:0:
256,192,301095,1,0,0:0:0:0:
36,192,301095,1,0,0:0:0:0:
109,192,301169,1,0,0:0:0:0:
329,192,301169,1,0,0:0:0:0:
475,192,301169,1,0,0:0:0:0:
402,192,301244,1,0,0:0:0:0:
36,192,301244,1,0,0:0:0:0:
256,192,301244,1,0,0:0:0:0:
475,192,301318,1,0,0:0:0:0:
329,192,301318,1,0,0:0:0:0:
182,192,301318,1,0,0:0:0:0:
256,192,301392,1,0,0:0:0:0:
109,192,301392,1,0,0:0:0:0:
402,192,301392,1,0,0:0:0:0:
329,192,301466,1,0,0:0:0:0:
182,192,301466,1,0,0:0:0:0:
36,192,301466,1,0,0:0:0:0:
475,192,301504,1,0,0:0:0:0:
256,192,301541,1,0,0:0:0:0:
109,192,301541,1,0,0:0:0:0:
402,192,301578,1,0,0:0:0:0:
182,192,301615,1,0,0:0:0:0:
36,192,301615,1,0,0:0:0:0:
329,192,301652,1,0,0:0:0:0:
109,192,301689,1,0,0:0:0:0:
475,192,301689,1,0,0:0:0:0:
256,192,301726,1,0,0:0:0:0:
402,192,301763,1,0,0:0:0:0:
182,192,301763,1,0,0:0:0:0:
36,192,301763,1,0,0:0:0:0:
329,192,301838,1,0,0:0:0:0:
256,192,301912,1,0,0:0:0:0:
36,192,301912,1,0,0:0:0:0:
402,192,301912,1,0,0:0:0:0:
109,192,301949,1,0,0:0:0:0:
182,192,301986,1,0,0:0:0:0:
256,192,302023,1,0,0:0:0:0:
36,192,302060,1,0,0:0:0:0:
329,192,302060,1,0,0:0:0:0:
475,192,302060,1,0,0:0:0:0:
402,192,302060,1,0,0:0:0:0:
109,192,302135,1,0,0:0:0:0:
182,192,302209,1,0,0:0:0:0:
402,192,302209,1,0,0:0:0:0:
329,192,302209,1,0,0:0:0:0:
36,192,302209,1,0,0:0:0:0:
475,192,302209,1,0,0:0:0:0:
256,192,302283,1,0,0:0:0:0:
402,192,302358,1,0,0:0:0:0:
475,192,302358,1,0,0:0:0:0:
109,192,302358,1,0,0:0:0:0:
36,192,302358,1,0,0:0:0:0:
329,192,302395,1,0,0:0:0:0:
256,192,302432,1,0,0:0:0:0:
182,192,302469,1,0,0:0:0:0:
109,192,302506,1,0,0:0:0:0:
402,192,302506,1,0,0:0:0:0:
475,192,302506,1,0,0:0:0:0:
329,192,302580,1,0,0:0:0:0:
256,192,302655,1,0,0:0:0:0:
36,192,302655,1,0,0:0:0:0:
402,192,302655,1,0,0:0:0:0:
182,192,302655,1,0,0:0:0:0:
475,192,302655,1,0,0:0:0:0:
109,192,302729,1,0,0:0:0:0:
182,192,302803,1,0,0:0:0:0:
36,192,302803,1,0,0:0:0:0:
329,192,302803,1,0,0:0:0:0:
475,192,302803,1,0,0:0:0:0:
402,192,302803,1,0,0:0:0:0:
256,192,302877,1,0,0:0:0:0:
329,192,302952,1,0,0:0:0:0:
109,192,302952,1,0,0:0:0:0:
36,192,302952,1,0,0:0:0:0:
475,192,302952,1,0,0:0:0:0:
182,192,302952,1,0,0:0:0:0:
402,192,303026,1,0,0:0:0:0:
182,192,303026,1,0,0:0:0:0:
329,192,303100,1,0,0:0:0:0:
109,192,303100,1,0,0:0:0:0:
36,192,303100,1,0,0:0:0:0:
256,192,303174,1,0,0:0:0:0:
182,192,303249,1,0,0:0:0:0:
402,192,303249,1,0,0:0:0:0:
475,192,303249,1,0,0:0:0:0:
402,192,303323,1,0,0:0:0:0:
256,192,303323,1,0,0:0:0:0:
36,192,303397,1,0,0:0:0:0:
329,192,303397,1,0,0:0:0:0:
182,192,303397,1,0,0:0:0:0:
109,192,303397,1,0,0:0:0:0:
256,192,303471,1,0,0:0:0:0:
329,192,303546,1,0,0:0:0:0:
109,192,303546,1,0,0:0:0:0:
36,192,303546,1,0,0:0:0:0:
475,192,303546,1,0,0:0:0:0:
182,192,303620,1,0,0:0:0:0:
402,192,303620,1,0,0:0:0:0:
256,192,303694,1,0,0:0:0:0:
475,192,303694,1,0,0:0:0:0:
36,192,303694,1,0,0:0:0:0:
109,192,303768,1,0,0:0:0:0:
329,192,303768,1,0,0:0:0:0:
182,192,303843,1,0,0:0:0:0:
36,192,303843,1,0,0:0:0:0:
402,192,303843,1,0,0:0:0:0:
475,192,303843,1,0,0:0:0:0:
329,192,303917,1,0,0:0:0:0:
256,192,303917,1,0,0:0:0:0:
182,192,303991,1,0,0:0:0:0:
109,192,303991,1,0,0:0:0:0:
475,192,303991,1,0,0:0:0:0:
402,192,304065,1,0,0:0:0:0:
256,192,304065,1,0,0:0:0:0:
329,192,304140,1,0,0:0:0:0:
109,192,304140,1,0,0:0:0:0:
36,192,304140,1,0,0:0:0:0:
475,192,304140,1,0,0:0:0:0:
182,192,304140,1,0,0:0:0:0:
256,192,304214,1,0,0:0:0:0:
329,192,304288,1,0,0:0:0:0:
36,192,304288,1,0,0:0:0:0:
109,192,304288,1,0,0:0:0:0:
402,192,304288,1,0,0:0:0:0:
475,192,304288,1,0,0:0:0:0:
182,192,304362,1,0,0:0:0:0:
256,192,304437,1,0,0:0:0:0:
109,192,304437,1,0,0:0:0:0:
475,192,304437,1,0,0:0:0:0:
36,192,304437,1,0,0:0:0:0:
402,192,304437,1,0,0:0:0:0:
182,192,304511,1,0,0:0:0:0:
329,192,304511,1,0,0:0:0:0:
475,192,304585,1,0,0:0:0:0:
36,192,304585,1,0,0:0:0:0:
402,192,304585,1,0,0:0:0:0:
256,192,304585,1,0,0:0:0:0:
109,192,304659,1,0,0:0:0:0:
182,192,304734,1,0,0:0:0:0:
475,192,304734,1,0,0:0:0:0:
329,192,304734,1,0,0:0:0:0:
36,192,304734,1,0,0:0:0:0:
402,192,304734,1,0,0:0:0:0:
256,192,304808,1,0,0:0:0:0:
36,192,304882,1,0,0:0:0:0:
109,192,304882,1,0,0:0:0:0:
182,192,304882,1,0,0:0:0:0:
475,192,304882,1,0,0:0:0:0:
402,192,304882,1,0,0:0:0:0:
329,192,304957,1,0,0:0:0:0:
256,192,305031,1,0,0:0:0:0:
36,192,305031,1,0,0:0:0:0:
475,192,305031,1,0,0:0:0:0:
182,192,305031,1,0,0:0:0:0:
109,192,305031,1,0,0:0:0:0:
402,192,305105,1,0,0:0:0:0:
329,192,305179,1,0,0:0:0:0:
109,192,305179,1,0,0:0:0:0:
475,192,305179,1,0,0:0:0:0:
256,192,305179,1,0,0:0:0:0:
36,192,305179,1,0,0:0:0:0:
182,192,305254,1,0,0:0:0:0:
256,192,305328,1,0,0:0:0:0:
475,192,305328,1,0,0:0:0:0:
109,192,305328,1,0,0:0:0:0:
36,192,305365,1,0,0:0:0:0:
329,192,305402,1,0,0:0:0:0:
182,192,305402,1,0,0:0:0:0:
109,192,305439,1,0,0:0:0:0:
256,192,305476,5,0,0:0:0:0:
402,192,305476,1,0,0:0:0:0:
182,192,305513,5,0,0:0:0:0:
329,192,305551,1,0,0:0:0:0:
475,192,305551,1,0,0:0:0:0:
256,192,305588,1,0,0:0:0:0:
182,192,305625,1,0,0:0:0:0:
36,192,305625,1,0,0:0:0:0:
475,192,305662,1,0,0:0:0:0:
256,192,305699,1,0,0:0:0:0:
109,192,305699,1,0,0:0:0:0:
402,192,305736,1,0,0:0:0:0:
182,192,305773,1,0,0:0:0:0:
36,192,305773,1,0,0:0:0:0:
329,192,305810,1,0,0:0:0:0:
475,192,305848,1,0,0:0:0:0:
109,192,305848,1,0,0:0:0:0:
256,192,305885,1,0,0:0:0:0:
402,192,305922,1,0,0:0:0:0:
182,192,305922,1,0,0:0:0:0:
36,192,305959,1,0,0:0:0:0:
256,192,305996,1,0,0:0:0:0:
475,192,305996,1,0,0:0:0:0:
109,192,306033,1,0,0:0:0:0:
329,192,306070,1,0,0:0:0:0:
402,192,306070,1,0,0:0:0:0:
182,192,306108,1,0,0:0:0:0:
36,192,306145,1,0,0:0:0:0:
475,192,306145,1,0,0:0:0:0:
256,192,306182,1,0,0:0:0:0:
329,192,306219,1,0,0:0:0:0:
109,192,306219,1,0,0:0:0:0:
475,192,306256,1,0,0:0:0:0:
182,192,306293,1,0,0:0:0:0:
256,192,306293,1,0,0:0:0:0:
402,192,306330,1,0,0:0:0:0:
109,192,306367,1,0,0:0:0:0:
36,192,306367,1,0,0:0:0:0:
329,192,306405,1,0,0:0:0:0:
182,192,306442,1,0,0:0:0:0:
475,192,306442,1,0,0:0:0:0:
256,192,306479,1,0,0:0:0:0:
329,192,306516,1,0,0:0:0:0:
36,192,306516,1,0,0:0:0:0:
109,192,306516,1,0,0:0:0:0:
402,192,306516,1,0,0:0:0:0:
182,192,306664,5,0,0:0:0:0:
109,192,306664,1,0,0:0:0:0:
36,192,306664,1,0,0:0:0:0:
402,192,306664,1,0,0:0:0:0:
329,192,306664,1,0,0:0:0:0:
475,192,306664,1,0,0:0:0:0:
182,192,306961,1,0,0:0:0:0:
109,192,306961,1,0,0:0:0:0:
36,192,306961,1,0,0:0:0:0:
329,192,306961,1,0,0:0:0:0:
402,192,306961,1,0,0:0:0:0:
475,192,306961,1,0,0:0:0:0:
256,192,307036,1,0,0:0:0:0:
182,192,307110,1,0,0:0:0:0:
109,192,307110,1,0,0:0:0:0:
36,192,307110,1,0,0:0:0:0:
402,192,307110,1,0,0:0:0:0:
475,192,307110,1,0,0:0:0:0:
329,192,307110,1,0,0:0:0:0:
182,192,307407,1,0,0:0:0:0:
109,192,307407,1,0,0:0:0:0:
36,192,307407,1,0,0:0:0:0:
329,192,307407,1,0,0:0:0:0:
475,192,307407,1,0,0:0:0:0:
402,192,307407,1,0,0:0:0:0:
182,192,307556,1,0,0:0:0:0:
109,192,307556,1,0,0:0:0:0:
36,192,307556,1,0,0:0:0:0:
329,192,307556,1,0,0:0:0:0:
402,192,307556,1,0,0:0:0:0:
475,192,307556,1,0,0:0:0:0:
256,192,307853,1,0,0:0:0:0:
36,192,307853,1,0,0:0:0:0:
329,192,307853,1,0,0:0:0:0:
182,192,307853,1,0,0:0:0:0:
402,192,307853,1,0,0:0:0:0:
109,192,307853,1,0,0:0:0:0:
402,192,308001,1,0,0:0:0:0:
329,192,308001,1,0,0:0:0:0:
256,192,308001,1,0,0:0:0:0:
182,192,308001,1,0,0:0:0:0:
109,192,308001,1,0,0:0:0:0:
36,192,308001,1,0,0:0:0:0:
182,192,308150,1,0,0:0:0:0:
256,192,308150,1,0,0:0:0:0:
329,192,308150,1,0,0:0:0:0:
402,192,308150,1,0,0:0:0:0:
475,192,308150,1,0,0:0:0:0:
36,192,308150,1,0,0:0:0:0:
182,192,308298,1,0,0:0:0:0:
109,192,308298,1,0,0:0:0:0:
36,192,308298,1,0,0:0:0:0:
475,192,308298,1,0,0:0:0:0:
402,192,308298,1,0,0:0:0:0:
329,192,308298,1,0,0:0:0:0:
