osu file format v14

[General]
AudioFilename: audio.mp3
AudioLeadIn: 0
PreviewTime: 78356
Countdown: 0
SampleSet: Soft
StackLeniency: 1
Mode: 0
LetterboxInBreaks: 0
WidescreenStoryboard: 0

[Editor]
Bookmarks: 35621,78393,87898,135423,168690,270868,327750
DistanceSpacing: 0.2
BeatDivisor: 8
GridSize: 4
TimelineZoom: 6.400002

[Metadata]
Title:Bomb Bang Bound!!!
TitleUnicode:Bomb Bang Bound​!​!​!
Artist:Hisui Chazuke
ArtistUnicode:翡翠茶漬け
Creator:Ryuusei Aika
Version:Blunder Blender Brander???
Source:
Tags:limetwist bbb!!! electronic instrumental chiptune dream chasers featured artist fa ああああ AAAA 翡乃イスカ Hino Isuka 梅干茶漬け Umeboshi Chazuke corsace2023rotb co23 corsace open 2023 runoff stage tiebreaker mappers mappers' guild mpg
BeatmapID:4266258
BeatmapSetID:2044096

[Difficulty]
HPDrainRate:5
CircleSize:4.2
OverallDifficulty:9
ApproachRate:9.6
SliderMultiplier:2
SliderTickRate:0.5

[Events]
//Background and Video events
0,0,"bg.jpeg",0,0
//Break Periods
2,225720,229369
//Storyboard Layer 0 (Background)
//Storyboard Layer 1 (Fail)
//Storyboard Layer 2 (Pass)
//Storyboard Layer 3 (Foreground)
//Storyboard Layer 4 (Overlay)
//Storyboard Sound Samples
Sample,211165,0,"discord_message1.wav",90

[TimingPoints]
1166,297.029702970297,4,2,1,35,1,0
1166,-133.333333333333,4,2,1,35,0,0
1240,-133.333333333333,4,2,1,5,0,0
1463,-133.333333333333,4,2,1,35,0,0
1537,-133.333333333333,4,2,1,5,0,0
1760,-80,4,2,1,35,0,0
2057,-80,4,2,1,30,0,0
2354,-80,4,2,1,35,0,0
2391,-80,4,2,1,5,0,0
2502,-80,4,2,1,35,0,0
2688,-80,4,2,1,5,0,0
2799,-80,4,2,1,35,0,0
2985,-80,4,2,1,5,0,0
3096,-80,4,2,1,35,0,0
3282,-80,4,2,1,5,0,0
3393,-80,4,2,1,35,0,0
3579,-80,4,2,1,5,0,0
3690,-80,4,2,1,35,0,0
3876,-80,4,2,1,5,0,0
3987,-80,4,2,1,35,0,0
4284,-66.6666666666667,4,2,1,35,0,0
4543,-66.6666666666667,4,2,1,5,0,0
4581,-66.6666666666667,4,2,1,35,0,0
4618,-66.6666666666667,4,2,1,5,0,0
4730,-89.2857142857143,4,2,1,35,0,0
4767,-89.2857142857143,4,2,1,5,0,0
4878,-89.2857142857143,4,2,1,35,0,0
5064,-89.2857142857143,4,2,1,5,0,0
5175,-89.2857142857143,4,2,1,35,0,0
5361,-89.2857142857143,4,2,1,5,0,0
5472,-89.2857142857143,4,2,1,35,0,0
5658,-89.2857142857143,4,2,1,5,0,0
5769,-89.2857142857143,4,2,1,35,0,0
5955,-89.2857142857143,4,2,1,5,0,0
6066,-89.2857142857143,4,2,1,35,0,0
6252,-89.2857142857143,4,2,1,5,0,0
6364,-89.2857142857143,4,2,1,35,0,0
6661,-74.0740740740741,4,2,1,35,0,0
6920,-74.0740740740741,4,2,1,5,0,0
6958,-74.0740740740741,4,2,1,35,0,0
6995,-74.0740740740741,4,2,1,5,0,0
7106,-100,4,2,1,35,0,0
7143,-100,4,2,1,5,0,0
7255,-100,4,2,1,35,0,0
7440,-100,4,2,1,5,0,0
7552,-100,4,2,1,35,0,0
7737,-100,4,2,1,5,0,0
7849,-100,4,2,1,35,0,0
8034,-100,4,2,1,5,0,0
8146,-100,4,2,1,35,0,0
8331,-100,4,2,1,5,0,0
8443,-100,4,2,1,35,0,0
8628,-100,4,2,1,5,0,0
8740,-100,4,2,1,35,0,0
9037,-66.6666666666667,4,2,1,35,0,0
9296,-66.6666666666667,4,2,1,5,0,0
9334,-57.1428571428571,4,2,1,35,0,0
9371,-57.1428571428571,4,2,1,5,0,0
9482,-57.1428571428571,4,2,1,35,0,0
10002,-57.1428571428571,4,2,1,5,0,0
10076,-57.1428571428571,4,2,1,35,0,0
10113,-57.1428571428571,4,2,1,5,0,0
10225,-100,4,2,1,35,0,0
10262,-100,4,2,1,5,0,0
10373,-66.6666666666667,4,2,1,35,0,0
10410,-66.6666666666667,4,2,1,5,0,0
10522,-100,4,2,1,35,0,0
10559,-100,4,2,1,5,0,0
10670,-66.6666666666667,4,2,1,35,0,0
10967,-66.6666666666667,4,2,1,35,0,0
11042,-66.6666666666667,4,2,1,35,0,0
11265,-66.6666666666667,4,2,1,35,0,0
11710,-100,4,2,1,35,0,0
11747,-100,4,2,1,5,0,0
11859,-66.6666666666667,4,2,1,55,0,0
12007,-100,4,2,1,55,0,0
12750,-200,4,2,1,55,0,0
13047,-100,4,2,1,55,0,0
13344,-200,4,2,1,55,0,0
13789,-66.6666666666667,4,2,1,55,0,0
14048,-66.6666666666667,4,2,1,5,0,0
14086,-66.6666666666667,4,2,1,55,0,0
14123,-66.6666666666667,4,2,1,5,0,0
14235,-100,4,2,1,55,0,0
15571,-200,4,2,1,55,0,0
15720,-100,4,2,1,55,0,0
15868,-200,4,2,1,55,0,0
16314,-100,4,2,1,55,0,0
16611,-100,4,2,1,65,0,0
17502,-151.515151515152,4,2,1,65,0,0
17799,-100,4,2,1,65,0,0
18987,-100,4,2,1,75,0,0
20175,-100,4,2,5,60,0,0
20472,-100,4,2,6,60,0,0
20769,-66.6666666666667,4,2,2,60,0,0
20844,-66.6666666666667,4,2,4,60,0,0
20917,-66.6666666666667,4,2,4,60,0,0
21066,-66.6666666666667,4,2,2,60,0,0
21141,-66.6666666666667,4,2,4,60,0,0
21364,-66.6666666666667,4,2,1,60,0,0
24928,-133.333333333333,4,2,4,50,0,0
25819,-66.6666666666667,4,2,4,50,0,0
26116,-100,4,2,1,60,0,0
29680,-100,4,2,4,60,0,0
29829,-133.333333333333,4,2,4,50,0,0
30274,-80,4,2,4,50,0,0
30571,-66.6666666666667,4,2,4,50,0,0
30868,-100,4,2,1,60,0,0
34433,-100,4,2,4,50,0,0
34878,-133.333333333333,4,2,4,50,0,0
35324,-66.6666666666667,4,2,4,50,0,0
35621,-100,4,2,1,65,0,0
39185,-133.333333333333,4,2,4,50,0,0
39482,-100,4,2,4,50,0,0
39779,-80,4,2,4,50,0,0
40076,-133.333333333333,4,2,4,50,0,0
40373,-100,4,2,1,60,0,0
41265,-90.9090909090909,4,2,1,60,0,0
41859,-100,4,2,1,60,0,0
42007,-111.111111111111,4,2,1,60,0,0
42156,-99.9999999999999,4,2,1,60,0,0
43047,-90.9090909090909,4,2,1,60,0,0
43344,-100,4,2,1,60,0,0
43641,-86.9565217391304,4,2,1,60,0,0
43938,-86.9565217391304,4,2,2,60,0,0
44235,-100,4,2,2,60,0,0
44532,-111.111111111111,4,2,2,60,0,0
45126,-100,4,2,1,60,0,0
46017,-90.9090909090909,4,2,1,60,0,0
46611,-111.111111111111,4,2,1,60,0,0
46760,-100,4,2,1,60,0,0
47354,-111.111111111111,4,2,1,60,0,0
47502,-100,4,2,1,60,0,0
48245,-100,4,2,7,60,0,0
48542,-100,4,2,1,60,0,0
52255,-111.111111111111,4,2,1,60,0,0
52552,-83.3333333333333,4,2,1,60,0,0
52849,-111.111111111111,4,2,1,60,0,0
53146,-83.3333333333333,4,2,1,60,0,0
53740,-100,4,2,1,60,0,0
54631,-100,4,2,1,65,0,0
57007,-111.111111111111,4,2,1,65,0,0
57304,-83.3333333333333,4,2,1,65,0,0
57601,-100,4,2,1,65,0,0
57898,-83.3333333333333,4,2,1,65,0,0
58938,-83.3333333333333,4,2,11,70,0,0
59383,-50,4,2,7,65,0,0
59680,-100,4,2,7,65,0,0
60571,-50,4,2,7,65,0,0
60868,-100,4,2,7,65,0,0
61463,-83.3333333333333,4,2,7,65,0,0
61760,-50,4,2,7,65,0,0
62057,-100,4,2,7,65,0,0
62948,-50,4,2,7,65,0,0
63245,-100,4,2,7,65,0,0
63542,-133.333333333333,4,2,7,65,0,0
63653,-133.333333333333,4,2,7,5,0,0
63690,-83.3333333333333,4,2,7,65,0,0
63801,-83.3333333333333,4,2,7,5,0,0
63839,-133.333333333333,4,2,7,65,0,0
63950,-133.333333333333,4,2,7,5,0,0
63987,-80,4,2,7,65,0,0
64098,-80,4,2,7,5,0,0
64136,-50,4,2,7,65,0,0
64433,-100,4,2,7,65,0,0
65324,-50,4,2,7,65,0,0
65621,-100,4,2,7,65,0,0
66215,-83.3333333333333,4,2,7,65,0,0
66512,-50,4,2,7,65,0,0
66809,-100,4,2,7,65,0,0
67700,-50,4,2,7,65,0,0
68888,-100,4,2,7,65,0,0
69037,-100,4,2,8,65,0,0
69111,-100,4,2,7,65,0,0
69185,-100,4,2,7,65,0,0
69333,-100,4,2,8,65,0,0
69408,-100,4,2,7,65,0,0
69631,-100,4,2,8,65,0,0
69705,-100,4,2,7,65,0,0
69779,-100,4,2,7,65,0,0
69928,-100,4,2,8,65,0,0
70002,-100,4,2,7,65,0,0
70225,-100,4,2,8,65,0,0
70299,-100,4,2,7,65,0,0
70373,-100,4,2,7,65,0,0
70522,-100,4,2,8,65,0,0
70596,-100,4,2,7,65,0,0
70670,-90.9090909090909,4,2,7,65,0,0
70818,-90.9090909090909,4,2,8,65,0,0
70893,-90.9090909090909,4,2,7,65,0,0
70967,-83.3333333333333,4,2,7,65,0,0
71116,-83.3333333333333,4,2,8,65,0,0
71190,-83.3333333333333,4,2,7,65,0,0
71265,-83.3333333333333,4,2,7,65,0,0
71413,-83.3333333333333,4,2,8,65,0,0
71487,-83.3333333333333,4,2,7,65,0,0
71710,-83.3333333333333,4,2,8,65,0,0
71784,-66.6666666666667,4,2,7,65,0,0
71821,-66.6666666666667,4,2,7,5,0,0
71859,-83.3333333333333,4,2,7,65,0,0
72007,-83.3333333333333,4,2,8,65,0,0
72081,-83.3333333333333,4,2,7,65,0,0
72156,-83.3333333333333,4,2,7,65,0,0
72230,-100,4,2,7,65,0,0
72304,-100,4,2,8,65,0,0
72378,-100,4,2,7,65,0,0
72601,-100,4,2,8,65,0,0
72675,-100,4,2,7,65,0,0
72898,-100,4,2,8,65,0,0
72972,-100,4,2,7,65,0,0
73195,-100,4,2,8,65,0,0
73269,-100,4,2,7,65,0,0
73344,-100,4,2,7,65,0,0
73492,-100,4,2,8,65,0,0
73566,-100,4,2,7,65,0,0
73641,-100,4,2,7,65,0,0
73789,-100,4,2,8,65,0,0
73864,-100,4,2,7,65,0,0
74086,-100,4,2,8,65,0,0
74161,-100,4,2,7,65,0,0
74383,-100,4,2,8,65,0,0
74458,-100,4,2,7,65,0,0
74531,-100,4,2,7,65,0,0
74606,-100,4,2,7,65,0,0
74680,-100,4,2,8,65,0,0
74755,-100,4,2,7,65,0,0
74977,-100,4,2,8,65,0,0
75052,-100,4,2,7,65,0,0
75126,-100,4,2,7,65,0,0
75274,-100,4,2,8,65,0,0
75349,-100,4,2,7,65,0,0
75571,-100,4,2,8,65,0,0
75646,-100,4,2,7,65,0,0
75720,-100,4,2,7,65,0,0
75868,-100,4,2,8,65,0,0
75943,-66.6666666666667,4,2,7,65,0,0
75980,-66.6666666666667,4,2,7,5,0,0
76017,-66.6666666666667,4,2,7,65,0,0
76165,-66.6666666666667,4,2,8,65,0,0
76240,-66.6666666666667,4,2,7,65,0,0
76314,-83.3333333333333,4,2,7,65,0,0
76462,-83.3333333333333,4,2,8,65,0,0
76537,-83.3333333333333,4,2,7,65,0,0
76611,-100,4,2,7,65,0,0
76760,-100,4,2,8,65,0,0
76834,-100,4,2,7,65,0,0
76908,-100,4,2,7,65,0,0
77057,-100,4,2,8,65,0,0
77131,-100,4,2,7,65,0,0
77205,-100,4,2,7,45,0,0
77502,-133.333333333333,4,2,7,45,0,0
78096,-66.6666666666667,4,2,1,70,0,0
78393,-83.3333333333333,4,2,10,80,0,1
78467,-83.3333333333333,4,2,1,80,0,1
78541,-83.3333333333333,4,2,1,80,0,1
78616,-83.3333333333333,4,2,1,80,0,1
87601,-66.6666666666667,4,2,1,80,0,1
87898,-83.3333333333333,4,2,1,80,0,1
97106,-71.4285714285714,4,2,1,80,0,1
97403,-86.9565217391304,4,2,1,80,0,1
97700,-80,4,2,1,80,0,1
99482,-74.0740740740741,4,2,11,80,0,1
99630,-74.0740740740741,4,2,1,80,0,1
99779,-80,4,2,1,80,0,1
101710,-74.0740740740741,4,2,11,80,0,1
102007,-74.0740740740741,4,2,1,80,0,1
102304,-80,4,2,1,80,0,1
104235,-74.0740740740741,4,2,11,80,0,1
104383,-74.0740740740741,4,2,1,80,0,1
104829,-80,4,2,1,80,0,1
106314,-66.6666666666667,4,2,11,80,0,1
106351,-66.6666666666667,4,2,11,5,0,1
106388,-66.6666666666667,4,2,11,80,0,1
106425,-66.6666666666667,4,2,11,5,0,1
106463,-66.6666666666667,4,2,11,80,0,1
106760,-66.6666666666667,4,2,1,80,0,1
106908,-66.6666666666667,4,2,1,80,0,1
107502,-80,4,2,1,80,0,1
108987,-74.0740740740741,4,2,11,80,0,1
109135,-74.0740740740741,4,2,1,80,0,1
109581,-80,4,2,1,80,0,1
111215,-74.0740740740741,4,2,11,80,0,1
111512,-74.0740740740741,4,2,1,80,0,1
111661,-80,4,2,1,80,0,1
113740,-66.6666666666667,4,2,11,80,0,1
113777,-66.6666666666667,4,2,11,5,0,1
113814,-66.6666666666667,4,2,1,80,0,1
113851,-66.6666666666667,4,2,1,5,0,1
113888,-66.6666666666667,4,2,1,80,0,1
113925,-66.6666666666667,4,2,1,5,0,1
113963,-66.6666666666667,4,2,1,80,0,1
114000,-66.6666666666667,4,2,1,5,0,1
114037,-66.6666666666667,4,2,1,80,0,0
114482,-90.9090909090909,4,2,1,80,0,0
116413,-50,4,2,7,65,0,0
116710,-100,4,2,7,65,0,0
117601,-50,4,2,7,65,0,0
117898,-100,4,2,7,65,0,0
118492,-83.3333333333333,4,2,7,65,0,0
118789,-50,4,2,7,65,0,0
119086,-100,4,2,7,65,0,0
119977,-50,4,2,7,65,0,0
120274,-100,4,2,7,65,0,0
120571,-133.333333333333,4,2,7,65,0,0
120682,-133.333333333333,4,2,7,5,0,0
120720,-83.3333333333333,4,2,7,65,0,0
120831,-83.3333333333333,4,2,7,5,0,0
120868,-133.333333333333,4,2,7,65,0,0
120979,-133.333333333333,4,2,7,5,0,0
121017,-80,4,2,7,65,0,0
121128,-80,4,2,7,5,0,0
121166,-50,4,2,7,65,0,0
121463,-100,4,2,7,65,0,0
122354,-50,4,2,7,65,0,0
122651,-100,4,2,7,65,0,0
123245,-83.3333333333333,4,2,7,65,0,0
123542,-50,4,2,7,65,0,0
123839,-100,4,2,7,65,0,0
124730,-50,4,2,7,65,0,0
125027,-100,4,2,7,65,0,0
125918,-100,4,2,9,65,0,0
134235,-61.7283950617284,4,2,1,65,0,0
134680,-61.7283950617284,4,2,1,5,0,0
134829,-15.3846153846154,4,2,1,75,0,0
134866,-15.3846153846154,4,2,1,5,0,0
134903,-15.3846153846154,4,2,1,75,0,0
134940,-15.3846153846154,4,2,1,5,0,0
134977,-15.3846153846154,4,2,1,75,0,0
135014,-15.3846153846154,4,2,1,5,0,0
135052,-15.3846153846154,4,2,1,75,0,0
135089,-15.3846153846154,4,2,1,5,0,0
135126,-15.3846153846154,4,2,1,75,0,0
135163,-15.3846153846154,4,2,1,5,0,0
135200,-15.3846153846154,4,2,1,75,0,0
135237,-15.3846153846154,4,2,1,5,0,0
135274,-15.3846153846154,4,2,1,75,0,0
135312,-15.3846153846154,4,2,1,5,0,0
135349,-15.3846153846154,4,2,1,75,0,0
135386,-15.3846153846154,4,2,1,5,0,0
135423,-50,4,2,1,70,0,0
136314,-66.6666666666667,4,2,1,70,0,0
136351,-66.6666666666667,4,2,1,5,0,0
136388,-66.6666666666667,4,2,1,70,0,0
136425,-66.6666666666667,4,2,1,5,0,0
136463,-66.6666666666667,4,2,1,70,0,0
136500,-66.6666666666667,4,2,1,5,0,0
136537,-66.6666666666667,4,2,1,70,0,0
136574,-66.6666666666667,4,2,1,5,0,0
136611,-66.6666666666667,4,2,1,70,0,0
137205,-50,4,2,1,70,0,0
137502,-66.6666666666667,4,2,1,70,0,0
137539,-66.6666666666667,4,2,1,5,0,0
137576,-66.6666666666667,4,2,1,70,0,0
137613,-66.6666666666667,4,2,1,5,0,0
137651,-66.6666666666667,4,2,1,70,0,0
137688,-66.6666666666667,4,2,1,5,0,0
137725,-66.6666666666667,4,2,1,70,0,0
137762,-66.6666666666667,4,2,1,5,0,0
137799,-66.6666666666667,4,2,1,70,0,0
137836,-66.6666666666667,4,2,1,5,0,0
137873,-66.6666666666667,4,2,1,70,0,0
137910,-66.6666666666667,4,2,1,5,0,0
137948,-66.6666666666667,4,2,1,70,0,0
137985,-66.6666666666667,4,2,1,5,0,0
138022,-66.6666666666667,4,2,1,70,0,0
138059,-66.6666666666667,4,2,1,5,0,0
138096,-66.6666666666667,4,2,1,70,0,0
138393,-80,4,2,1,70,0,0
138739,-80,4,2,1,5,0,0
138789,-80,4,2,1,70,0,0
138888,-66.6666666666667,4,2,1,70,0,0
138937,-66.6666666666667,4,2,1,5,0,0
138987,-66.6666666666667,4,2,1,70,0,0
139321,-66.6666666666667,4,2,1,5,0,0
139359,-66.6666666666667,4,2,1,70,0,0
139618,-66.6666666666667,4,2,1,5,0,0
139656,-80,4,2,1,70,0,0
139693,-80,4,2,1,5,0,0
139730,-80,4,2,1,70,0,0
139767,-80,4,2,1,5,0,0
139804,-80,4,2,1,70,0,0
139841,-80,4,2,1,5,0,0
139878,-66.6666666666667,4,2,1,70,0,0
140212,-66.6666666666667,4,2,1,5,0,0
140250,-66.6666666666667,4,2,1,70,0,0
140509,-66.6666666666667,4,2,1,5,0,0
140621,-66.6666666666667,4,2,1,70,0,0
140769,-57.1428571428571,4,2,1,70,0,0
140806,-57.1428571428571,4,2,1,5,0,0
140844,-57.1428571428571,4,2,1,70,0,0
140881,-57.1428571428571,4,2,1,5,0,0
140918,-57.1428571428571,4,2,1,70,0,0
141029,-57.1428571428571,4,2,1,5,0,0
141066,-55.5555555555556,4,2,1,70,0,0
141364,-80,4,2,1,70,0,0
141958,-66.6666666666667,4,2,1,70,0,0
143294,-90.9090909090909,4,2,1,70,0,0
143740,-66.6666666666667,4,2,1,70,0,0
145522,-90.9090909090909,4,2,1,70,0,0
145559,-90.9090909090909,4,2,1,5,0,0
145596,-90.9090909090909,4,2,1,70,0,0
145633,-90.9090909090909,4,2,1,5,0,0
145670,-90.9090909090909,4,2,1,70,0,0
145707,-90.9090909090909,4,2,1,5,0,0
145745,-90.9090909090909,4,2,1,70,0,0
145782,-90.9090909090909,4,2,1,5,0,0
145819,-90.9090909090909,4,2,1,70,0,0
147156,-80,4,2,1,70,0,0
147267,-80,4,2,1,5,0,0
147304,-66.6666666666667,4,2,1,70,0,0
147972,-80,4,2,1,70,0,0
148492,-57.1428571428571,4,2,1,70,0,0
149755,-50,4,2,1,70,0,0
150646,-40,4,2,1,70,0,0
150683,-40,4,2,1,5,0,0
150720,-36.3636363636364,4,2,1,70,0,0
150757,-36.3636363636364,4,2,1,5,0,0
150794,-33.3333333333333,4,2,1,70,0,0
150831,-33.3333333333333,4,2,1,5,0,0
150868,-40,4,2,1,70,0,0
151463,-66.6666666666667,4,2,1,70,0,0
151500,-66.6666666666667,4,2,1,5,0,0
151537,-66.6666666666667,4,2,1,70,0,0
151574,-66.6666666666667,4,2,1,5,0,0
151611,-50,4,2,1,70,0,0
151648,-50,4,2,1,5,0,0
151685,-50,4,2,1,70,0,0
151722,-50,4,2,1,5,0,0
151760,-57.1428571428571,4,2,1,70,0,0
152057,-90.9090909090909,4,2,1,70,0,0
152354,-83.3333333333333,4,2,1,70,0,0
152651,-74.0740740740741,4,2,1,70,0,0
153022,-57.1428571428571,4,2,1,70,0,0
154433,-66.6666666666667,4,2,1,65,0,0
154730,-100,4,2,1,65,0,0
154878,-66.6666666666667,4,2,1,65,0,0
155918,-100,4,2,1,65,0,0
156066,-66.6666666666667,4,2,1,65,0,0
156364,-100,4,2,1,65,0,0
156809,-66.6666666666667,4,2,1,65,0,0
157106,-100,4,2,1,65,0,0
157255,-66.6666666666667,4,2,1,65,0,0
157700,-57.1428571428571,4,2,1,65,0,0
157997,-66.6666666666667,4,2,1,65,0,0
158294,-100,4,2,1,65,0,0
158443,-66.6666666666667,4,2,1,65,0,0
158591,-66.6666666666667,4,2,11,65,0,0
158666,-66.6666666666667,4,2,11,65,0,0
158888,-66.6666666666667,4,2,1,65,0,0
159185,-66.6666666666667,4,2,1,65,0,0
160373,-83.3333333333333,4,2,1,65,0,0
162750,-83.3333333333333,4,2,1,55,0,0
163047,-133.333333333333,4,2,1,55,0,0
163344,-133.333333333333,4,2,2,70,0,0
163641,-66.6666666666667,4,2,2,70,0,0
163938,-83.3333333333333,4,2,10,80,0,1
164012,-83.3333333333333,4,2,1,80,0,1
164086,-83.3333333333333,4,2,1,80,0,1
164161,-83.3333333333333,4,2,1,80,0,1
173146,-66.6666666666667,4,2,1,80,0,1
173443,-83.3333333333333,4,2,1,80,0,1
182651,-76.9230769230769,4,2,1,80,0,1
182948,-83.3333333333333,4,2,1,80,0,1
185027,-100,4,2,1,80,0,1
186512,-76.9230769230769,4,2,1,80,0,1
187700,-86.9565217391304,4,2,1,80,0,1
188146,-83.3333333333333,4,2,1,80,0,1
188591,-80,4,2,1,80,0,1
189037,-76.9230769230769,4,2,1,80,0,1
189928,-100,4,2,1,80,0,1
190076,-90.9090909090909,4,2,1,80,0,1
191562,-76.9230769230769,4,2,1,80,0,1
191859,-83.3333333333333,4,2,1,80,0,1
192007,-90.9090909090909,4,2,1,80,0,1
192453,-83.3333333333333,4,2,1,80,0,1
193492,-90.9090909090909,4,2,1,80,0,1
193641,-83.3333333333333,4,2,1,80,0,1
194532,-90.9090909090909,4,2,1,80,0,1
194569,-90.9090909090909,4,2,1,5,0,1
194606,-100,4,2,1,80,0,1
194643,-100,4,2,1,5,0,1
194680,-100,4,2,1,80,0,1
194829,-83.3333333333333,4,2,1,80,0,1
196425,-83.3333333333333,4,2,1,5,0,1
196463,-83.3333333333333,4,2,1,80,0,1
196500,-83.3333333333333,4,2,1,5,0,1
196611,-83.3333333333333,4,2,1,80,0,1
196760,-90.9090909090909,4,2,1,80,0,1
199581,-90.9090909090909,4,2,1,80,0,0
200769,-100,4,2,1,80,0,0
200844,-100,4,2,1,5,0,0
200918,-90.9090909090909,4,2,1,80,0,0
201958,-50,4,2,2,90,0,0
203740,-100,4,2,2,90,0,0
203888,-40,4,2,2,90,0,0
204334,-50,4,2,2,90,0,0
205819,-25,4,2,2,90,0,0
206116,-40,4,2,2,90,0,0
206339,-40,4,2,2,5,0,0
206413,-40,4,2,2,90,0,0
206636,-40,4,2,2,5,0,0
206710,-50,4,2,2,90,0,0
208492,-100,4,2,2,90,0,0
208641,-40,4,2,2,90,0,0
209086,-100,4,2,2,90,0,0
209235,-40,4,2,2,90,0,0
209606,-40,4,2,2,5,0,0
209680,-40,4,2,2,90,0,0
209829,-66.6666666666667,4,2,2,90,0,0
209977,-40,4,2,2,90,0,0
210126,-66.6666666666667,4,2,2,90,0,0
210274,-50,4,2,2,90,0,0
211017,-100,4,2,2,90,0,0
211165,-33.3333333333333,4,2,2,90,0,0
211314,-50,4,2,2,5,0,0
211463,-40,4,2,2,85,0,0
211611,-57.1428571428571,4,2,2,85,0,0
212057,-66.6666666666667,4,2,2,85,0,0
212948,-80,4,2,2,85,0,0
213393,-50,4,2,2,85,0,0
213839,-66.6666666666667,4,2,2,85,0,0
214730,-80,4,2,2,85,0,0
215027,-66.6666666666667,4,2,2,85,0,0
215175,-100,4,2,2,85,0,0
215324,-66.6666666666667,4,2,2,85,0,0
215472,-100,4,2,2,85,0,0
215918,-66.6666666666667,4,2,2,85,0,0
216958,-80,4,2,2,85,0,0
217403,-62.5,4,2,2,85,0,0
217552,-80,4,2,2,85,0,0
218591,-50,4,2,2,80,0,0
219482,-57.1428571428571,4,2,2,80,0,0
219631,-66.6666666666667,4,2,2,80,0,0
219779,-66.6666666666667,4,2,5,60,0,0
220076,-66.6666666666667,4,2,6,70,0,0
220113,-66.6666666666667,4,2,6,5,0,0
220151,-66.6666666666667,4,2,6,70,0,0
220188,-66.6666666666667,4,2,6,5,0,0
220225,-66.6666666666667,4,2,6,70,0,0
220262,-66.6666666666667,4,2,6,5,0,0
220299,-66.6666666666667,4,2,6,70,0,0
220336,-66.6666666666667,4,2,6,5,0,0
220373,-57.1428571428571,4,2,2,80,0,0
220448,-57.1428571428571,4,2,4,80,0,0
220595,-57.1428571428571,4,2,4,5,0,0
220670,-57.1428571428571,4,2,2,80,0,0
220745,-57.1428571428571,4,2,4,80,0,0
220892,-57.1428571428571,4,2,4,5,0,0
220967,-200,4,2,1,40,0,0
221636,-200,4,2,1,5,0,0
221710,-200,4,2,1,40,0,0
222007,-303.030303030303,4,2,1,40,0,0
222527,-303.030303030303,4,2,1,5,0,0
222601,-303.030303030303,4,2,1,40,0,0
222750,-200,4,2,1,35,0,0
222898,-200,4,2,1,30,0,0
223047,-200,4,2,1,25,0,0
223195,-200,4,2,1,20,0,0
223344,-200,4,2,1,40,0,0
229878,-166.666666666667,4,2,1,40,0,0
230472,-200,4,2,1,40,0,0
231512,-303.030303030303,4,2,1,40,0,0
232032,-303.030303030303,4,2,1,5,0,0
232106,-303.030303030303,4,2,1,40,0,0
232255,-200,4,2,1,35,0,0
232403,-200,4,2,1,30,0,0
232552,-200,4,2,1,25,0,0
232700,-200,4,2,1,20,0,0
232849,-200,4,2,1,40,0,0
233443,-200,4,2,1,40,0,0
234037,-200,4,2,1,40,0,0
235225,-200,4,2,1,40,0,0
236413,-200,4,2,1,45,0,0
237601,-200,4,2,1,50,0,0
238492,-200,4,2,1,55,0,0
239383,-166.666666666667,4,2,1,60,0,0
239977,-166.666666666667,4,2,3,55,0,0
240274,-133.333333333333,4,2,3,55,0,0
242205,-133.333333333333,4,2,3,60,0,0
242354,-133.333333333333,4,2,3,55,0,0
244581,-133.333333333333,4,2,3,60,0,0
244730,-133.333333333333,4,2,3,55,0,0
246958,-133.333333333333,4,2,3,60,0,0
247106,-133.333333333333,4,2,3,55,0,0
248888,-100,4,2,3,60,0,0
249482,-100,4,2,3,55,0,0
251710,-100,4,2,3,60,0,0
251859,-100,4,2,3,55,0,0
252156,-125,4,2,3,55,0,0
254086,-125,4,2,3,60,0,0
254235,-125,4,2,3,55,0,0
256463,-125,4,2,3,60,0,0
256611,-125,4,2,3,55,0,0
258393,-100,4,2,3,55,0,0
258839,-125,4,2,3,55,0,0
258987,-125,4,2,1,55,0,0
259136,-125,4,2,1,55,0,0
259878,-125,4,2,1,55,0,0
260175,-125,4,2,1,55,0,0
263740,-125,4,2,3,60,0,0
266116,-125,4,2,3,60,0,0
267304,-125,4,2,4,50,0,0
268195,-66.6666666666667,4,2,4,50,0,0
268492,-66.6666666666667,4,2,4,40,0,0
268641,-133.333333333333,4,2,4,40,0,0
270274,-133.333333333333,4,2,4,50,0,0
270423,-133.333333333333,4,2,4,55,0,0
270571,-80,4,2,4,60,0,0
270608,-80,4,2,4,5,0,0
270646,-100,4,2,4,65,0,0
270683,-100,4,2,4,5,0,0
270720,-100,4,2,4,70,0,0
270757,-100,4,2,4,5,0,0
270794,-100,4,2,4,80,0,0
270831,-100,4,2,4,5,0,0
270868,-80,4,2,10,85,0,1
270943,-80,4,2,1,85,0,1
271016,-80,4,2,1,85,0,1
271091,-80,4,2,1,85,0,1
280076,-62.5,4,2,1,85,0,1
280373,-80,4,2,1,85,0,1
289581,-74.0740740740741,4,2,1,85,0,1
289878,-80,4,2,1,85,0,1
290918,-66.6666666666667,4,2,1,85,0,1
291958,-62.5,4,2,11,85,0,1
292106,-62.5,4,2,1,85,0,1
292255,-62.5,4,2,1,65,0,1
292552,-62.5,4,2,1,70,0,1
292849,-62.5,4,2,1,75,0,1
293146,-62.5,4,2,1,80,0,1
293443,-74.0740740740741,4,2,1,85,0,1
294185,-74.0740740740741,4,2,11,85,0,1
294482,-74.0740740740741,4,2,1,85,0,1
294631,-83.3333333333333,4,2,1,85,0,1
295076,-80,4,2,1,85,0,1
295522,-76.9230769230769,4,2,1,85,0,1
295967,-74.0740740740741,4,2,1,85,0,1
296710,-62.5,4,2,11,85,0,1
296858,-62.5,4,2,1,85,0,1
297007,-86.9565217391304,4,2,1,85,0,1
297304,-86.9565217391304,4,2,1,65,0,1
297601,-86.9565217391304,4,2,1,70,0,1
297898,-86.9565217391304,4,2,1,75,0,1
298195,-86.9565217391304,4,2,1,80,0,1
298492,-68.9655172413793,4,2,1,85,0,1
298789,-80,4,2,11,85,0,1
298826,-80,4,2,11,5,0,1
298864,-80,4,2,11,85,0,1
298901,-80,4,2,11,5,0,1
298938,-80,4,2,11,85,0,1
298975,-80,4,2,11,5,0,1
299086,-62.5,4,2,11,85,0,1
299234,-62.5,4,2,1,85,0,1
299383,-62.5,4,2,1,85,0,1
300571,-80,4,2,1,85,0,1
301463,-62.5,4,2,11,85,0,1
301611,-62.5,4,2,1,85,0,1
301760,-80,4,2,1,85,0,1
302799,-66.6666666666667,4,2,1,85,0,1
303096,-80,4,2,1,85,0,1
303282,-80,4,2,1,5,0,1
303319,-80,4,2,1,85,0,1
303356,-80,4,2,1,5,0,1
303393,-80,4,2,1,85,0,1
303690,-62.5,4,2,11,85,0,1
303987,-62.5,4,2,1,85,0,1
305324,-40,4,2,1,85,0,1
305361,-40,4,2,1,5,0,1
305398,-41.6666666666667,4,2,1,85,0,1
305435,-41.6666666666667,4,2,1,5,0,1
305472,-43.4782608695652,4,2,1,85,0,1
305509,-43.4782608695652,4,2,1,5,0,1
305547,-45.4545454545455,4,2,1,85,0,1
305584,-45.4545454545455,4,2,1,5,0,1
305621,-47.6190476190476,4,2,1,85,0,1
305658,-47.6190476190476,4,2,1,5,0,1
305695,-50,4,2,1,85,0,1
305732,-50,4,2,1,5,0,1
305769,-52.6315789473684,4,2,1,85,0,1
305806,-52.6315789473684,4,2,1,5,0,1
305844,-55.5555555555556,4,2,1,85,0,1
305918,-52.6315789473684,4,2,1,85,0,1
305992,-50,4,2,1,85,0,1
306066,-47.6190476190476,4,2,1,85,0,1
306141,-45.4545454545455,4,2,1,85,0,1
306215,-43.4782608695652,4,2,11,85,0,1
306289,-41.6666666666667,4,2,1,85,0,1
306364,-40,4,2,1,85,0,1
306438,-38.4615384615385,4,2,1,85,0,1
306512,-38.4615384615385,4,2,1,85,0,0
306958,-86.9565217391304,4,2,1,85,0,0
308591,-86.9565217391304,4,2,1,50,0,0
308740,-86.9565217391304,4,2,1,75,0,0
308888,-1000,4,2,1,75,0,0
309185,-1000,4,2,1,60,0,0
318393,-1000,4,2,1,53,0,0
319581,-1000,4,2,1,46,0,0
320769,-1000,4,2,1,39,0,0
321958,-1000,4,2,1,32,0,0
323146,-1000,4,2,1,25,0,0
324334,-1000,4,2,1,18,0,0
325522,-1000,4,2,1,11,0,0
326710,-1000,4,2,1,5,0,0
327749,-1000,4,2,1,5,0,0
327824,-99.9999999999809,4,2,1,5,0,0

[Colours]
Combo1 : 173,255,95
Combo2 : 193,132,255
Combo3 : 17,254,176
Combo4 : 255,138,108

[HitObjects]
512,192,1166,6,0,L|472:201,1,37.5000000000001,0|0,3:0|0:0,0:0:0:0:
286,242,1463,6,0,B|268:233|268:233|249:233,1,37.5000000000001,8|0,3:0|0:0,0:0:0:0:
0,305,1760,6,0,B|69:296|39:343|132:335,1,125,8|0,0:0|0:0,0:0:0:0:
162,328,1982,1,0,0:0:0:0:
156,375,2057,5,2,0:0:0:0:
156,375,2131,1,2,0:0:0:0:
156,375,2205,1,2,0:0:0:0:
156,375,2279,1,2,0:0:0:0:
202,367,2354,6,0,L|248:358,1,31.25,2|0,0:0|2:0,0:0:0:0:
348,318,2502,1,2,0:0:0:0:
256,367,2651,6,0,L|302:370,1,31.25,2|0,0:0|2:0,0:0:0:0:
348,318,2799,1,2,0:0:0:0:
202,367,2948,6,0,L|248:358,1,31.25,2|0,0:0|2:0,0:0:0:0:
348,318,3096,1,2,0:0:0:0:
256,367,3245,6,0,L|302:358,1,31.25,2|0,0:0|2:0,0:0:0:0:
348,318,3393,1,2,0:0:0:0:
202,367,3542,6,0,L|248:358,1,31.25,2|0,0:0|2:0,0:0:0:0:
348,318,3690,1,2,0:0:0:0:
256,367,3839,6,0,L|298:346,1,31.25,2|0,0:0|2:0,0:0:0:0:
348,318,3987,1,2,0:0:0:0:
255,4,4284,6,0,B|303:62|292:150|221:107|208:186|256:240,1,262.5,2|0,0:0|2:0,0:0:0:0:
254,272,4581,2,0,P|272:266|286:253,1,37.5,2|0,0:0|2:0,0:0:0:0:
400,192,4730,6,0,L|354:183,1,28,2|0,0:0|2:0,0:0:0:0:
276,142,4878,1,2,0:0:0:0:
346,192,5027,6,0,L|300:195,1,28,2|0,0:0|2:0,0:0:0:0:
276,142,5175,1,2,0:0:0:0:
400,192,5324,6,0,L|353:195,1,28,2|0,0:0|2:0,0:0:0:0:
276,142,5472,1,2,0:0:0:0:
346,192,5621,6,0,L|300:195,1,28,2|0,0:0|2:0,0:0:0:0:
276,142,5769,1,2,0:0:0:0:
400,192,5918,6,0,L|355:207,1,28,2|0,0:0|2:0,0:0:0:0:
276,142,6066,1,2,0:0:0:0:
346,192,6215,6,0,L|300:195,1,28,2|0,0:0|2:0,0:0:0:0:
276,142,6364,1,2,0:0:0:0:
0,192,6661,6,0,B|52:148|131:158|92:222|164:234|212:191,1,236.25,2|0,0:0|2:0,0:0:0:0:
218,206,6958,2,0,P|212:189|201:177,1,33.75,2|0,0:0|2:0,0:0:0:0:
132,38,7106,6,0,L|140:64,1,25,2|0,0:0|2:0,0:0:0:0:
80,165,7255,1,2,0:0:0:0:
132,92,7403,6,0,L|122:137,1,25,2|0,0:0|2:0,0:0:0:0:
80,165,7552,1,2,0:0:0:0:
132,38,7700,6,0,L|135:85,1,25,2|0,0:0|2:0,0:0:0:0:
80,165,7849,1,2,0:0:0:0:
132,92,7997,6,0,L|135:138,1,25,2|0,0:0|2:0,0:0:0:0:
80,165,8146,1,2,0:0:0:0:
132,38,8294,6,0,L|126:65,1,25,2|0,0:0|2:0,0:0:0:0:
80,165,8443,1,2,0:0:0:0:
132,91,8591,6,0,L|146:135,1,25,2|0,0:0|2:0,0:0:0:0:
80,165,8740,1,2,0:0:0:0:
257,380,9037,6,0,B|209:322|220:234|291:277|304:198|256:144,1,262.5,2|0,0:0|2:0,0:0:0:0:
208,94,9334,2,0,P|225:79|252:72,1,43.75,2|0,0:0|2:0,0:0:0:0:
244,72,9482,1,0,0:0:0:0:
511,192,9631,6,2,B|413:113|266:130|338:249|206:270|116:192,1,437.5,2|0,0:0|0:0,0:0:0:0:
55,150,10076,6,0,L|71:192,1,43.75,2|0,0:0|2:0,0:0:0:0:
90,333,10225,6,0,P|101:322|98:295,1,25,2|0,0:0|2:0,0:0:0:0:
29,165,10373,6,0,L|44:206,1,37.5,2|0,0:0|2:0,0:0:0:0:
90,333,10522,6,0,P|85:317|61:307,1,25,2|0,0:0|2:0,0:0:0:0:
23,268,10670,6,0,L|189:282,1,150,2|2,3:0|0:0,0:0:0:0:
244,283,10893,1,2,0:0:0:0:
208,310,10967,1,10,3:0:0:0:
172,280,11042,1,2,0:0:0:0:
202,257,11116,5,2,0:0:0:0:
208,309,11190,1,2,0:0:0:0:
206,352,11265,6,0,B|286:350|256:374|360:370,1,150,10|2,0:0|0:0,0:0:0:0:
367,376,11463,5,2,0:0:0:0:
378,367,11512,5,2,0:0:0:0:
390,375,11562,5,2,0:0:0:0:
467,375,11710,2,0,L|475:335,1,25,2|0,0:0|2:0,0:0:0:0:
455,197,11859,6,0,B|478:184|512:191|512:191|482:166,1,75,2|0,0:0|0:0,0:0:0:0:
383,185,12007,6,0,L|331:208,1,50,2|0,0:0|0:0,0:0:0:0:
257,186,12156,5,2,0:0:0:0:
244,201,12230,1,2,0:0:0:0:
226,193,12304,1,2,0:0:0:0:
211,206,12378,1,2,0:0:0:0:
185,204,12453,6,0,P|161:206|136:204,1,50,2|0,0:0|0:0,0:0:0:0:
41,204,12601,2,0,P|65:206|90:204,1,50,2|0,0:0|0:0,0:0:0:0:
107,273,12750,6,0,L|112:248,1,25,2|0,0:0|0:0,0:0:0:0:
113,205,12898,2,0,L|118:180,1,25,2|0,0:0|0:0,0:0:0:0:
45,97,13047,6,0,P|69:95|78:121,1,50,2|0,0:0|0:0,0:0:0:0:
189,97,13195,2,0,P|165:95|156:121,1,50,2|0,0:0|0:0,0:0:0:0:
117,40,13344,6,0,L|112:15,1,25,2|0,0:0|0:0,0:0:0:0:
124,1,13492,2,0,L|129:26,1,25,2|0,0:0|0:0,0:0:0:0:
393,39,13789,6,0,P|343:133|291:37,1,262.5,2|0,0:0|2:0,0:0:0:0:
323,49,14086,2,0,P|341:52|359:49,1,37.5,2|0,0:0|2:0,0:0:0:0:
500,0,14235,6,0,P|480:14|471:37,1,50,2|0,0:0|0:0,0:0:0:0:
501,102,14383,2,0,L|479:146,1,50,2|0,0:0|0:0,0:0:0:0:
501,222,14532,5,2,0:0:0:0:
488,237,14606,1,2,0:0:0:0:
494,256,14680,1,2,0:0:0:0:
478,267,14755,1,2,0:0:0:0:
481,291,14829,6,0,P|474:320|458:349,1,50,2|0,0:0|0:0,0:0:0:0:
319,291,14977,2,0,P|312:320|296:349,1,50,2|0,0:0|0:0,0:0:0:0:
399,316,15126,5,2,0:0:0:0:
393,309,15200,1,2,0:0:0:0:
386,316,15274,1,2,0:0:0:0:
393,322,15349,1,2,0:0:0:0:
393,316,15423,6,0,L|402:258,1,50,2|0,0:0|0:0,0:0:0:0:
322,199,15571,6,0,P|313:206|301:210,1,25,2|0,0:0|0:0,0:0:0:0:
397,235,15720,6,0,L|406:177,1,50,2|0,0:0|0:0,0:0:0:0:
350,112,15868,6,0,P|339:105|333:94,1,25,2|0,0:0|0:0,0:0:0:0:
239,41,16017,5,2,0:0:0:0:
256,23,16091,1,2,0:0:0:0:
231,29,16166,5,2,0:0:0:0:
248,11,16240,1,2,0:0:0:0:
223,17,16314,6,0,B|170:17|190:52|112:37,1,100,2|2,0:0|0:0,0:0:0:0:
0,110,16611,6,0,B|51:105|37:150|113:128,1,100,10|2,3:2|0:0,0:0:0:0:
92,328,16908,1,10,3:2:0:0:
81,356,16982,1,2,0:0:0:0:
52,353,17057,1,2,0:0:0:0:
47,325,17131,1,2,0:0:0:0:
70,310,17205,6,0,P|83:289|91:258,1,50,10|0,3:2|0:0,0:0:0:0:
166,150,17354,1,2,0:0:0:0:
81,224,17502,6,0,P|99:229|114:228,1,32.9999999999999,10|0,3:2|0:0,0:0:0:0:
184,239,17651,2,0,P|202:244|217:243,1,32.9999999999999,2|0,0:0|0:0,0:0:0:0:
304,255,17799,6,0,L|348:309,1,50,10|0,3:2|0:0,0:0:0:0:
385,356,17948,1,2,0:0:0:0:
304,255,18096,6,0,L|348:201,1,50,10|0,3:2|0:0,0:0:0:0:
385,154,18245,1,2,3:2:0:0:
459,239,18393,5,10,3:2:0:0:
480,270,18467,1,2,3:2:0:0:
449,291,18542,1,2,3:2:0:0:
428,259,18616,1,2,3:2:0:0:
414,255,18690,5,10,3:2:0:0:
445,303,18765,1,2,3:2:0:0:
493,272,18839,1,10,3:2:0:0:
462,225,18913,1,2,3:2:0:0:
465,211,18987,6,0,L|473:161,1,50,10|0,3:2|0:0,0:0:0:0:
309,148,19136,2,0,L|317:98,1,50,10|0,3:2|0:0,0:0:0:0:
157,89,19284,2,0,L|165:39,1,50,10|0,3:2|0:0,0:0:0:0:
164,39,19581,6,0,P|184:58|210:65,1,50,10|0,3:2|0:0,0:0:0:0:
115,147,19730,6,0,P|135:166|165:168,1,50,10|0,3:2|0:0,0:0:0:0:
78,228,19878,6,0,P|98:247|126:246,1,50,10|0,3:2|0:0,0:0:0:0:
47,295,20027,6,0,P|67:314|93:316,1,50,10|0,3:2|0:0,0:0:0:0:
31,328,20175,5,8,0:0:0:0:
72,349,20250,1,8,0:0:0:0:
111,328,20324,1,8,0:0:0:0:
152,349,20398,1,8,0:0:0:0:
191,328,20472,5,8,0:0:0:0:
181,314,20547,1,8,0:0:0:0:
195,314,20621,5,8,0:0:0:0:
185,300,20695,1,8,0:0:0:0:
199,283,20769,6,0,B|254:269|254:269|275:292|275:292|336:274,1,150,8|0,3:2|3:0,0:0:0:0:
390,225,20992,1,0,3:0:0:0:
376,263,21066,5,8,3:2:0:0:
334,275,21141,1,8,3:2:0:0:
293,258,21215,1,0,3:0:0:0:
286,202,21289,1,0,3:0:0:0:
293,208,21364,5,4,3:2:0:0:
66,32,21512,5,10,0:3:0:0:
106,98,21809,5,10,0:3:0:0:
168,53,22106,5,10,0:3:0:0:
208,119,22403,5,10,0:3:0:0:
279,133,22700,5,10,0:3:0:0:
341,88,22997,5,10,0:3:0:0:
381,154,23294,5,10,0:3:0:0:
287,335,23443,1,0,3:0:0:0:
452,168,23591,5,10,0:3:0:0:
381,154,23888,5,10,0:3:0:0:
341,88,24185,5,10,0:3:0:0:
279,133,24482,5,10,0:3:0:0:
208,119,24631,1,0,3:0:0:0:
193,124,24705,1,0,3:0:0:0:
178,129,24779,1,10,3:0:0:0:
167,138,24854,1,0,3:0:0:0:
167,138,24928,6,0,L|145:53,1,75.0000000000002,0|0,3:0|3:0,0:0:0:0:
3,165,25225,1,8,0:0:0:0:
88,129,25373,5,0,3:0:0:0:
83,147,25448,1,8,0:0:0:0:
78,165,25522,1,0,3:0:0:0:
73,183,25596,1,8,0:0:0:0:
69,201,25670,2,0,P|73:220|108:253,1,37.5000000000001,0|0,3:0|3:0,0:0:0:0:
142,283,25819,6,0,B|201:331|297:267|251:219|206:311,1,150,8|0,0:0|3:0,0:0:0:0:
220,285,26042,1,0,3:0:0:0:
227,283,26116,2,0,P|208:307|201:344,1,50,4|0,3:2|0:0,0:0:0:0:
319,246,26265,6,0,P|365:266|415:269,1,100,10|0,0:3|3:0,0:0:0:0:
338,207,26562,6,0,P|381:203|437:174,1,100,10|0,0:3|3:0,0:0:0:0:
471,150,26784,1,0,0:0:0:0:
481,142,26859,1,10,0:3:0:0:
400,89,27007,6,0,P|376:132|338:163,1,100,0|10,3:0|0:3,0:0:0:0:
400,89,27304,1,0,3:0:0:0:
300,120,27453,6,0,P|312:72|307:22,1,100,10|0,0:3|3:0,0:0:0:0:
188,27,27750,6,0,P|223:62|245:108,1,100,10|0,0:3|3:0,0:0:0:0:
200,173,27972,1,0,0:0:0:0:
191,136,28047,6,0,P|168:126|144:124,1,50,10|0,0:3|0:0,0:0:0:0:
88,248,28195,6,0,P|124:214|171:197,1,100,0|10,3:0|0:3,0:0:0:0:
318,214,28492,1,0,3:0:0:0:
202,259,28641,6,0,P|184:305|186:355,1,100,10|0,0:3|3:0,0:0:0:0:
262,357,28864,1,0,0:0:0:0:
262,357,28938,2,0,P|289:346|335:349,1,50,10|0,0:3|0:0,0:0:0:0:
339,348,29086,6,0,P|300:317|275:275,1,100,0|10,3:0|0:3,0:0:0:0:
322,210,29309,1,0,0:0:0:0:
334,225,29383,5,0,3:0:0:0:
383,229,29458,1,0,3:0:0:0:
431,216,29532,1,10,3:0:0:0:
468,246,29606,5,0,3:0:0:0:
420,259,29680,1,0,3:0:0:0:
417,337,29829,6,0,P|420:358|436:383,1,37.5000000000001,0|0,3:0|0:0,0:0:0:0:
498,372,29977,2,0,P|505:355|508:336,1,37.5000000000001,8|0,0:0|0:0,0:0:0:0:
503,292,30126,1,0,3:0:0:0:
503,292,30200,1,8,0:0:0:0:
503,292,30274,6,0,B|518:259|518:259|460:158|460:158|476:126,1,187.5,0|0,3:0|3:0,0:0:0:0:
413,69,30571,6,0,B|386:42|386:42|449:6|449:6|522:13|522:13|510:51,1,225,8|8,0:0|0:0,0:0:0:0:
479,130,30868,6,0,P|456:140|413:144,1,50,4|0,3:2|0:0,0:0:0:0:
245,98,31017,1,10,0:3:0:0:
223,71,31091,5,0,0:0:0:0:
223,70,31166,2,0,P|209:91|216:122,1,50,0|0,3:0|0:0,0:0:0:0:
319,131,31314,6,0,P|316:106|329:86,1,50,10|0,0:3|0:0,0:0:0:0:
242,233,31463,1,0,3:0:0:0:
208,221,31537,1,0,0:0:0:0:
235,197,31611,6,0,L|295:218,1,50,10|0,0:3|0:0,0:0:0:0:
362,335,31760,5,0,3:0:0:0:
321,345,31834,1,0,0:0:0:0:
285,313,31908,1,10,0:3:0:0:
257,319,31982,1,0,0:0:0:0:
234,354,32057,5,0,3:0:0:0:
244,313,32131,1,0,0:0:0:0:
135,231,32279,1,0,0:0:0:0:
114,197,32354,5,0,3:0:0:0:
108,225,32428,1,0,0:0:0:0:
102,253,32502,1,10,0:3:0:0:
39,366,32651,5,0,3:0:0:0:
34,351,32725,1,0,0:0:0:0:
39,337,32799,2,0,P|67:327|119:328,1,50,10|0,0:3|0:0,0:0:0:0:
21,206,32948,5,0,3:0:0:0:
21,206,33022,1,0,0:0:0:0:
12,177,33096,1,10,0:3:0:0:
35,144,33170,1,0,0:0:0:0:
17,102,33245,5,0,3:0:0:0:
36,61,33319,1,0,0:0:0:0:
6,73,33393,6,0,L|16:15,1,50,10|0,0:3|0:0,0:0:0:0:
174,56,33542,1,0,3:0:0:0:
174,56,33616,1,0,0:0:0:0:
135,74,33690,6,0,L|143:24,1,50,10|0,0:3|0:0,0:0:0:0:
204,165,33839,1,0,3:0:0:0:
200,150,33913,1,0,0:0:0:0:
196,135,33987,6,0,L|246:143,1,50,10|0,0:3|0:0,0:0:0:0:
415,176,34136,5,0,3:0:0:0:
363,194,34210,1,0,3:0:0:0:
321,158,34284,1,10,3:0:0:0:
377,144,34359,1,0,3:0:0:0:
377,144,34433,5,0,3:0:0:0:
325,85,34581,1,0,3:0:0:0:
476,34,34730,1,8,0:0:0:0:
361,43,34878,2,0,L|304:56,1,37.5000000000001,0|8,3:0|0:0,0:0:0:0:
393,36,35027,2,0,L|429:27,1,37.5000000000001,0|8,3:0|0:0,0:0:0:0:
490,71,35175,5,0,3:0:0:0:
490,83,35250,1,0,3:0:0:0:
490,131,35324,6,0,B|472:167|472:167|504:229|504:229|482:271,1,150,8|0,0:0|3:0,0:0:0:0:
466,297,35547,1,0,3:0:0:0:
447,330,35621,6,0,P|450:282|387:239,1,100,4|2,3:2|0:0,0:0:0:0:
207,357,35918,2,0,P|250:335|265:289,1,100,8|2,3:2|0:0,0:0:0:0:
320,114,36215,5,8,3:2:0:0:
326,143,36289,1,0,0:0:0:0:
332,172,36364,2,0,L|342:220,1,50,2|0,0:0|0:0,0:0:0:0:
370,351,36512,1,8,3:2:0:0:
370,351,36661,2,0,P|345:334|335:294,1,50,2|0,0:0|0:0,0:0:0:0:
235,258,36809,6,0,P|257:271|269:293,1,50,8|0,3:2|0:0,0:0:0:0:
249,155,36958,2,0,P|212:187|164:184,1,100,2|8,0:0|3:2,0:0:0:0:
132,167,37180,1,0,0:0:0:0:
114,134,37255,2,0,L|119:70,1,50,2|0,0:0|0:0,0:0:0:0:
229,36,37403,5,8,3:2:0:0:
227,60,37477,1,0,0:0:0:0:
225,85,37552,1,2,0:0:0:0:
163,3,37700,2,0,P|143:13|105:7,1,50,8|0,3:2|0:0,0:0:0:0:
0,34,37849,2,0,P|24:35|47:25,1,50,2|0,3:2|0:0,0:0:0:0:
80,7,37997,5,8,3:2:0:0:
0,153,38146,2,0,B|-4:178|-4:178|14:200,1,50,10|0,3:2|0:0,0:0:0:0:
87,296,38294,1,8,3:2:0:0:
249,250,38443,1,10,3:2:0:0:
89,323,38591,5,8,3:2:0:0:
137,296,38665,1,8,3:2:0:0:
192,302,38740,1,10,3:2:0:0:
236,333,38814,1,8,3:2:0:0:
256,384,38888,5,8,3:2:0:0:
276,333,38963,1,8,3:2:0:0:
320,302,39037,1,10,3:2:0:0:
375,296,39111,1,8,3:2:0:0:
423,323,39185,6,0,L|443:232,1,75.0000000000002,0|0,3:0|3:0,0:0:0:0:
426,214,39408,1,0,3:0:0:0:
381,191,39482,6,0,P|437:165|431:101,1,100,8|0,0:0|3:0,0:0:0:0:
431,110,39705,1,0,3:0:0:0:
400,102,39779,6,0,B|345:102|345:102|335:113|335:113|261:113,1,125,0|0,3:0|3:0,0:0:0:0:
62,107,40076,6,0,L|77:60,1,37.5000000000001,8|0,0:0|0:0,0:0:0:0:
62,119,40225,2,0,L|77:166,1,37.5000000000001,0|8,3:0|0:0,0:0:0:0:
145,113,40373,6,0,P|165:127|189:126,1,50,6|0,3:2|0:0,0:0:0:0:
215,57,40522,2,0,P|237:47|250:26,1,50,10|0,0:3|0:0,0:0:0:0:
149,117,40670,2,0,P|169:131|193:130,1,50,10|0,0:0|0:0,0:0:0:0:
240,188,40819,2,0,P|264:187|284:201,1,50,10|0,0:3|0:0,0:0:0:0:
351,266,40967,6,0,L|367:317,2,50,2|0|0,3:0|0:0|0:0,0:0:0:0:
497,208,41265,2,0,B|394:191|442:262|335:242,1,165,10|0,0:0|0:0,0:0:0:0:
249,263,41562,5,2,3:0:0:0:
253,213,41636,1,2,0:0:0:0:
295,241,41710,1,10,0:3:0:0:
172,384,41859,6,0,L|163:335,1,50,10|0,0:0|0:0,0:0:0:0:
243,384,42007,6,0,L|234:335,1,45,10|0,0:3|0:0,0:0:0:0:
162,227,42156,6,0,P|202:255|267:253,1,100,2|10,3:0|0:3,0:0:0:0:
289,240,42378,1,0,0:0:0:0:
255,218,42453,5,10,0:0:0:0:
244,169,42527,1,0,3:0:0:0:
261,122,42601,1,10,3:0:0:0:
310,113,42675,1,0,3:0:0:0:
325,127,42750,6,0,L|335:195,1,50,2|0,3:0|0:0,0:0:0:0:
397,127,42898,2,0,L|407:195,1,50,2|0,3:0|0:0,0:0:0:0:
457,291,43047,6,0,B|445:222|495:268|465:154,1,110,8|0,0:0|3:0,0:0:0:0:
438,180,43269,1,0,3:0:0:0:
404,176,43344,6,0,L|397:127,1,50,2|0,3:0|0:0,0:0:0:0:
336,180,43492,2,0,L|329:131,1,50,2|0,3:0|0:0,0:0:0:0:
396,30,43641,6,0,B|378:53|378:53|292:58,1,115,8|2,0:0|3:0,0:0:0:0:
116,58,43938,5,2,3:0:0:0:
163,46,44012,1,2,3:0:0:0:
210,34,44086,1,2,3:0:0:0:
196,80,44161,1,2,3:0:0:0:
183,127,44235,6,0,B|177:154|177:154|217:254,1,100,2|2,3:0|3:0,0:0:0:0:
269,384,44532,6,0,L|277:339,1,45,2|0,3:0|0:0,0:0:0:0:
340,384,44680,2,0,L|348:339,1,45,2|0,3:0|0:0,0:0:0:0:
362,267,44829,5,2,3:0:0:0:
403,239,44903,1,0,3:0:0:0:
422,192,44977,1,0,3:0:0:0:
407,143,45052,1,0,3:0:0:0:
365,116,45126,6,0,P|339:134|338:158,1,50,6|0,3:2|0:0,0:0:0:0:
279,194,45274,2,0,P|281:225|301:238,1,50,10|0,0:3|0:0,0:0:0:0:
192,300,45423,6,0,P|209:283|234:284,1,50,10|0,0:0|0:0,0:0:0:0:
294,236,45571,2,0,P|277:218|279:194,1,50,10|0,0:3|0:0,0:0:0:0:
232,113,45720,6,0,L|217:42,1,50,2|0,3:0|0:0,0:0:0:0:
221,64,45868,1,0,0:0:0:0:
372,0,46017,2,0,B|286:-15|306:48|215:32,1,165,10|0,0:0|0:0,0:0:0:0:
117,50,46314,5,2,3:0:0:0:
125,0,46388,1,2,0:0:0:0:
165,32,46463,1,10,0:3:0:0:
12,110,46611,6,0,L|64:104,1,45,10|0,0:0|0:0,0:0:0:0:
30,251,46760,6,0,L|79:245,1,50,10|0,0:3|0:0,0:0:0:0:
156,164,46908,5,2,3:0:0:0:
169,144,46982,1,8,0:3:0:0:
180,166,47057,2,0,L|170:236,1,50,10|0,0:3|0:0,0:0:0:0:
68,174,47205,6,0,L|19:180,1,50,10|0,0:0|0:0,0:0:0:0:
34,255,47354,6,0,L|78:249,1,45,10|0,0:3|0:0,0:0:0:0:
220,238,47502,6,0,P|236:255|233:286,1,50,2|0,3:0|0:0,0:0:0:0:
167,303,47651,2,0,P|150:284|151:260,1,50,2|0,3:0|0:0,0:0:0:0:
177,217,47799,6,0,P|225:210|277:181,1,100,8|2,0:0|3:0,0:0:0:0:
329,146,48022,1,0,3:0:0:0:
297,116,48096,6,0,P|284:136|289:160,1,50,2|0,3:0|0:0,0:0:0:0:
361,176,48245,1,10,3:0:0:0:
373,155,48319,1,8,0:3:0:0:
368,131,48393,1,8,0:3:0:0:
323,241,48542,6,0,P|332:264|360:282,1,50,2|0,3:0|0:0,0:0:0:0:
414,292,48690,5,2,3:0:0:0:
368,293,48765,1,2,3:0:0:0:
330,317,48839,1,2,3:0:0:0:
298,349,48913,1,2,3:0:0:0:
254,363,48987,6,0,P|226:356|208:345,1,50,2|2,3:0|0:0,0:0:0:0:
181,317,49136,2,0,P|161:301|138:291,1,50,2|2,3:0|0:0,0:0:0:0:
97,292,49284,5,2,3:0:0:0:
256,256,49433,1,2,3:0:0:0:
150,142,49581,5,2,3:0:0:0:
129,190,49656,1,0,3:0:0:0:
166,230,49730,1,0,3:0:0:0:
183,178,49804,1,0,3:0:0:0:
150,142,49878,5,6,3:2:0:0:
284,86,50027,1,10,0:3:0:0:
400,220,50175,2,0,B|389:245|389:245|362:253,1,50,10|0,0:0|0:0,0:0:0:0:
266,276,50324,1,10,0:3:0:0:
336,145,50472,5,2,3:0:0:0:
336,145,50547,1,2,0:0:0:0:
336,145,50621,1,0,0:0:0:0:
452,153,50769,2,0,L|427:338,1,150,10|0,0:0|0:0,0:0:0:0:
373,350,51066,5,2,3:0:0:0:
326,370,51141,1,2,0:0:0:0:
281,346,51215,1,10,0:3:0:0:
107,374,51364,1,10,0:0:0:0:
186,261,51512,1,10,0:3:0:0:
209,350,51661,5,2,3:0:0:0:
125,303,51809,1,10,0:3:0:0:
85,282,51883,1,0,0:0:0:0:
43,300,51958,1,10,0:0:0:0:
111,378,52106,1,10,0:3:0:0:
41,313,52255,6,0,L|23:255,1,45,2|0,3:0|0:0,0:0:0:0:
66,208,52403,2,0,L|48:150,1,45,2|0,3:0|0:0,0:0:0:0:
43,87,52552,6,0,B|104:92|104:92|122:147,1,120,8|0,0:0|3:0,0:0:0:0:
23,198,52774,1,0,3:0:0:0:
56,169,52849,6,0,L|70:212,1,45,2|0,3:0|0:0,0:0:0:0:
122,112,52997,2,0,L|136:155,1,45,2|0,3:0|0:0,0:0:0:0:
168,257,53146,6,0,B|178:286|178:286|146:336|146:336|157:367,1,120,8|2,0:0|3:0,0:0:0:0:
239,178,53443,5,2,3:0:0:0:
257,139,53517,1,2,3:0:0:0:
298,145,53591,1,2,3:0:0:0:
305,187,53665,1,2,3:0:0:0:
267,205,53740,6,0,P|248:225|247:269,1,50,10|0,0:0|0:0,0:0:0:0:
253,322,53888,1,2,3:0:0:0:
253,322,54037,6,0,P|268:337|302:341,1,50,2|0,3:0|0:0,0:0:0:0:
369,362,54185,2,0,L|382:297,1,50,2|0,3:0|0:0,0:0:0:0:
396,224,54334,5,10,0:0:0:0:
406,175,54408,1,0,3:0:0:0:
455,185,54482,1,0,3:0:0:0:
444,234,54557,1,0,3:0:0:0:
493,245,54631,5,14,3:2:0:0:
478,107,54779,1,2,0:0:0:0:
299,43,54928,2,0,B|283:62|283:62|292:98,1,50,10|0,3:2|0:0,0:0:0:0:
314,181,55076,1,2,0:0:0:0:
421,50,55225,5,10,3:2:0:0:
421,50,55299,1,2,0:0:0:0:
421,50,55373,1,0,0:0:0:0:
400,133,55522,2,0,P|337:109|261:113,1,100,10|2,3:2|0:0,0:0:0:0:
79,107,55819,5,10,3:2:0:0:
116,75,55893,1,2,0:0:0:0:
157,58,55967,1,2,0:0:0:0:
197,53,56042,1,2,0:0:0:0:
179,83,56116,5,10,3:2:0:0:
176,117,56190,2,0,P|175:138|197:165,1,50,2|2,0:0|0:0,0:0:0:0:
226,195,56339,5,10,3:2:0:0:
175,176,56413,1,10,3:2:0:0:
132,210,56487,1,2,0:0:0:0:
183,229,56562,2,0,P|186:261|167:292,1,50,2|2,0:0|0:0,0:0:0:0:
149,319,56710,5,10,3:2:0:0:
206,301,56784,1,10,3:2:0:0:
248,344,56859,1,10,3:2:0:0:
305,326,56933,1,10,3:2:0:0:
347,369,57007,6,0,P|365:380|388:380,1,45,10|0,3:2|0:0,0:0:0:0:
350,373,57156,2,0,P|369:362|380:342,1,45,10|0,3:2|0:0,0:0:0:0:
437,145,57304,6,0,B|444:182|444:182|424:223|424:223|431:260,1,120,0|10,3:0|3:2,0:0:0:0:
452,332,57527,1,8,3:2:0:0:
478,285,57601,6,0,P|492:276|503:231,1,50,10|0,3:2|0:0,0:0:0:0:
452,332,57750,2,0,P|466:339|511:326,1,50,10|0,3:2|0:0,0:0:0:0:
354,203,57898,6,0,B|350:184|350:184|360:164|360:164|357:145,1,60,0|0,3:0|0:0,0:0:0:0:
343,15,58047,2,0,B|346:33|346:33|336:54|336:54|340:72,1,60,10|0,3:2|0:0,0:0:0:0:
354,203,58195,5,10,3:2:0:0:
324,255,58269,1,10,3:2:0:0:
294,307,58344,1,10,3:2:0:0:
236,291,58418,1,10,3:2:0:0:
178,277,58492,1,10,3:2:0:0:
303,328,58641,5,10,3:2:0:0:
271,211,58789,5,10,3:2:0:0:
286,185,58864,1,8,3:2:0:0:
257,193,58938,2,0,L|181:215,1,60,12|8,3:2|3:2,0:0:0:0:
97,240,59086,5,12,3:2:0:0:
109,301,59161,1,0,3:0:0:0:
120,360,59235,1,0,3:0:0:0:
60,372,59309,1,0,3:0:0:0:
0,384,59383,6,0,L|239:375,1,200,4|4,3:2|0:3,0:0:0:0:
280,371,59606,1,4,0:3:0:0:
295,372,59680,6,0,L|302:323,1,50,8|0,3:3|0:0,0:0:0:0:
336,258,59829,1,4,0:3:0:0:
355,263,59903,6,0,L|362:214,1,50,8|0,0:3|3:0,0:0:0:0:
263,163,60052,1,4,0:3:0:0:
284,176,60126,6,0,L|291:127,1,50,8|0,0:3|0:0,0:0:0:0:
142,198,60274,1,4,3:3:0:0:
167,215,60349,6,0,L|174:166,2,50,8|4|8,0:3|0:3|0:3,0:0:0:0:
0,384,60571,6,0,L|196:349,1,200,0|4,3:0|0:3,0:0:0:0:
276,332,60794,1,4,0:3:0:0:
290,330,60868,6,0,L|297:281,1,50,8|0,3:3|0:0,0:0:0:0:
340,222,61017,1,4,0:3:0:0:
359,227,61091,6,0,L|366:178,1,50,8|0,0:3|3:0,0:0:0:0:
266,129,61240,1,4,0:3:0:0:
287,142,61314,6,0,L|294:93,1,50,8|0,0:3|0:0,0:0:0:0:
148,175,61463,6,0,P|118:177|95:195,1,60,8|0,3:3|0:0,0:0:0:0:
25,254,61611,2,0,P|7:275|5:310,1,60,8|0,0:3|0:0,0:0:0:0:
0,384,61760,6,0,L|190:321,1,200,0|4,3:0|0:3,0:0:0:0:
265,296,61982,1,4,0:3:0:0:
279,290,62057,6,0,L|286:241,1,50,8|0,3:3|0:0,0:0:0:0:
329,183,62205,1,4,0:3:0:0:
348,188,62279,6,0,L|355:139,1,50,8|0,0:3|3:0,0:0:0:0:
245,119,62428,1,4,0:3:0:0:
266,132,62502,6,0,L|273:83,1,50,8|0,0:3|0:0,0:0:0:0:
133,166,62651,1,4,3:3:0:0:
158,183,62725,6,0,L|165:134,2,50,8|4|8,0:3|0:3|0:3,0:0:0:0:
0,384,62948,6,0,L|179:296,1,200,0|4,3:0|0:3,0:0:0:0:
251,261,63170,1,4,0:3:0:0:
264,254,63245,6,0,L|271:205,1,50,8|0,3:3|0:0,0:0:0:0:
332,165,63393,1,4,0:3:0:0:
351,170,63467,1,8,0:3:0:0:
358,120,63542,6,0,P|374:95|413:93,1,56.2500000000001,0|0,3:0|2:0,0:0:0:0:
412,90,63690,6,0,P|447:109|461:166,1,90,8|0,0:3|2:0,0:0:0:0:
462,172,63839,6,0,P|453:200|426:220,1,56.2500000000001,0|0,3:0|2:0,0:0:0:0:
413,284,63987,6,0,B|410:333|410:333|438:371,1,93.75,8|0,0:3|2:0,0:0:0:0:
512,384,64136,6,0,L|273:375,1,200,0|4,3:0|0:3,0:0:0:0:
232,371,64359,1,4,0:3:0:0:
217,372,64433,6,0,L|210:323,1,50,8|0,3:3|0:0,0:0:0:0:
176,258,64581,1,4,0:3:0:0:
150,214,64656,6,0,L|157:263,1,50,8|0,0:3|3:0,0:0:0:0:
249,163,64804,1,4,0:3:0:0:
228,176,64878,6,0,L|221:127,1,50,8|0,0:3|0:0,0:0:0:0:
370,198,65027,1,4,3:3:0:0:
338,166,65101,6,0,L|345:215,2,50,8|4|8,0:3|0:3|0:3,0:0:0:0:
512,384,65324,6,0,L|316:349,1,200,0|4,3:0|0:3,0:0:0:0:
236,332,65547,1,4,0:3:0:0:
222,330,65621,6,0,L|215:281,1,50,8|0,3:3|0:0,0:0:0:0:
172,222,65769,1,4,0:3:0:0:
146,178,65844,6,0,L|153:227,1,50,8|0,0:3|3:0,0:0:0:0:
246,129,65992,1,4,0:3:0:0:
225,142,66066,6,0,L|218:93,1,50,8|0,0:3|0:0,0:0:0:0:
364,175,66215,6,0,P|394:177|417:195,1,60,8|0,3:3|0:0,0:0:0:0:
487,254,66364,2,0,P|505:275|507:310,1,60,8|0,0:3|0:0,0:0:0:0:
512,384,66512,6,0,L|322:321,1,200,0|4,3:0|0:3,0:0:0:0:
247,296,66735,1,4,0:3:0:0:
233,290,66809,6,0,L|226:241,1,50,8|0,3:3|0:0,0:0:0:0:
183,183,66958,1,4,0:3:0:0:
157,139,67032,6,0,L|164:188,1,50,8|0,0:3|3:0,0:0:0:0:
267,119,67180,1,4,0:3:0:0:
246,132,67255,6,0,L|239:83,1,50,8|0,0:3|0:0,0:0:0:0:
379,166,67403,1,4,3:3:0:0:
347,134,67477,6,0,L|354:183,2,50,8|4|8,0:3|0:3|0:3,0:0:0:0:
512,384,67700,6,0,L|333:296,1,200,0|4,3:0|0:3,0:0:0:0:
361,338,67923,1,4,0:3:0:0:
397,384,67997,6,0,B|434:307|434:307|457:295|457:295|496:213,1,200,8|4,3:3|0:3,0:0:0:0:
459,168,68220,1,8,0:3:0:0:
423,122,68294,5,0,3:0:0:0:
459,93,68368,1,0,0:0:0:0:
495,64,68443,1,8,0:3:0:0:
451,47,68517,1,0,0:0:0:0:
408,31,68591,5,0,3:0:0:0:
397,38,68666,1,0,0:0:0:0:
388,46,68740,1,8,0:3:0:0:
378,54,68814,1,0,0:0:0:0:
369,63,68888,6,0,L|302:86,1,50,4|0,3:2|0:0,0:0:0:0:
300,173,69037,2,0,L|233:196,1,50,4|4,0:3|0:3,0:0:0:0:
126,186,69185,6,0,P|174:178|217:201,1,100,8|4,3:3|0:3,0:0:0:0:
245,226,69408,1,8,0:3:0:0:
243,283,69482,5,0,3:0:0:0:
251,302,69557,1,4,0:3:0:0:
305,285,69631,5,8,0:3:0:0:
313,304,69705,1,0,0:0:0:0:
367,287,69779,5,4,3:3:0:0:
375,305,69854,2,0,B|396:260|396:260|382:212,1,100,8|8,0:3|0:3,0:0:0:0:
350,376,70076,5,0,3:0:0:0:
303,374,70151,1,0,0:0:0:0:
257,373,70225,1,4,0:3:0:0:
91,342,70373,5,8,3:3:0:0:
115,321,70448,1,0,0:0:0:0:
137,343,70522,5,4,0:3:0:0:
161,322,70596,1,8,0:3:0:0:
184,345,70670,6,0,B|220:302|220:302|202:248,1,110,0|8,3:0|0:3,0:0:0:0:
170,154,70893,1,0,0:0:0:0:
163,187,70967,6,0,P|137:203|107:203,1,60,8|0,3:3|0:0,0:0:0:0:
83,101,71116,2,0,P|109:85|139:85,1,60,8|0,0:3|0:0,0:0:0:0:
240,125,71265,5,0,3:0:0:0:
240,125,71339,1,0,0:0:0:0:
277,132,71413,5,4,0:3:0:0:
264,96,71487,1,4,0:3:0:0:
252,59,71562,1,8,3:3:0:0:
349,111,71710,5,4,0:3:0:0:
336,75,71784,2,0,L|389:55,1,37.5,8|0,0:3|2:0,0:0:0:0:
324,38,71859,2,0,B|370:77|370:77|431:55,1,120,0|8,3:0|0:3,0:0:0:0:
460,204,72156,5,4,3:3:0:0:
441,227,72230,2,0,P|412:186|420:136,1,100,8|8,0:3|0:3,0:0:0:0:
472,301,72453,6,0,P|419:274|348:296,1,100,0|4,3:0|0:3,0:0:0:0:
360,356,72675,1,4,0:3:0:0:
410,353,72750,6,0,P|357:326|286:348,1,100,8|4,3:3|0:3,0:0:0:0:
273,351,72972,1,8,0:3:0:0:
231,324,73047,5,0,3:0:0:0:
219,341,73121,1,0,0:0:0:0:
214,312,73195,1,8,0:3:0:0:
202,329,73269,1,0,0:0:0:0:
152,336,73344,5,0,3:0:0:0:
57,274,73492,2,0,P|75:257|99:250,1,50,8|0,0:3|0:0,0:0:0:0:
175,240,73641,5,0,3:0:0:0:
218,234,73715,1,0,0:0:0:0:
261,229,73789,1,4,0:3:0:0:
303,224,73864,1,4,0:3:0:0:
278,190,73938,5,8,3:3:0:0:
252,156,74012,5,0,0:0:0:0:
225,121,74086,1,4,0:3:0:0:
209,162,74161,1,8,0:3:0:0:
192,202,74235,5,0,3:0:0:0:
295,150,74383,2,0,B|312:102|312:102|283:57,1,100,8|4,0:3|3:3,0:0:0:0:
204,52,74606,2,0,B|178:56|178:56|166:80,1,50,8|4,0:3|0:3,0:0:0:0:
166,168,74755,1,8,0:3:0:0:
165,168,74829,6,0,P|116:164|73:140,1,100,0|4,3:0|0:3,0:0:0:0:
207,254,75126,5,8,3:3:0:0:
246,274,75200,1,0,0:0:0:0:
290,275,75274,1,4,0:3:0:0:
327,249,75349,1,8,0:3:0:0:
337,205,75423,5,0,3:0:0:0:
367,233,75497,1,4,0:3:0:0:
377,194,75571,1,8,0:3:0:0:
407,222,75646,1,0,0:0:0:0:
417,183,75720,5,8,3:3:0:0:
474,362,75868,1,8,0:3:0:0:
484,325,75943,2,0,L|431:336,1,37.5,0|0,0:0|2:0,0:0:0:0:
494,288,76017,6,0,L|339:321,1,150,0|4,3:0|0:3,0:0:0:0:
294,330,76240,1,4,0:3:0:0:
268,336,76314,6,0,P|234:288|252:231,1,120,8|4,3:3|0:3,0:0:0:0:
299,157,76537,1,8,0:3:0:0:
308,173,76611,6,0,L|299:228,1,50,0|4,3:0|0:3,0:0:0:0:
392,152,76760,2,0,L|383:207,1,50,8|0,0:3|0:0,0:0:0:0:
431,214,76908,1,4,3:3:0:0:
467,180,76982,6,0,P|472:152|483:81,1,100,8|8,0:3|0:3,0:0:0:0:
495,0,77205,1,0,3:0:0:0:
495,0,77354,5,4,0:3:0:0:
495,0,77428,1,4,0:3:0:0:
495,0,77502,2,0,P|465:11|437:10,1,37.5000000000001,8|4,3:3|0:3,0:0:0:0:
408,65,77651,5,4,0:3:0:0:
408,65,77725,1,8,0:3:0:0:
408,65,77799,5,0,3:0:0:0:
372,76,77873,1,4,0:3:0:0:
329,90,77948,1,8,0:3:0:0:
279,106,78022,1,4,0:3:0:0:
223,122,78096,6,0,P|123:117|131:16,1,225,8|0,3:2|0:0,0:0:0:0:
256,0,78393,6,0,P|205:30|144:39,1,120,6|8,3:2|0:3,0:0:0:0:
110,30,78616,1,0,0:0:0:0:
110,30,78690,2,0,L|201:108,1,120,10|8,0:0|0:3,0:0:0:0:
332,220,78987,1,2,3:0:0:0:
169,265,79136,1,8,0:3:0:0:
262,184,79284,2,0,P|260:214|253:243,1,60,10|0,0:0|0:0,0:0:0:0:
171,334,79433,6,0,B|268:315|251:395|345:360,1,180,10|0,0:3|0:0,0:0:0:0:
400,320,79730,1,10,0:3:0:0:
443,349,79804,1,2,0:0:0:0:
492,330,79878,2,0,L|502:270,1,60,10|0,0:0|0:0,0:0:0:0:
327,143,80027,1,10,0:3:0:0:
259,383,80175,6,0,L|249:323,1,60,2|0,3:0|0:0,0:0:0:0:
332,220,80324,1,10,0:3:0:0:
119,195,80472,2,0,P|151:182|195:179,1,60,10|0,0:0|0:0,0:0:0:0:
183,2,80621,2,0,P|210:23|234:59,1,60,10|0,0:3|0:0,0:0:0:0:
331,147,80769,6,0,B|259:136|292:206|187:190,1,120,2|8,3:0|0:3,0:0:0:0:
146,162,80992,1,0,0:0:0:0:
173,139,81066,2,0,L|151:63,1,60,10|0,0:0|0:0,0:0:0:0:
13,186,81215,1,8,0:3:0:0:
46,172,81289,1,0,0:0:0:0:
40,207,81364,2,0,L|23:304,1,60,2|0,3:0|0:0,0:0:0:0:
90,368,81512,1,8,0:3:0:0:
102,347,81586,1,0,0:0:0:0:
99,323,81661,1,10,0:0:0:0:
279,254,81809,6,0,B|381:241|340:327|446:313,1,180,10|0,0:3|0:0,0:0:0:0:
501,276,82106,1,10,0:3:0:0:
477,227,82180,1,2,0:0:0:0:
422,227,82255,2,0,P|388:225|358:213,1,60,10|0,0:0|0:0,0:0:0:0:
185,124,82403,1,10,0:3:0:0:
382,132,82552,6,0,P|353:141|323:142,1,60,2|0,3:0|0:0,0:0:0:0:
174,47,82700,1,10,0:3:0:0:
200,273,82849,2,0,L|210:213,1,60,10|0,0:0|0:0,0:0:0:0:
259,35,82997,2,0,L|249:95,1,60,10|0,0:3|0:0,0:0:0:0:
282,203,83146,6,0,P|323:243|311:310,1,120,2|8,3:0|0:3,0:0:0:0:
103,229,83443,2,0,L|223:247,1,120,10|8,0:0|0:3,0:0:0:0:
495,369,83740,2,0,L|376:351,1,120,2|8,3:0|0:3,0:0:0:0:
403,327,83963,1,0,0:0:0:0:
403,327,84037,2,0,L|421:252,1,60,10|0,0:0|0:0,0:0:0:0:
327,43,84185,6,0,B|323:144|376:121|360:216,1,180,10|0,0:3|0:0,0:0:0:0:
437,196,84482,1,10,0:3:0:0:
474,156,84557,1,2,0:0:0:0:
443,110,84631,2,0,P|413:116|383:112,1,60,10|0,0:0|0:0,0:0:0:0:
181,73,84779,1,10,0:3:0:0:
72,267,84928,6,0,P|102:261|132:265,1,60,2|0,3:0|0:0,0:0:0:0:
253,300,85076,1,10,0:3:0:0:
100,189,85225,2,0,L|109:129,1,60,10|0,0:0|0:0,0:0:0:0:
256,53,85373,2,0,L|247:113,1,60,10|0,0:3|0:0,0:0:0:0:
183,205,85522,6,0,P|249:213|308:180,1,120,2|8,3:0|0:3,0:0:0:0:
321,114,85745,1,0,0:0:0:0:
328,158,85819,2,0,P|392:137|417:80,1,120,10|8,0:0|0:3,0:0:0:0:
377,34,86042,1,0,0:0:0:0:
424,23,86116,2,0,P|475:52|483:116,1,120,2|8,3:0|0:3,0:0:0:0:
463,184,86339,1,0,0:0:0:0:
423,220,86413,1,10,0:0:0:0:
171,314,86562,6,0,B|273:299|235:369|349:348,1,180,10|0,0:3|0:0,0:0:0:0:
409,322,86859,1,10,0:3:0:0:
436,276,86933,1,2,0:0:0:0:
419,224,87007,2,0,P|389:226|363:241,1,60,10|0,0:0|0:0,0:0:0:0:
212,376,87156,2,0,P|241:373|267:358,1,60,8|0,0:3|0:0,0:0:0:0:
268,162,87304,6,0,L|199:151,1,60,2|0,3:0|0:0,0:0:0:0:
0,193,87453,2,0,L|69:204,1,60,10|0,0:3|0:0,0:0:0:0:
274,246,87601,6,0,P|204:258|126:292,1,150,10|10,0:0|0:3,0:0:0:0:
254,49,87898,6,0,P|324:37|402:3,1,120,6|8,3:2|0:3,0:0:0:0:
408,0,88121,1,0,0:0:0:0:
408,0,88195,2,0,P|451:54|444:147,1,120,10|8,0:0|0:3,0:0:0:0:
357,298,88492,5,2,3:0:0:0:
392,136,88641,1,8,0:3:0:0:
273,168,88789,2,0,P|301:177|331:180,1,60,10|0,0:0|0:0,0:0:0:0:
476,217,88938,6,0,B|394:201|385:268|294:250,1,180,10|0,0:3|0:0,0:0:0:0:
230,254,89235,1,10,0:3:0:0:
184,225,89309,1,2,0:0:0:0:
168,173,89383,2,0,L|188:99,1,60,10|0,0:0|0:0,0:0:0:0:
373,20,89532,1,10,0:3:0:0:
257,86,89680,6,0,P|281:80|316:61,1,60,2|0,3:0|0:0,0:0:0:0:
450,16,89829,1,10,0:3:0:0:
311,148,89977,2,0,P|296:176|291:212,1,60,10|0,0:0|0:0,0:0:0:0:
342,371,90126,2,0,P|355:342|359:306,1,59.9999981689454,10|0,0:3|0:0,0:0:0:0:
406,257,90274,6,0,P|350:263|287:290,1,120,2|8,3:0|0:3,0:0:0:0:
222,331,90497,1,0,0:0:0:0:
199,359,90571,2,0,L|188:299,1,60,10|0,0:0|0:0,0:0:0:0:
132,182,90720,1,8,0:3:0:0:
158,206,90794,1,0,0:0:0:0:
129,225,90868,2,0,L|111:297,1,60,2|0,3:0|0:0,0:0:0:0:
45,384,91017,1,8,0:3:0:0:
27,366,91091,1,0,0:0:0:0:
24,342,91166,1,10,0:0:0:0:
77,65,91314,6,0,B|91:185|22:130|51:261,1,180,10|0,0:3|0:0,0:0:0:0:
118,286,91611,1,10,0:3:0:0:
165,311,91685,1,2,0:0:0:0:
215,289,91760,2,0,P|228:261|233:217,1,60,10|0,0:0|0:0,0:0:0:0:
274,30,91908,1,10,0:3:0:0:
149,100,92057,6,0,P|179:97|207:86,1,60,2|0,3:0|0:0,0:0:0:0:
349,10,92205,1,10,0:3:0:0:
309,226,92354,2,0,L|316:166,1,60,10|0,0:0|0:0,0:0:0:0:
429,0,92502,2,0,L|421:59,1,60,10|0,0:3|0:0,0:0:0:0:
355,141,92651,6,0,L|504:131,1,120,2|8,3:0|0:3,0:0:0:0:
501,131,92873,1,0,0:0:0:0:
506,105,92948,2,0,P|481:158|488:248,1,120,10|8,0:0|0:3,0:0:0:0:
493,240,93170,1,0,0:0:0:0:
512,259,93245,2,0,P|475:303|408:265,1,120,2|8,3:0|0:3,0:0:0:0:
397,290,93467,1,0,0:0:0:0:
374,292,93542,2,0,L|296:312,1,60,10|0,0:0|0:0,0:0:0:0:
64,318,93690,6,0,B|172:301|139:376|268:359,1,180,10|0,0:3|0:0,0:0:0:0:
300,327,93987,1,10,0:3:0:0:
306,272,94062,1,2,0:0:0:0:
276,227,94136,2,0,P|248:230|208:244,1,60,10|0,0:0|0:0,0:0:0:0:
64,318,94284,1,10,0:3:0:0:
147,97,94433,6,0,L|153:187,1,60,2|0,3:0|0:0,0:0:0:0:
162,301,94581,1,10,0:3:0:0:
32,191,94730,2,0,P|61:200|114:193,1,60,10|0,0:0|0:0,0:0:0:0:
99,36,94878,2,0,P|119:58|169:78,1,60,10|0,0:3|0:0,0:0:0:0:
231,130,95027,6,0,L|403:157,1,120,2|8,3:0|0:3,0:0:0:0:
420,160,95250,1,0,0:0:0:0:
382,131,95324,2,0,P|344:183|357:237,1,120,10|8,0:0|0:3,0:0:0:0:
416,275,95547,1,0,0:0:0:0:
380,306,95621,2,0,P|312:298|280:255,1,120,2|8,3:0|0:3,0:0:0:0:
273,188,95844,1,0,0:0:0:0:
309,219,95918,1,10,0:0:0:0:
174,372,96066,6,0,B|191:268|140:306|159:195,1,180,10|0,0:3|0:0,0:0:0:0:
176,125,96364,1,10,0:3:0:0:
149,85,96438,1,2,0:0:0:0:
101,83,96512,2,0,L|85:188,1,60,10|0,0:0|0:0,0:0:0:0:
106,340,96661,2,0,L|115:280,1,60,10|0,0:3|0:0,0:0:0:0:
270,149,96809,6,0,P|301:134|337:130,1,60,2|0,3:0|0:0,0:0:0:0:
507,245,96958,2,0,P|476:260|440:264,1,60,10|0,0:3|0:0,0:0:0:0:
219,243,97106,6,0,P|286:245|380:284,1,140,10|10,0:0|0:3,0:0:0:0:
512,116,97403,6,0,L|439:132,1,57.5,6|0,3:2|0:0,0:0:0:0:
339,35,97552,2,0,L|396:48,1,57.5,8|0,3:0|0:0,0:0:0:0:
399,80,97700,6,0,L|417:203,1,125,10|8,0:0|0:3,0:0:0:0:
428,278,97923,1,0,0:0:0:0:
435,327,97997,5,2,3:0:0:0:
390,309,98071,1,0,0:0:0:0:
343,323,98146,1,8,0:3:0:0:
117,370,98294,2,0,P|148:367|190:397,1,62.5,10|0,0:0|0:0,0:0:0:0:
234,169,98443,6,0,B|200:264|268:258|240:354,1,187.5,10|0,0:3|0:0,0:0:0:0:
319,317,98740,1,10,0:3:0:0:
331,268,98814,1,2,0:0:0:0:
305,225,98888,2,0,P|278:239|219:246,1,62.5,10|0,0:0|0:0,0:0:0:0:
29,235,99037,1,10,0:3:0:0:
133,121,99185,6,0,L|121:215,1,62.5,2|0,3:0|0:0,0:0:0:0:
105,358,99334,1,10,0:3:0:0:
21,245,99482,6,0,B|-19:146|-19:146|1:86,1,135,14|10,0:0|0:3,0:0:0:0:
183,5,99779,6,0,P|213:10|249:38,1,62.5,2|0,3:0|0:0,0:0:0:0:
347,22,99928,2,0,P|323:41|306:83,1,62.5,8|0,0:3|0:0,0:0:0:0:
267,136,100076,2,0,P|317:167|360:235,1,125,10|8,0:0|0:3,0:0:0:0:
335,288,100299,1,0,0:0:0:0:
316,334,100373,2,0,L|172:355,1,125,2|8,3:0|0:3,0:0:0:0:
137,303,100596,1,0,0:0:0:0:
128,293,100670,1,10,0:0:0:0:
413,175,100819,6,0,B|308:171|354:247|199:227,1,187.5,10|0,0:3|0:0,0:0:0:0:
165,200,101116,1,10,0:3:0:0:
145,147,101190,1,2,0:0:0:0:
168,95,101265,2,0,L|240:80,1,62.5,10|0,0:0|0:0,0:0:0:0:
437,38,101413,5,10,0:3:0:0:
298,108,101562,1,2,3:0:0:0:
124,25,101710,6,0,B|96:45|96:45|87:77,1,67.5,14|0,0:3|0:0,0:0:0:0:
55,218,101859,2,0,B|57:253|57:253|86:282,1,67.5,14|0,0:0|0:0,0:0:0:0:
156,351,102007,1,10,0:3:0:0:
306,278,102156,5,2,3:0:0:0:
338,262,102230,1,0,0:0:0:0:
371,247,102304,2,0,B|319:244|319:244|306:233|306:233|251:230,1,125,8|10,0:3|0:0,0:0:0:0:
427,374,102601,2,0,P|399:360|376:340,1,62.5,8|0,0:3|0:0,0:0:0:0:
436,192,102750,2,0,P|440:225|457:270,1,62.5,2|0,3:0|0:0,0:0:0:0:
495,316,102898,1,8,0:3:0:0:
297,360,103047,1,10,0:0:0:0:
280,143,103195,6,0,B|390:119|358:189|475:161,1,187.5,10|0,0:3|0:0,0:0:0:0:
497,97,103492,1,10,0:3:0:0:
470,47,103566,1,2,0:0:0:0:
414,56,103641,2,0,L|332:72,1,62.5,10|0,0:0|0:0,0:0:0:0:
149,99,103789,1,10,0:3:0:0:
240,277,103938,6,0,P|250:249|252:209,1,62.5,2|0,3:0|0:0,0:0:0:0:
213,63,104086,1,10,0:3:0:0:
48,167,104235,6,0,B|144:155|144:155|185:176,1,135,14|10,0:0|0:3,0:0:0:0:
334,265,104532,5,2,3:0:0:0:
383,272,104606,1,0,0:0:0:0:
424,243,104680,1,8,0:3:0:0:
429,192,104755,1,0,0:0:0:0:
395,154,104829,2,0,L|410:24,1,125,10|8,0:0|0:3,0:0:0:0:
480,10,105052,1,0,0:0:0:0:
497,50,105126,5,2,3:0:0:0:
475,89,105200,1,0,0:0:0:0:
432,96,105274,1,8,0:3:0:0:
257,145,105423,2,0,P|287:148|333:168,1,62.5,10|0,0:0|0:0,0:0:0:0:
507,216,105571,6,0,B|389:204|442:278|290:257,1,187.5,10|0,0:3|0:0,0:0:0:0:
254,247,105868,1,10,0:3:0:0:
237,301,105943,1,2,0:0:0:0:
267,347,106017,2,0,L|335:357,1,62.5,10|0,0:0|0:0,0:0:0:0:
512,376,106166,1,10,0:3:0:0:
422,190,106314,6,0,L|418:227,1,37.5,6|0,3:2|2:0,0:0:0:0:
416,252,106388,2,0,L|412:289,1,37.5,4|0,0:0|2:0,0:0:0:0:
410,314,106463,1,14,0:3:0:0:
141,374,106611,2,0,B|96:325|96:325|138:162,1,225,14|0,0:0|0:0,0:0:0:0:
178,28,106908,5,6,3:2:0:0:
133,13,106982,1,0,0:0:0:0:
89,26,107057,1,8,0:3:0:0:
58,61,107131,1,0,0:0:0:0:
53,108,107205,1,10,0:0:0:0:
239,234,107354,1,8,0:3:0:0:
235,196,107428,1,0,0:0:0:0:
231,158,107502,6,0,L|159:168,1,62.5,2|0,3:0|0:0,0:0:0:0:
30,234,107651,2,0,L|102:244,1,62.5,8|0,0:3|0:0,0:0:0:0:
242,263,107799,1,10,0:0:0:0:
370,72,107948,6,0,B|373:187|322:140|318:251,1,187.5,10|0,0:3|0:0,0:0:0:0:
388,278,108245,1,10,0:3:0:0:
436,249,108319,1,2,0:0:0:0:
436,192,108393,2,0,P|410:175|380:168,1,62.5,10|0,0:0|0:0,0:0:0:0:
235,162,108542,1,10,0:3:0:0:
236,13,108690,6,0,L|263:76,1,62.5,2|0,3:0|0:0,0:0:0:0:
333,223,108839,1,10,0:3:0:0:
376,58,108987,6,0,B|288:93|288:93|201:76,1,135,14|10,0:0|0:3,0:0:0:0:
86,34,109284,5,2,3:0:0:0:
39,41,109359,1,0,0:0:0:0:
10,78,109433,1,8,0:3:0:0:
5,124,109507,1,0,0:0:0:0:
35,160,109581,2,0,L|65:317,1,125,10|8,0:0|0:3,0:0:0:0:
73,357,109804,1,0,0:0:0:0:
87,315,109878,5,2,3:0:0:0:
127,297,109953,1,0,0:0:0:0:
170,303,110027,1,8,0:3:0:0:
351,349,110175,2,0,P|322:352|282:333,1,62.5,10|0,0:0|0:0,0:0:0:0:
123,223,110324,6,0,B|219:211|201:276|315:267,1,187.5,10|0,0:3|0:0,0:0:0:0:
364,226,110621,1,10,0:3:0:0:
413,221,110695,1,2,0:0:0:0:
447,257,110769,2,0,L|433:350,1,62.5,10|0,0:0|0:0,0:0:0:0:
234,377,110918,1,10,0:3:0:0:
370,303,111066,1,2,3:0:0:0:
204,242,111215,6,0,B|192:273|192:273|206:307,1,67.5,14|0,0:3|0:0,0:0:0:0:
327,373,111364,2,0,B|338:342|338:342|324:308,1,67.5,14|0,0:0|0:0,0:0:0:0:
283,218,111512,1,10,0:3:0:0:
360,98,111661,6,0,P|360:129|347:157,1,62.5,2|0,3:2|0:0,0:0:0:0:
221,27,111809,2,0,L|283:21,1,62.5,8|0,3:0|0:0,0:0:0:0:
415,49,111958,6,0,P|385:69|333:65,1,62.5,10|0,3:2|0:0,0:0:0:0:
194,120,112106,2,0,L|256:114,1,62.5,8|0,3:0|0:0,0:0:0:0:
286,211,112255,6,0,B|265:233|265:233|233:238,1,62.5,2|0,3:2|0:0,0:0:0:0:
122,145,112403,2,0,P|117:115|128:87,1,62.5,8|0,3:0|0:0,0:0:0:0:
292,132,112552,6,0,B|306:159|306:159|300:191,1,62.5,10|0,3:2|0:0,0:0:0:0:
29,149,112700,2,0,P|32:179|52:203,1,62.5,10|0,3:0|0:0,0:0:0:0:
112,278,112849,5,0,3:2:0:0:
124,234,112923,1,0,3:2:0:0:
100,197,112997,1,10,3:0:0:0:
52,203,113071,1,2,3:2:0:0:
47,250,113146,1,10,3:2:0:0:
75,284,113220,1,0,3:2:0:0:
120,288,113294,5,10,3:0:0:0:
132,234,113368,1,0,3:2:0:0:
103,188,113443,1,2,3:2:0:0:
50,199,113517,1,0,3:2:0:0:
40,252,113591,1,10,3:0:0:0:
73,295,113666,1,0,3:2:0:0:
141,309,113740,6,0,L|196:320,1,37.5,14|0,3:2|2:0,0:0:0:0:
209,323,113814,6,0,L|264:334,1,37.5,0|0,3:2|2:0,0:0:0:0:
277,337,113888,6,0,L|332:348,1,37.5,10|0,3:0|2:0,0:0:0:0:
345,351,113963,6,0,L|400:362,1,37.5,0|0,3:2|2:0,0:0:0:0:
413,366,114037,5,10,3:2:0:0:
372,129,114185,1,10,3:2:0:0:
99,366,114482,6,0,L|111:292,1,55,10|0,3:2|3:0,0:0:0:0:
140,129,114631,1,10,3:2:0:0:
257,313,114928,5,10,3:2:0:0:
255,71,115076,1,10,3:2:0:0:
90,285,115373,5,10,3:2:0:0:
256,384,115522,1,10,3:2:0:0:
421,285,115670,1,10,3:2:0:0:
256,191,115819,5,10,3:2:0:0:
256,192,116413,2,1,B|228:169|195:193|206:234|235:245|235:245|265:264|246:309|213:318|171:288|173:250|208:229|238:240|256:235|258:211,1,300,4|4,3:2|0:3,0:0:0:0:
324,161,116710,6,0,P|346:145|351:98,1,50,8|0,3:3|0:0,0:0:0:0:
245,85,116859,1,4,0:3:0:0:
245,85,116933,6,0,P|269:96|313:76,1,50,8|0,0:3|3:0,0:0:0:0:
161,122,117081,1,4,0:3:0:0:
170,106,117156,6,0,P|184:126|186:150,1,50,8|0,0:3|0:0,0:0:0:0:
166,238,117304,1,4,3:3:0:0:
167,271,117378,6,0,P|187:257|197:234,1,50,8|4,0:3|0:3,0:0:0:0:
217,186,117527,1,8,0:3:0:0:
256,192,117601,6,1,B|366:203|366:203|285:282|273:377,1,300,0|4,3:0|0:3,0:0:0:0:
347,376,117898,6,0,P|355:343|367:321,1,50,8|0,3:3|0:0,0:0:0:0:
464,347,118047,1,4,0:3:0:0:
464,347,118121,6,0,P|439:323|426:302,1,50,8|0,0:3|3:0,0:0:0:0:
489,245,118269,1,4,0:3:0:0:
498,229,118344,6,0,P|465:238|440:239,1,50,8|0,0:3|0:0,0:0:0:0:
409,177,118492,6,0,L|417:107,1,60,8|0,3:3|0:0,0:0:0:0:
346,113,118641,2,0,L|339:172,1,60,8|0,0:3|0:0,0:0:0:0:
256,192,118789,6,1,B|269:156|338:176|331:235|292:258|262:242|262:242|229:225|229:153|269:114,1,300,0|4,3:0|0:3,0:0:0:0:
311,24,119086,6,0,P|289:36|242:37,1,50,8|0,3:3|0:0,0:0:0:0:
174,41,119235,1,4,0:3:0:0:
174,41,119309,6,0,P|184:63|201:81,1,50,8|0,0:3|3:0,0:0:0:0:
158,145,119458,1,4,0:3:0:0:
146,131,119532,6,0,P|121:137|97:134,1,50,8|0,0:3|0:0,0:0:0:0:
153,229,119680,1,4,3:3:0:0:
162,261,119755,6,0,P|176:241|183:217,1,50,8|4,0:3|0:3,0:0:0:0:
220,204,119903,1,8,0:3:0:0:
256,192,119977,6,1,B|265:224|333:224|351:174|340:118|272:121|272:121|279:64|279:64|330:64,1,300,0|4,3:0|0:3,0:0:0:0:
391,22,120274,6,0,P|400:44|396:99,1,50,8|0,3:3|0:0,0:0:0:0:
492,89,120423,5,4,0:3:0:0:
476,108,120497,1,8,0:3:0:0:
456,122,120571,6,0,P|428:140|389:148,1,56.2500000000001,0|0,3:0|2:0,0:0:0:0:
393,150,120720,6,0,L|415:260,1,90,8|0,0:3|2:0,0:0:0:0:
415,249,120868,6,0,L|406:304,1,56.2500000000001,0|0,3:0|2:0,0:0:0:0:
330,304,121017,6,0,P|283:299|256:262,1,93.75,8|0,0:3|2:0,0:0:0:0:
256,192,121166,6,1,B|252:62|252:62|201:141|201:141|286:141,1,300,0|4,3:0|0:3,0:0:0:0:
170,140,121463,6,0,L|106:151,1,50,8|0,3:3|0:0,0:0:0:0:
33,205,121611,1,4,0:3:0:0:
33,205,121685,6,0,L|56:145,1,50,8|0,0:3|3:0,0:0:0:0:
56,39,121834,1,4,0:3:0:0:
44,52,121908,6,0,L|84:101,1,50,8|0,0:3|0:0,0:0:0:0:
132,161,122057,1,4,3:3:0:0:
152,185,122131,6,0,L|273:203,1,100,8|8,0:3|0:3,0:0:0:0:
256,192,122354,6,1,B|291:170|339:198|326:257|283:265|283:265|318:310|276:352|241:349|216:327|212:303,1,300,0|4,3:0|0:3,0:0:0:0:
151,346,122651,6,0,L|132:299,1,50,8|0,3:3|0:0,0:0:0:0:
18,292,122799,1,4,0:3:0:0:
18,292,122873,6,0,L|64:273,1,50,8|0,0:3|3:0,0:0:0:0:
147,211,123022,1,4,0:3:0:0:
140,227,123096,6,0,L|121:181,1,50,8|0,0:3|0:0,0:0:0:0:
167,120,123245,6,0,P|153:93|154:63,1,60,8|0,3:3|0:0,0:0:0:0:
224,49,123393,2,0,P|237:75|236:105,1,60,8|0,0:3|0:0,0:0:0:0:
256,192,123542,6,1,B|279:163|342:170|342:238|331:258|251:306|251:306|331:311,1,300,0|4,3:0|0:3,0:0:0:0:
379,369,123839,6,0,L|446:384,1,50,8|0,3:3|0:0,0:0:0:0:
512,291,123987,1,4,0:3:0:0:
512,291,124062,6,0,P|499:312|479:327,1,50,8|0,0:3|3:0,0:0:0:0:
402,270,124210,1,4,0:3:0:0:
393,254,124284,6,0,L|441:264,1,50,8|0,0:3|0:0,0:0:0:0:
436,192,124433,1,4,3:3:0:0:
424,162,124507,6,0,P|388:195|309:188,1,100,8|8,0:3|0:3,0:0:0:0:
256,192,124730,38,1,B|284:178|296:152|296:152|285:333,1,200,0|4,3:0|0:3,0:0:0:0:
284,373,124953,1,4,0:3:0:0:
334,375,125027,6,0,L|206:370,1,100,8|4,3:3|0:3,0:0:0:0:
130,366,125250,1,8,0:3:0:0:
125,329,125324,5,2,3:0:0:0:
120,285,125398,1,2,0:0:0:0:
134,242,125472,1,10,0:3:0:0:
165,208,125547,1,2,0:0:0:0:
206,223,125621,1,2,3:0:0:0:
214,267,125695,1,2,0:0:0:0:
204,310,125769,1,10,0:3:0:0:
173,344,125844,1,2,0:0:0:0:
134,370,125918,5,14,3:2:0:0:
102,370,125992,1,2,0:0:0:0:
70,370,126066,1,2,0:0:0:0:
38,370,126141,1,2,0:0:0:0:
6,370,126215,1,10,3:2:0:0:
169,212,126364,5,2,0:0:0:0:
137,212,126438,1,2,0:0:0:0:
105,212,126512,1,10,3:2:0:0:
73,212,126586,1,2,0:0:0:0:
41,212,126661,1,2,0:0:0:0:
280,132,126809,5,10,3:2:0:0:
248,132,126883,1,2,0:0:0:0:
216,132,126958,1,2,0:0:0:0:
184,132,127032,1,2,0:0:0:0:
152,132,127106,1,10,3:2:0:0:
430,25,127255,5,2,0:0:0:0:
398,25,127329,1,2,0:0:0:0:
366,25,127403,1,10,3:2:0:0:
334,25,127477,1,2,0:0:0:0:
302,25,127552,1,2,0:0:0:0:
266,38,127626,5,2,0:0:0:0:
302,67,127700,1,10,3:2:0:0:
336,94,127774,5,2,0:0:0:0:
336,134,127849,1,2,0:0:0:0:
336,172,127923,1,2,0:0:0:0:
336,207,127997,1,10,3:2:0:0:
336,239,128071,1,2,0:0:0:0:
336,268,128146,1,2,0:0:0:0:
156,136,128294,5,10,3:2:0:0:
124,136,128368,1,2,0:0:0:0:
92,136,128443,1,2,0:0:0:0:
60,136,128517,1,2,0:0:0:0:
28,136,128591,1,10,3:2:0:0:
261,239,128740,5,2,0:0:0:0:
229,239,128814,1,2,0:0:0:0:
197,239,128888,1,10,3:2:0:0:
165,239,128963,1,2,0:0:0:0:
133,239,129037,1,2,0:0:0:0:
368,345,129185,5,10,3:2:0:0:
336,345,129260,1,2,0:0:0:0:
304,345,129334,1,2,0:0:0:0:
272,345,129408,1,2,0:0:0:0:
240,345,129482,1,10,3:2:0:0:
219,330,129557,5,2,0:0:0:0:
240,317,129631,5,2,0:0:0:0:
264,317,129705,1,2,0:0:0:0:
289,317,129779,1,10,3:2:0:0:
313,302,129854,5,2,0:0:0:0:
341,302,129928,1,2,0:0:0:0:
371,302,130002,1,2,0:0:0:0:
395,277,130076,5,10,3:2:0:0:
420,250,130151,1,2,0:0:0:0:
446,221,130225,1,2,0:0:0:0:
473,190,130299,1,2,0:0:0:0:
501,157,130373,5,10,3:2:0:0:
464,126,130448,1,2,0:0:0:0:
423,91,130522,1,2,0:0:0:0:
377,52,130596,1,2,0:0:0:0:
377,76,130670,5,10,3:2:0:0:
345,76,130745,1,2,0:0:0:0:
313,76,130819,1,2,0:0:0:0:
281,76,130893,1,2,0:0:0:0:
249,76,130967,1,10,3:2:0:0:
21,140,131116,5,2,0:0:0:0:
53,140,131190,1,2,0:0:0:0:
85,140,131265,1,10,3:2:0:0:
117,140,131339,1,2,0:0:0:0:
149,140,131413,1,2,0:0:0:0:
352,250,131562,5,10,3:2:0:0:
320,250,131636,1,2,0:0:0:0:
288,250,131710,1,2,0:0:0:0:
256,250,131784,1,2,0:0:0:0:
224,250,131859,1,10,3:2:0:0:
23,383,132007,5,2,0:0:0:0:
55,383,132081,1,2,0:0:0:0:
87,383,132156,1,10,3:2:0:0:
119,383,132230,1,2,0:0:0:0:
151,383,132304,1,2,0:0:0:0:
187,370,132378,5,2,0:0:0:0:
151,341,132453,1,10,3:2:0:0:
117,314,132527,5,2,0:0:0:0:
117,274,132601,1,2,0:0:0:0:
117,236,132675,1,2,0:0:0:0:
117,201,132750,1,10,3:2:0:0:
117,169,132824,1,2,0:0:0:0:
117,140,132898,1,2,0:0:0:0:
256,0,133047,5,10,3:2:0:0:
256,32,133121,1,2,0:0:0:0:
256,64,133195,1,2,0:0:0:0:
256,96,133269,1,2,0:0:0:0:
256,128,133344,1,10,3:2:0:0:
256,160,133418,1,2,0:0:0:0:
256,192,133492,1,2,0:0:0:0:
256,224,133566,1,2,0:0:0:0:
256,256,133641,5,10,3:2:0:0:
284,284,133715,1,2,0:0:0:0:
310,310,133789,1,2,0:0:0:0:
338,338,133864,1,2,0:0:0:0:
366,366,133938,5,10,3:2:0:0:
400,332,134012,1,2,0:0:0:0:
434,298,134086,1,2,0:0:0:0:
466,267,134161,1,2,0:0:0:0:
499,234,134235,6,0,L|12:234,1,486,10|0,3:2|0:0,0:0:0:0:
82,105,134829,6,0,B|82:74|82:74|68:74|68:74|88:45|88:45|111:74|111:74|97:74|97:74|97:105,1,162.500004649162,8|0,0:0|0:0,0:0:0:0:
140,105,134903,6,0,B|140:74|140:74|126:74|126:74|146:45|146:45|169:74|169:74|155:74|155:74|155:105,1,162.500004649162,8|0,0:0|0:0,0:0:0:0:
198,105,134977,6,0,B|198:134|198:134|183:134|183:134|204:164|204:164|227:134|227:134|213:134|213:134|213:105,1,162.500004649162,8|0,0:0|0:0,0:0:0:0:
256,105,135052,6,0,B|256:134|256:134|241:134|241:134|262:164|262:164|285:134|285:134|271:134|271:134|271:105,1,162.500004649162,8|0,0:0|0:0,0:0:0:0:
256,163,135126,6,0,B|225:162|225:162|225:149|225:149|195:169|195:169|225:192|225:192|225:178|225:178|256:178,1,162.500004649162,8|0,0:0|0:0,0:0:0:0:
256,210,135200,6,0,B|285:209|285:209|285:195|285:195|315:216|315:216|285:239|285:239|285:225|285:225|256:225,1,162.500004649162,8|0,0:0|0:0,0:0:0:0:
256,257,135274,6,0,B|225:257|225:257|225:243|225:243|196:263|196:263|225:286|225:286|225:272|225:272|256:272,1,162.500004649162,8|0,0:0|0:0,0:0:0:0:
256,304,135349,6,0,B|285:304|285:304|285:289|285:289|315:310|315:310|285:333|285:333|285:319|285:319|256:319,1,162.500004649162,8|0,0:0|0:0,0:0:0:0:
326,304,135423,6,1,B|370:308|370:308|362:361|362:361|314:353|314:353|332:204,1,300,6|0,3:2|0:0,0:0:0:0:
468,271,135720,2,1,B|429:275|418:265|375:297|384:360|446:386|470:352|471:281|471:281|479:322|510:343,1,300,10|0,0:0|0:0,0:0:0:0:
401,239,136017,6,1,B|431:244|431:244|427:278|427:278|395:274|395:274|406:174,1,200,2|8,3:0|0:3,0:0:0:0:
414,103,136240,1,0,0:0:0:0:
410,139,136314,6,0,L|475:146,1,37.5,10|0,0:0|2:0,0:0:0:0:
368,167,136388,2,0,L|361:232,1,37.5,2|0,0:0|2:0,0:0:0:0:
335,127,136463,6,0,L|342:62,1,37.5,10|0,0:3|2:0,0:0:0:0:
297,159,136537,2,0,L|232:152,1,37.5,2|0,0:0|2:0,0:0:0:0:
251,143,136611,6,0,L|276:316,1,150,2|8,3:0|0:3,0:0:0:0:
279,332,136834,5,0,0:0:0:0:
287,373,136908,2,0,B|213:292|213:292|215:245,1,150,10|8,0:0|0:3,0:0:0:0:
72,83,137205,6,0,B|101:75|101:75|78:104|78:104|109:94,1,100,2|0,3:0|0:0,0:0:0:0:
174,50,137354,2,0,B|203:42|203:42|180:71|180:71|211:61,1,100,10|0,0:3|0:0,0:0:0:0:
156,204,137502,6,0,P|138:198|123:186,1,37.5,10|0,0:0|2:0,0:0:0:0:
169,186,137576,2,0,P|156:172|150:154,1,37.5,2|0,0:0|2:0,0:0:0:0:
189,178,137651,2,0,P|185:159|188:141,1,37.5,10|0,0:3|2:0,0:0:0:0:
210,181,137725,2,0,P|215:163|227:148,1,37.5,2|0,0:0|2:0,0:0:0:0:
243,221,137799,6,0,L|236:283,1,37.5,2|0,3:0|2:0,0:0:0:0:
280,195,137873,2,0,L|275:157,1,37.5,2|0,0:0|2:0,0:0:0:0:
317,221,137948,6,0,L|379:214,1,37.5,10|0,0:3|2:0,0:0:0:0:
354,195,138022,2,0,L|416:202,1,37.5,2|0,0:0|2:0,0:0:0:0:
411,202,138096,6,0,B|400:269|400:269|387:276|387:276|377:342,1,150,10|8,0:0|0:3,0:0:0:0:
314,382,138319,1,0,0:0:0:0:
301,345,138393,5,2,3:0:0:0:
224,364,138492,5,2,0:0:0:0:
148,383,138591,5,2,0:0:0:0:
169,306,138690,5,10,0:0:0:0:
93,325,138789,5,2,0:0:0:0:
17,344,138888,6,0,P|38:348|37:377,1,50,2|0,0:0|2:0,0:0:0:0:
8,376,138987,5,2,3:0:0:0:
11,338,139062,1,2,0:0:0:0:
15,301,139136,1,10,0:3:0:0:
19,264,139210,1,2,0:0:0:0:
22,226,139284,6,0,L|27:169,1,37.5,10|0,0:0|2:0,0:0:0:0:
62,248,139359,1,2,0:0:0:0:
104,233,139433,1,10,0:3:0:0:
123,192,139507,1,2,0:0:0:0:
111,148,139581,6,0,P|112:131|127:104,1,37.5,2|0,3:0|2:0,0:0:0:0:
133,99,139656,6,0,P|145:87|171:78,1,31.25,2|0,0:0|2:0,0:0:0:0:
180,76,139730,2,0,P|196:74|223:82,1,31.25,10|0,0:3|2:0,0:0:0:0:
231,85,139804,2,0,P|245:93|262:115,1,31.25,2|0,0:0|2:0,0:0:0:0:
264,117,139878,6,0,B|246:159|246:159|313:275|313:275|295:316,1,225,10|2,0:0|0:0,0:0:0:0:
246,369,140175,6,0,L|260:335,1,37.5,2|0,3:0|2:0,0:0:0:0:
216,334,140250,5,2,0:0:0:0:
186,299,140324,1,10,0:3:0:0:
211,259,140398,1,2,0:0:0:0:
238,222,140472,6,0,L|274:226,1,37.5,10|0,0:0|2:0,0:0:0:0:
451,246,140621,5,10,0:3:0:0:
464,253,140695,1,2,0:0:0:0:
469,267,140769,6,0,P|466:294|450:318,1,43.75,2|0,3:0|2:0,0:0:0:0:
449,320,140844,2,0,P|424:330|395:325,1,43.75,2|0,0:0|2:0,0:0:0:0:
391,324,140918,6,0,P|350:272|365:209,1,131.25,10|0,0:3|2:0,0:0:0:0:
344,204,141066,6,0,P|334:289|483:312,1,270,10|0,0:0|0:0,0:0:0:0:
512,192,141364,6,0,L|498:110,1,62.5,2|0,3:0|0:0,0:0:0:0:
396,142,141512,1,10,0:3:0:0:
412,149,141586,1,2,0:0:0:0:
427,155,141661,6,0,L|413:73,1,62.5,10|0,0:0|0:0,0:0:0:0:
484,14,141809,1,10,0:3:0:0:
480,31,141883,1,2,0:0:0:0:
476,47,141958,6,0,P|407:75|340:48,1,150,2|8,3:0|0:3,0:0:0:0:
277,8,142180,2,0,P|208:-19|140:8,1,150,2|0,0:0|0:0,0:0:0:0:
106,74,142403,2,0,P|140:61|175:75,1,75,10|0,0:3|0:0,0:0:0:0:
240,115,142552,5,2,3:0:0:0:
228,165,142626,1,2,0:0:0:0:
265,200,142700,1,10,0:3:0:0:
302,235,142774,1,2,0:0:0:0:
290,285,142849,1,10,0:0:0:0:
167,307,142997,6,0,B|123:314|123:314|149:290,1,75,10|0,0:3|0:0,0:0:0:0:
224,265,143146,1,2,3:0:0:0:
265,252,143220,1,2,0:0:0:0:
306,239,143294,2,0,L|367:249,1,55,10|2,0:3|0:0,0:0:0:0:
421,296,143443,5,10,0:0:0:0:
412,258,143517,1,2,0:0:0:0:
439,232,143591,1,10,0:3:0:0:
467,206,143666,1,2,0:0:0:0:
458,168,143740,6,0,L|458:318,1,150,2|10,3:0|0:3,0:0:0:0:
410,367,143963,1,2,0:0:0:0:
403,373,144037,5,10,0:0:0:0:
370,354,144111,1,2,0:0:0:0:
336,373,144185,5,10,0:3:0:0:
303,354,144260,1,2,0:0:0:0:
260,377,144334,5,2,3:0:0:0:
235,330,144408,1,2,0:0:0:0:
210,283,144482,1,10,0:3:0:0:
163,307,144557,1,2,0:0:0:0:
116,332,144631,2,0,B|61:281|61:281|80:184,1,150,10|10,0:0|0:3,0:0:0:0:
96,100,144854,1,2,0:0:0:0:
93,119,144928,6,0,P|150:115|133:196,1,150,6|10,3:2|0:3,0:0:0:0:
117,213,145151,1,0,0:0:0:0:
80,211,145225,2,0,B|121:166|187:207|187:217|187:227|237:261|286:229,1,225,10|0,0:0|0:0,0:0:0:0:
353,202,145522,6,0,L|318:207,1,27.5,2|0,3:0|2:0,0:0:0:0:
318,207,145596,2,0,L|283:212,1,27.5,2|0,0:0|2:0,0:0:0:0:
283,212,145670,2,0,L|248:217,1,27.5,10|0,0:3|2:0,0:0:0:0:
248,217,145745,2,0,L|213:222,1,27.5,2|0,0:0|2:0,0:0:0:0:
213,222,145819,5,10,0:0:0:0:
196,260,145893,1,2,0:0:0:0:
179,298,145967,1,10,0:3:0:0:
398,330,146116,5,2,3:0:0:0:
366,319,146190,1,2,0:0:0:0:
366,286,146265,1,10,0:3:0:0:
398,276,146339,1,2,0:0:0:0:
417,303,146413,1,10,0:0:0:0:
410,323,146487,5,2,0:0:0:0:
402,343,146562,5,10,0:3:0:0:
354,327,146636,1,2,0:0:0:0:
354,277,146710,1,2,3:0:0:0:
402,262,146784,1,2,0:0:0:0:
431,303,146859,1,10,0:3:0:0:
439,279,146933,5,2,0:0:0:0:
447,255,147007,2,0,B|454:228|454:228|439:202,1,55,10|0,0:0|0:0,0:0:0:0:
376,71,147156,6,0,L|368:164,1,93.75,10|0,0:3|2:0,0:0:0:0:
368,164,147304,6,0,P|417:182|453:88,1,150,2|10,3:0|0:3,0:0:0:0:
402,0,147527,2,0,P|353:-17|317:76,1,150,2|2,0:0|0:0,0:0:0:0:
369,145,147750,2,0,L|376:71,1,75,10|0,0:3|0:0,0:0:0:0:
280,153,147898,5,2,3:0:0:0:
282,128,147972,2,0,L|192:144,1,62.5,2|8,0:0|0:3,0:0:0:0:
142,177,148121,1,2,0:0:0:0:
144,152,148195,5,10,0:0:0:0:
102,158,148269,1,0,0:0:0:0:
61,165,148344,1,10,0:3:0:0:
60,206,148418,1,0,0:0:0:0:
59,247,148492,6,1,B|89:227|131:252|120:303|82:310|82:310|113:350|76:387|45:384|23:365|20:344,1,262.5,2|0,3:0|0:0,0:0:0:0:
201,226,148789,6,1,B|221:200|276:206|276:266|266:283|196:325|196:325|266:330,1,262.5,10|0,0:0|0:0,0:0:0:0:
369,190,149086,5,2,3:0:0:0:
408,160,149161,1,0,0:0:0:0:
405,196,149235,1,8,0:3:0:0:
397,245,149309,1,0,0:0:0:0:
389,294,149383,6,0,L|335:14,1,262.5,10|0,0:0|0:0,0:0:0:0:
413,33,149680,1,0,3:0:0:0:
421,19,149755,6,1,B|346:24|346:24|317:-16|263:20|315:80|342:32,1,200,8|0,0:0|3:0,0:0:0:0:
216,55,149977,1,8,0:0:0:0:
165,50,150052,6,1,B|202:52|202:52|216:32|243:50|217:80|204:56,1,100,0|8,3:0|3:0,0:0:0:0:
384,125,150200,6,1,B|309:130|309:130|280:90|226:126|278:186|305:138,1,200,8|0,0:0|0:0,0:0:0:0:
380,239,150423,6,1,B|343:241|343:241|329:221|302:239|328:269|341:245,1,100,8|0,0:3|0:0,0:0:0:0:
377,347,150571,1,8,0:0:0:0:
353,349,150646,6,1,B|329:350|329:350|321:337|304:349|320:367|328:352,1,62.5,0|0,3:0|2:0,0:0:0:0:
310,356,150720,6,1,B|284:357|284:357|274:343|256:356|274:376|283:360,1,68.7499999999999,8|0,3:0|2:0,0:0:0:0:
261,363,150794,6,1,B|233:364|233:364|222:349|202:363|221:385|231:367,1,75.0000000000001,8|0,0:0|2:0,0:0:0:0:
202,372,150868,6,1,B|198:365|205:352|218:342|218:342|256:322|263:269|233:210|131:222|132:294|144:322|164:336,1,250,2|10,3:0|3:3,0:0:0:0:
132,312,151091,1,2,3:0:0:0:
81,322,151166,5,10,0:0:0:0:
71,271,151240,1,2,3:0:0:0:
61,220,151314,5,10,3:3:0:0:
112,210,151388,1,0,0:0:0:0:
163,200,151463,6,0,B|155:154,1,37.5,2|0,3:0|2:0,0:0:0:0:
153,149,151537,2,0,B|144:102,1,37.5,0|0,0:0|2:0,0:0:0:0:
142,97,151611,6,0,P|124:82|100:85,1,50,8|0,3:0|2:0,0:0:0:0:
92,107,151685,2,0,P|76:126|76:152,1,50,0|0,3:0|2:0,0:0:0:0:
102,159,151760,6,0,B|211:196|211:196|218:210|218:210|260:225,1,175,10|10,0:0|0:3,0:0:0:0:
420,282,152057,6,0,P|448:236|442:182,1,110,2|8,3:0|0:3,0:0:0:0:
373,160,152279,1,0,0:0:0:0:
373,160,152354,6,0,P|338:207|347:265,1,120,10|8,0:0|0:3,0:0:0:0:
410,301,152576,1,0,0:0:0:0:
429,297,152651,6,0,P|464:241|456:176,1,135,2|8,3:0|0:3,0:0:0:0:
418,145,152873,1,0,0:0:0:0:
428,105,152948,5,10,0:0:0:0:
458,133,153022,2,0,P|395:187|297:172,1,175
179,81,153245,22,1,B|174:54|151:41|151:41|113:17|187:-7|248:52|248:52|244:54|244:54|283:93|267:152|216:136|216:136|213:138|213:138|186:90|115:102|88:177|100:223,1,525,2|10,3:0|0:3,0:0:0:0:
113,260,153765,1,2,0:0:0:0:
142,291,153839,5,2,3:0:0:0:
193,300,153913,1,2,0:0:0:0:
241,279,153987,1,10,0:3:0:0:
267,233,154062,1,2,0:0:0:0:
271,180,154136,1,10,0:0:0:0:
253,128,154210,5,2,0:0:0:0:
277,77,154284,1,10,0:3:0:0:
332,49,154359,1,2,0:0:0:0:
393,65,154433,6,0,B|431:111|431:111|387:270,1,225,6|0,3:2|0:0,0:0:0:0:
390,339,154730,6,0,L|383:289,1,50,8|0,0:0|0:0,0:0:0:0:
474,49,154878,6,0,B|512:95|512:95|468:254,1,225,6|0,3:2|0:0,0:0:0:0:
471,323,155175,5,2,0:0:0:0:
465,283,155250,1,2,0:0:0:0:
459,243,155324,1,10,0:0:0:0:
453,203,155398,5,2,0:0:0:0:
413,208,155472,1,2,0:0:0:0:
373,215,155547,1,2,0:0:0:0:
333,221,155621,6,0,B|277:228|277:228|196:305|196:305|136:313,1,225,6|0,3:2|0:0,0:0:0:0:
72,343,155918,6,0,B|59:321|59:321|73:289,1,50,8|0,0:0|0:0,0:0:0:0:
171,149,156066,6,0,B|178:205|178:205|255:286|255:286|263:343,1,225,6|0,3:2|0:0,0:0:0:0:
333,333,156364,6,0,B|346:311|346:311|332:279,1,50,8|0,0:0|0:0,0:0:0:0:
254,138,156512,5,10,0:0:0:0:
249,175,156586,1,8,0:0:0:0:
244,212,156661,1,8,0:0:0:0:
62,91,156809,6,0,B|157:30|157:30|264:64,1,225,6|0,3:2|0:0,0:0:0:0:
343,63,157106,6,0,L|327:110,1,50,8|0,0:0|0:0,0:0:0:0:
118,197,157255,6,0,B|188:219|188:219|252:177,1,150,6|2,3:2|0:0,0:0:0:0:
319,134,157477,1,2,0:0:0:0:
359,172,157552,1,2,0:0:0:0:
389,200,157626,1,2,0:0:0:0:
403,213,157700,6,0,B|340:182|292:242|303:283|264:339|187:313,1,262.5,10|2,0:0|0:0,0:0:0:0:
70,269,157997,6,0,P|173:283|144:370,1,225,6|0,3:2|0:0,0:0:0:0:
72,378,158294,6,0,P|53:361|46:337,1,50,8|0,0:0|0:0,0:0:0:0:
76,179,158443,6,0,P|66:248|7:228,1,150,6|14,3:2|0:0,0:0:0:0:
6,157,158666,1,6,0:0:0:0:
30,107,158740,1,14,0:0:0:0:
84,96,158814,1,6,0:0:0:0:
132,124,158888,5,10,0:0:0:0:
182,153,158963,1,8,0:0:0:0:
238,141,159037,1,8,0:0:0:0:
264,89,159111,1,8,0:0:0:0:
242,34,159185,5,14,3:2:0:0:
270,350,159482,5,10,3:2:0:0:
414,178,159779,5,10,3:2:0:0:
98,206,160076,5,10,3:2:0:0:
351,71,160373,6,0,L|347:134,1,60,14|0,3:2|0:0,0:0:0:0:
341,208,160522,2,0,L|345:148,1,60,10|0,3:2|0:0,0:0:0:0:
277,54,160670,6,0,L|273:117,1,60,10|0,3:2|0:0,0:0:0:0:
267,214,160819,2,0,L|271:154,1,60,10|0,3:2|0:0,0:0:0:0:
129,20,160967,6,0,L|125:79,1,60,14|0,3:2|0:0,0:0:0:0:
190,228,161116,2,0,L|194:168,1,60,10|0,3:2|0:0,0:0:0:0:
203,37,161265,6,0,L|199:96,1,60,10|0,3:2|0:0,0:0:0:0:
113,274,161413,2,0,L|116:214,1,60,10|0,3:2|0:0,0:0:0:0:
129,83,161562,5,14,3:2:0:0:
151,117,161636,1,10,3:2:0:0:
190,133,161710,1,10,3:2:0:0:
233,127,161784,1,10,3:2:0:0:
272,103,161859,1,14,3:2:0:0:
311,71,161933,1,10,3:2:0:0:
360,65,162007,1,10,3:2:0:0:
405,88,162081,1,10,3:2:0:0:
425,134,162156,1,14,3:2:0:0:
422,188,162230,1,10,3:2:0:0:
384,229,162304,1,10,3:2:0:0:
331,246,162378,1,10,3:2:0:0:
277,223,162453,1,14,3:2:0:0:
217,230,162527,1,10,3:2:0:0:
169,270,162601,1,10,3:2:0:0:
175,334,162675,1,10,3:2:0:0:
186,342,162750,1,0,3:0:0:0:
268,383,162898,5,2,0:0:0:0:
271,371,162972,1,2,0:0:0:0:
274,359,163047,6,0,L|267:316,1,37.5000000000001,2|0,0:0|0:0,0:0:0:0:
346,359,163195,2,0,L|339:316,1,37.5000000000001,2|0,0:0|0:0,0:0:0:0:
327,250,163344,5,2,3:0:0:0:
328,240,163418,1,2,0:0:0:0:
330,231,163492,1,2,0:0:0:0:
331,222,163566,1,2,0:0:0:0:
333,212,163641,6,0,B|268:195|229:234|239:263|201:300|136:283,1,225,2|0,3:0|0:0,0:0:0:0:
15,267,163938,6,0,P|45:216|50:149,1,120,6|8,3:2|0:3,0:0:0:0:
27,120,164161,1,0,0:0:0:0:
1,86,164235,2,0,P|57:106|116:101,1,120,10|8,0:0|0:3,0:0:0:0:
155,84,164458,1,0,0:0:0:0:
185,54,164532,1,2,3:0:0:0:
215,193,164680,1,8,0:3:0:0:
211,217,164755,1,0,0:0:0:0:
208,241,164829,1,10,0:0:0:0:
292,0,164977,6,0,B|301:76|301:76|279:83|279:83|291:162,1,180,10|0,0:3|0:0,0:0:0:0:
304,237,165274,1,10,0:3:0:0:
334,274,165349,1,2,0:0:0:0:
380,283,165423,2,0,L|392:209,1,60,10|0,0:0|0:0,0:0:0:0:
410,63,165571,1,10,0:3:0:0:
456,294,165720,6,0,P|469:266|455:219,1,60,2|0,3:0|0:0,0:0:0:0:
365,129,165868,1,10,0:3:0:0:
491,37,166017,6,0,L|476:116,1,60,10|0,0:0|0:0,0:0:0:0:
394,221,166166,1,10,0:3:0:0:
512,370,166314,6,0,P|460:342|402:354,1,120,2|8,3:0|0:3,0:0:0:0:
365,375,166537,1,0,0:0:0:0:
323,379,166611,2,0,P|265:340|276:276,1,120,10|8,0:0|0:3,0:0:0:0:
291,262,166834,1,0,0:0:0:0:
332,253,166908,1,2,3:0:0:0:
199,261,167057,1,8,0:3:0:0:
182,223,167131,1,0,0:0:0:0:
188,182,167205,1,10,0:0:0:0:
19,384,167354,6,0,B|31:305|31:305|16:295|16:295|29:213,1,180,10|0,0:3|0:0,0:0:0:0:
40,141,167651,1,10,0:3:0:0:
74,108,167725,1,2,0:0:0:0:
119,123,167799,2,0,P|155:119|183:99,1,60,10|0,0:0|0:0,0:0:0:0:
328,4,167948,1,10,0:3:0:0:
153,30,168096,6,0,L|213:37,1,60,2|0,3:0|0:0,0:0:0:0:
385,55,168245,1,10,0:3:0:0:
245,198,168393,6,0,P|239:168|246:139,1,60,10|0,0:0|0:0,0:0:0:0:
324,8,168542,1,10,0:3:0:0:
307,246,168690,6,0,L|289:396,1,120,2|8,3:0|0:3,0:0:0:0:
264,343,168913,1,0,0:0:0:0:
264,343,168987,2,0,P|332:349|386:309,1,120,10|8,0:0|0:3,0:0:0:0:
384,285,169210,1,0,0:0:0:0:
384,285,169284,2,0,L|398:165,1,120,2|8,3:0|0:3,0:0:0:0:
448,114,169507,1,0,0:0:0:0:
461,102,169581,1,10,0:0:0:0:
162,133,169730,6,0,B|238:124|238:124|246:145|246:145|329:134,1,180,10|0,0:3|0:0,0:0:0:0:
379,84,170027,1,10,0:3:0:0:
391,37,170101,1,2,0:0:0:0:
351,10,170175,2,0,P|322:3|294:14,1,60,10|0,0:0|0:0,0:0:0:0:
162,133,170324,1,10,0:3:0:0:
34,22,170472,6,0,L|101:32,1,60,2|0,3:0|0:0,0:0:0:0:
233,49,170621,1,10,0:3:0:0:
98,217,170769,6,0,L|88:143,1,60,10|0,0:0|0:0,0:0:0:0:
160,59,170918,1,10,0:3:0:0:
11,151,171066,6,0,P|-5:207|10:265,1,120,2|8,3:0|0:3,0:0:0:0:
38,295,171289,1,0,0:0:0:0:
79,305,171364,2,0,P|132:258|191:263,1,120,10|8,0:0|0:3,0:0:0:0:
215,276,171586,1,0,0:0:0:0:
232,314,171661,1,2,3:0:0:0:
226,184,171809,1,8,0:3:0:0:
236,142,171883,1,0,0:0:0:0:
271,120,171958,1,10,0:0:0:0:
512,196,172106,6,0,B|432:204|432:204|426:221|426:221|344:230,1,180,10|0,0:3|0:0,0:0:0:0:
272,239,172403,1,10,0:3:0:0:
256,284,172477,1,2,0:0:0:0:
284,323,172552,2,0,P|309:336|350:336,1,60,10|0,0:0|0:0,0:0:0:0:
484,271,172700,1,10,0:3:0:0:
374,102,172849,6,0,L|369:162,1,60,2|0,3:0|0:0,0:0:0:0:
414,370,172997,2,0,L|419:310,1,60,10|0,0:3|0:0,0:0:0:0:
369,162,173146,6,0,B|452:154|416:207|526:194,1,150,10|10,0:0|0:3,0:0:0:0:
283,23,173443,6,0,P|240:64|176:60,1,120,6|8,3:2|0:3,0:0:0:0:
145,42,173666,1,0,0:0:0:0:
132,2,173740,2,0,P|94:58|99:112,1,120,10|8,0:0|0:3,0:0:0:0:
130,133,173963,1,0,0:0:0:0:
171,136,174037,2,0,P|210:183|213:239,1,120,2|8,3:0|0:3,0:0:0:0:
167,292,174260,1,0,0:0:0:0:
158,300,174334,1,10,0:0:0:0:
380,320,174482,6,0,B|300:331|300:331|289:353|289:353|207:365,1,180,10|0,0:3|0:0,0:0:0:0:
145,376,174779,1,10,0:3:0:0:
103,384,174854,1,2,0:0:0:0:
64,367,174928,2,0,L|74:301,1,60,10|0,0:0|0:0,0:0:0:0:
148,171,175076,1,10,0:3:0:0:
0,234,175225,6,0,P|29:235|68:219,1,60,2|0,3:0|0:0,0:0:0:0:
125,102,175373,1,10,0:3:0:0:
167,292,175522,6,0,P|153:266|120:240,1,60,10|0,0:0|0:0,0:0:0:0:
20,161,175670,1,10,0:3:0:0:
179,39,175819,6,0,P|225:67|290:58,1,120,2|8,3:0|0:3,0:0:0:0:
323,36,176042,1,0,0:0:0:0:
363,47,176116,2,0,P|362:111|333:156,1,120,10|8,0:0|0:3,0:0:0:0:
301,185,176339,1,0,0:0:0:0:
260,189,176413,1,2,3:0:0:0:
426,163,176562,1,8,0:3:0:0:
448,171,176636,1,0,0:0:0:0:
470,179,176710,1,10,0:0:0:0:
201,257,176859,6,0,B|277:267|277:267|292:280|292:280|375:292,1,180,10|0,0:3|0:0,0:0:0:0:
445,302,177156,1,10,0:3:0:0:
462,339,177230,1,2,0:0:0:0:
437,373,177304,2,0,L|377:364,1,60,10|0,0:0|0:0,0:0:0:0:
268,233,177453,1,10,0:3:0:0:
96,236,177601,6,0,P|120:252|134:278,1,60,2|0,3:0|0:0,0:0:0:0:
152,384,177750,1,10,0:3:0:0:
305,309,177898,6,0,P|299:336|269:365,1,60,10|0,0:0|0:0,0:0:0:0:
152,384,178047,1,10,0:3:0:0:
32,338,178195,6,0,L|16:198,1,120,2|8,3:0|0:3,0:0:0:0:
211,36,178492,2,0,B|232:93|232:93|198:145,1,120,10|8,0:0|0:3,0:0:0:0:
18,218,178789,1,2,3:0:0:0:
130,119,178938,1,8,0:3:0:0:
320,194,179086,1,10,0:0:0:0:
296,375,179235,6,0,B|283:295|283:295|261:285|261:285|249:210,1,180,10|0,0:3|0:0,0:0:0:0:
320,194,179532,1,10,0:3:0:0:
352,220,179606,1,2,0:0:0:0:
350,261,179680,2,0,B|275:273,1,60,10|0,0:0|0:0,0:0:0:0:
120,298,179829,1,10,0:3:0:0:
54,142,179977,6,0,P|76:163|85:194,1,60,2|0,3:0|0:0,0:0:0:0:
110,368,180126,1,10,0:3:0:0:
184,177,180274,6,0,P|162:197|153:225,1,60,10|0,0:0|0:0,0:0:0:0:
180,378,180423,1,10,0:3:0:0:
430,347,180571,6,0,P|382:381|324:377,1,120,2|8,3:0|0:3,0:0:0:0:
294,348,180794,1,0,0:0:0:0:
277,309,180868,2,0,P|286:255|335:217,1,120,10|8,0:0|0:3,0:0:0:0:
378,213,181091,1,0,0:0:0:0:
411,238,181166,2,0,P|453:181|447:127,1,120,2|8,3:0|0:3,0:0:0:0:
432,96,181388,1,0,0:0:0:0:
390,85,181463,1,10,0:0:0:0:
167,0,181611,6,0,B|157:75|157:75|144:90|144:90|132:174,1,180,10|0,0:3|0:0,0:0:0:0:
121,245,181908,1,10,0:3:0:0:
81,257,181982,1,2,0:0:0:0:
50,227,182057,2,0,B|58:167,1,60,10|0,0:0|0:0,0:0:0:0:
213,69,182205,1,10,0:3:0:0:
9,110,182354,5,2,3:0:0:0:
15,62,182428,1,2,0:0:0:0:
55,33,182502,1,10,0:3:0:0:
213,69,182651,6,0,P|229:98|224:141,1,65,10|0,0:0|0:0,0:0:0:0:
204,330,182799,2,0,P|188:301|193:258,1,65,10|0,0:3|0:0,0:0:0:0:
303,164,182948,6,0,L|363:158,1,60,6|0,3:2|0:0,0:0:0:0:
457,161,183096,2,0,L|397:167,1,60,8|0,3:0|0:0,0:0:0:0:
231,211,183245,6,0,B|336:183|299:281|429:247,1,180,8|0,0:0|0:0,0:0:0:0:
442,246,183542,1,0,3:0:0:0:
296,339,183690,1,10,0:3:0:0:
163,236,183839,1,10,0:0:0:0:
298,53,183987,6,0,P|353:128|335:208,1,180,10|0,0:3|0:0,0:0:0:0:
304,241,184284,1,8,0:3:0:0:
157,310,184433,1,8,0:0:0:0:
76,162,184581,1,10,0:3:0:0:
54,191,184656,1,2,0:0:0:0:
56,226,184730,1,2,3:0:0:0:
73,369,184878,5,10,0:3:0:0:
71,350,184953,1,2,0:0:0:0:
69,331,185027,2,0,P|74:306|91:284,1,50,10|0,0:0|0:0,0:0:0:0:
160,312,185175,2,0,P|177:293|200:284,1,50,10|0,0:3|0:0,0:0:0:0:
251,336,185324,5,2,3:0:0:0:
233,314,185398,1,2,0:0:0:0:
229,287,185472,1,10,0:3:0:0:
234,261,185547,1,2,0:0:0:0:
255,237,185621,5,10,0:0:0:0:
287,231,185695,1,2,0:0:0:0:
315,245,185769,1,10,0:3:0:0:
337,271,185844,1,2,0:0:0:0:
369,292,185918,5,2,3:0:0:0:
407,297,185992,1,2,0:0:0:0:
449,293,186066,1,10,0:3:0:0:
486,271,186141,1,2,0:0:0:0:
512,232,186215,5,10,0:0:0:0:
511,182,186289,1,2,0:0:0:0:
474,136,186364,2,0,L|424:142,1,50,10|2,0:3|0:0,0:0:0:0:
240,116,186512,6,0,B|304:106|304:106|350:152,1,130,2|10,3:0|0:3,0:0:0:0:
233,32,186809,1,10,0:0:0:0:
190,1,186883,1,2,0:0:0:0:
159,44,186958,1,10,0:3:0:0:
128,87,187032,1,2,0:0:0:0:
162,111,187106,5,2,3:0:0:0:
196,135,187180,1,2,0:0:0:0:
176,162,187255,5,10,0:3:0:0:
160,193,187329,1,2,0:0:0:0:
159,193,187403,6,0,B|116:198|116:198|104:234|104:234|56:241,1,130,10|10,0:0|0:3,0:0:0:0:
125,325,187700,6,0,P|174:353|227:337,1,115,2|10,3:0|0:3,0:0:0:0:
286,292,187923,1,2,0:0:0:0:
297,270,187997,1,10,0:0:0:0:
180,166,188146,6,0,P|176:224|229:267,1,120,10|2,0:3|3:0,0:0:0:0:
286,292,188368,1,2,0:0:0:0:
317,290,188443,1,10,0:3:0:0:
361,117,188591,6,0,P|306:142|290:201,1,125,10|10,0:0|0:3,0:0:0:0:
301,274,188814,1,2,0:0:0:0:
322,305,188888,1,2,3:0:0:0:
317,42,189037,6,0,P|377:25|428:61,1,130,10|10,0:3|0:0,0:0:0:0:
439,81,189235,5,2,0:0:0:0:
459,75,189284,5,2,0:0:0:0:
469,95,189334,6,0,L|455:158,1,65,10|0,0:3|0:0,0:0:0:0:
431,272,189482,5,2,3:0:0:0:
402,245,189557,1,2,0:0:0:0:
400,206,189631,1,10,0:3:0:0:
382,325,189779,5,10,0:0:0:0:
377,344,189854,1,2,0:0:0:0:
361,354,189928,2,0,P|338:364|310:365,1,50,10|0,0:3|0:0,0:0:0:0:
243,350,190076,6,0,L|124:372,1,110,2|8,3:0|0:3,0:0:0:0:
134,369,190299,1,0,0:0:0:0:
138,342,190373,5,10,0:0:0:0:
141,314,190448,1,2,0:0:0:0:
144,287,190522,1,10,0:3:0:0:
147,259,190596,1,2,0:0:0:0:
124,231,190670,5,2,3:0:0:0:
101,203,190745,1,2,0:0:0:0:
78,175,190819,1,10,0:3:0:0:
55,147,190893,1,2,0:0:0:0:
88,119,190967,5,10,0:0:0:0:
131,108,191042,1,2,0:0:0:0:
174,126,191116,1,10,0:3:0:0:
202,167,191190,1,2,0:0:0:0:
238,198,191265,1,2,3:0:0:0:
278,209,191339,1,2,0:0:0:0:
312,203,191413,1,10,0:3:0:0:
471,89,191562,6,0,B|390:90|434:152|323:134,1,130,10|10,0:0|0:3,0:0:0:0:
322,126,191760,5,2,0:0:0:0:
319,114,191809,5,2,0:0:0:0:
316,102,191859,6,0,L|322:40,1,60,2|2,3:0|0:0,0:0:0:0:
315,200,192007,2,0,L|309:254,1,55,10|2,0:3|0:0,0:0:0:0:
301,332,192156,5,10,0:0:0:0:
272,357,192230,1,2,0:0:0:0:
230,369,192304,1,10,0:3:0:0:
183,352,192378,1,2,0:0:0:0:
154,304,192453,6,0,L|173:125,1,180,6|0,3:2|0:0,0:0:0:0:
184,28,192750,1,10,0:0:0:0:
145,45,192824,1,2,0:0:0:0:
106,63,192898,1,10,0:3:0:0:
141,87,192972,1,2,0:0:0:0:
176,113,193047,1,2,3:0:0:0:
215,95,193121,1,2,0:0:0:0:
253,77,193195,1,10,0:3:0:0:
219,53,193269,1,2,0:0:0:0:
191,35,193344,5,10,0:0:0:0:
191,35,193418,1,2,0:0:0:0:
191,35,193492,2,0,L|196:-19,1,55,10|2,0:3|0:0,0:0:0:0:
289,80,193641,6,0,L|450:97,1,120,2|8,3:0|0:3,0:0:0:0:
480,100,193864,1,0,0:0:0:0:
487,67,193938,5,10,0:0:0:0:
495,89,194012,1,2,0:0:0:0:
493,112,194086,1,10,0:3:0:0:
480,132,194161,1,2,0:0:0:0:
497,170,194235,5,2,3:0:0:0:
481,187,194309,1,2,0:0:0:0:
461,197,194383,1,10,0:3:0:0:
437,196,194458,1,2,0:0:0:0:
389,168,194532,6,0,L|352:150,1,27.5,10|0,0:0|2:0,0:0:0:0:
356,203,194606,2,0,L|315:195,1,25,2|0,0:0|2:0,0:0:0:0:
352,244,194680,1,10,0:3:0:0:
363,278,194755,1,2,0:0:0:0:
371,285,194829,6,0,L|209:308,1,120,2|10,3:0|0:3,0:0:0:0:
210,307,195052,1,2,0:0:0:0:
162,313,195126,6,0,P|148:286|154:258,1,60,10|0,0:0|0:0,0:0:0:0:
257,104,195274,2,0,P|270:130|265:159,1,60,10|0,0:3|0:0,0:0:0:0:
210,209,195423,1,2,3:0:0:0:
177,224,195497,1,2,0:0:0:0:
147,223,195571,1,10,0:3:0:0:
35,172,195720,1,10,0:0:0:0:
62,298,195868,2,0,B|76:270|76:270|69:242,1,60,10|0,0:3|0:0,0:0:0:0:
50,166,196017,5,2,3:0:0:0:
54,124,196091,1,2,0:0:0:0:
59,82,196165,2,0,B|119:98|119:98|190:64,1,120,10|10,0:3|0:0,0:0:0:0:
188,63,196388,2,0,L|191:30,1,30,2|0,0:0|2:0,0:0:0:0:
204,53,196463,2,0,L|207:20,1,30,10|0,0:3|2:0,0:0:0:0:
369,13,196611,5,2,3:0:0:0:
322,0,196685,1,2,0:0:0:0:
279,20,196760,2,0,L|273:85,1,55,10|0,0:3|0:0,0:0:0:0:
284,151,196908,5,10,0:0:0:0:
322,156,196982,1,2,0:0:0:0:
353,173,197057,1,10,0:3:0:0:
382,189,197131,1,2,0:0:0:0:
408,192,197205,5,2,3:2:0:0:
256,245,197354,1,10,3:0:0:0:
104,192,197502,1,10,3:2:0:0:
256,278,197651,1,10,3:0:0:0:
408,192,197799,1,2,3:2:0:0:
256,311,197948,1,10,3:0:0:0:
104,192,198096,1,10,3:2:0:0:
256,344,198245,1,10,3:0:0:0:
408,192,198393,5,2,3:2:0:0:
419,138,198467,5,2,3:2:0:0:
417,88,198542,5,10,3:0:0:0:
402,45,198616,5,2,3:2:0:0:
379,12,198690,5,10,3:2:0:0:
343,0,198765,5,2,3:2:0:0:
308,2,198839,5,10,3:0:0:0:
277,16,198913,5,2,3:2:0:0:
256,40,198987,5,2,3:2:0:0:
235,16,199062,5,2,3:2:0:0:
204,2,199136,5,10,3:0:0:0:
169,0,199210,5,2,3:2:0:0:
133,12,199284,5,10,3:2:0:0:
110,45,199359,5,2,3:2:0:0:
95,88,199433,5,10,3:0:0:0:
93,138,199507,5,2,3:2:0:0:
104,192,199581,5,10,3:2:0:0:
408,192,199730,1,10,3:2:0:0:
104,264,200027,6,0,L|165:264,1,55,10|0,3:2|3:0,0:0:0:0:
408,264,200175,1,10,3:2:0:0:
104,336,200472,5,10,3:2:0:0:
408,336,200621,1,10,3:2:0:0:
256,383,200769,2,0,P|269:364|257:345,1,50,2|0,0:0|0:0,0:0:0:0:
196,296,200918,6,0,B|189:269|189:269|202:241,1,55,10|0,3:2|0:0,0:0:0:0:
376,191,201066,2,0,B|356:211|356:211|325:213,1,55,10|0,3:2|0:0,0:0:0:0:
195,88,201215,2,0,B|222:95|222:95|240:120,1,55,10|0,3:2|0:0,0:0:0:0:
256,192,201364,5,10,3:2:0:0:
16,307,201661,1,2,0:0:0:0:
12,309,201735,1,2,0:0:0:0:
8,311,201809,1,2,0:0:0:0:
4,313,201883,1,2,0:0:0:0:
0,315,201958,6,0,B|-18:247|-18:247|-9:216,1,100,6|0,3:2|0:0,0:0:0:0:
28,70,202106,2,0,B|53:96|53:96|38:180,1,100,10|0,3:0|0:0,0:0:0:0:
101,298,202255,6,0,B|71:257|71:257|104:205,1,100,2|0,3:2|0:0,0:0:0:0:
121,302,202403,2,0,L|138:182,1,100,10|0,3:0|0:0,0:0:0:0:
137,52,202552,6,0,B|132:76|132:76|188:129,1,100,2|0,3:2|0:0,0:0:0:0:
220,276,202700,2,0,B|244:250|244:250|225:181,1,100,10|0,3:0|0:0,0:0:0:0:
288,53,202849,6,0,B|251:88|251:88|279:140,1,100,2|0,3:2|0:0,0:0:0:0:
307,50,202997,2,0,L|320:166,1,100,10|0,3:0|0:0,0:0:0:0:
357,296,203146,6,0,B|336:261|336:261|376:185,1,100,2|0,3:2|0:0,0:0:0:0:
381,62,203294,2,0,B|418:105|418:105|414:147,1,100,10|0,3:0|0:0,0:0:0:0:
466,293,203443,6,0,B|520:244|520:244|515:206,1,100,2|0,3:2|0:0,0:0:0:0:
483,301,203591,2,0,L|471:196,1,100,10|0,3:0|0:0,0:0:0:0:
483,80,203740,6,0,B|512:95|512:95|512:118,1,50,0|0,3:2|0:0,0:0:0:0:
511,193,203888,6,0,B|456:183|456:183|123:387|123:387|66:383,1,500,10|10,3:0|3:0,0:0:0:0:
34,341,204260,1,0,3:2:0:0:
0,300,204334,6,0,B|-17:269|-17:269|5:205,1,100,2|0,3:2|0:0,0:0:0:0:
60,69,204482,2,0,B|90:133|90:133|64:167,1,100,10|0,3:0|0:0,0:0:0:0:
106,304,204631,6,0,B|72:278|72:278|112:219,1,100,2|0,3:2|0:0,0:0:0:0:
118,320,204779,2,0,B|159:304|159:304|176:241,1,100,10|0,3:0|0:0,0:0:0:0:
204,101,204928,6,0,B|170:139|170:139|203:186,1,100,2|0,3:2|0:0,0:0:0:0:
260,314,205076,2,0,B|292:294|292:294|271:226,1,100,10|0,3:0|0:0,0:0:0:0:
289,77,205225,6,0,B|319:124|319:124|302:179,1,100,2|0,3:2|0:0,0:0:0:0:
313,81,205373,2,0,L|350:199,1,100,10|0,3:0|0:0,0:0:0:0:
452,344,205522,5,2,3:2:0:0:
405,304,205596,1,0,3:2:0:0:
428,246,205670,1,10,3:0:0:0:
490,249,205745,1,0,3:2:0:0:
512,190,205819,6,2,L|501:129,12,50,2|0|0|0|0|0|0|0|10|0|0|0|0,3:2|3:0|3:2|3:0|3:2|3:0|3:2|3:0|3:0|3:0|3:2|3:0|3:2,0:0:0:0:
462,150,206116,6,0,B|281:204|281:204|302:388,1,375,0|0,3:2|2:0,0:0:0:0:
210,388,206413,2,0,B|231:204|231:204|50:150,1,375,0|0,3:2|2:0,0:0:0:0:
4,207,206710,6,0,B|-17:269|-17:269|0:300,1,100,2|0,3:2|0:0,0:0:0:0:
33,59,206859,2,0,B|58:81|58:81|41:170,1,100,10|0,3:0|0:0,0:0:0:0:
79,234,207007,6,0,L|82:334,1,100,2|0,3:2|0:0,0:0:0:0:
103,219,207156,2,0,B|117:267|117:267|170:287,1,100,10|0,3:0|0:0,0:0:0:0:
187,48,207304,6,0,B|140:83|140:83|172:119,1,100,2|0,3:2|0:0,0:0:0:0:
256,192,207453,2,0,B|230:219|230:219|249:295,1,100,10|0,3:0|0:0,0:0:0:0:
265,35,207601,6,0,B|313:81|313:81|307:155,1,100,2|0,3:2|0:0,0:0:0:0:
297,41,207750,2,0,B|368:58|368:58|399:102,1,100,10|0,3:0|0:0,0:0:0:0:
344,213,207898,6,0,B|338:273|338:273|367:300,1,100,2|0,3:2|0:0,0:0:0:0:
456,78,208047,2,0,B|472:143|472:143|450:185,1,100,10|0,3:0|0:0,0:0:0:0:
450,267,208195,6,0,B|492:305|492:305|502:381,1,100,2|0,3:2|0:0,0:0:0:0:
473,275,208344,2,0,B|418:323|418:323|430:379,1,100,10|0,3:0|0:0,0:0:0:0:
512,122,208492,6,0,L|503:177,1,50,0|0,3:2|0:0,0:0:0:0:
512,192,208641,6,0,B|527:226|527:226|307:253,1,250,10|0,3:0|3:2,0:0:0:0:
256,257,208864,1,0,3:2:0:0:
197,263,208938,1,10,3:0:0:0:
173,208,209012,1,0,3:2:0:0:
149,153,209086,6,0,L|139:202,1,50,0|0,3:2|0:0,0:0:0:0:
118,301,209235,6,0,B|44:276|44:276|15:91|15:91|118:17|118:17|248:45|248:45|265:144,1,625,10|0,3:0|0:0,0:0:0:0:
297,230,209680,6,0,B|310:313|310:313|263:386,1,125,2|0,3:2|0:0,0:0:0:0:
365,50,209829,6,0,B|332:68|332:68|365:103,1,75,10|0,3:0|0:0,0:0:0:0:
392,282,209977,6,0,B|437:346|437:346|495:336,1,125,2|0,3:2|0:0,0:0:0:0:
436,94,210126,6,0,B|399:102|399:102|422:145,1,75,10|0,3:0|0:0,0:0:0:0:
512,192,210274,6,0,L|241:228,1,200,2|10,3:2|0:3,0:0:0:0:
276,224,210497,1,2,0:0:0:0:
228,187,210571,5,2,3:2:0:0:
177,221,210646,1,2,3:2:0:0:
129,184,210720,1,10,3:0:0:0:
78,218,210794,1,2,3:2:0:0:
30,181,210868,6,0,B|49:200|49:200|26:288,1,100,6|0,3:2|0:0,0:0:0:0:
7,346,211017,6,0,L|69:337,1,50,2|0,0:0|0:0,0:0:0:0:
241,312,211165,6,1,B|238:265|210:265|208:316|208:316|193:302|193:302|184:325|184:325|199:341|199:341|186:363|186:363|201:341|201:341|222:347|222:347|225:372|225:372|238:343|235:318,1,300.000000000057,4|0,0:0|0:0,0:0:0:0:
256,0,211463,6,0,B|266:-11|266:-11|250:97,1,125,6|0,3:2|0:0,0:0:0:0:
219,182,211611,6,0,B|189:197|189:197|197:142,1,87.5000000000001,10|0,3:0|0:0,0:0:0:0:
328,92,211760,5,10,3:2:0:0:
360,57,211834,1,2,0:0:0:0:
392,22,211908,1,10,3:0:0:0:
382,67,211982,1,2,0:0:0:0:
372,114,212057,6,0,L|386:187,1,75,2|0,3:2|0:0,0:0:0:0:
338,357,212205,2,0,B|315:312|315:312|327:276,1,75,10|0,3:0|0:0,0:0:0:0:
496,153,212354,2,0,B|480:201|480:201|446:218,1,75,10|0,3:2|0:0,0:0:0:0:
396,283,212502,2,0,L|382:210,1,75,10|0,3:0|0:0,0:0:0:0:
182,259,212651,6,0,B|203:253|203:253|270:276,1,75,2|0,3:2|0:0,0:0:0:0:
240,359,212799,2,0,B|219:365|219:365|168:347,1,75,10|0,3:0|0:0,0:0:0:0:
14,289,212948,6,0,L|26:350,1,62.5,10|0,3:2|0:0,0:0:0:0:
97,335,213096,2,0,L|84:273,1,62.5,10|0,3:0|0:0,0:0:0:0:
112,211,213245,1,0,3:2:0:0:
10,76,213393,6,0,B|94:131|94:131|195:109,1,200,10|10,3:0|3:2,0:0:0:0:
243,94,213616,1,2,3:2:0:0:
232,38,213690,1,10,3:0:0:0:
176,49,213765,1,2,0:0:0:0:
191,109,213839,6,0,L|213:210,1,75,2|0,3:2|0:0,0:0:0:0:
235,357,213987,2,0,B|251:343|251:343|234:282,1,75,10|0,3:0|0:0,0:0:0:0:
206,182,214136,5,10,3:2:0:0:
234,215,214210,1,2,0:0:0:0:
274,197,214284,1,10,3:0:0:0:
308,226,214359,1,2,0:0:0:0:
365,221,214433,6,0,L|437:239,1,75,2|0,3:2|0:0,0:0:0:0:
400,384,214581,2,0,L|328:366,1,75,10|0,3:0|0:0,0:0:0:0:
438,260,214730,6,0,B|428:279|428:279|437:323,1,62.5,10|0,3:2|0:0,0:0:0:0:
512,306,214878,2,0,B|521:286|521:286|512:242,1,62.5,10|0,3:0|0:0,0:0:0:0:
496,169,215027,6,0,L|510:78,1,75,2|0,3:2|0:0,0:0:0:0:
370,34,215175,2,0,B|394:37|394:37|418:27,1,50,10|0,3:0|0:0,0:0:0:0:
497,1,215324,6,0,L|486:76,1,75,10|0,3:2|0:0,0:0:0:0:
421,152,215472,2,0,B|395:148|395:148|375:134,1,50,10|0,3:0|0:0,0:0:0:0:
260,60,215621,5,2,3:2:0:0:
294,24,215695,1,2,3:2:0:0:
244,36,215769,5,10,3:0:0:0:
278,0,215844,1,2,3:2:0:0:
232,8,215918,6,0,B|172:2|172:2|152:16|152:16|86:11,1,150,10|10,3:2|3:0,0:0:0:0:
82,201,216215,6,0,L|73:119,1,75,2|0,3:2|0:0,0:0:0:0:
161,54,216364,2,0,B|176:75|176:75|168:123,1,75,10|0,3:0|0:0,0:0:0:0:
155,213,216512,5,10,3:2:0:0:
147,257,216586,1,2,0:0:0:0:
140,303,216661,1,10,3:0:0:0:
182,287,216735,1,2,0:0:0:0:
223,271,216809,2,0,L|296:283,1,75,2|0,3:2|0:0,0:0:0:0:
452,308,216958,6,0,B|423:323|423:323|393:318,1,62.5,10|0,3:0|0:0,0:0:0:0:
358,202,217106,2,0,B|338:225|338:225|337:258,1,62.5,10|0,3:2|0:0,0:0:0:0:
450,190,217255,2,0,B|477:207|477:207|488:236,1,62.5,10|0,3:0|0:0,0:0:0:0:
293,315,217403,6,0,L|214:302,1,80,2|0,3:2|0:0,0:0:0:0:
304,332,217552,6,0,B|314:360|314:360|342:378,1,62.5,10|0,3:0|0:0,0:0:0:0:
341,262,217700,2,0,B|342:229|342:229|360:205,1,62.5,10|0,3:2|0:0,0:0:0:0:
495,88,217849,2,0,B|464:90|464:90|440:111,1,62.5,10|0,3:0|0:0,0:0:0:0:
373,134,217997,5,2,3:2:0:0:
370,121,218071,1,2,0:0:0:0:
367,108,218146,1,10,3:0:0:0:
352,92,218220,1,2,0:0:0:0:
329,68,218294,5,10,3:2:0:0:
289,55,218368,1,2,3:2:0:0:
242,90,218443,1,10,3:0:0:0:
265,149,218517,1,2,3:2:0:0:
203,174,218591,6,0,B|181:194|181:194|203:286,1,100,10|0,3:2|0:0,0:0:0:0:
243,355,218740,2,0,B|258:367|258:367|268:285,1,100,10|0,3:2|0:0,0:0:0:0:
279,152,218888,6,0,B|301:159|301:159|84:194|84:194|88:133,1,300,10|0,3:2|0:0,0:0:0:0:
104,60,219185,6,0,B|142:27|142:27|136:77,1,100,10|0,3:2|0:0,0:0:0:0:
29,245,219334,2,0,B|33:182|33:182|11:149,1,100,10|0,3:2|0:0,0:0:0:0:
3,78,219482,6,0,L|0:165,1,87.5000000000001,10|0,3:2|0:0,0:0:0:0:
106,210,219631,2,0,L|102:284,1,75,10|0,3:2|0:0,0:0:0:0:
137,317,219779,5,8,0:0:0:0:
182,314,219854,1,8,0:0:0:0:
196,271,219928,5,8,0:0:0:0:
241,268,220002,1,8,0:0:0:0:
256,225,220076,6,0,L|256:183,1,37.5,8|0,0:0|2:0,0:0:0:0:
270,268,220151,6,0,L|256:319,1,37.5,8|0,0:0|2:0,0:0:0:0:
315,271,220225,2,0,L|339:237,1,37.5,8|0,0:0|2:0,0:0:0:0:
329,314,220299,6,0,L|315:365,1,37.5,8|0,0:0|2:0,0:0:0:0:
374,317,220373,6,0,B|462:317|462:317|462:137,1,262.5,10|2,3:2|3:2,0:0:0:0:
462,53,220670,2,0,B|378:16|378:16|277:76|277:76|229:53,1,262.5,10|0,3:2|3:0,0:0:0:0:
157,53,220967,6,0,B|58:107|58:107|123:205,1,225,0|0,3:0|0:0,0:0:0:0:
136,223,221710,5,2,0:0:0:0:
199,195,221859,1,2,0:0:0:0:
256,249,222007,2,0,L|289:375,1,115.5,2|0,0:0|0:0,0:0:0:0:
323,369,222601,5,2,0:0:0:0:
324,359,222675,1,2,0:0:0:0:
325,349,222750,2,0,L|327:317,6,25,2|2|2|2|2|2|2,0:0|0:0|0:0|0:0|0:0|0:0|0:0,0:0:0:0:
399,356,223344,5,2,0:0:0:0:
429,288,223492,1,2,0:0:0:0:
373,238,223641,1,2,0:0:0:0:
308,275,223789,1,2,0:0:0:0:
325,349,229878,6,0,P|296:338|265:346,1,59.9999999999999,2|2,0:0|0:0,0:0:0:0:
255,363,230101,1,2,0:0:0:0:
255,363,230175,1,2,0:0:0:0:
183,384,230324,1,2,0:0:0:0:
216,295,230472,6,0,P|213:228|95:188,1,200
27,203,231215,2,0,L|33:154,1,50,2|2,0:0|0:0,0:0:0:0:
93,109,231512,2,0,L|214:99,1,115.5,2|0,0:0|0:0,0:0:0:0:
246,96,232106,5,2,0:0:0:0:
242,106,232180,1,2,0:0:0:0:
238,116,232255,2,0,L|262:113,6,25,2|2|2|2|2|2|2,0:0|0:0|0:0|0:0|0:0|0:0|0:0,0:0:0:0:
312,123,232849,5,2,0:0:0:0:
342,55,232997,1,2,0:0:0:0:
286,5,233146,1,2,0:0:0:0:
221,42,233294,1,2,0:0:0:0:
238,116,235225,5,2,0:0:0:0:
312,123,235373,1,2,0:0:0:0:
342,55,235522,1,2,0:0:0:0:
286,5,235670,1,2,0:0:0:0:
221,42,235819,5,2,0:0:0:0:
215,25,235967,1,2,0:0:0:0:
204,39,236116,1,2,0:0:0:0:
151,107,236265,5,2,0:0:0:0:
136,64,236413,1,2,0:0:0:0:
93,79,236562,1,2,0:0:0:0:
108,122,236710,1,2,0:0:0:0:
207,224,236859,5,2,0:0:0:0:
189,173,237007,1,2,0:0:0:0:
156,215,237156,1,2,0:0:0:0:
192,358,237304,5,2,0:0:0:0:
169,291,237453,1,2,0:0:0:0:
338,366,237601,5,2,0:0:0:0:
299,254,237750,1,2,0:0:0:0:
266,368,237898,1,2,0:0:0:0:
360,296,238047,1,2,0:0:0:0:
242,299,238195,1,2,0:0:0:0:
341,370,238344,5,2,0:0:0:0:
365,293,238492,1,2,0:0:0:0:
298,247,238641,1,2,0:0:0:0:
322,163,238789,5,2,0:0:0:0:
414,158,238938,5,2,0:0:0:0:
438,62,239086,5,2,0:0:0:0:
344,4,239235,5,2,0:0:0:0:
190,69,239383,6,0,P|220:72|249:82,1,59.9999999999999,2|2,0:0|0:0,0:0:0:0:
277,100,239606,1,2,0:0:0:0:
277,100,239680,1,2,0:0:0:0:
201,158,239829,1,2,0:0:0:0:
65,3,239977,5,4,3:2:0:0:
90,18,240052,1,0,0:0:0:0:
100,45,240126,1,0,0:2:0:0:
97,74,240200,1,0,0:0:0:0:
75,95,240274,2,0,L|69:145,1,37.5000000000001,0|0,0:2|0:0,0:0:0:0:
36,205,240423,2,0,L|40:167,1,37.5000000000001,0|0,3:2|0:0,0:0:0:0:
134,173,240571,5,8,0:2:0:0:
160,187,240646,1,0,0:0:0:0:
169,215,240720,1,2,0:2:0:0:
160,243,240794,1,0,0:0:0:0:
135,259,240868,2,0,L|92:269,1,37.5000000000001,2|0,0:2|0:0,0:0:0:0:
45,323,241017,1,2,3:2:0:0:
80,344,241091,1,0,3:2:0:0:
121,345,241165,5,0,3:2:0:0:
149,335,241240,1,0,0:0:0:0:
178,341,241314,1,0,0:0:0:0:
201,359,241388,6,0,P|208:341|212:323,1,37.5000000000001,0|0,3:2|0:0,0:0:0:0:
263,271,241537,1,0,0:0:0:0:
263,271,241611,2,0,P|277:288|283:309,1,37.5000000000001,2|2,3:2|0:0,0:0:0:0:
342,349,241760,5,10,0:2:0:0:
368,335,241834,1,2,0:0:0:0:
397,335,241908,1,2,3:2:0:0:
423,348,241982,1,2,0:0:0:0:
443,370,242057,5,2,3:2:0:0:
464,346,242131,1,2,3:2:0:0:
474,315,242205,1,2,3:2:0:0:
464,279,242279,1,2,0:0:0:0:
432,254,242354,5,2,3:2:0:0:
402,259,242428,1,0,0:0:0:0:
376,244,242502,1,0,0:0:0:0:
363,216,242576,1,0,0:0:0:0:
370,186,242651,2,0,L|380:140,1,37.5000000000001
423,85,242799,2,0,P|414:106|416:132,1,37.5000000000001,0|0,3:2|0:0,0:0:0:0:
462,184,242948,5,8,0:2:0:0:
485,165,243022,1,0,0:0:0:0:
498,138,243096,1,0,0:0:0:0:
501,108,243170,1,0,0:0:0:0:
496,78,243245,2,0,P|492:60|473:30,1,37.5000000000001
414,6,243393,1,0,3:2:0:0:
378,26,243467,1,0,3:2:0:0:
337,18,243542,5,0,3:2:0:0:
338,47,243616,1,0,0:0:0:0:
298,35,243690,5,8,0:2:0:0:
281,60,243765,2,0,P|269:74|245:89,1,37.5000000000001,0|0,3:2|0:0,0:0:0:0:
180,88,243913,5,0,0:0:0:0:
180,88,243987,2,0,P|185:112|206:140,1,37.5000000000001,0|0,3:2|0:0,0:0:0:0:
254,175,244136,5,8,0:2:0:0:
283,180,244210,1,0,0:0:0:0:
310,168,244284,1,0,3:2:0:0:
328,144,244359,1,0,0:0:0:0:
354,162,244433,5,0,3:2:0:0:
358,195,244507,1,0,3:2:0:0:
343,227,244581,1,0,3:2:0:0:
312,249,244656,1,0,0:0:0:0:
272,259,244730,5,0,3:2:0:0:
254,283,244804,1,0,0:0:0:0:
254,312,244878,1,0,0:0:0:0:
272,336,244953,1,0,0:0:0:0:
299,347,245027,2,0,L|341:344,1,37.5000000000001
219,382,245175,2,0,L|181:384,1,37.5000000000001,0|0,3:2|0:0,0:0:0:0:
111,344,245324,5,8,0:2:0:0:
134,325,245398,1,0,0:0:0:0:
147,298,245472,1,0,0:0:0:0:
142,267,245547,1,0,0:0:0:0:
120,245,245621,2,0,P|98:245|72:255,1,37.5000000000001
192,195,245769,1,0,3:2:0:0:
174,159,245844,1,0,3:2:0:0:
191,121,245918,5,0,3:2:0:0:
220,130,245992,1,0,0:0:0:0:
250,132,246066,1,0,0:0:0:0:
280,124,246141,6,0,P|299:112|312:92,1,37.5000000000001,0|0,3:2|0:0,0:0:0:0:
342,33,246289,1,0,0:0:0:0:
342,33,246364,2,0,L|337:80,1,37.5000000000001,0|0,3:2|0:0,0:0:0:0:
256,42,246512,5,8,0:2:0:0:
229,28,246586,1,0,0:0:0:0:
198,25,246661,1,0,3:2:0:0:
168,32,246735,1,0,0:0:0:0:
145,54,246809,5,0,3:2:0:0:
122,29,246883,1,0,3:2:0:0:
89,20,246958,1,0,3:2:0:0:
53,22,247032,1,0,0:0:0:0:
16,40,247106,5,0,3:2:0:0:
8,68,247180,1,0,0:0:0:0:
21,95,247255,1,0,0:0:0:0:
43,114,247329,1,0,0:0:0:0:
55,140,247403,2,0,P|53:164|44:187,1,37.5000000000001
143,173,247552,2,0,P|129:193|109:208,1,37.5000000000001,0|0,3:2|0:0,0:0:0:0:
49,250,247700,5,8,0:2:0:0:
35,276,247774,1,0,0:0:0:0:
41,305,247849,1,0,0:0:0:0:
62,326,247923,1,0,0:0:0:0:
90,333,247997,2,0,L|147:346,1,37.5000000000001
156,269,248146,1,0,3:2:0:0:
186,296,248220,1,0,3:2:0:0:
226,303,248294,5,0,3:2:0:0:
255,298,248368,1,0,0:0:0:0:
249,339,248443,5,8,0:2:0:0:
277,347,248517,2,0,P|294:349|324:333,1,37.5000000000001,0|0,3:2|0:0,0:0:0:0:
381,317,248665,5,0,0:0:0:0:
381,317,248740,2,0,L|427:355,1,37.5000000000001,0|0,3:2|0:0,0:0:0:0:
434,247,248888,6,0,B|451:199|451:199|426:147,1,100,10|2,0:2|3:2,0:0:0:0:
399,91,249111,1,2,0:0:0:0:
372,64,249185,5,2,3:2:0:0:
362,102,249260,1,0,3:2:0:0:
389,129,249334,1,2,3:2:0:0:
48,24,249482,6,0,B|132:30|132:30|166:105|166:105|248:112,1,250,4|0,3:2|0:0,0:0:0:0:
289,117,249928,1,0,3:2:0:0:
199,228,250076,2,0,L|188:167,1,50,8|0,0:2|0:0,0:0:0:0:
187,154,250225,5,2,0:0:0:0:
106,243,250373,1,2,0:0:0:0:
213,299,250522,1,2,3:2:0:0:
246,283,250596,1,0,3:2:0:0:
268,253,250670,6,0,P|294:302|299:348,1,100,0|0,3:2|0:0,0:0:0:0:
369,384,250893,2,0,P|375:334|400:291,1,100,0|0,3:2|0:0,0:0:0:0:
473,276,251116,2,0,P|483:251|478:222,1,50,2|2,3:2|0:0,0:0:0:0:
450,165,251265,5,10,0:2:0:0:
422,148,251339,1,2,0:0:0:0:
390,148,251413,1,2,3:2:0:0:
363,165,251487,1,2,0:0:0:0:
347,195,251562,5,2,3:2:0:0:
317,216,251636,1,2,3:2:0:0:
278,215,251710,1,2,3:2:0:0:
243,190,251784,1,2,0:0:0:0:
234,144,251859,5,2,3:2:0:0:
205,158,251933,1,0,0:0:0:0:
173,153,252007,1,0,0:0:0:0:
146,135,252081,1,0,0:0:0:0:
140,103,252156,2,0,L|153:50,1,40
85,21,252304,2,0,L|75:59,1,40,0|0,3:2|0:0,0:0:0:0:
13,102,252453,5,8,0:2:0:0:
34,125,252527,1,0,0:0:0:0:
47,153,252601,1,0,0:0:0:0:
52,184,252675,1,0,0:0:0:0:
46,215,252750,2,0,P|53:237|73:270,1,40
120,305,252898,1,0,3:2:0:0:
135,263,252972,1,0,3:2:0:0:
140,218,253047,5,0,3:2:0:0:
162,240,253121,1,0,0:0:0:0:
187,204,253195,5,8,0:2:0:0:
201,232,253269,2,0,P|213:250|222:287,1,40,0|0,3:2|0:0,0:0:0:0:
220,349,253418,5,0,0:0:0:0:
220,349,253492,2,0,P|237:339|268:336,1,40,0|0,3:2|0:0,0:0:0:0:
328,350,253641,5,8,0:2:0:0:
358,359,253715,1,0,0:0:0:0:
389,362,253789,1,0,3:2:0:0:
420,353,253864,1,0,0:0:0:0:
445,330,253938,5,0,3:2:0:0:
422,302,254012,1,0,3:2:0:0:
410,265,254086,1,0,3:2:0:0:
413,223,254161,1,0,0:0:0:0:
431,183,254235,5,0,3:2:0:0:
407,167,254309,1,0,0:0:0:0:
375,161,254383,1,0,0:0:0:0:
344,172,254458,1,0,0:0:0:0:
322,195,254532,2,0,P|317:219|336:248,1,40
241,205,254680,2,0,P|221:199|207:186,1,40,0|0,3:2|0:0,0:0:0:0:
177,123,254829,5,8,0:2:0:0:
162,94,254903,1,0,0:0:0:0:
166,62,254977,1,0,0:0:0:0:
189,38,255052,1,0,0:0:0:0:
219,29,255126,2,0,L|269:41,1,40
128,0,255274,1,0,3:2:0:0:
89,21,255349,1,0,3:2:0:0:
50,42,255423,5,0,3:2:0:0:
69,67,255497,1,0,0:0:0:0:
70,98,255571,1,0,0:0:0:0:
57,127,255646,6,0,P|58:151|75:181,1,40,0|0,3:2|0:0,0:0:0:0:
99,235,255794,1,0,0:0:0:0:
99,235,255868,2,0,L|108:184,1,40,0|0,3:2|0:0,0:0:0:0:
25,232,256017,5,8,0:2:0:0:
14,262,256091,1,0,0:0:0:0:
18,293,256165,1,0,3:2:0:0:
28,323,256240,1,0,0:0:0:0:
22,357,256314,5,0,3:2:0:0:
58,347,256388,1,0,3:2:0:0:
98,352,256463,1,0,3:2:0:0:
138,365,256537,1,0,0:0:0:0:
181,355,256611,5,0,3:2:0:0:
211,363,256685,1,0,0:0:0:0:
241,351,256760,1,0,0:0:0:0:
252,321,256834,1,0,0:0:0:0:
242,290,256908,2,0,L|248:235,1,40
285,187,257057,2,0,L|280:226,1,40,0|0,3:2|0:0,0:0:0:0:
359,216,257205,5,8,0:2:0:0:
388,227,257279,1,0,0:0:0:0:
420,230,257354,1,0,0:0:0:0:
449,217,257428,1,0,0:0:0:0:
471,194,257502,2,0,P|480:176|482:156,1,40
433,80,257651,1,0,3:2:0:0:
419,119,257725,1,0,3:2:0:0:
382,142,257799,5,0,3:2:0:0:
355,123,257873,1,0,0:0:0:0:
344,75,257948,5,8,0:2:0:0:
328,102,258022,2,0,P|309:113|277:116,1,40,0|0,3:2|0:0,0:0:0:0:
235,66,258170,5,0,0:0:0:0:
235,66,258245,2,0,L|215:111,1,40,0|0,3:2|0:0,0:0:0:0:
171,15,258393,6,0,L|36:51,1,100,10|2,0:2|3:2,0:0:0:0:
3,59,258616,1,2,0:0:0:0:
45,79,258690,5,2,3:2:0:0:
34,128,258765,1,2,3:2:0:0:
76,148,258839,2,0,L|127:171,1,40,2|0,3:2|0:0,0:0:0:0:
256,192,258987,6,1,B|210:154|157:192|175:258|222:276|222:276|269:307|239:379|186:394|118:345|122:284|178:250|226:268|256:260|258:221,1,480,4|8,3:2|3:2,0:0:0:0:
330,121,260175,6,1,B|442:132|442:132|359:213|347:310,1,320,8|8,3:2|3:2,0:0:0:0:
346,311,261066,5,8,3:2:0:0:
264,268,261215,1,8,3:2:0:0:
182,225,261364,6,1,B|202:167|313:199|302:293|239:330|191:304|191:304|138:277|138:162|202:100,1,480,8|8,3:2|3:2,0:0:0:0:
388,88,262552,6,1,B|333:85|333:85|323:145|323:145|395:146|404:206|382:258|309:254|302:220,1,320,8|8,3:2|3:2,0:0:0:0:
256,0,263368,1,8,3:2:0:0:
256,0,263443,5,8,3:2:0:0:
256,80,263591,1,8,3:2:0:0:
256,160,263740,6,0,L|256:108,1,40,14|2,3:2|0:0,0:0:0:0:
256,80,263888,2,0,L|256:28,1,40,10|2,3:2|0:0,0:0:0:0:
256,0,264037,2,0,L|227:28,1,40,10|2,3:2|0:0,0:0:0:0:
207,47,264185,2,0,L|178:75,1,40,10|2,3:2|0:0,0:0:0:0:
158,94,264334,5,10,3:2:0:0:
189,94,264408,1,2,0:0:0:0:
220,94,264482,1,10,3:2:0:0:
251,94,264557,1,2,0:0:0:0:
282,94,264631,6,0,L|322:93,1,40,10|2,3:2|0:0,0:0:0:0:
351,94,264779,2,0,L|391:93,1,40,10|2,3:2|0:0,0:0:0:0:
413,19,264928,5,14,3:2:0:0:
450,7,265002,1,2,0:0:0:0:
488,17,265076,1,10,3:2:0:0:
512,46,265151,1,2,0:0:0:0:
512,85,265225,1,10,3:2:0:0:
504,121,265299,1,2,0:0:0:0:
470,143,265373,6,0,B|461:147|461:147|481:173|474:183,1,40,10|2,3:2|0:0,0:0:0:0:
479,210,265522,5,10,3:2:0:0:
463,246,265596,1,2,0:0:0:0:
431,268,265670,1,10,3:2:0:0:
391,271,265745,1,2,0:0:0:0:
357,252,265819,1,10,3:2:0:0:
337,218,265893,1,2,0:0:0:0:
350,181,265967,6,0,P|340:153|321:135,1,40,10|2,3:2|0:0,0:0:0:0:
87,44,266116,5,14,3:2:0:0:
123,17,266190,1,10,3:2:0:0:
166,13,266265,1,10,3:2:0:0:
207,30,266339,1,10,3:2:0:0:
235,65,266413,1,10,3:2:0:0:
245,108,266487,1,10,3:2:0:0:
237,153,266562,1,10,3:2:0:0:
214,191,266636,1,10,3:2:0:0:
184,224,266710,1,14,3:2:0:0:
149,251,266784,1,10,3:2:0:0:
112,276,266859,1,10,3:2:0:0:
77,299,266933,1,10,3:2:0:0:
121,303,267007,1,10,3:2:0:0:
166,305,267081,1,10,3:2:0:0:
210,308,267156,1,10,3:2:0:0:
260,315,267230,1,10,3:2:0:0:
260,315,267304,6,0,L|263:261,1,40,6|0,3:2|0:0,0:0:0:0:
287,250,267453,1,2,3:2:0:0:
287,250,267527,1,2,3:2:0:0:
287,250,267601,6,0,L|290:196,1,40,10|0,0:2|0:0,0:0:0:0:
314,185,267750,1,2,3:2:0:0:
336,193,267824,1,10,0:2:0:0:
358,201,267898,6,0,L|361:147,1,40,2|10,3:2|0:2,0:0:0:0:
343,83,268047,1,2,3:2:0:0:
343,83,268121,1,2,3:2:0:0:
343,83,268195,6,3,B|368:99|417:97|413:91|409:80|409:80|424:46|420:35|368:1|342:43|335:79,1,225,10|2,0:2|3:2,0:0:0:0:
260,90,268492,5,2,3:2:0:0:
190,67,268641,2,0,L|184:104,2,37.5000000000001,0|0|10,3:2|3:2|0:0,0:0:0:0:
108,118,268938,2,0,L|114:81,2,37.5000000000001,0|0|2,3:2|3:2|3:2,0:0:0:0:
37,94,269235,2,0,L|31:131,2,37.5000000000001,0|0|10,3:2|3:2|0:0,0:0:0:0:
26,165,269532,1,2,3:2:0:0:
49,304,269680,5,8,0:0:0:0:
49,304,269829,1,2,3:2:0:0:
95,228,269977,1,8,0:0:0:0:
118,367,270126,1,2,3:2:0:0:
4,271,270274,5,10,0:0:0:0:
7,256,270349,1,2,0:0:0:0:
23,241,270423,1,2,3:2:0:0:
51,232,270497,1,2,0:0:0:0:
87,241,270571,6,0,L|112:203,1,31.25,10|0,0:0|2:0,0:0:0:0:
111,274,270646,6,0,L|131:243,1,25,2|0,0:0|2:0,0:0:0:0:
146,301,270720,2,0,L|178:284,1,25,2|0,3:2|2:0,0:0:0:0:
193,311,270794,2,0,L|229:313,1,25,2|0,0:0|2:0,0:0:0:0:
243,286,270868,6,0,B|272:230|272:230|255:171,1,125,6|8,3:2|0:3,0:0:0:0:
326,117,271091,1,0,0:0:0:0:
335,126,271166,2,0,P|289:185|306:241,1,125,10|8,0:0|0:3,0:0:0:0:
443,307,271463,2,0,P|489:248|472:192,1,125,2|8,3:0|0:3,0:0:0:0:
414,96,271760,1,10,0:0:0:0:
375,345,271908,6,0,B|355:293|355:293|406:244|393:172,1,187.5,10|0,0:3|0:0,0:0:0:0:
334,109,272205,1,10,0:3:0:0:
293,93,272279,1,2,0:0:0:0:
259,122,272354,2,0,P|248:152|258:192,1,62.5,10|0,0:0|0:0,0:0:0:0:
277,276,272502,1,10,0:3:0:0:
418,241,272651,6,0,L|355:247,1,62.5,2|0,3:0|0:0,0:0:0:0:
133,267,272799,2,0,L|196:261,1,62.5,10|0,0:3|0:0,0:0:0:0:
301,348,272948,6,0,P|274:370|224:364,1,62.5,10|0,0:0|0:0,0:0:0:0:
127,224,273096,2,0,P|137:195|162:177,1,62.5,10|0,0:3|0:0,0:0:0:0:
174,349,273245,6,0,P|126:315|28:331,1,125,2|8,3:0|0:3,0:0:0:0:
4,363,273467,1,0,0:0:0:0:
39,347,273542,2,0,L|55:205,1,125,10|8,0:0|0:3,0:0:0:0:
21,157,273765,1,0,0:0:0:0:
8,122,273839,2,0,P|65:91|128:101,1,125,2|8,3:0|0:3,0:0:0:0:
188,132,274062,1,0,0:0:0:0:
210,161,274136,1,10,0:0:0:0:
465,100,274284,6,0,B|414:76|369:110|369:110|353:155|291:160,1,187.5,10|0,0:3|0:0,0:0:0:0:
230,140,274581,1,10,0:3:0:0:
207,101,274656,1,2,0:0:0:0:
235,68,274730,2,0,L|296:78,1,62.5,10|0,0:0|0:0,0:0:0:0:
479,101,274878,1,10,0:3:0:0:
369,306,275027,6,0,L|363:237,1,62.5,2|0,3:0|0:0,0:0:0:0:
417,56,275175,2,0,P|406:81|409:132,1,62.5,10|0,0:3|0:0,0:0:0:0:
440,227,275324,6,0,L|445:289,1,62.5,10|0,0:0|0:0,0:0:0:0:
207,360,275472,2,0,P|208:329|220:300,1,62.5,10|0,0:3|0:0,0:0:0:0:
209,222,275621,6,0,P|266:238|291:297,1,125,2|8,3:0|0:3,0:0:0:0:
220,301,275844,1,0,0:0:0:0:
220,301,275918,2,0,P|182:254|195:190,1,125,10|8,0:0|0:3,0:0:0:0:
237,133,276141,1,0,0:0:0:0:
237,133,276215,2,0,P|207:94|70:94,1,187.5,2|0,3:0|0:0,0:0:0:0:
6,133,276512,1,10,0:0:0:0:
30,378,276661,6,0,B|86:357|86:357|127:299|106:231,1,187.5,10|0,0:3|0:0,0:0:0:0:
85,168,276958,1,10,0:3:0:0:
54,137,277032,1,2,0:0:0:0:
10,137,277106,2,0,P|3:169|14:212,1,62.5,10|0,0:0|0:0,0:0:0:0:
100,354,277255,1,10,0:3:0:0:
0,287,277403,6,0,L|65:293,1,62.5,2|0,3:0|0:0,0:0:0:0:
178,219,277552,2,0,L|243:225,1,62.5,10|0,0:3|0:0,0:0:0:0:
208,366,277700,6,0,P|199:336|203:305,1,62.5,10|0,0:0|0:0,0:0:0:0:
371,206,277849,2,0,P|379:235|376:266,1,62.5,10|0,0:3|0:0,0:0:0:0:
273,331,277997,6,0,L|452:349,1,125,2|8,3:0|0:3,0:0:0:0:
460,384,278220,1,0,0:0:0:0:
496,374,278294,2,0,P|518:323|504:254,1,125,10|8,0:0|0:3,0:0:0:0:
471,193,278517,1,0,0:0:0:0:
446,220,278591,1,2,3:0:0:0:
293,94,278740,1,8,0:3:0:0:
329,96,278814,1,0,0:0:0:0:
357,119,278888,2,0,P|374:142|376:183,1,62.5,10|0,0:0|0:0,0:0:0:0:
159,250,279037,6,0,B|246:261|246:261|273:230|273:230|330:238,1,187.5,10|0,0:3|0:0,0:0:0:0:
392,288,279334,1,10,0:3:0:0:
379,247,279408,1,2,0:0:0:0:
335,241,279482,2,0,L|265:244,1,62.5,10|0,0:0|0:0,0:0:0:0:
84,253,279631,1,10,0:3:0:0:
220,384,279779,6,0,P|239:353|225:316,1,62.5,2|0,3:0|0:0,0:0:0:0:
140,139,279928,2,0,P|121:170|135:207,1,62.5,10|0,0:3|0:0,0:0:0:0:
210,362,280076,6,0,B|224:318|187:276|187:276|198:189,1,160,10|10,0:0|0:3,0:0:0:0:
91,60,280373,6,0,L|216:48,1,125,6|8,3:2|0:3,0:0:0:0:
288,0,280596,1,0,0:0:0:0:
288,0,280670,2,0,P|304:70|352:98,1,125,10|8,0:0|0:3,0:0:0:0:
364,20,280893,1,0,0:0:0:0:
396,38,280967,2,0,P|426:108|386:162,1,125,2|8,3:0|0:3,0:0:0:0:
242,327,281265,1,10,0:0:0:0:
483,215,281413,6,0,B|429:212|414:234|414:234|379:220|379:220|350:246|292:237,1,187.5,10|0,0:3|0:0,0:0:0:0:
237,229,281710,1,10,0:3:0:0:
206,259,281784,1,2,0:0:0:0:
212,302,281859,2,0,L|273:312,1,62.5,10|0,0:0|0:0,0:0:0:0:
453,334,282007,1,10,0:3:0:0:
324,365,282156,6,0,P|344:332|341:289,1,62.5,2|0,3:0|0:0,0:0:0:0:
329,168,282304,2,0,P|302:140|259:131,1,62.5,10|0,0:3|0:0,0:0:0:0:
127,247,282453,6,0,L|121:322,1,62.5,10|0,0:0|0:0,0:0:0:0:
176,93,282601,2,0,L|180:30,1,62.5,10|0,0:3|0:0,0:0:0:0:
180,31,282750,6,0,P|101:26|65:61,1,125,2|8,3:0|0:3,0:0:0:0:
32,119,282972,1,0,0:0:0:0:
53,150,283047,2,0,L|39:311,1,125,10|8,0:0|0:3,0:0:0:0:
36,346,283269,1,0,0:0:0:0:
66,368,283344,2,0,P|130:382|192:354,1,125,2|8,3:0|0:3,0:0:0:0:
239,313,283566,1,0,0:0:0:0:
256,347,283641,1,10,0:0:0:0:
479,226,283789,6,0,B|431:207|392:234|392:234|355:262|300:239,1,187.5,10|0,0:3|0:0,0:0:0:0:
231,218,284086,1,10,0:3:0:0:
242,176,284161,1,2,0:0:0:0:
283,166,284235,2,0,P|315:167|344:178,1,62.5,10|0,0:0|0:0,0:0:0:0:
460,326,284383,1,10,0:3:0:0:
443,112,284532,6,0,L|432:173,1,62.5,2|0,3:0|0:0,0:0:0:0:
341,356,284680,2,0,L|351:294,1,62.5,10|0,0:3|0:0,0:0:0:0:
432,172,284829,6,0,P|406:190|375:190,1,62.5,10|0,0:0|0:0,0:0:0:0:
288,21,284977,2,0,P|313:3|344:3,1,62.5,10|0,0:3|0:0,0:0:0:0:
497,60,285126,6,0,L|372:70,1,125,2|8,3:0|0:3,0:0:0:0:
321,129,285349,1,0,0:0:0:0:
321,129,285423,2,0,L|254:-9,1,125,10|8,0:0|0:3,0:0:0:0:
213,72,285646,1,0,0:0:0:0:
213,72,285720,2,0,B|153:90|153:90|92:75,1,125,2|8,3:0|0:3,0:0:0:0:
23,54,285943,1,0,0:0:0:0:
16,41,286017,1,10,0:0:0:0:
64,267,286166,6,0,B|37:127|37:127|86:156,1,187.5,10|0,0:3|0:0,0:0:0:0:
140,188,286463,1,10,0:3:0:0:
177,210,286537,1,2,0:0:0:0:
214,232,286611,2,0,L|274:217,1,62.5,10|0,0:0|0:0,0:0:0:0:
453,176,286760,1,10,0:3:0:0:
274,358,286908,6,0,P|260:330|262:299,1,62.5,2|0,3:0|0:0,0:0:0:0:
382,142,287057,2,0,L|374:204,1,62.5,10|0,0:3|0:0,0:0:0:0:
332,317,287205,6,0,P|357:299|388:295,1,62.5,10|0,0:0|0:0,0:0:0:0:
512,215,287354,2,0,L|505:278,1,62.5,10|0,0:3|0:0,0:0:0:0:
494,383,287502,6,0,P|436:365|423:301,1,125,2|8,3:0|0:3,0:0:0:0:
440,239,287725,1,0,0:0:0:0:
444,201,287799,2,0,L|458:75,1,125,10|8,0:0|0:3,0:0:0:0:
404,24,288022,1,0,0:0:0:0:
381,54,288096,2,0,P|388:114|437:152,1,125,2|8,3:0|0:3,0:0:0:0:
489,105,288319,1,0,0:0:0:0:
457,76,288393,1,10,0:0:0:0:
372,207,288542,6,0,P|311:137|302:45,1,187.5,10|0,0:3|0:0,0:0:0:0:
233,16,288839,1,10,0:3:0:0:
195,38,288913,1,2,0:0:0:0:
166,71,288987,2,0,P|152:102|148:134,1,62.5,10|0,0:0|0:0,0:0:0:0:
277,152,289136,2,0,P|249:171|229:197,1,62.5,10|0,0:3|0:0,0:0:0:0:
381,279,289284,5,2,3:0:0:0:
341,281,289359,1,0,0:0:0:0:
304,295,289433,1,10,0:3:0:0:
103,90,289581,6,0,P|133:106|153:138,1,67.5,10|0,0:0|0:0,0:0:0:0:
248,347,289730,2,0,P|230:318|228:280,1,67.5,10|0,0:3|0:0,0:0:0:0:
84,162,289878,6,0,L|146:168,1,62.5,6|0,3:2|0:0,0:0:0:0:
155,346,290027,2,0,L|93:340,1,62.5,8|0,3:0|0:0,0:0:0:0:
24,219,290175,6,0,P|103:190|131:270,1,187.5,8|0,0:0|0:0,0:0:0:0:
94,297,290472,1,0,3:0:0:0:
0,135,290621,1,10,0:3:0:0:
158,35,290769,1,10,0:0:0:0:
285,291,290918,22,1,B|308:316|369:339|418:313|435:259|466:199|425:134|317:102|267:161|241:187|263:245|268:262|268:262|284:227|339:242|339:242|335:198|371:172,1,600,10|10,0:3|0:3,0:0:0:0:
398,152,291586,1,2,0:0:0:0:
441,162,291661,6,0,L|520:172,1,75.0000028610231,2|2,3:0|0:3,0:0:0:0:
437,115,291809,5,10,0:3:0:0:
422,108,291859,5,2,0:0:0:0:
406,109,291908,5,2,0:0:0:0:
391,115,291958,6,0,L|229:93,1,160,14|10,0:0|0:3,0:0:0:0:
63,69,292255,5,2,3:0:0:0:
85,55,292329,1,2,0:0:0:0:
111,54,292403,1,10,0:3:0:0:
135,62,292477,1,2,0:0:0:0:
152,81,292552,5,10,0:0:0:0:
151,112,292626,1,2,0:0:0:0:
135,141,292700,1,10,0:3:0:0:
107,160,292774,1,2,0:0:0:0:
71,170,292849,5,2,3:0:0:0:
38,189,292923,1,2,0:0:0:0:
15,221,292997,1,10,0:3:0:0:
2,259,293071,1,2,0:0:0:0:
8,300,293146,5,10,0:0:0:0:
32,338,293220,1,2,0:0:0:0:
74,361,293294,1,10,0:3:0:0:
123,371,293368,1,2,0:0:0:0:
182,353,293443,6,0,L|256:331,1,67.5,2|0,3:0|0:0,0:0:0:0:
408,175,293591,2,0,L|344:195,1,67.5,10|0,0:3|0:0,0:0:0:0:
128,259,293740,5,10,0:0:0:0:
184,234,293814,1,2,0:0:0:0:
235,236,293888,1,10,0:3:0:0:
280,253,293963,1,2,0:0:0:0:
316,286,294037,1,2,3:0:0:0:
286,100,294185,6,0,P|272:123|280:183,1,67.5,14|2,0:3|0:0,0:0:0:0:
447,251,294334,2,0,P|420:257|384:305,1,67.5,14|0,0:0|0:0,0:0:0:0:
453,325,294482,1,10,0:3:0:0:
473,103,294631,6,0,B|421:134|421:134|363:118,1,120,2|10,3:0|0:3,0:0:0:0:
290,97,294854,1,2,0:0:0:0:
284,68,294928,1,10,0:0:0:0:
69,23,295076,6,0,B|84:82|84:82|139:113,1,125,10|2,0:3|3:0,0:0:0:0:
193,59,295299,1,2,0:0:0:0:
215,38,295373,1,10,0:3:0:0:
102,296,295522,6,0,B|101:230|101:230|146:185,1,130,10|10,0:0|0:3,0:0:0:0:
208,144,295745,1,2,0:0:0:0:
238,152,295819,1,2,3:0:0:0:
451,239,295967,6,0,B|403:231|403:231|375:249|375:249|322:242,1,135,10|10,0:3|0:0,0:0:0:0:
292,218,296165,5,2,0:0:0:0:
295,238,296215,5,2,0:0:0:0:
298,254,296265,6,0,L|318:98,1,135,10|2,0:3|3:0,0:0:0:0:
326,48,296487,1,2,0:0:0:0:
287,43,296562,1,10,0:3:0:0:
403,183,296710,6,0,B|394:245|394:245|415:279|415:279|406:335,1,160,14|10,0:0|0:3,0:0:0:0:
283,377,297007,6,0,P|280:341|259:325,1,57.5,2|0,3:0|0:0,0:0:0:0:
223,251,297156,2,0,P|213:277|189:290,1,57.5,10|0,0:3|0:0,0:0:0:0:
87,318,297304,5,10,0:0:0:0:
60,296,297378,1,2,0:0:0:0:
49,262,297453,1,10,0:3:0:0:
54,227,297527,1,2,0:0:0:0:
75,200,297601,5,2,3:0:0:0:
108,189,297675,1,2,0:0:0:0:
132,160,297750,1,10,0:3:0:0:
143,120,297824,1,2,0:0:0:0:
122,82,297898,5,10,0:0:0:0:
76,73,297972,1,2,0:0:0:0:
31,100,298047,2,0,L|40:25,1,57.5,10|2,0:3|0:0,0:0:0:0:
198,22,298195,5,2,3:0:0:0:
241,8,298269,1,2,0:0:0:0:
269,45,298344,1,10,0:3:0:0:
242,83,298418,1,2,0:0:0:0:
198,68,298492,6,0,P|236:129|239:223,1,145,10|10,0:0|0:3,0:0:0:0:
229,206,298690,5,2,0:0:0:0:
218,198,298740,5,2,0:0:0:0:
203,203,298789,6,0,L|160:223,1,31.25,6|0,3:2|2:0,0:0:0:0:
166,241,298864,2,0,L|123:261,1,31.25,6|0,0:0|2:0,0:0:0:0:
129,279,298938,2,0,L|82:287,1,31.25,14|0,0:3|2:0,0:0:0:0:
13,354,299086,6,0,P|75:349|176:394,1,160,14|10,0:0|0:3,0:0:0:0:
218,367,299309,1,2,0:0:0:0:
273,350,299383,5,6,3:2:0:0:
266,319,299458,1,2,0:0:0:0:
295,308,299532,5,10,0:3:0:0:
288,277,299606,1,2,0:0:0:0:
317,266,299680,5,10,0:0:0:0:
310,235,299755,1,2,0:0:0:0:
339,224,299829,5,10,0:3:0:0:
332,193,299903,1,2,0:0:0:0:
361,182,299977,5,2,3:0:0:0:
354,151,300052,1,2,0:0:0:0:
383,140,300126,5,10,0:3:0:0:
376,109,300200,1,2,0:0:0:0:
405,98,300274,5,10,0:0:0:0:
396,60,300349,1,2,0:0:0:0:
368,39,300423,1,10,0:3:0:0:
333,38,300497,1,2,0:0:0:0:
304,62,300571,6,0,P|256:99|195:97,1,125,2|8,3:0|0:3,0:0:0:0:
99,33,300794,1,0,0:0:0:0:
134,15,300868,5,10,0:0:0:0:
133,55,300943,1,2,0:0:0:0:
98,73,301017,5,10,0:3:0:0:
97,110,301091,1,2,0:0:0:0:
126,128,301166,5,2,3:0:0:0:
125,161,301240,1,2,0:0:0:0:
97,175,301314,5,10,0:3:0:0:
96,206,301388,1,2,0:0:0:0:
142,234,301463,6,0,B|179:259|179:259|144:394,1,160,14|10,0:0|0:3,0:0:0:0:
85,343,301685,1,2,0:0:0:0:
85,343,301760,6,0,L|215:329,1,125,2|10,3:0|0:3,0:0:0:0:
232,356,301982,1,2,0:0:0:0:
256,384,302057,6,0,B|227:364|227:364|249:277,1,125,10|10,0:0|0:3,0:0:0:0:
270,194,302279,1,2,0:0:0:0:
234,204,302354,5,2,3:0:0:0:
261,228,302428,1,2,0:0:0:0:
297,218,302502,6,0,B|384:240,1,62.5,10|0,0:3|0:0,0:0:0:0:
511,274,302651,1,10,0:0:0:0:
376,351,302799,6,0,B|361:361|361:361|374:307,1,75,10|0,0:3|0:0,0:0:0:0:
415,151,302948,5,2,3:0:0:0:
437,172,303022,1,2,0:0:0:0:
449,200,303096,2,0,B|466:129,1,62.5,10|0,0:3|0:0,0:0:0:0:
481,13,303245,6,0,P|465:23|439:20,1,31.25,10|0,0:0|2:0,0:0:0:0:
489,32,303319,2,0,P|473:42|447:39,1,31.25,2|0,0:0|2:0,0:0:0:0:
497,51,303393,2,0,B|431:39|437:100|370:70,1,125,10|2,0:3|3:0,0:0:0:0:
314,42,303616,1,2,0:0:0:0:
295,25,303690,6,0,P|256:62|255:110,1,80,14|0,0:3|0:0,0:0:0:0:
273,181,303839,2,0,P|242:156|202:154,1,80,14|0,0:0|0:0,0:0:0:0:
130,174,303987,1,10,0:3:0:0:
109,183,304062,1,2,0:0:0:0:
88,192,304136,5,2,3:2:0:0:
424,192,304284,1,10,3:0:0:0:
137,73,304433,5,10,3:2:0:0:
374,310,304581,1,10,3:0:0:0:
256,24,304730,5,2,3:2:0:0:
256,360,304878,1,10,3:0:0:0:
374,73,305027,5,10,3:2:0:0:
137,310,305175,1,10,3:0:0:0:
405,177,305324,5,2,3:2:0:0:
394,121,305398,5,2,3:2:0:0:
361,71,305472,5,2,3:2:0:0:
314,39,305547,5,2,3:2:0:0:
256,28,305621,5,2,3:2:0:0:
200,38,305695,5,2,3:2:0:0:
150,71,305769,5,2,3:2:0:0:
118,118,305844,5,2,3:2:0:0:
107,177,305918,6,0,L|55:177,1,47.5,2|0,3:2|2:0,0:0:0:0:
117,232,305992,6,0,L|68:251,1,50,2|0,3:2|2:0,0:0:0:0:
150,282,306066,6,0,L|113:319,1,52.5,10|0,3:0|2:0,0:0:0:0:
197,314,306141,6,0,L|174:364,1,54.9999999999999,2|0,3:2|2:0,0:0:0:0:
256,326,306215,6,0,L|256:383,1,57.5000010967255,14|0,3:2|2:0,0:0:0:0:
311,315,306289,6,0,L|334:375,1,60,2|0,3:2|2:0,0:0:0:0:
361,282,306364,6,0,L|412:333,1,62.5,10|0,3:0|2:0,0:0:0:0:
393,235,306438,6,0,L|457:263,1,64.9999999999999,2|0,3:2|2:0,0:0:0:0:
404,177,306512,5,10,3:2:0:0:
108,177,306661,1,10,3:2:0:0:
108,177,306958,6,0,L|170:177,1,57.5,10|0,3:2|3:0,0:0:0:0:
408,181,307106,1,10,3:2:0:0:
256,0,307403,5,10,3:2:0:0:
256,354,307552,1,10,3:2:0:0:
124,48,307849,5,10,3:2:0:0:
389,313,307997,1,10,3:2:0:0:
389,48,308146,1,10,3:2:0:0:
124,313,308294,1,10,3:2:0:0:
256,180,308591,5,2,0:0:0:0:
256,183,308666,1,2,0:0:0:0:
256,186,308740,1,2,0:0:0:0:
256,189,308814,1,2,0:0:0:0:
256,192,308888,70,1,B|299:144|299:144|364:158|364:158|335:96|335:96|369:40|369:40|305:47|305:47|259:0|259:0|247:62|247:62|186:89|186:89|242:124|242:124|247:158|247:158|196:188|73:197|-7:142|-7:142|37:144|67:114|67:114|73:72|48:40|48:40|133:123|242:123,1,1270,6|0,3:2|0:0,0:0:0:0:
