osu file format v14

[General]
AudioFilename: audio.mp3
AudioLeadIn: 0
PreviewTime: 10290
Countdown: 0
SampleSet: Soft
StackLeniency: 0.4
Mode: 0
LetterboxInBreaks: 0
WidescreenStoryboard: 0

[Editor]
DistanceSpacing: 0.1
BeatDivisor: 6
GridSize: 8
TimelineZoom: 3.5

[Metadata]
Title:SORA-VII Cygnus Wall
TitleUnicode:SORA-VII シグナスウォール
Artist:Hisui
ArtistUnicode:翡翠
Creator:KnightC0re
Version:Stars Gathering in the Night Skies
Source:太鼓の達人
Tags:Taiko no Tatsujin ブルーVer. Blue Version Namco Original ナムコオリジナル かたぬき Katanuki north america nebula Knightcore rhythm video game instrumental ひすい
BeatmapID:2006097
BeatmapSetID:958121

[Difficulty]
HPDrainRate:5.5
CircleSize:5
OverallDifficulty:9
ApproachRate:9.4
SliderMultiplier:1.7
SliderTickRate:1

[Events]
//Background and Video events
0,0,"iOoyXZX.jpg",0,0
//Break Periods
//Storyboard Layer 0 (Background)
//Storyboard Layer 1 (Fail)
//Storyboard Layer 2 (Pass)
//Storyboard Layer 3 (Foreground)
//Storyboard Layer 4 (Overlay)
//Storyboard Sound Samples

[TimingPoints]
291,333.333333333333,3,2,1,50,1,0
513,-200,3,2,1,50,0,0
624,-200,3,2,1,75,0,0
735,-133.333333333333,3,2,2,75,0,0
846,-133.333333333333,3,2,1,50,0,0
957,-133.333333333333,3,2,2,75,0,0
1068,-133.333333333333,3,2,3,75,0,0
1179,-133.333333333333,3,2,1,50,0,0
1290,-133.333333333333,3,2,1,75,0,0
2290,-200,3,2,1,30,0,0
5568,-200,3,2,2,30,0,0
6956,-200,3,2,1,30,0,0
7957,-200,3,2,3,30,0,0
8290,-200,3,2,1,50,0,0
8402,-200,3,2,2,50,0,0
8624,-200,3,2,1,50,0,0
8846,-200,3,2,3,50,0,0
9290,-200,3,2,1,50,0,0
9402,-66.6666666666667,3,2,2,50,0,0
9513,-66.6666666666667,3,2,2,5,0,0
9624,-66.6666666666667,3,2,2,50,0,0
9790,-66.6666666666667,3,2,2,5,0,0
9846,-66.6666666666667,3,2,3,50,0,0
9957,-66.6666666666667,3,2,2,50,0,0
10290,-200,3,2,1,40,0,0
10734,-200,3,2,1,5,0,0
10846,-200,3,2,1,40,0,0
10957,-133.333333333333,3,2,1,40,0,0
11290,-200,3,2,1,40,0,0
14734,-200,3,2,1,5,0,0
14846,-200,3,2,1,40,0,0
15845,-200,3,2,1,5,0,0
15957,-200,3,2,1,40,0,0
17290,-133.333333333333,3,2,1,40,0,0
17456,-133.333333333333,3,2,1,5,0,0
17513,-133.333333333333,3,2,1,40,0,0
17679,-133.333333333333,3,2,1,5,0,0
17735,-133.333333333333,3,2,1,40,0,0
17901,-133.333333333333,3,2,1,5,0,0
17957,-133.333333333333,3,2,2,40,0,0
18068,-133.333333333333,3,2,1,40,0,0
18290,-100,3,2,1,40,0,0
18957,-200,3,2,1,40,0,0
19512,-200,3,2,1,5,0,0
19624,-200,3,2,1,40,0,0
20290,-200,3,2,2,40,0,0
20374,-200,3,2,1,40,0,0
22846,-200,3,2,2,40,0,0
22957,-200,3,2,1,40,0,0
23846,-200,3,2,3,40,0,0
24290,-200,3,2,1,40,0,0
24373,-200,3,2,1,20,0,0
24624,-200,3,2,1,40,0,0
24707,-200,3,2,1,20,0,0
24790,-200,3,2,1,40,0,0
24873,-200,3,2,1,35,0,0
24957,-200,3,2,1,30,0,0
25040,-200,3,2,1,25,0,0
25123,-200,3,2,1,20,0,0
25179,-200,3,2,1,25,0,0
25235,-200,3,2,1,30,0,0
25290,-200,3,2,1,40,0,0
25457,-200,3,2,1,25,0,0
25957,-200,3,2,1,30,0,0
26124,-200,3,2,1,35,0,0
26290,-200,3,2,1,40,0,0
26624,-200,3,2,2,20,0,0
27290,-100,3,2,2,40,0,0
27624,-100,3,2,2,20,0,0
28290,-200,3,2,2,20,0,0
28624,-100,3,2,1,40,0,0
28957,-100,3,2,2,20,0,0
29124,-100,3,2,2,40,0,0
29624,-100,3,2,2,20,0,0
29957,-100,3,2,1,40,0,0
30624,-100,3,2,2,20,0,0
31290,-100,3,2,2,40,0,0
31624,-100,3,2,2,20,0,0
32290,-133.333333333333,3,2,2,20,0,0
32624,-66.6666666666667,3,2,2,20,0,0
32957,-133.333333333333,3,2,2,40,0,0
33457,-200,3,2,2,40,0,0
33957,-133.333333333333,3,2,1,40,0,0
34290,-100,3,2,1,40,0,0
34540,-133.333333333333,3,2,1,40,0,0
35290,-100,3,2,1,40,0,0
36457,-200,3,2,1,40,0,0
36624,-100,3,2,1,40,0,0
37790,-133.333333333333,3,2,3,40,0,0
37957,-133.333333333333,3,2,2,40,0,0
38290,-100,3,2,1,40,0,0
39457,-133.333333333333,3,2,1,40,0,0
40957,-100,3,2,2,40,0,0
41457,-114.285714285714,3,2,3,40,0,0
41957,-114.285714285714,3,2,2,40,0,0
42124,-133.333333333333,3,2,2,40,0,0
42457,-133.333333333333,3,2,3,40,0,0
42540,-133.333333333333,3,2,2,40,0,0
42624,-160,3,2,1,40,0,0
43124,-200,3,2,1,40,0,0
43540,-200,3,2,1,5,0,0
43624,-133.333333333333,3,2,1,40,0,0
44040,-133.333333333333,3,2,1,5,0,0
44124,-100,3,2,1,40,0,0
44540,-100,3,2,1,5,0,0
44624,-80,3,2,1,40,0,0
45040,-80,3,2,1,5,0,0
45124,-66.6666666666667,3,2,1,40,0,0
45540,-66.6666666666667,3,2,1,5,0,0
45624,-66.6666666666667,3,2,1,40,0,0
45846,-66.6666666666667,3,2,2,40,0,0
45957,-66.6666666666667,3,2,1,40,0,0
46068,-66.6666666666667,3,2,2,40,0,0
46179,-66.6666666666667,3,2,3,40,0,0
46290,-100,3,2,1,60,0,1
46540,-100,3,2,1,5,0,1
46624,-100,3,2,1,60,0,1
46957,-100,3,2,3,60,0,1
47123,-100,3,2,1,30,0,1
47290,-100,3,2,1,60,0,1
48540,-100,3,2,1,5,0,1
48624,-100,3,2,1,60,0,1
49124,-100,3,2,2,60,0,1
49290,-100,3,2,1,60,0,1
49624,-100,3,2,2,60,0,1
49957,-100,3,2,3,60,0,1
50290,-100,3,2,1,60,0,1
51290,-100,3,2,2,60,0,1
51457,-100,3,2,1,60,0,1
52124,-100,3,2,2,60,0,1
52290,-100,3,2,1,60,0,1
52457,-100,3,2,2,60,0,1
52790,-111.111111111111,3,2,1,60,0,1
52957,-111.111111111111,3,2,3,60,0,1
53290,-125,3,2,1,60,0,1
53790,-142.857142857143,3,2,1,60,0,1
54290,-100,3,2,1,60,0,1
54540,-100,3,2,1,5,0,1
54624,-100,3,2,1,60,0,1
55124,-200,3,2,1,30,0,1
55290,-100,3,2,1,60,0,1
56540,-100,3,2,1,5,0,1
56624,-100,3,2,1,60,0,1
57290,-100,3,2,2,60,0,1
57735,-100,3,2,3,60,0,1
57957,-100,3,2,1,60,0,1
59290,-100,3,2,2,60,0,1
59457,-100,3,2,1,60,0,1
59790,-100,3,2,3,60,0,1
60124,-100,3,2,2,60,0,1
60290,-100,3,2,1,60,0,0
60790,-111.111111111111,3,2,1,60,0,0
61290,-90.9090909090908,3,2,1,60,0,0
61457,-90.9090909090908,3,2,3,60,0,0
61790,-83.3333333333333,3,2,1,60,0,0
61957,-83.3333333333333,3,2,2,60,0,0
62179,-83.3333333333333,3,2,1,60,0,0
62290,-100,3,2,1,60,0,1
62540,-100,3,2,1,5,0,1
62624,-100,3,2,1,60,0,1
63290,-100,3,2,3,60,0,1
63540,-100,3,2,3,5,0,1
63624,-100,3,2,1,60,0,1
65457,-100,3,2,3,60,0,1
65624,-100,3,2,2,60,0,1
66290,-100,3,2,1,60,0,1
67124,-100,3,2,3,60,0,1
67290,-100,3,2,1,60,0,1
67623,-100,3,2,2,60,0,1
67790,-100,3,2,1,60,0,1
67957,-100,3,2,3,60,0,1
68124,-100,3,2,2,60,0,1
68290,-100,3,2,1,60,0,1
71623,-100,3,2,2,60,0,1
71956,-100,3,2,1,60,0,1
73707,-100,3,2,1,70,0,1
73790,-100,3,2,1,80,0,1
73874,-100,3,2,1,90,0,1
73957,-100,3,2,1,100,0,1
74040,-100,3,2,1,90,0,1
74124,-100,3,2,1,80,0,1
74207,-100,3,2,1,70,0,1
74290,-100,3,2,1,60,0,1
75624,-100,3,2,2,60,0,1
75957,-100,3,2,1,60,0,1
76207,-100,3,2,1,5,0,1
76290,-100,3,2,1,60,0,1
77124,-100,3,2,2,60,0,1
77290,-100,3,2,3,60,0,1
77957,-100,3,2,2,60,0,1
78290,-100,3,2,1,60,0,0
78790,-100,3,2,1,40,0,0
82290,-100,3,2,2,40,0,0
82540,-100,3,2,1,40,0,0
88957,-100,3,2,2,40,0,0
89124,-100,3,2,3,40,0,0
89290,-100,3,2,1,40,0,0
89790,-100,3,2,2,40,0,0
90124,-100,3,2,3,40,0,0
90290,-133.333333333333,3,2,1,50,0,0
90790,-133.333333333333,3,2,2,50,0,0
90956,-133.333333333333,3,2,1,50,0,0
91124,-133.333333333333,3,2,1,20,0,0
91290,-133.333333333333,3,2,1,50,0,0
91624,-133.333333333333,3,2,2,50,0,0
91957,-133.333333333333,3,2,1,50,0,0
93790,-133.333333333333,3,2,2,50,0,0
93957,-133.333333333333,3,2,1,50,0,0
94790,-133.333333333333,3,2,2,50,0,0
94957,-133.333333333333,3,2,1,50,0,0
95012,-133.333333333333,3,2,1,20,0,0
95290,-133.333333333333,3,2,1,50,0,0
95790,-133.333333333333,3,2,2,50,0,0
95957,-133.333333333333,3,2,1,50,0,0
97012,-133.333333333333,3,2,1,20,0,0
97290,-133.333333333333,3,2,1,50,0,0
97624,-133.333333333333,3,2,2,50,0,0
97707,-133.333333333333,3,2,2,15,0,0
97790,-133.333333333333,3,2,3,50,0,0
97874,-133.333333333333,3,2,3,25,0,0
97957,-133.333333333333,3,2,3,30,0,0
98040,-133.333333333333,3,2,3,35,0,0
98124,-133.333333333333,3,2,3,40,0,0
98207,-133.333333333333,3,2,3,45,0,0
98290,-133.333333333333,3,2,1,50,0,0
98790,-133.333333333333,3,2,2,50,0,0
98956,-133.333333333333,3,2,1,50,0,0
99124,-133.333333333333,3,2,1,20,0,0
99290,-133.333333333333,3,2,1,50,0,0
99790,-133.333333333333,3,2,2,50,0,0
99957,-133.333333333333,3,2,1,50,0,0
101790,-133.333333333333,3,2,3,50,0,0
101957,-133.333333333333,3,2,1,50,0,0
102123,-133.333333333333,3,2,2,50,0,0
102290,-133.333333333333,3,2,1,50,0,0
102790,-133.333333333333,3,2,2,50,0,0
102957,-133.333333333333,3,2,1,50,0,0
103012,-133.333333333333,3,2,1,20,0,0
103290,-133.333333333333,3,2,1,50,0,0
103679,-133.333333333333,3,2,2,50,0,0
103957,-133.333333333333,3,2,3,50,0,0
104290,-133.333333333333,3,2,1,50,0,0
105790,-133.333333333333,3,2,2,50,0,0
106040,-133.333333333333,3,2,3,50,0,0
106290,-100,3,2,1,70,0,1
107957,-100,3,2,1,55,0,1
108068,-100,3,2,1,60,0,1
108179,-100,3,2,1,65,0,1
108290,-100,3,2,1,70,0,1
109735,-100,3,2,1,45,0,1
109846,-100,3,2,1,50,0,1
109957,-100,3,2,1,55,0,1
110068,-100,3,2,1,60,0,1
110179,-100,3,2,1,65,0,1
110290,-100,3,2,1,70,0,1
112846,-100,3,2,2,70,0,1
112957,-100,3,2,1,70,0,1
113179,-100,3,2,2,70,0,1
113290,-125,3,2,1,70,0,1
113401,-125,3,2,3,70,0,1
113624,-166.666666666667,3,2,2,70,0,1
113846,-166.666666666667,3,2,3,70,0,1
113957,-166.666666666667,3,2,2,70,0,1
114068,-166.666666666667,3,2,1,70,0,1
114179,-166.666666666667,3,2,2,70,0,1
114290,-100,3,2,1,70,0,1
115846,-100,3,2,1,50,0,1
115957,-100,3,2,1,55,0,1
116068,-100,3,2,1,60,0,1
116290,-100,3,2,1,70,0,1
120624,-100,3,2,2,70,0,1
120735,-100,3,2,1,70,0,1
120846,-100,3,2,3,70,0,1
120957,-100,3,2,1,70,0,1
121179,-100,3,2,2,70,0,1
121957,-100,3,2,1,70,0,1
122068,-100,3,2,3,70,0,1
122179,-100,3,2,3,70,0,0
122290,-100,3,2,1,70,0,1
123957,-100,3,2,1,55,0,1
124068,-100,3,2,1,60,0,1
124179,-100,3,2,1,65,0,1
124290,-100,3,2,1,70,0,1
125402,-100,3,2,2,70,0,1
125513,-100,3,2,1,70,0,1
125957,-100,3,2,1,55,0,1
126068,-100,3,2,1,60,0,1
126179,-100,3,2,1,65,0,1
126290,-100,3,2,1,70,0,1
128846,-100,3,2,2,70,0,1
128957,-100,3,2,1,70,0,1
129179,-100,3,2,2,70,0,1
129401,-100,3,2,3,70,0,1
129624,-100,3,2,1,70,0,1
129735,-100,3,2,3,70,0,1
129846,-100,3,2,2,70,0,1
129957,-100,3,2,3,70,0,1
130179,-100,3,2,2,70,0,1
130290,-100,3,2,1,70,0,1
131846,-100,3,2,2,70,0,1
131957,-100,3,2,1,70,0,1
135290,-100,3,2,2,70,0,1
135846,-100,3,2,1,70,0,1
135957,-100,3,2,2,70,0,1
136179,-100,3,2,1,70,0,1
136513,-100,3,2,2,70,0,1
136624,-100,3,2,1,70,0,1
136846,-100,3,2,3,70,0,1
136957,-100,3,2,1,70,0,1
137624,-100,3,2,2,70,0,1
138179,-100,3,2,3,70,0,1
138290,-100,3,2,1,50,0,0
139457,-100,3,2,2,50,0,0
140290,-100,3,2,1,50,0,0
141374,-100,3,2,2,50,0,0
141457,-100,3,2,3,50,0,0
141624,-100,3,2,2,50,0,0
141957,-100,3,2,3,50,0,0
142290,-100,3,2,1,50,0,0
142790,-133.333333333333,3,2,1,50,0,0

[Colours]
Combo1 : 155,0,155
Combo2 : 255,49,49
Combo3 : 255,128,64
Combo4 : 128,0,255

[HitObjects]
0,377,291,5,0,3:0:0:0:
126,262,513,2,0,L|127:247,1,14.2233333333335,8|8,2:3|2:3,2:0:0:0:
132,271,624,5,8,2:3:0:0:
237,303,735,2,0,L|278:298,1,42.6700016212464,8|0,2:3|3:0,2:0:0:0:
229,313,957,5,8,2:3:0:0:
152,367,1068,2,0,L|107:362,1,42.6700016212464,8|0,2:3|3:0,2:0:0:0:
161,358,1290,5,8,2:3:0:0:
172,361,1374,1,8,2:3:0:0:
184,364,1457,1,8,2:3:0:0:
196,367,1540,1,8,2:3:0:0:
208,370,1624,5,8,2:3:0:0:
292,348,1790,1,8,2:3:0:0:
376,326,1957,1,8,2:3:0:0:
382,332,2290,6,0,L|365:158,1,170.17,4|0,3:2|3:0,2:0:0:0:
427,65,3290,1,8,2:0:0:0:
430,71,3624,1,8,2:1:0:0:
365,162,4290,5,8,3:1:0:0:
368,156,4624,2,0,P|324:161|287:176,1,85.0849999999996,0|8,3:0|2:1,2:0:0:0:
184,78,5290,5,8,2:0:0:0:
141,145,5568,5,8,2:3:0:0:
143,150,5624,5,8,2:3:0:0:
214,233,5846,1,0,3:0:0:0:
218,215,6179,5,8,2:3:0:0:
154,262,6290,2,0,B|133:272|122:272|96:266|96:266|144:276|173:301|185:349,1,170.17,4|0,3:2|3:0,2:0:0:0:
178,343,7290,5,8,2:0:0:0:
225,348,7513,5,8,2:1:0:0:
284,291,7735,5,8,2:1:0:0:
372,282,7957,5,2,2:1:0:0:
330,182,8290,5,6,3:2:0:0:
303,173,8402,1,8,2:3:0:0:
405,157,8624,1,8,2:3:0:0:
275,175,8846,5,10,2:3:0:0:
250,188,8957,1,8,2:3:0:0:
232,209,9068,1,8,2:3:0:0:
203,271,9290,5,2,2:0:0:0:
232,209,9402,2,0,P|223:178|167:155,1,85.3400032424924,4|0,3:2|2:0,2:0:0:0:
112,177,9624,6,0,P|168:150|162:66,1,128.010004863739,4|0,3:2|2:0,2:0:0:0:
169,85,9846,5,10,2:3:0:0:
162,76,9902,5,8,2:3:0:0:
154,70,9957,5,8,2:3:0:0:
20,184,10179,1,8,2:3:0:0:
77,153,10290,6,0,B|111:176|111:176|105:247,1,113.531666666665,4|0,3:2|2:0,2:0:0:0:
61,327,10846,1,2,2:0:0:0:
104,265,10957,2,0,P|144:244|185:251,1,85.3400032424924,2|0,2:0|2:0,2:0:0:0:
194,263,11290,6,0,L|186:347,1,85.0849999999996,8|8,2:3|2:1,2:0:0:0:
207,370,11846,2,0,L|202:313,1,56.8933333333331,2|0,2:0|2:0,2:0:0:0:
207,300,12179,1,2,2:0:0:0:
253,245,12290,6,0,P|322:236|383:269,1,141.723333333333,8|0,3:1|3:0,2:0:0:0:
386,278,12957,1,8,2:1:0:0:
382,286,13179,5,0,3:0:0:0:
412,217,13290,1,8,2:3:0:0:
408,209,13624,6,0,P|402:181|403:152,1,56.8933333333331,0|0,3:0|3:0,2:0:0:0:
436,93,13957,2,0,P|441:65|440:36,1,56.8933333333331,8|2,2:3|3:2,2:0:0:0:
380,3,14290,6,0,B|309:9|356:36|280:45,1,113.531666666665,8|0,3:1|2:0,2:0:0:0:
210,39,14846,1,0,3:0:0:0:
222,44,14957,2,0,P|236:68|239:96,1,56.8933333333331,8|0,2:1|3:0,2:0:0:0:
167,128,15290,6,0,P|235:114|288:157,1,141.723333333333,10|0,2:3|2:0,2:0:0:0:
312,169,15957,2,0,P|307:189|307:210,1,42.67,2|0,2:0|2:0,2:0:0:0:
316,222,16179,5,0,2:0:0:0:
319,231,16235,5,0,2:0:0:0:
323,240,16290,6,0,P|296:235|267:237,1,56.8933333333331,8|0,3:1|3:0,2:0:0:0:
181,295,16846,1,8,2:3:0:0:
179,308,17179,1,0,3:0:0:0:
200,225,17290,6,0,P|201:193|190:163,1,64.0050024318692,4|0,3:2|2:0,2:0:0:0:
182,163,17513,2,0,P|159:140|131:126,1,64.0050024318692,4|0,3:2|2:0,2:0:0:0:
124,132,17735,2,0,P|92:131|62:142,1,64.0050024318692,4|0,3:2|2:0,2:0:0:0:
61,150,17957,5,6,3:2:0:0:
24,202,18068,1,2,2:0:0:0:
29,264,18179,1,2,2:0:0:0:
100,318,18290,6,0,L|212:308,1,113.786666666665,6|0,3:2|3:0,2:0:0:0:
222,331,18846,1,0,3:0:0:0:
215,337,18957,2,0,L|158:332,1,56.8933333333331,8|0,2:1|2:0,2:0:0:0:
110,217,19290,6,0,P|136:200|167:197,1,56.8933333333331,8|0,2:3|2:0,2:0:0:0:
166,202,19624,1,8,3:1:0:0:
314,316,19846,2,0,P|291:282|252:267,1,85.0849999999996,10|0,2:3|3:0,2:0:0:0:
321,189,20290,5,10,3:1:0:0:
332,181,20374,1,2,2:0:0:0:
341,171,20457,2,0,P|351:151|355:131,1,42.67,2|0,2:0|3:0,2:0:0:0:
322,18,20846,1,8,2:3:0:0:
269,64,20957,2,0,P|269:92|271:120,1,56.8933333333331,0|0,2:0|3:0,2:0:0:0:
186,241,21290,6,0,L|184:255,1,14.2233333333335,10|2,2:3|2:0,2:0:0:0:
176,231,21402,6,0,P|165:205|163:176,1,56.8933333333331,2|8,2:0|2:1,2:0:0:0:
201,71,21846,1,8,2:3:0:0:
252,119,21957,2,0,P|248:147|247:176,1,56.8933333333331,0|2,3:0|2:0,2:0:0:0:
325,259,22290,5,8,3:1:0:0:
259,297,22513,1,0,3:0:0:0:
259,297,22846,5,4,3:2:0:0:
255,300,22957,2,0,P|283:301|308:312,1,56.8933333333331,2|0,2:0|3:0,2:0:0:0:
377,375,23290,5,8,2:3:0:0:
380,301,23402,1,8,2:3:0:0:
432,249,23513,1,8,2:3:0:0:
495,200,23624,5,0,3:0:0:0:
457,158,23735,1,8,2:3:0:0:
444,104,23846,1,8,2:3:0:0:
499,39,23957,5,0,3:0:0:0:
505,52,24068,1,8,2:3:0:0:
504,66,24179,1,8,2:3:0:0:
444,104,24290,6,0,L|422:102,3,21.25,8|8|8|8,3:0|2:3|2:3|2:3,2:0:0:0:
347,49,24624,2,0,L|346:71,1,21.335,8|8,2:3|2:3,2:0:0:0:
317,180,24790,6,0,L|319:191,8,10.6675,10|2|2|2|2|2|2|2|8,2:3|2:0|2:0|2:0|2:3|2:0|2:0|2:0|2:3,2:0:0:0:
332,193,25179,5,8,2:3:0:0:
346,198,25235,5,8,2:3:0:0:
357,206,25290,5,8,2:3:0:0:
407,261,25457,1,0,2:0:0:0:
479,245,25624,1,0,2:0:0:0:
404,270,25790,1,0,3:0:0:0:
501,174,25957,1,0,3:0:0:0:
406,6,26124,1,0,3:0:0:0:
221,31,26290,5,6,2:0:0:0:
138,95,26624,1,8,2:0:0:0:
139,100,26957,1,8,2:0:0:0:
52,42,27290,6,0,L|48:-1,1,42.67,10|0,2:1|2:0,2:0:0:0:
139,100,27624,1,8,2:0:0:0:
138,105,27957,1,8,2:0:0:0:
218,153,28290,2,0,P|237:145|260:143,1,42.67,8|0,2:1|2:0,2:0:0:0:
134,147,28624,6,0,L|138:104,1,42.67,2|0,2:0|2:0,2:0:0:0:
90,240,28957,1,8,2:0:0:0:
141,196,29124,6,0,L|137:153,1,42.67,10|0,2:1|2:0,2:0:0:0:
241,30,29624,1,8,2:1:0:0:
245,36,29957,1,8,2:3:0:0:
264,43,30040,1,8,2:3:0:0:
285,47,30124,1,8,2:3:0:0:
404,42,30290,6,0,L|400:-1,1,42.67,6|0,2:0|2:0,2:0:0:0:
342,114,30624,1,8,2:0:0:0:
343,119,30957,1,8,2:0:0:0:
281,191,31290,6,0,L|277:233,1,42.67,10|0,2:1|2:0,2:0:0:0:
343,119,31624,1,8,2:0:0:0:
342,114,31957,1,8,2:0:0:0:
372,177,32124,1,8,3:1:0:0:
471,181,32290,6,0,P|447:222|453:270,1,95.625003647804,4|0,2:0|2:0,2:0:0:0:
470,281,32624,2,0,L|501:278,1,32.3850012159348,8|0,2:1|2:0,2:0:0:0:
501,278,32957,6,0,L|470:281,1,32.0025012159348,6|0,2:0|2:0,2:0:0:0:
352,289,33124,2,0,L|320:291,1,32.0025012159348,6|0,2:0|2:0,2:0:0:0:
383,354,33457,6,0,L|405:356,1,21.335,6|0,2:0|2:0,2:0:0:0:
480,361,33624,2,0,L|502:363,1,21.335,6|0,2:0|2:0,2:0:0:0:
512,374,33957,2,0,L|511:384,1,10.6675004053116,8|8,2:3|2:3,2:0:0:0:
512,374,34290,6,0,L|508:331,1,42.67,2|0,3:2|2:0,2:0:0:0:
455,246,34457,5,0,2:0:0:0:
452,252,34540,2,0,L|449:283,1,32.0025012159348,2|0,2:0|3:0,2:0:0:0:
377,360,34707,1,0,2:0:0:0:
374,354,34790,1,10,2:3:0:0:
307,230,34957,1,0,2:0:0:0:
304,237,35040,1,0,2:0:0:0:
312,249,35124,1,8,2:3:0:0:
280,242,35207,1,8,2:3:0:0:
248,242,35290,6,0,L|205:246,1,42.67,2|0,3:2|2:0,2:0:0:0:
100,255,35457,5,0,2:0:0:0:
18,189,35624,1,0,3:0:0:0:
19,174,35707,1,0,2:0:0:0:
20,160,35790,1,0,2:0:0:0:
114,13,35957,1,10,2:3:0:0:
100,52,36040,1,10,2:3:0:0:
107,92,36124,2,0,P|126:110|150:120,1,42.67,0|0,3:0|2:0,2:0:0:0:
297,93,36290,5,0,3:0:0:0:
297,93,36457,2,0,L|296:103,1,10.795,2|0,2:0|2:0,2:0:0:0:
355,42,36624,6,0,L|349:-17,1,42.67,2|0,2:0|2:0,2:0:0:0:
512,140,36790,1,8,2:3:0:0:
508,146,37124,6,0,L|417:138,1,85.3399999999996,10|0,2:3|3:0,2:0:0:0:
419,125,37346,5,2,2:0:0:0:
416,111,37402,5,2,2:0:0:0:
414,97,37457,5,2,2:0:0:0:
326,207,37624,5,8,2:3:0:0:
439,261,37790,2,0,L|441:292,1,32.0025012159348,8|8,2:3|2:3,2:0:0:0:
490,366,37957,1,10,2:3:0:0:
459,356,38040,1,2,2:3:0:0:
428,355,38124,2,0,P|412:359|398:366,1,32.0025012159348,10|0,2:3|2:0,2:0:0:0:
236,358,38290,6,0,B|256:354|256:354|271:338,1,42.67,6|0,3:2|2:0,2:0:0:0:
122,226,38624,5,0,3:0:0:0:
116,235,38707,1,0,2:0:0:0:
109,242,38790,1,8,2:3:0:0:
107,252,38874,1,0,2:0:0:0:
114,274,38957,1,2,2:0:0:0:
92,259,39040,1,0,2:0:0:0:
66,250,39124,1,10,2:3:0:0:
40,249,39207,1,8,2:3:0:0:
14,254,39290,6,0,B|27:269|27:269|48:274,1,42.67,2|2,3:2|2:0,2:0:0:0:
181,256,39457,2,0,L|212:258,1,32.0025012159348,0|2,2:0|2:0,2:0:0:0:
333,228,39624,5,2,3:2:0:0:
331,212,39707,1,0,2:0:0:0:
330,196,39790,1,2,2:0:0:0:
328,180,39874,1,2,2:0:0:0:
320,154,39957,5,10,2:3:0:0:
322,134,40040,1,8,2:3:0:0:
324,115,40124,1,2,3:2:0:0:
321,96,40207,1,2,2:0:0:0:
289,69,40290,5,2,3:2:0:0:
260,68,40374,1,8,2:3:0:0:
234,79,40457,1,2,2:0:0:0:
213,98,40540,1,2,3:2:0:0:
174,149,40624,5,10,2:3:0:0:
132,145,40707,1,8,2:3:0:0:
97,121,40790,1,2,3:2:0:0:
78,84,40874,1,10,2:3:0:0:
79,42,40957,6,0,L|82:0,1,42.67,10|8,2:3|2:3,2:0:0:0:
67,51,41124,2,0,L|70:8,1,42.67,10|0,2:3|2:0,2:0:0:0:
68,195,41290,1,0,3:0:0:0:
200,204,41457,6,0,L|196:161,1,37.3362503546476,10|8,2:3|2:3,2:0:0:0:
212,213,41624,2,0,L|209:170,1,37.3362503546476,10|0,2:3|2:0,2:0:0:0:
326,202,41790,1,8,2:3:0:0:
310,206,41874,1,8,2:3:0:0:
296,212,41957,1,8,2:3:0:0:
324,276,42124,6,0,L|320:318,1,32.0025012159348,6|0,3:2|2:0,2:0:0:0:
336,267,42290,2,0,L|332:309,1,32.0025012159348,6|0,3:2|2:0,2:0:0:0:
207,327,42457,1,8,2:3:0:0:
199,324,42540,1,8,2:3:0:0:
191,321,42624,6,0,L|192:347,1,26.66875,6|0,3:2|2:0,2:0:0:0:
179,312,42790,2,0,L|180:338,1,26.66875,6|0,3:2|2:0,2:0:0:0:
255,383,43124,6,0,P|280:340|269:287,1,106.42,6|0,3:2|2:0,2:0:0:0:
255,384,43624,6,0,P|279:311|226:256,1,159.630006079674,0|0,2:0|2:0,2:0:0:0:
255,384,44124,6,0,P|268:287|174:261,1,212.84,0|0,2:0|2:0,2:0:0:0:
255,383,44624,6,0,P|250:268|138:298,1,266.05,0|0,2:0|2:0,2:0:0:0:
255,383,45124,6,0,P|226:256|136:351,1,319.260012159348,0|0,2:0|2:0,2:0:0:0:
207,327,45624,5,12,2:3:0:0:
227,256,45735,1,8,2:3:0:0:
209,190,45846,1,8,2:3:0:0:
186,125,45957,5,8,2:3:0:0:
188,78,46068,1,8,2:3:0:0:
221,44,46179,1,8,2:3:0:0:
287,27,46290,6,0,P|341:55|360:115,1,127.5,6|0,2:0|2:0,2:0:0:0:
354,129,46624,1,0,3:0:0:0:
309,176,46790,5,10,3:1:0:0:
411,234,46957,2,0,P|443:207|457:168,1,85.3399999999996,2|8,2:1|2:3,2:0:0:0:
446,155,47207,1,8,2:3:0:0:
447,168,47290,6,0,L|454:252,1,85.3399999999996,10|0,3:0|2:0,2:0:0:0:
367,116,47624,2,0,L|374:31,1,85.3399999999996,10|0,2:1|3:0,2:0:0:0:
271,164,47957,1,8,2:3:0:0:
250,288,48124,1,8,2:1:0:0:
293,346,48290,6,0,P|355:344|409:376,1,127.5,10|0,2:1|2:0,2:0:0:0:
403,384,48624,1,8,2:1:0:0:
364,237,48790,1,8,2:0:0:0:
250,288,48957,1,10,2:1:0:0:
48,261,49124,2,0,L|5:257,1,42.67,4|0,2:0|2:0,2:0:0:0:
120,240,49290,5,6,2:0:0:0:
128,232,49346,5,2,2:0:0:0:
133,243,49402,6,0,P|157:241|195:211,1,56.8933333333331,2|0,2:0|2:0,2:0:0:0:
203,162,49624,5,8,2:3:0:0:
190,231,49790,1,8,2:3:0:0:
310,345,49957,5,8,2:3:0:0:
316,379,50124,1,8,2:3:0:0:
333,259,50290,5,6,2:0:0:0:
247,281,50457,1,2,3:2:0:0:
187,346,50624,2,0,P|144:348|104:362,1,85.3399999999996,8|0,2:1|2:0,2:0:0:0:
0,310,50957,2,0,L|7:225,1,85.3399999999996,8|0,2:3|3:0,2:0:0:0:
5,210,51207,1,0,3:0:0:0:
4,196,51290,6,0,L|46:192,1,42.67,10|0,2:1|2:0,2:0:0:0:
168,152,51457,1,2,3:0:0:0:
168,152,51624,2,0,P|125:150|86:134,1,85.3399999999996,8|0,2:1|3:0,2:0:0:0:
51,74,51957,1,8,2:3:0:0:
209,18,52124,1,8,2:0:0:0:
214,14,52207,1,8,2:0:0:0:
219,10,52290,6,0,L|176:13,1,42.67,6|0,3:2|2:0,2:0:0:0:
115,37,52457,2,0,L|72:40,1,42.67,10|0,2:3|2:0,2:0:0:0:
11,64,52624,1,8,2:3:0:0:
293,111,52790,6,0,L|331:114,1,38.4029988327027,6|0,3:2|2:0,2:0:0:0:
386,136,52957,2,0,L|424:139,1,38.4029988327027,10|0,2:3|2:0,2:0:0:0:
480,160,53124,1,8,2:3:0:0:
219,212,53290,6,0,L|185:214,1,34.136,6|0,3:2|2:0,2:0:0:0:
39,266,53457,1,10,2:3:0:0:
46,261,53540,1,8,2:3:0:0:
52,255,53624,2,0,L|85:252,1,34.136,8|8,2:3|2:3,2:0:0:0:
293,313,53790,6,0,L|322:315,1,29.8689990921021,6|0,3:2|2:0,2:0:0:0:
438,350,53957,2,0,L|408:347,1,29.8689990921021,10|8,2:3|2:3,2:0:0:0:
132,338,54124,5,10,2:3:0:0:
123,339,54179,5,2,2:0:0:0:
113,341,54235,5,2,2:0:0:0:
104,345,54290,6,0,P|159:376|222:370,1,127.5,6|0,3:2|2:0,2:0:0:0:
230,359,54624,1,0,3:0:0:0:
222,282,54790,1,8,2:1:0:0:
293,313,54957,1,10,2:1:0:0:
293,313,55124,2,0,L|294:327,2,14.2233333333335,8|8|8,2:3|2:3|2:3,2:0:0:0:
301,300,55290,6,0,P|342:280|381:282,1,85.3399999999996,8|8,2:3|2:1,2:0:0:0:
478,259,55624,1,8,2:3:0:0:
311,208,55790,1,8,2:3:0:0:
409,185,55957,1,10,2:1:0:0:
414,180,56124,2,0,L|410:137,1,42.67,0|0,3:0|2:0,2:0:0:0:
364,49,56290,6,0,P|405:95|467:106,1,127.5,10|0,2:1|2:0,2:0:0:0:
482,98,56624,1,8,2:1:0:0:
455,8,56790,1,8,2:0:0:0:
410,137,56957,2,0,L|417:222,1,85.3399999999996,8|8,2:1|2:3,2:0:0:0:
386,322,57290,5,10,2:1:0:0:
331,279,57402,1,8,2:3:0:0:
261,281,57513,1,8,2:3:0:0:
186,268,57624,5,10,2:1:0:0:
152,299,57735,1,8,2:3:0:0:
134,343,57846,1,8,2:3:0:0:
51,374,57957,5,10,2:3:0:0:
57,298,58068,1,8,2:3:0:0:
64,223,58179,1,8,2:3:0:0:
42,130,58290,6,0,L|0:133,1,42.67,6|0,3:2|2:0,2:0:0:0:
157,201,58457,2,0,L|241:208,1,85.3399999999996,2|8,3:2|2:1,2:0:0:0:
386,138,58790,1,10,2:0:0:0:
386,138,58957,2,0,P|344:151|310:176,1,85.3399999999996,8|0,2:0|3:0,2:0:0:0:
306,182,59207,1,0,3:0:0:0:
300,176,59290,6,0,L|303:133,1,42.67,10|0,2:1|2:0,2:0:0:0:
216,0,59457,2,0,L|223:84,1,85.3399999999996,2|8,3:2|2:1,2:0:0:0:
161,155,59790,1,8,2:3:0:0:
93,166,59957,1,8,2:3:0:0:
91,172,60124,1,8,2:0:0:0:
12,255,60290,6,0,L|54:258,1,42.67,6|0,3:2|2:0,2:0:0:0:
146,241,60457,1,8,2:3:0:0:
148,235,60540,1,8,2:3:0:0:
150,229,60624,2,0,L|192:225,1,42.67,8|8,2:3|2:3,2:0:0:0:
482,344,60790,6,0,L|444:348,1,38.4029988327027,6|0,3:2|2:0,2:0:0:0:
361,332,60957,1,8,2:3:0:0:
359,326,61040,1,8,2:3:0:0:
358,321,61124,2,0,L|320:318,1,38.4029988327027,8|0,2:3|2:0,2:0:0:0:
192,155,61290,6,0,L|145:150,1,46.9370014266965,6|0,3:2|2:0,2:0:0:0:
41,119,61457,1,10,2:3:0:0:
41,119,61624,1,8,2:3:0:0:
320,66,61790,6,0,L|370:61,1,51.2039984436032,6|0,3:2|2:0,2:0:0:0:
482,39,61957,1,10,2:3:0:0:
313,190,62124,5,10,2:3:0:0:
300,187,62179,5,2,2:0:0:0:
288,182,62235,5,2,2:0:0:0:
277,176,62290,6,0,P|336:150|397:161,1,127.5,6|0,3:2|2:0,2:0:0:0:
405,170,62624,1,8,2:1:0:0:
512,83,62790,6,0,P|470:88|433:109,1,85.3399999999996,10|8,3:1|2:0,2:0:0:0:
401,288,63124,1,8,2:1:0:0:
463,270,63290,6,0,L|335:258,1,127.5,2|0,2:1|2:0,2:0:0:0:
330,264,63624,1,10,2:1:0:0:
355,384,63790,1,8,2:3:0:0:
255,291,63957,1,8,2:1:0:0:
246,355,64124,1,8,3:1:0:0:
187,381,64290,5,10,3:1:0:0:
59,347,64457,1,8,2:3:0:0:
143,361,64624,1,0,3:0:0:0:
122,366,64707,1,8,2:3:0:0:
101,371,64790,1,0,3:0:0:0:
12,256,64957,2,0,L|96:263,1,85.3399999999996,10|8,2:0|2:1,2:0:0:0:
197,159,65290,6,0,L|199:130,2,28.4466666666665,6|2|2,3:2|2:0|2:0,2:0:0:0:
185,155,65457,2,0,L|143:158,1,42.67,8|8,2:3|2:3,2:0:0:0:
65,132,65624,5,8,2:3:0:0:
135,151,65790,1,4,2:0:0:0:
256,85,65957,2,0,L|340:77,1,85.3399999999996,10|8,2:0|2:0,2:0:0:0:
496,46,66290,5,6,3:2:0:0:
355,9,66457,1,2,2:0:0:0:
489,51,66624,1,2,2:0:0:0:
418,108,66790,2,0,L|414:65,1,42.67,14|0,2:3|2:0,2:0:0:0:
450,169,66957,1,2,2:0:0:0:
361,327,67124,2,0,L|358:355,1,28.4466666666665,8|8,2:3|2:3,2:0:0:0:
353,312,67290,5,4,3:2:0:0:
416,243,67457,2,0,L|500:235,1,85.3399999999996,10|8,2:3|2:3,2:0:0:0:
209,295,67790,1,6,3:2:0:0:
278,337,67957,1,10,2:3:0:0:
215,286,68124,1,8,2:3:0:0:
84,256,68290,2,0,L|0:263,1,85.3399999999996,6|0,3:2|2:0,2:0:0:0:
137,315,68624,1,8,2:3:0:0:
169,180,68790,5,6,3:2:0:0:
170,165,68846,5,2,2:0:0:0:
172,151,68902,5,2,2:0:0:0:
173,137,68957,5,2,2:0:0:0:
84,256,69124,1,8,2:3:0:0:
267,199,69290,5,6,3:2:0:0:
264,167,69374,1,0,2:0:0:0:
261,135,69457,1,2,2:0:0:0:
258,103,69540,1,2,2:0:0:0:
254,71,69624,5,2,2:0:0:0:
324,63,69735,1,2,2:0:0:0:
385,96,69846,1,2,2:0:0:0:
433,171,69957,5,2,2:0:0:0:
377,164,70068,1,2,2:0:0:0:
328,191,70179,1,2,2:0:0:0:
297,265,70290,6,0,P|302:307|315:350,1,85.3399999999996,6|0,3:2|2:0,2:0:0:0:
405,381,70624,1,8,2:1:0:0:
324,352,70790,1,0,3:0:0:0:
214,377,70957,2,0,L|129:384,1,85.3399999999996,8|8,2:1|2:3,2:0:0:0:
24,333,71290,6,0,B|5:286|32:244|34:268|58:219|34:170,2,170.17,10|10|10,2:1|2:0|2:3,2:0:0:0:
99,304,72124,1,8,2:1:0:0:
175,338,72290,6,0,P|213:321|255:324,1,85.3399999999996,10|0,3:1|2:0,2:0:0:0:
261,333,72540,1,8,2:1:0:0:
265,343,72624,1,8,2:1:0:0:
232,208,72790,1,2,3:2:0:0:
181,256,72957,1,8,2:1:0:0:
215,139,73124,1,8,2:3:0:0:
352,292,73290,6,0,L|344:207,1,85.3399999999996,4|8,3:2|2:3,2:0:0:0:
384,104,73624,1,10,2:3:0:0:
410,104,73707,1,2,2:0:0:0:
441,89,73790,1,2,2:0:0:0:
453,48,73874,1,2,2:0:0:0:
421,8,73957,1,10,2:3:0:0:
362,0,74040,1,2,2:0:0:0:
313,18,74124,1,2,2:0:0:0:
287,51,74207,1,2,2:0:0:0:
277,82,74290,6,0,P|281:125|300:162,1,85.3399999999996,4|0,3:2|2:0,2:0:0:0:
379,204,74624,1,8,2:0:0:0:
315,189,74790,1,0,3:0:0:0:
259,223,74957,1,8,2:1:0:0:
140,199,75124,1,8,2:0:0:0:
196,165,75290,6,0,P|209:124|205:82,1,85.3399999999996,10|0,2:1|2:0,2:0:0:0:
96,38,75624,2,0,L|138:41,1,42.67,6|0,2:0|2:0,2:0:0:0:
287,11,75790,2,0,L|244:14,1,42.67,4|0,3:2|2:0,2:0:0:0:
205,82,75957,2,0,P|249:119|319:117,1,127.5,10|0,2:1|2:0,2:0:0:0:
336,101,76290,6,0,P|321:141|316:183,1,85.3399999999996,6|0,3:2|3:0,2:0:0:0:
329,287,76624,1,8,2:3:0:0:
188,325,76790,6,0,P|203:285|208:243,1,85.3399999999996,6|0,3:2|2:0,2:0:0:0:
195,139,77124,1,8,2:3:0:0:
3,181,77290,5,6,2:3:0:0:
44,174,77402,1,8,2:3:0:0:
86,167,77513,1,8,2:3:0:0:
146,194,77624,5,8,2:3:0:0:
173,198,77735,1,8,2:3:0:0:
201,203,77846,1,8,2:3:0:0:
254,165,77957,5,8,2:3:0:0:
244,109,78068,1,8,2:3:0:0:
234,53,78179,1,8,2:3:0:0:
191,0,78290,5,4,3:2:0:0:
181,183,78790,5,0,2:0:0:0:
331,201,79290,5,0,2:0:0:0:
321,384,79790,5,0,2:0:0:0:
191,0,80290,5,8,2:1:0:0:
194,169,80790,5,0,2:0:0:0:
318,215,81290,5,0,2:0:0:0:
321,384,81790,5,0,2:0:0:0:
191,0,82124,1,2,2:0:0:0:
191,0,82290,5,4,3:2:0:0:
234,74,82540,1,0,3:0:0:0:
208,155,82790,5,8,2:3:0:0:
233,220,83040,1,8,3:1:0:0:
303,228,83290,5,8,2:1:0:0:
282,300,83457,1,8,2:3:0:0:
278,310,83540,1,0,3:0:0:0:
321,384,83790,5,8,2:3:0:0:
346,302,84040,1,8,3:1:0:0:
191,0,84290,5,8,3:1:0:0:
182,76,84540,1,0,3:0:0:0:
221,142,84790,1,8,2:3:0:0:
279,175,85040,5,8,3:1:0:0:
287,238,85207,1,0,3:0:0:0:
290,241,85290,1,8,2:1:0:0:
325,300,85457,5,8,2:3:0:0:
330,308,85540,1,0,3:0:0:0:
321,384,85790,5,8,2:3:0:0:
256,343,86040,1,8,3:1:0:0:
191,0,86290,6,0,P|194:42|214:79,1,85.3399999999996,8|2,3:1|3:2,2:0:0:0:
226,82,86540,1,8,2:3:0:0:
238,79,86624,1,2,2:0:0:0:
155,280,86790,5,8,3:1:0:0:
195,226,86957,2,0,L|187:267,1,42.67,2|8,3:2|2:3,2:0:0:0:
170,349,87124,1,2,2:0:0:0:
286,183,87290,6,0,P|289:141|309:104,1,85.3399999999996,8|2,3:1|3:2,2:0:0:0:
322,102,87540,1,8,2:3:0:0:
332,109,87624,1,2,2:0:0:0:
383,304,87790,5,8,3:1:0:0:
328,237,87957,2,0,L|334:280,1,42.67,2|8,3:2|2:3,2:0:0:0:
348,383,88124,1,2,2:0:0:0:
415,168,88290,5,6,2:0:0:0:
312,117,88457,1,8,2:3:0:0:
210,128,88624,1,2,3:0:0:0:
122,118,88790,1,10,2:3:0:0:
66,66,88957,1,10,2:3:0:0:
65,50,89040,1,8,2:3:0:0:
69,34,89124,1,8,2:3:0:0:
76,20,89207,1,8,2:3:0:0:
87,9,89290,5,6,3:2:0:0:
161,167,89457,1,8,2:3:0:0:
66,298,89624,1,10,2:3:0:0:
64,287,89707,1,8,2:3:0:0:
62,277,89790,5,10,2:3:0:0:
103,269,89874,1,8,2:3:0:0:
141,286,89957,1,10,2:3:0:0:
169,303,90040,1,8,2:3:0:0:
194,306,90124,1,8,2:3:0:0:
210,302,90207,1,8,2:3:0:0:
217,296,90290,6,0,P|201:324|196:355,1,64.0050024318692,6|0,3:2|2:0,2:0:0:0:
347,328,90624,1,2,2:0:0:0:
350,325,90790,2,0,P|318:318|287:323,1,64.0050024318692,8|2,2:0|2:0,2:0:0:0:
424,357,91124,2,0,L|445:355,2,21.3350008106232,8|8|8,2:3|2:3|2:3,2:0:0:0:
419,351,91290,6,0,P|424:319|439:292,1,64.0050024318692,10|0,2:3|2:0,2:0:0:0:
435,196,91624,2,0,P|456:219|485:234,1,64.0050024318692,8|8,2:0|2:0,2:0:0:0:
342,170,91957,1,8,2:1:0:0:
393,134,92124,1,0,2:0:0:0:
290,249,92290,6,0,P|287:218|273:190,1,64.0050024318692,2|0,3:2|2:0,2:0:0:0:
183,207,92624,1,2,2:0:0:0:
182,213,92790,1,0,3:0:0:0:
250,122,92957,2,0,P|219:115|188:119,1,64.0050024318692,2|0,2:0|2:0,2:0:0:0:
210,314,93290,6,0,L|216:351,2,21.2500008106232,10|2|2,2:3|2:0|2:0,0:0:0:0:
116,120,93624,2,0,P|100:146|95:177,1,64.0050024318692,0|8,2:0|2:0,2:0:0:0:
124,286,93957,2,0,P|96:271|75:248,1,64.0050024318692,8|0,2:1|2:0,2:0:0:0:
1,31,94290,5,2,3:2:0:0:
92,56,94457,1,0,2:0:0:0:
139,110,94624,2,0,L|144:173,1,64.0050024318692,2|8,2:0|2:0,2:0:0:0:
236,78,94957,2,0,L|234:99,5,21.2585008106232,2|8|8|8|8|8,2:3|2:3|2:3|2:3|2:3|2:3,2:0:0:0:
244,67,95290,6,0,L|307:61,1,64.0050024318692,10|0,2:3|2:0,2:0:0:0:
358,120,95624,1,8,2:1:0:0:
421,114,95790,1,8,2:0:0:0:
512,192,95957,2,0,L|448:186,1,64.0050024318692,8|0,2:1|2:0,2:0:0:0:
351,233,96290,6,0,L|356:296,1,64.0050024318692,2|0,3:2|2:0,2:0:0:0:
267,365,96624,2,0,L|272:301,1,64.0050024318692,10|0,2:3|3:0,2:0:0:0:
213,218,96957,2,0,L|191:216,5,21.2585008106232,10|8|8|8|8|8,2:3|2:3|2:3|2:3|2:3|2:3,2:0:0:0:
223,213,97290,6,0,L|217:149,1,64.0050024318692,10|0,2:3|2:0,2:0:0:0:
147,17,97624,1,10,2:3:0:0:
128,11,97707,1,2,2:0:0:0:
102,11,97790,1,10,2:3:0:0:
78,32,97874,1,2,2:0:0:0:
78,70,97957,1,2,2:0:0:0:
115,94,98040,1,2,2:0:0:0:
165,85,98124,1,2,2:0:0:0:
219,67,98207,1,2,2:0:0:0:
278,86,98290,6,0,P|297:112|305:143,1,64.0050024318692,6|0,3:2|2:0,2:0:0:0:
306,212,98624,1,2,2:0:0:0:
398,174,98790,2,0,P|379:199|371:230,1,64.0050024318692,8|2,2:0|2:0,2:0:0:0:
374,307,99124,2,0,L|372:328,2,21.3350008106232,8|8|8,2:3|2:3|2:3,2:0:0:0:
370,299,99290,6,0,P|339:289|308:291,1,64.0050024318692,10|0,2:3|2:0,2:0:0:0:
191,190,99624,2,0,P|221:179|246:160,1,64.0050024318692,8|8,2:1|2:0,2:0:0:0:
240,298,99957,1,8,2:1:0:0:
242,309,100124,1,0,2:0:0:0:
155,295,100290,6,0,P|124:305|100:325,1,64.0050024318692,2|0,3:2|2:0,2:0:0:0:
61,381,100624,1,2,2:0:0:0:
61,381,100790,1,0,3:0:0:0:
13,228,100957,2,0,P|39:245|58:270,1,64.0050024318692,2|0,2:0|2:0,2:0:0:0:
220,271,101290,6,0,P|209:240|208:209,1,64.0050024318692,10|0,2:3|2:0,2:0:0:0:
299,110,101624,1,0,2:0:0:0:
238,75,101790,1,8,2:3:0:0:
142,130,101957,2,0,P|173:140|205:138,1,64.0050024318692,8|8,2:1|2:3,2:0:0:0:
304,106,102290,6,0,L|302:85,2,21.3350008106232,2|2|2,3:2|2:0|2:0,2:0:0:0:
364,183,102624,2,0,L|369:246,1,64.0050024318692,2|8,2:0|2:0,2:0:0:0:
436,313,102957,2,0,L|434:334,5,21.2585008106232,2|8|8|8|8|8,2:3|2:3|2:3|2:3|2:3|2:3,2:0:0:0:
431,302,103290,6,0,L|367:307,1,64.0050024318692,10|0,2:3|2:0,2:0:0:0:
286,252,103624,2,0,L|287:230,1,21.3350008106232,0|8,3:0|2:3,2:0:0:0:
224,268,103790,1,8,2:3:0:0:
176,250,103957,1,8,2:3:0:0:
146,225,104124,1,8,2:3:0:0:
140,200,104290,6,0,L|144:263,1,64.0050024318692,6|8,3:2|2:3,2:0:0:0:
18,207,104624,1,10,2:3:0:0:
10,295,104790,1,8,2:3:0:0:
69,128,104957,1,10,2:3:0:0:
3,42,105124,1,8,2:3:0:0:
1,20,105207,1,8,2:3:0:0:
0,0,105290,5,10,2:3:0:0:
69,128,105540,1,8,2:3:0:0:
18,207,105790,1,8,2:3:0:0:
54,268,106040,2,0,L|51:299,1,32.0025012159348,8|8,2:3|2:3,2:0:0:0:
8,362,106290,6,0,P|58:336|114:328,1,113.786666666665,6|0,3:2|2:0,2:0:0:0:
224,321,106624,2,0,P|168:313|117:287,1,113.786666666665,2|0,2:0|2:0,2:0:0:0:
87,170,106957,6,0,P|97:196|114:218,1,56.8933333333331,10|0,2:3|2:0,2:0:0:0:
214,235,107179,1,8,2:1:0:0:
286,212,107290,1,8,2:3:0:0:
322,233,107402,2,0,P|326:266|324:296,1,56.8933333333331,2|0,2:0|2:0,2:0:0:0:
395,374,107624,6,0,P|394:345|397:317,1,56.8933333333331,10|0,2:1|2:0,2:0:0:0:
439,260,107846,1,8,2:1:0:0:
461,239,107957,1,8,2:3:0:0:
432,182,108068,1,8,2:3:0:0:
435,118,108179,1,8,2:3:0:0:
494,53,108290,6,0,P|440:68|384:66,1,113.786666666665,2|8,3:2|2:1,2:0:0:0:
327,103,108624,2,0,P|336:129|342:157,2,56.8933333333331,2|8|0,2:0|2:3|3:0,2:0:0:0:
260,48,108957,6,0,P|234:35|206:35,1,56.8933333333331,10|0,2:3|2:0,2:0:0:0:
196,43,109179,1,0,3:0:0:0:
131,86,109290,1,10,2:3:0:0:
112,76,109402,2,0,L|116:19,1,56.8933333333331,2|0,2:0|2:0,2:0:0:0:
34,182,109624,5,10,3:1:0:0:
35,196,109735,1,8,2:3:0:0:
36,210,109846,1,8,2:3:0:0:
15,153,109957,1,8,2:3:0:0:
88,144,110068,1,8,2:3:0:0:
150,193,110179,1,8,2:3:0:0:
234,203,110290,6,0,P|258:190|275:167,1,56.8933333333331,10|0,3:1|2:0,2:0:0:0:
353,181,110513,2,0,P|353:152|342:127,1,56.8933333333331,2|0,2:0|2:0,2:0:0:0:
392,66,110735,2,0,P|367:51|339:48,1,56.8933333333331,2|8,2:0|2:3,2:0:0:0:
269,10,110957,6,0,P|244:24|216:27,1,56.8933333333331,10|0,3:1|2:0,2:0:0:0:
128,60,111179,1,10,2:3:0:0:
212,48,111290,1,8,2:1:0:0:
259,89,111402,2,0,L|253:148,1,56.8933333333331,10|0,2:3|2:0,2:0:0:0:
204,211,111624,6,0,P|252:181|307:175,1,113.786666666665,10|0,3:1|2:0,2:0:0:0:
358,114,111957,2,0,P|406:143|461:149,1,113.786666666665,10|0,2:3|2:0,2:0:0:0:
511,210,112290,6,0,P|485:220|462:236,1,56.8933333333331,8|0,3:1|2:0,2:0:0:0:
343,306,112513,1,8,2:3:0:0:
350,295,112624,2,0,P|353:266|351:238,1,56.8933333333331,0|8,2:0|2:1,2:0:0:0:
341,229,112846,1,8,2:3:0:0:
297,163,112957,6,0,P|267:161|242:149,1,56.8933333333331,2|8,3:2|2:3,2:0:0:0:
234,136,113179,1,8,2:3:0:0:
170,208,113290,6,0,P|151:221|137:239,1,45.5146666666665,2|8,2:0|2:3,2:0:0:0:
136,252,113513,1,8,2:3:0:0:
27,329,113624,6,0,P|18:314|15:297,1,34.1359989624024,6|0,3:2|2:0,2:0:0:0:
19,287,113846,1,8,2:3:0:0:
86,299,113957,5,6,3:2:0:0:
47,223,114068,1,10,2:3:0:0:
75,136,114179,1,10,2:3:0:0:
168,94,114290,6,0,P|187:146|178:201,1,113.786666666665,6|0,3:2|2:0,2:0:0:0:
206,291,114624,2,0,P|196:235|216:183,1,113.786666666665,10|0,2:3|3:0,2:0:0:0:
309,142,114957,6,0,P|334:130|362:128,1,56.8933333333331,10|0,3:1|2:0,2:0:0:0:
463,168,115179,1,8,2:3:0:0:
380,149,115290,1,8,2:1:0:0:
335,201,115402,1,10,2:1:0:0:
338,210,115513,1,8,2:3:0:0:
349,223,115624,6,0,P|323:211|295:209,1,56.8933333333331,10|0,2:1|2:0,2:0:0:0:
173,247,115846,1,8,2:3:0:0:
233,222,115957,1,8,2:3:0:0:
251,142,116068,2,0,P|246:114|235:87,1,56.8933333333331,8|0,2:3|2:0,2:0:0:0:
174,25,116290,6,0,P|226:46|282:49,1,113.786666666665,10|8,3:1|2:1,2:0:0:0:
341,82,116624,2,0,P|393:60|449:57,1,113.786666666665,2|0,2:0|3:0,2:0:0:0:
507,24,116957,6,0,P|495:49|489:76,1,56.8933333333331,10|0,2:3|2:0,2:0:0:0:
508,142,117179,1,8,2:1:0:0:
488,222,117290,1,10,2:3:0:0:
489,238,117402,2,0,L|493:294,1,56.8933333333331,2|0,2:0|2:0,2:0:0:0:
436,360,117624,6,0,P|409:349|381:346,1,56.8933333333331,10|0,3:1|2:0,2:0:0:0:
360,335,117846,1,0,3:0:0:0:
278,359,117957,1,2,3:2:0:0:
215,333,118068,2,0,P|205:307|202:279,1,56.8933333333331,8|0,2:3|3:0,2:0:0:0:
243,200,118290,6,0,P|242:143|215:94,1,113.786666666665,6|0,3:2|2:0,2:0:0:0:
88,59,118624,2,0,P|114:68|142:66,1,56.8933333333331,2|8,2:0|2:1,2:0:0:0:
157,53,118846,1,8,2:3:0:0:
158,134,118957,6,0,P|147:160|130:182,1,56.8933333333331,10|0,2:1|2:0,2:0:0:0:
242,143,119179,2,0,P|246:171|243:200,1,56.8933333333331,10|8,2:3|2:1,2:0:0:0:
320,109,119402,2,0,P|337:131|348:157,1,56.8933333333331,2|0,2:0|3:0,2:0:0:0:
369,40,119624,6,0,P|417:67|448:114,1,113.786666666665,10|0,2:1|2:0,2:0:0:0:
337,199,119957,1,10,2:1:0:0:
353,189,120068,1,8,2:3:0:0:
431,202,120179,1,8,2:3:0:0:
512,156,120290,6,0,P|491:176|465:188,1,56.8933333333331,6|0,3:2|2:0,2:0:0:0:
353,189,120513,1,8,2:3:0:0:
431,202,120624,1,8,2:3:0:0:
477,233,120735,1,8,2:3:0:0:
491,263,120846,1,8,2:3:0:0:
496,284,120957,5,10,2:3:0:0:
496,295,121068,1,8,2:3:0:0:
487,316,121179,1,10,2:3:0:0:
459,335,121290,1,2,3:2:0:0:
415,320,121402,1,4,2:0:0:0:
390,275,121513,1,2,3:2:0:0:
406,220,121624,5,6,2:0:0:0:
437,166,121735,1,10,2:3:0:0:
447,98,121846,1,10,2:3:0:0:
407,36,121957,5,6,2:0:0:0:
329,21,122068,5,10,2:3:0:0:
259,69,122179,5,10,2:3:0:0:
246,155,122290,6,0,P|278:200|329:222,1,113.786666666665,6|2,3:2|2:0,2:0:0:0:
344,218,122624,1,0,2:0:0:0:
220,242,122735,2,0,P|195:255|175:275,1,56.8933333333331,2|0,2:0|2:0,2:0:0:0:
100,323,122957,6,0,P|72:315|48:300,1,56.8933333333331,8|0,2:3|2:0,2:0:0:0:
42,220,123179,1,10,2:1:0:0:
50,207,123290,1,8,2:3:0:0:
24,124,123402,2,0,L|28:180,1,56.8933333333331,10|0,2:3|2:0,2:0:0:0:
125,212,123624,6,0,P|151:201|171:181,1,56.8933333333331,10|0,3:1|2:0,2:0:0:0:
205,87,123846,1,8,2:1:0:0:
203,98,123957,1,8,2:3:0:0:
253,152,124068,1,10,2:3:0:0:
331,167,124179,1,8,2:3:0:0:
409,136,124290,6,0,P|402:163|399:191,1,56.8933333333331,8|0,3:1|2:0,2:0:0:0:
427,261,124513,1,10,2:1:0:0:
418,257,124624,1,0,2:0:0:0:
350,255,124735,2,0,P|357:282|360:310,1,56.8933333333331,10|0,2:3|2:0,2:0:0:0:
237,353,124957,6,0,P|264:345|292:342,1,56.8933333333331,10|0,2:3|2:0,2:0:0:0:
302,351,125179,1,2,3:2:0:0:
271,272,125290,1,8,2:3:0:0:
262,263,125402,2,0,P|234:255|206:252,1,56.8933333333331,10|8,2:3|2:3,2:0:0:0:
112,317,125624,6,0,P|119:289|122:261,1,56.8933333333331,2|8,3:2|2:3,2:0:0:0:
156,185,125846,2,0,P|142:160|124:138,1,56.8933333333331,10|0,2:1|3:0,2:0:0:0:
92,59,126068,2,0,P|65:52|37:49,1,56.8933333333331,10|8,2:3|2:3,2:0:0:0:
176,72,126290,6,0,P|204:68|231:61,1,56.8933333333331,10|0,3:1|2:0,2:0:0:0:
277,165,126513,1,0,2:0:0:0:
283,157,126624,2,0,P|294:131|301:103,1,56.8933333333331,10|0,2:3|3:2,2:0:0:0:
414,116,126846,1,8,2:3:0:0:
410,106,126957,6,0,P|392:83|372:63,1,56.8933333333331,10|0,3:1|2:0,2:0:0:0:
411,212,127179,2,0,P|439:208|466:200,1,56.8933333333331,10|0,3:1|2:0,2:0:0:0:
318,159,127402,2,0,P|307:185|299:212,1,56.8933333333331,2|8,3:2|2:3,2:0:0:0:
393,345,127624,6,0,P|372:325|355:302,1,56.8933333333331,8|0,2:1|2:0,2:0:0:0:
354,292,127846,1,8,2:3:0:0:
276,338,127957,2,0,P|275:309|279:281,1,56.8933333333331,10|0,2:3|2:0,2:0:0:0:
284,272,128179,1,8,2:3:0:0:
206,301,128290,6,0,P|150:313|93:314,1,113.786666666665,6|2,3:2|2:0,2:0:0:0:
10,347,128624,1,6,3:2:0:0:
47,248,128735,2,0,P|46:219|40:191,1,56.8933333333331,2|8,2:0|2:3,2:0:0:0:
97,83,128957,6,0,P|91:110|90:139,1,56.8933333333331,8|0,2:1|2:0,2:0:0:0:
109,203,129179,1,10,2:3:0:0:
207,165,129290,2,0,P|235:166|262:172,1,56.8933333333331,10|8,2:3|2:3,2:0:0:0:
384,224,129513,1,8,2:3:0:0:
387,216,129624,5,6,3:2:0:0:
318,213,129735,1,10,2:3:0:0:
259,250,129846,1,10,2:3:0:0:
199,297,129957,5,10,2:3:0:0:
143,299,130068,1,10,2:3:0:0:
95,269,130179,1,10,2:3:0:0:
74,192,130290,6,0,P|78:135|96:82,1,113.786666666665,6|0,3:2|2:0,2:0:0:0:
126,18,130624,2,0,P|130:74|148:127,1,113.786666666665,2|0,2:0|2:0,2:0:0:0:
239,163,130957,6,0,P|246:135|242:107,1,56.8933333333331,0|0,3:0|2:0,2:0:0:0:
284,42,131179,1,8,2:3:0:0:
322,123,131290,1,2,2:0:0:0:
312,138,131402,2,0,P|307:165|315:193,1,56.8933333333331,8|8,2:1|2:3,2:0:0:0:
444,228,131624,6,0,P|416:223|388:231,1,56.8933333333331,2|0,3:2|2:0,2:0:0:0:
345,283,131846,1,10,2:3:0:0:
259,264,131957,1,8,2:3:0:0:
244,272,132068,2,0,L|248:328,1,56.8933333333331,10|0,2:3|3:0,2:0:0:0:
152,346,132290,5,10,2:1:0:0:
147,334,132346,5,2,2:0:0:0:
144,347,132402,6,0,P|117:356|89:359,1,56.8933333333331,2|8,2:0|2:1,2:0:0:0:
29,294,132624,2,0,L|33:237,1,56.8933333333331,10|8,2:3|2:1,2:0:0:0:
10,133,132846,1,2,3:0:0:0:
16,145,132957,2,0,P|62:175|118:179,1,113.786666666665,8|8,3:1|2:1,2:0:0:0:
189,141,133290,5,10,2:3:0:0:
189,128,133346,5,2,2:0:0:0:
197,136,133402,6,0,P|224:130|252:132,1,56.8933333333331,10|0,2:1|2:0,2:0:0:0:
325,96,133624,2,0,P|352:102|380:100,1,56.8933333333331,2|0,3:0|2:0,2:0:0:0:
449,185,133846,2,0,L|446:156,1,28.4466666666665,10|8,2:3|2:3,2:0:0:0:
457,195,133957,5,8,2:3:0:0:
384,177,134068,1,8,2:3:0:0:
315,204,134179,1,8,2:3:0:0:
273,267,134290,6,0,P|268:309|271:351,1,85.3399999999996,6|0,3:2|2:0,2:0:0:0:
331,384,134624,1,0,3:0:0:0:
169,288,134790,2,0,P|172:245|167:203,1,85.3399999999996,2|0,2:0|3:0,2:0:0:0:
102,60,135124,1,0,2:0:0:0:
111,52,135207,1,8,2:1:0:0:
120,44,135290,6,0,L|232:34,1,113.786666666665,6|0,2:0|2:0,2:0:0:0:
291,138,135624,5,6,2:0:0:0:
288,124,135679,5,2,2:0:0:0:
282,134,135735,6,0,L|225:129,1,56.8933333333331,2|8,2:0|2:3,2:0:0:0:
330,43,135957,2,0,L|443:34,1,113.786666666665,4|8,2:0|2:3,2:0:0:0:
502,83,136290,6,0,P|488:107|481:135,1,56.8933333333331,6|0,2:0|2:0,2:0:0:0:
390,131,136513,1,8,2:3:0:0:
387,148,136624,2,0,P|394:175|409:199,1,56.8933333333331,4|0,2:0|2:0,2:0:0:0:
341,261,136846,1,8,2:3:0:0:
351,275,136957,2,0,P|375:288|403:295,2,56.8933333333331,6|8|8,2:0|2:3|2:3,2:0:0:0:
308,335,137290,5,10,2:3:0:0:
239,315,137402,1,8,2:3:0:0:
170,297,137513,1,8,2:3:0:0:
109,339,137624,5,12,2:3:0:0:
74,348,137735,1,8,2:3:0:0:
40,357,137846,1,8,2:3:0:0:
0,284,137957,6,0,L|9:171,1,113.786666666665,6|8,2:0|2:3,2:0:0:0:
0,84,138290,5,6,3:2:0:0:
90,65,138457,1,0,2:0:0:0:
11,89,138624,1,2,2:0:0:0:
138,133,138790,1,2,2:0:0:0:
89,199,138957,1,10,2:1:0:0:
89,199,139457,5,10,2:0:0:0:
200,246,139790,1,2,2:0:0:0:
218,333,139957,1,10,2:0:0:0:
193,260,140124,1,2,2:0:0:0:
318,189,140290,2,0,L|360:185,1,42.67,6|0,3:2|2:0,2:0:0:0:
392,206,140790,5,6,3:2:0:0:
377,204,140846,5,2,2:0:0:0:
363,203,140902,5,2,2:0:0:0:
349,202,140957,5,10,2:1:0:0:
240,204,141124,1,8,2:3:0:0:
174,119,141290,5,2,3:2:0:0:
168,77,141374,1,8,2:3:0:0:
183,38,141457,1,10,2:3:0:0:
215,10,141540,1,10,2:3:0:0:
256,1,141624,5,10,2:3:0:0:
262,72,141735,1,10,2:3:0:0:
268,143,141846,1,10,2:3:0:0:
240,204,141957,5,10,2:3:0:0:
235,257,142068,1,10,2:3:0:0:
230,311,142179,1,10,2:3:0:0:
255,373,142290,5,6,3:2:0:0:
255,373,142790,6,0,L|256:384,1,10.6675004053116,2|0,2:0|2:0,2:0:0:0:
