osu file format v14

[General]
AudioFilename: audio.mp3
AudioLeadIn: 0
PreviewTime: 10290
Countdown: 0
SampleSet: Soft
StackLeniency: 0.6
Mode: 0
LetterboxInBreaks: 0
WidescreenStoryboard: 1

[Editor]
DistanceSpacing: 1
BeatDivisor: 6
GridSize: 8
TimelineZoom: 2.600001

[Metadata]
Title:SORA-VII Cygnus Wall
TitleUnicode:SORA-VII シグナスウォール
Artist:Hisui
ArtistUnicode:翡翠
Creator:KnightC0re
Version:Normal
Source:太鼓の達人
Tags:Taiko no Tatsujin ブルーVer. Blue Version Namco Original ナムコオリジナル かたぬき Katanuki north america nebula Knightcore rhythm video game instrumental ひすい
BeatmapID:2172992
BeatmapSetID:958121

[Difficulty]
HPDrainRate:3
CircleSize:2
OverallDifficulty:3
ApproachRate:5
SliderMultiplier:1
SliderTickRate:1

[Events]
//Background and Video events
0,0,"iOoyXZX.jpg",0,0
//Break Periods
2,78490,84970
//Storyboard Layer 0 (Background)
//Storyboard Layer 1 (Fail)
//Storyboard Layer 2 (Pass)
//Storyboard Layer 3 (Foreground)
//Storyboard Layer 4 (Overlay)
//Storyboard Sound Samples

[TimingPoints]
291,333.333333333333,3,2,1,50,1,0
2290,-125,3,2,1,30,0,0
5624,-125,3,2,2,30,0,0
6956,-125,3,2,1,30,0,0
8290,-125,3,2,1,50,0,0
8845,-125,3,2,3,50,0,0
9290,-111.111111111111,3,2,1,50,0,0
9845,-111.111111111111,3,2,3,50,0,0
10290,-111.111111111111,3,2,1,40,0,0
10846,-100,3,2,1,40,0,0
17290,-90.9090909090909,3,2,1,40,0,0
17957,-90.9090909090909,3,2,2,40,0,0
18290,-100,3,2,1,40,0,0
20290,-100,3,2,2,40,0,0
20623,-100,3,2,1,40,0,0
23956,-100,3,2,3,40,0,0
24290,-100,3,2,1,40,0,0
24456,-100,3,2,1,20,0,0
24624,-100,3,2,1,40,0,0
24957,-100,3,2,1,30,0,0
25290,-100,3,2,1,40,0,0
27290,-100,3,2,2,40,0,0
28290,-100,3,2,2,20,0,0
28624,-111.111111111111,3,2,1,40,0,0
29124,-111.111111111111,3,2,2,40,0,0
29624,-111.111111111111,3,2,2,20,0,0
29957,-111.111111111111,3,2,1,40,0,0
31290,-111.111111111111,3,2,2,40,0,0
32290,-111.111111111111,3,2,2,20,0,0
32957,-105.263157894737,3,2,2,40,0,0
33957,-105.263157894737,3,2,1,40,0,0
34290,-100,3,2,1,40,0,0
37957,-100,3,2,2,40,0,0
38290,-100,3,2,1,40,0,0
40957,-100,3,2,2,40,0,0
41457,-100,3,2,3,40,0,0
41957,-100,3,2,2,40,0,0
42624,-100,3,2,1,40,0,0
46290,-90.9090909090909,3,2,1,60,0,1
47123,-90.9090909090909,3,2,1,30,0,1
47290,-90.9090909090909,3,2,1,60,0,1
49623,-90.9090909090909,3,2,2,60,0,1
49957,-90.9090909090909,3,2,3,60,0,1
50290,-90.9090909090909,3,2,1,60,0,1
51290,-90.9090909090909,3,2,2,60,0,1
51457,-90.9090909090909,3,2,1,60,0,1
57290,-90.9090909090909,3,2,2,60,0,1
57956,-90.9090909090909,3,2,1,60,0,1
59290,-90.9090909090909,3,2,2,60,0,1
59456,-90.9090909090909,3,2,1,60,0,1
59790,-90.9090909090909,3,2,3,60,0,1
60123,-90.9090909090909,3,2,2,60,0,1
60290,-90.9090909090909,3,2,1,60,0,0
62290,-90.9090909090909,3,2,1,60,0,1
63290,-90.9090909090909,3,2,3,60,0,1
63623,-90.9090909090909,3,2,1,60,0,1
65623,-90.9090909090909,3,2,2,60,0,1
66290,-90.9090909090909,3,2,1,60,0,1
67623,-90.9090909090909,3,2,2,60,0,1
67790,-90.9090909090909,3,2,1,60,0,1
67957,-90.9090909090909,3,2,3,60,0,1
68123,-90.9090909090909,3,2,2,60,0,1
68290,-90.9090909090909,3,2,1,60,0,1
71623,-90.9090909090909,3,2,2,60,0,1
71956,-90.9090909090909,3,2,1,60,0,1
73957,-90.9090909090909,3,2,1,100,0,1
74124,-90.9090909090909,3,2,1,80,0,1
74290,-90.9090909090909,3,2,1,60,0,1
75623,-90.9090909090909,3,2,2,60,0,1
75957,-90.9090909090909,3,2,1,60,0,1
77290,-90.9090909090909,3,2,3,60,0,1
77957,-90.9090909090909,3,2,2,60,0,1
78290,-90.9090909090909,3,2,1,60,0,0
86290,-100,3,2,1,40,0,0
88956,-100,3,2,2,40,0,0
89124,-100,3,2,3,40,0,0
89290,-100,3,2,1,40,0,0
89790,-100,3,2,2,40,0,0
90123,-100,3,2,3,40,0,0
90290,-111.111111111111,3,2,1,50,0,0
90790,-111.111111111111,3,2,2,50,0,0
91290,-111.111111111111,3,2,1,50,0,0
91624,-111.111111111111,3,2,2,50,0,0
91957,-111.111111111111,3,2,1,50,0,0
97624,-111.111111111111,3,2,2,50,0,0
97790,-111.111111111111,3,2,3,50,0,0
98123,-111.111111111111,3,2,3,40,0,0
98290,-111.111111111111,3,2,1,50,0,0
98790,-111.111111111111,3,2,2,50,0,0
99290,-111.111111111111,3,2,1,50,0,0
103624,-111.111111111111,3,2,2,50,0,0
103957,-111.111111111111,3,2,3,50,0,0
104290,-111.111111111111,3,2,1,50,0,0
106290,-100,3,2,1,70,0,1
107957,-100,3,2,1,55,0,1
108290,-100,3,2,1,70,0,1
109957,-100,3,2,1,55,0,1
110290,-100,3,2,1,70,0,1
113623,-100,3,2,2,70,0,1
114290,-100,3,2,1,70,0,1
115957,-100,3,2,1,55,0,1
116290,-100,3,2,1,70,0,1
120623,-100,3,2,2,70,0,1
120957,-90.9090909090909,3,2,1,70,0,1
122179,-90.9090909090909,3,2,1,70,0,0
122290,-83.3333333333333,3,2,1,70,0,1
124068,-83.3333333333333,3,2,1,60,0,1
124290,-83.3333333333333,3,2,1,70,0,1
125402,-83.3333333333333,3,2,2,70,0,1
125624,-83.3333333333333,3,2,1,70,0,1
126068,-83.3333333333333,3,2,1,60,0,1
126290,-83.3333333333333,3,2,1,70,0,1
129290,-83.3333333333333,3,2,2,70,0,1
129624,-83.3333333333333,3,2,1,70,0,1
129957,-83.3333333333333,3,2,3,70,0,1
130290,-83.3333333333333,3,2,1,70,0,1
131846,-83.3333333333333,3,2,2,70,0,1
132068,-83.3333333333333,3,2,1,70,0,1
134290,-90.9090909090909,3,2,1,70,0,1
135290,-90.9090909090909,3,2,2,70,0,1
136290,-90.9090909090909,3,2,1,70,0,1
137956,-90.9090909090909,3,2,2,70,0,1
138290,-100,3,2,1,50,0,0
139457,-100,3,2,2,50,0,0
140290,-100,3,2,1,50,0,0
141623,-100,3,2,2,50,0,0
141957,-100,3,2,3,50,0,0
142290,-100,3,2,1,50,0,0

[Colours]
Combo1 : 155,0,155
Combo2 : 255,49,49
Combo3 : 255,128,64
Combo4 : 128,0,255

[HitObjects]
0,17,2290,6,0,P|110:49|146:159,1,240,4|8,3:2|2:0,2:0:0:0:
2,351,4290,1,8,3:1:0:0:
63,368,4624,2,0,P|140:353|196:292,1,160,0|8,3:0|2:0,2:0:0:0:
210,233,5624,2,0,L|203:175,1,53.4933333333332,8|0,2:3|3:0,2:0:0:0:
248,83,6290,6,0,P|317:126|402:130,1,160,4|0,3:2|3:0,2:0:0:0:
451,104,7290,1,8,2:0:0:0:
463,343,8290,6,0,P|474:277|512:224,1,133.493333333332,6|10,3:2|2:3,2:0:0:0:
398,186,9290,2,0,P|388:112|352:46,1,150.179995422363,2|10,2:0|2:3,2:0:0:0:
226,2,10290,5,4,3:2:0:0:
80,40,10846,2,0,P|66:87|67:122,1,83.4333333333331,2|0,2:0|2:0,2:0:0:0:
92,158,11290,6,0,P|159:146|239:204,1,166.866666666666,8|2,2:3|2:0,2:0:0:0:
185,308,12290,2,0,B|262:347|356:294|293:274|376:224|461:266,1,300,8|8,3:1|2:3,2:0:0:0:
511,179,13624,5,0,3:0:0:0:
457,94,13957,1,8,2:3:0:0:
507,7,14290,2,0,P|443:36|306:34,1,200,8|8,3:1|2:1,2:0:0:0:
241,89,15290,2,0,P|177:60|40:62,1,200,10|2,2:3|2:0,2:0:0:0:
2,136,16290,2,0,P|17:201|16:324,1,166.866666666666,8|8,3:1|2:3,2:0:0:0:
158,346,17290,6,0,P|204:358|241:354,2,73.3883355712889,4|4|4,3:2|3:2|3:2,2:0:0:0:
112,298,17957,1,6,3:2:0:0:
121,208,18290,6,0,P|221:174|282:201,1,166.866666666666,6|0,3:2|3:0,2:0:0:0:
351,303,19290,2,0,P|428:255|447:183,1,166.866666666666,8|10,2:3|2:3,2:0:0:0:
380,70,20290,6,0,B|359:62|305:73|284:93,1,99.9999999999999,10|0,3:1|3:0,2:0:0:0:
249,140,20846,1,8,2:3:0:0:
141,218,21290,6,0,B|120:226|66:215|45:195,1,99.9999999999999,10|8,2:3|2:1,2:0:0:0:
10,148,21846,1,8,2:3:0:0:
101,51,22290,6,0,P|193:62|206:154,1,200,8|2,3:1|2:0,2:0:0:0:
135,224,23290,2,0,P|119:281|118:340,2,99.9999999999999,8|0|0,2:3|3:0|3:0,2:0:0:0:
231,250,24290,6,0,L|280:255,1,49.9999999999999,8|8,3:0|2:3,2:0:0:0:
321,284,24624,2,0,L|370:280,1,49.9999999999999,8|10,2:3|2:3,2:0:0:0:
415,257,24957,2,0,P|397:293|396:373,1,99.9999999999999,2|8,2:0|2:3,2:0:0:0:
512,26,26290,5,6,2:0:0:0:
389,82,27290,1,10,2:1:0:0:
258,48,28290,5,8,2:1:0:0:
309,121,28624,2,0,P|287:190|284:266,1,135.269995880127,2|10,2:0|2:1,2:0:0:0:
170,297,29624,1,8,2:1:0:0:
112,228,29957,2,0,L|108:183,1,45.2699986267089,8|8,2:3|2:3,2:0:0:0:
124,151,30290,5,6,2:0:0:0:
256,123,31290,1,10,2:1:0:0:
372,188,32290,2,0,P|381:233|383:277,1,90.2699972534178,4|8,2:0|2:1,2:0:0:0:
307,335,32957,6,0,L|259:330,1,47.7849987316132,6|6,2:0|2:0,2:0:0:0:
168,357,33457,2,0,L|120:352,1,47.7849987316132,6|6,2:0|2:0,2:0:0:0:
29,379,33957,1,8,2:3:0:0:
53,282,34290,6,0,P|52:243|41:199,2,74.9999999999997,2|2|10,3:2|2:0|2:3,2:0:0:0:
150,260,35124,1,8,2:3:0:0:
150,260,35290,2,0,P|199:261|266:347,1,150,2|0,3:2|2:0,2:0:0:0:
303,363,35957,2,0,L|352:367,1,49.9999999999999,10|0,2:3|3:0,2:0:0:0:
471,301,36624,5,2,2:0:0:0:
357,225,37124,2,0,P|328:186|325:137,1,99.9999999999999,10|2,2:3|2:0,2:0:0:0:
401,25,37957,2,0,L|450:29,1,49.9999999999999,10|10,2:3|2:3,2:0:0:0:
490,54,38290,5,6,3:2:0:0:
461,150,38624,2,0,L|465:199,1,49.9999999999999,0|8,3:0|2:3,2:0:0:0:
441,243,38957,2,0,L|436:292,1,49.9999999999999,2|10,2:0|2:3,2:0:0:0:
447,341,39290,5,2,3:2:0:0:
348,321,39624,2,0,L|283:315,1,49.9999999999999,2|2,3:2|2:0,2:0:0:0:
270,275,39957,2,0,L|216:237,1,49.9999999999999,10|2,2:3|3:2,2:0:0:0:
225,196,40290,2,0,L|197:137,2,49.9999999999998,2|2|10,3:2|2:0|2:3,2:0:0:0:
320,166,40957,6,0,L|360:136,1,49.9999999999999,10|10,2:3|2:3,2:0:0:0:
459,157,41457,2,0,L|508:152,1,49.9999999999999,10|10,2:3|2:3,2:0:0:0:
458,61,41957,1,8,2:3:0:0:
458,61,42124,6,0,L|416:32,1,49.9999999999999,6|6,3:2|3:2,2:0:0:0:
319,52,42624,2,0,L|268:47,1,49.9999999999999,6|6,3:2|3:2,2:0:0:0:
194,113,43124,1,6,3:2:0:0:
256,192,43290,12,12,45624,2:3:0:0:
511,110,46290,6,0,P|460:89|405:93,1,110.000003356934,6|0,2:0|3:0,2:0:0:0:
363,128,46790,2,0,P|312:148|257:144,1,110.000003356934,10|8,3:1|2:3,2:0:0:0:
215,109,47290,2,0,L|224:0,2,110.000003356934,10|10|8,3:0|2:1|2:3,2:0:0:0:
104,102,48290,6,0,P|17:141|10:213,1,165.000005035401,10|8,2:1|2:0,2:0:0:0:
33,250,48957,1,10,2:1:0:0:
112,310,49290,2,0,P|162:288|216:288,1,110.000003356934,6|8,2:0|2:3,2:0:0:0:
263,316,49790,1,8,2:3:0:0:
263,316,49957,2,0,L|317:320,1,55.0000016784665,8|8,2:3|2:3,2:0:0:0:
364,292,50290,6,0,L|359:237,2,55.0000016784665,6|2|8,2:0|3:2|2:1,2:0:0:0:
461,240,50957,1,8,2:3:0:0:
493,134,51290,6,0,L|497:79,2,55.0000016784665,10|2|8,2:1|3:0|2:1,2:0:0:0:
396,82,51957,1,8,2:3:0:0:
291,115,52290,5,6,3:2:0:0:
147,195,52790,1,6,3:2:0:0:
178,356,53290,1,6,3:2:0:0:
341,375,53790,1,6,3:2:0:0:
412,227,54290,6,0,P|395:176|286:154,1,165.000005035401,6|8,3:2|2:1,2:0:0:0:
253,184,54957,1,10,2:1:0:0:
176,262,55290,2,0,P|196:157|191:78,1,165.000005035401,8|8,2:3|2:3,2:0:0:0:
163,53,55957,1,10,2:1:0:0:
261,3,56290,6,0,P|335:34|421:38,1,165.000005035401,10|8,2:1|2:0,2:0:0:0:
472,25,56957,1,8,2:1:0:0:
481,134,57290,2,0,B|457:209|457:209|467:257,2,110.000003356934,10|10|10,2:1|2:1|2:3,2:0:0:0:
370,136,58290,6,0,L|315:131,1,55.0000016784665,6|2,3:2|3:2,2:0:0:0:
205,140,58790,2,0,P|208:86|179:40,1,110.000003356934,10|0,2:0|3:0,2:0:0:0:
136,32,59290,6,0,L|81:36,1,55.0000016784665,10|2,2:1|3:2,2:0:0:0:
23,131,59790,1,8,2:3:0:0:
23,131,59957,2,0,L|18:185,1,55.0000016784665,8|8,2:3|2:0,2:0:0:0:
46,232,60290,5,6,3:2:0:0:
198,296,60790,1,6,3:2:0:0:
328,195,61290,1,6,3:2:0:0:
480,259,61790,1,6,3:2:0:0:
348,358,62290,6,0,P|302:333|241:332,1,110.000003356934,6|8,3:2|2:1,2:0:0:0:
193,312,62791,2,0,P|166:264|165:209,1,110.000003356934,10|8,3:1|2:1,2:0:0:0:
187,160,63290,1,2,2:1:0:0:
294,183,63624,2,0,P|347:170|387:134,1,110.000003356934,2|8,2:1|2:1,2:0:0:0:
486,181,64290,6,0,P|486:236|502:290,1,110.000003356934,10|0,3:1|3:0,2:0:0:0:
471,335,64790,1,0,3:0:0:0:
471,335,64957,2,0,P|445:324|418:322,1,55.0000016784665,10|8,2:0|2:1,2:0:0:0:
363,327,65290,6,0,P|318:295|265:283,1,110.000003356934,6|8,3:2|2:3,2:0:0:0:
223,248,65790,2,0,L|227:193,1,55.0000016784665,4|10,2:0|2:0,2:0:0:0:
178,94,66290,6,0,P|151:85|124:82,1,55.0000016784665,6|2,3:2|2:0,2:0:0:0:
74,106,66624,1,2,2:0:0:0:
74,106,66790,2,0,P|83:131|85:158,1,55.0000016784665,14|2,2:3|2:0,2:0:0:0:
19,249,67290,5,4,3:2:0:0:
19,249,67457,2,0,L|24:303,1,55.0000016784665,10|8,2:3|2:3,2:0:0:0:
10,360,67790,1,6,3:2:0:0:
10,360,67957,1,10,2:3:0:0:
113,323,68290,1,6,3:2:0:0:
278,369,68790,5,6,3:2:0:0:
278,369,68957,2,0,P|305:360|332:356,1,55.0000016784665,2|8,2:0|2:3,2:0:0:0:
385,367,69290,6,0,P|445:317|420:244,1,165.000005035401,6|4,3:2|3:2,2:0:0:0:
260,199,70290,6,0,B|203:227|134:188|180:174|117:139|51:170,1,220.000006713867,6|8,3:2|2:1,2:0:0:0:
7,267,71290,2,0,P|29:319|31:378,2,110.000003356934,10|10|10,2:1|2:0|2:3,2:0:0:0:
115,283,72290,2,0,L|279:268,2,165.000005035401,10|2|4,3:1|3:2|3:2,2:0:0:0:
81,176,73624,6,0,P|108:130|102:76,1,110.000003356934,10|10,2:3|2:3,2:0:0:0:
65,35,74124,1,2,2:0:0:0:
65,35,74290,6,0,B|198:13|146:78|279:51,1,220.000006713867,4|8,3:2|2:1,2:0:0:0:
385,19,75290,2,0,P|439:33|478:70,1,110.000003356934,10|6,2:1|2:0,2:0:0:0:
491,122,75790,1,4,3:2:0:0:
491,122,75957,2,0,P|482:147|480:175,1,55.0000016784665,10|0,2:1|3:0,2:0:0:0:
435,207,76290,6,0,P|354:190|271:185,2,165.000005035401,6|6|6,3:2|3:2|2:3,2:0:0:0:
509,288,77624,2,0,P|519:340|480:376,1,110.000003356934,8|8,2:3|2:3,2:0:0:0:
370,380,78290,5,4,3:2:0:0:
260,140,86290,6,0,L|267:66,2,74.9999999999997,8|8|8,3:1|2:3|3:1,2:0:0:0:
375,237,87290,2,0,L|381:311,2,74.9999999999997,8|8|8,3:1|2:3|3:1,2:0:0:0:
499,153,88290,6,0,P|487:130|484:49,1,99.9999999999999,6|2,2:0|3:0,2:0:0:0:
450,18,88790,1,10,2:3:0:0:
357,48,89124,1,8,2:3:0:0:
357,48,89290,6,0,P|309:34|259:33,1,99.9999999999999,6|10,3:2|2:3,2:0:0:0:
215,57,89790,2,0,L|219:106,2,49.9999999999998,10|10|8,2:3|2:3|2:3,2:0:0:0:
174,36,90290,6,0,P|112:40|69:107,2,135.134995880127,6|8|10,3:2|2:0|2:3,2:0:0:0:
212,117,91624,2,0,L|204:206,1,90.2699972534178,8|8,2:0|2:1,2:0:0:0:
271,266,92290,6,0,P|356:265|457:301,1,180.269994506836,2|2,3:2|2:0,2:0:0:0:
508,359,93290,1,10,2:3:0:0:
328,377,93957,1,8,2:1:0:0:
244,344,94290,6,0,P|179:346|143:362,1,90.2699972534178,2|2,3:2|2:0,2:0:0:0:
70,326,94957,1,2,2:3:0:0:
47,238,95290,2,0,P|58:131|41:42,1,180.269994506836,10|8,2:3|2:1,2:0:0:0:
129,25,96290,6,0,P|172:11|217:6,2,90.1349972534178,2|10|10,3:2|2:3|2:3,2:0:0:0:
128,116,97290,1,10,2:3:0:0:
216,160,97624,1,10,2:3:0:0:
216,160,97790,2,0,P|260:162|304:172,1,90.2699972534178,10|2,2:3|2:0,2:0:0:0:
336,204,98290,6,0,P|393:170|460:160,2,135.134995880127,6|8|10,3:2|2:0|2:3,2:0:0:0:
292,124,99624,2,0,P|287:76|315:23,1,90.2699972534178,8|8,2:1|2:1,2:0:0:0:
390,21,100290,6,0,P|438:102|434:195,1,180.269994506836,2|2,3:2|2:0,2:0:0:0:
368,244,101290,1,10,2:3:0:0:
190,214,101957,1,8,2:1:0:0:
251,279,102290,6,0,P|271:321|268:371,1,90.2699972534178,2|2,3:2|2:0,2:0:0:0:
182,341,102957,1,2,2:3:0:0:
94,363,103290,1,10,2:3:0:0:
48,285,103624,6,0,L|51:240,1,45.2699986267089,8|8,2:3|2:3,2:0:0:0:
36,197,103957,2,0,L|32:152,1,45.2699986267089,8|8,2:3|2:3,2:0:0:0:
56,114,104290,6,0,P|99:123|146:124,2,90.1349972534178,6|10|10,3:2|2:3|2:3,2:0:0:0:
5,39,105290,1,10,2:3:0:0:
256,136,106290,6,0,P|244:185|241:235,1,99.9999999999999,6|2,3:2|2:0,2:0:0:0:
315,301,106957,2,0,P|346:289|378:282,2,66.7166666666665,10|8|2,2:3|2:1|2:0,2:0:0:0:
261,341,107624,2,0,P|213:331|163:329,1,99.9999999999999,10|8,2:1|2:3,2:0:0:0:
73,282,108290,6,0,P|53:237|64:189,1,99.9999999999999,2|2,3:2|2:0,2:0:0:0:
146,132,108957,2,0,P|179:140|212:141,2,66.7166666666665,10|0|2,2:3|3:0|2:0,2:0:0:0:
104,79,109624,2,0,P|57:84|15:113,1,100,10|8,3:1|2:3,0:0:0:0:
0,212,110290,6,0,P|40:264|107:277,1,133.333333333333,10|2,3:1|2:0,2:0:0:0:
168,261,110957,2,0,P|195:279|217:303,2,66.7166666666665,10|10|10,3:1|2:3|2:3,2:0:0:0:
174,195,111624,2,0,P|200:153|235:117,1,99.9999999999999,10|10,3:1|2:3,2:0:0:0:
301,193,112290,6,0,P|349:204|399:204,1,99.9999999999999,8|2,3:1|2:0,2:0:0:0:
494,171,112957,2,0,P|492:218|512:266,2,99.9999999999999,2|2|6,3:2|2:0|3:2,2:0:0:0:
431,92,113957,1,6,3:2:0:0:
334,63,114290,6,0,P|284:86|227:89,1,99.9999999999999,6|10,3:2|2:3,2:0:0:0:
169,162,114957,2,0,P|173:195|171:228,2,66.7166666666665,10|8|10,3:1|2:3|2:1,2:0:0:0:
109,131,115624,2,0,P|48:148|24:187,1,99.9999999999999,10|8,2:1|2:3,2:0:0:0:
5,273,116290,6,0,P|45:301|57:350,1,99.9999999999999,10|2,3:1|2:0,2:0:0:0:
154,326,116957,2,0,L|148:259,2,66.7166666666665,10|8|2,2:3|2:1|2:0,2:0:0:0:
213,356,117624,2,0,P|260:325|310:316,1,99.9999999999999,10|2,3:1|3:2,2:0:0:0:
394,354,118290,6,0,P|425:281|457:259,1,99.9999999999999,6|2,3:2|2:0,2:0:0:0:
416,171,118957,2,0,L|349:176,2,66.7166666666665,10|10|2,2:1|2:3|2:0,2:0:0:0:
472,135,119624,2,0,P|488:78|473:29,1,99.9999999999999,10|10,2:1|2:1,2:0:0:0:
385,2,120290,1,6,3:2:0:0:
172,59,120957,6,0,B|143:65|123:106|154:138|184:141|184:141|253:151|262:223|205:280|142:232,1,330.000010070801,10|6,2:3|2:0,2:0:0:0:
45,164,122290,6,0,P|9:229|3:318,1,160.119995117188,6|2,3:2|2:0,2:0:0:0:
52,376,122957,2,0,P|86:357|125:352,1,80.2399975585935,8|10,2:3|2:1,2:0:0:0:
194,306,123402,1,10,2:3:0:0:
194,306,123624,2,0,P|184:268|185:228,2,80.0599975585935,10|8|10,3:1|2:1|2:3,2:0:0:0:
267,337,124290,5,8,3:1:0:0:
404,254,124735,1,10,2:3:0:0:
404,254,124957,2,0,L|397:174,1,80.2399975585935,10|2,2:3|3:2,2:0:0:0:
446,111,125402,1,10,2:3:0:0:
446,111,125624,2,0,L|439:31,2,80.0599975585935,2|10|10,3:2|2:1|2:3,2:0:0:0:
372,79,126290,6,0,P|312:78|256:98,1,120.359996337891,10|8,3:1|2:3,2:0:0:0:
153,62,126957,2,0,P|120:83|95:115,1,80.2399975585935,10|8,3:1|3:1,2:0:0:0:
88,192,127402,1,0,3:0:0:0:
88,192,127624,2,0,P|107:248|113:315,1,120.359996337891,10|10,2:1|2:3,2:0:0:0:
194,379,128290,6,0,P|246:363|269:300,1,120.359996337891,6|6,3:2|3:2,2:0:0:0:
199,208,128957,1,8,2:1:0:0:
294,135,129290,1,10,2:3:0:0:
414,133,129624,6,0,B|420:206|450:168|455:242,1,120.359996337891,6|10,3:2|2:3,2:0:0:0:
403,350,130290,6,0,P|345:326|276:329,1,120.359996337891,6|2,3:2|2:0,2:0:0:0:
170,301,130957,2,0,P|160:262|166:223,1,80.2399975585935,0|8,3:0|2:3,2:0:0:0:
219,186,131402,1,8,2:1:0:0:
219,186,131624,2,0,P|228:147|222:108,2,80.0599975585935,2|10|10,3:2|2:3|2:3,2:0:0:0:
263,232,132290,5,10,2:1:0:0:
387,242,132624,1,10,2:3:0:0:
387,242,132846,2,0,P|428:212|434:156,1,99.9999969482423,2|0,3:0|0:0,0:0:0:0:
407,114,133290,5,10,2:3:0:0:
305,62,133624,1,2,3:0:0:0:
305,62,133846,2,0,P|258:89|206:86,1,99.9999969482423,10|0,2:3|0:0,0:0:0:0:
170,54,134290,6,0,P|143:101|101:135,1,110.000003356934,6|0,3:2|3:0,2:0:0:0:
50,156,134790,2,0,P|64:208|58:263,1,110.000003356934,2|0,2:0|2:0,2:0:0:0:
96,302,135290,2,0,L|205:292,2,110.000003356934,6|6|4,2:0|2:0|2:0,2:0:0:0:
12,229,136290,6,0,P|70:193|125:194,1,110.000003356934,6|4,2:0|2:0,2:0:0:0:
212,150,136957,1,6,2:0:0:0:
313,192,137290,2,0,P|373:139|328:17,1,220.000006713867,10|6,2:3|2:0,2:0:0:0:
223,1,138290,6,0,P|177:18|127:25,2,99.9999999999999,6|2|10,3:2|2:0|2:1,2:0:0:0:
364,55,139457,2,0,P|421:60|494:123,1,150,10|10,2:0|2:0,2:0:0:0:
510,215,140290,1,6,3:2:0:0:
409,326,140790,6,0,P|433:331|456:340,2,49.9999999999998,6|10|8,3:2|2:1|2:3,2:0:0:0:
359,333,141290,2,0,P|314:315|302:261,1,99.9999999999999,2|10,3:2|2:3,2:0:0:0:
235,192,141957,1,10,2:3:0:0:
138,218,142290,2,0,L|151:367,1,150,6|2,3:2|2:0,2:0:0:0:
