osu file format v14

[General]
AudioFilename: audio.mp3
AudioLeadIn: 0
PreviewTime: 10290
Countdown: 0
SampleSet: Soft
StackLeniency: 0.6
Mode: 0
LetterboxInBreaks: 0
WidescreenStoryboard: 1

[Editor]
DistanceSpacing: 0.9
BeatDivisor: 3
GridSize: 8
TimelineZoom: 2.600001

[Metadata]
Title:SORA-VII Cygnus Wall
TitleUnicode:SORA-VII シグナスウォール
Artist:Hisui
ArtistUnicode:翡翠
Creator:KnightC0re
Version:Hard
Source:太鼓の達人
Tags:Taiko no Tatsujin ブルーVer. Blue Version Namco Original ナムコオリジナル かたぬき Katanuki north america nebula Knightcore rhythm video game instrumental ひすい
BeatmapID:2257859
BeatmapSetID:958121

[Difficulty]
HPDrainRate:4
CircleSize:3
OverallDifficulty:5
ApproachRate:7
SliderMultiplier:1.2
SliderTickRate:1

[Events]
//Background and Video events
0,0,"iOoyXZX.jpg",0,0
//Break Periods
//Storyboard Layer 0 (Background)
//Storyboard Layer 1 (Fail)
//Storyboard Layer 2 (Pass)
//Storyboard Layer 3 (Foreground)
//Storyboard Layer 4 (Overlay)
//Storyboard Sound Samples

[TimingPoints]
291,333.333333333333,3,2,1,50,1,0
2290,-200,3,2,1,30,0,0
5624,-200,3,2,2,30,0,0
6956,-200,3,2,1,30,0,0
7956,-200,3,2,3,30,0,0
8290,-200,3,2,1,50,0,0
8846,-133.333333333333,3,2,3,50,0,0
9290,-133.333333333333,3,2,1,50,0,0
9402,-200,3,2,2,50,0,0
9846,-200,3,2,3,50,0,0
10179,-200,3,2,2,50,0,0
10290,-200,3,2,1,40,0,0
10957,-133.333333333333,3,2,1,40,0,0
17957,-133.333333333333,3,2,2,40,0,0
18179,-133.333333333333,3,2,1,40,0,0
20290,-133.333333333333,3,2,2,40,0,0
20623,-133.333333333333,3,2,1,40,0,0
22845,-133.333333333333,3,2,2,40,0,0
22957,-133.333333333333,3,2,1,40,0,0
23846,-133.333333333333,3,2,3,40,0,0
24290,-100,3,2,1,40,0,0
24456,-100,3,2,1,20,0,0
24624,-100,3,2,1,40,0,0
24874,-100,3,2,1,35,0,0
24957,-100,3,2,1,30,0,0
25040,-100,3,2,1,25,0,0
25123,-100,3,2,1,20,0,0
25207,-100,3,2,1,30,0,0
25290,-111.111111111111,3,2,1,40,0,0
25456,-111.111111111111,3,2,1,25,0,0
25790,-100,3,2,1,25,0,0
25956,-100,3,2,1,30,0,0
26124,-100,3,2,1,35,0,0
26290,-100,3,2,1,40,0,0
27290,-100,3,2,2,40,0,0
28290,-133.333333333333,3,2,2,20,0,0
28624,-133.333333333333,3,2,1,40,0,0
29124,-133.333333333333,3,2,2,40,0,0
29624,-133.333333333333,3,2,2,20,0,0
29957,-133.333333333333,3,2,1,40,0,0
31290,-133.333333333333,3,2,2,40,0,0
32124,-133.333333333333,3,2,2,20,0,0
32957,-133.333333333333,3,2,2,40,0,0
33957,-133.333333333333,3,2,1,40,0,0
34290,-100,3,2,1,40,0,0
37790,-100,3,2,3,40,0,0
37957,-100,3,2,2,40,0,0
38290,-100,3,2,1,40,0,0
40957,-100,3,2,2,40,0,0
41457,-100,3,2,3,40,0,0
42124,-100,3,2,2,40,0,0
42290,-83.3333333333333,3,2,2,40,0,0
42456,-83.3333333333333,3,2,3,40,0,0
42624,-83.3333333333333,3,2,1,40,0,0
46290,-76.9230769230769,3,2,1,60,0,1
47123,-76.9230769230769,3,2,1,30,0,1
47290,-76.9230769230769,3,2,1,60,0,1
49123,-76.9230769230769,3,2,2,60,0,1
49290,-76.9230769230769,3,2,1,60,0,1
49624,-76.9230769230769,3,2,2,60,0,1
49957,-76.9230769230769,3,2,3,60,0,1
50290,-76.9230769230769,3,2,1,60,0,1
51290,-76.9230769230769,3,2,2,60,0,1
51456,-76.9230769230769,3,2,1,60,0,1
52123,-76.9230769230769,3,2,2,60,0,1
52290,-76.9230769230769,3,2,1,60,0,1
52456,-76.9230769230769,3,2,2,60,0,1
52790,-76.9230769230769,3,2,1,60,0,1
52956,-76.9230769230769,3,2,3,60,0,1
53290,-83.3333333333333,3,2,1,60,0,1
54290,-76.9230769230769,3,2,1,60,0,1
57290,-76.9230769230769,3,2,2,60,0,1
57846,-76.9230769230769,3,2,3,60,0,1
57957,-76.9230769230769,3,2,1,60,0,1
59290,-76.9230769230769,3,2,2,60,0,1
59456,-76.9230769230769,3,2,1,60,0,1
59790,-76.9230769230769,3,2,3,60,0,1
60123,-76.9230769230769,3,2,2,60,0,1
60290,-76.9230769230769,3,2,1,60,0,0
61456,-76.9230769230769,3,2,3,60,0,0
61790,-76.9230769230769,3,2,1,60,0,0
61956,-76.9230769230769,3,2,2,60,0,0
62207,-76.9230769230769,3,2,1,60,0,0
62290,-76.9230769230769,3,2,1,60,0,1
63290,-76.9230769230769,3,2,3,60,0,1
63624,-76.9230769230769,3,2,1,60,0,1
65456,-76.9230769230769,3,2,3,60,0,1
65624,-76.9230769230769,3,2,2,60,0,1
66290,-76.9230769230769,3,2,1,60,0,1
67623,-76.9230769230769,3,2,2,60,0,1
67790,-76.9230769230769,3,2,1,60,0,1
67956,-76.9230769230769,3,2,3,60,0,1
68123,-76.9230769230769,3,2,2,60,0,1
68290,-76.9230769230769,3,2,1,60,0,1
71623,-76.9230769230769,3,2,2,60,0,1
71956,-76.9230769230769,3,2,1,60,0,1
73707,-76.9230769230769,3,2,1,70,0,1
73791,-76.9230769230769,3,2,1,80,0,1
73874,-76.9230769230769,3,2,1,90,0,1
73957,-76.9230769230769,3,2,1,100,0,1
74040,-76.9230769230769,3,2,1,90,0,1
74124,-76.9230769230769,3,2,1,80,0,1
74207,-76.9230769230769,3,2,1,70,0,1
74290,-76.9230769230769,3,2,1,60,0,1
75624,-76.9230769230769,3,2,2,60,0,1
75957,-76.9230769230769,3,2,1,60,0,1
77124,-76.9230769230769,3,2,2,60,0,1
77290,-76.9230769230769,3,2,3,60,0,1
77957,-76.9230769230769,3,2,2,60,0,1
78290,-76.9230769230769,3,2,1,60,0,0
80290,-76.9230769230769,3,2,1,40,0,0
82290,-76.9230769230769,3,2,2,40,0,0
82790,-76.9230769230769,3,2,1,40,0,0
86290,-90.9090909090909,3,2,1,40,0,0
88957,-90.9090909090909,3,2,2,40,0,0
89123,-90.9090909090909,3,2,3,40,0,0
89290,-90.9090909090909,3,2,1,40,0,0
89790,-90.9090909090909,3,2,2,40,0,0
90124,-90.9090909090909,3,2,3,40,0,0
90290,-90.9090909090909,3,2,1,50,0,0
90790,-90.9090909090909,3,2,2,50,0,0
91124,-90.9090909090909,3,2,1,50,0,0
91624,-90.9090909090909,3,2,2,50,0,0
91957,-90.9090909090909,3,2,1,50,0,0
95791,-90.9090909090909,3,2,2,50,0,0
95957,-90.9090909090909,3,2,1,50,0,0
97624,-90.9090909090909,3,2,2,50,0,0
97707,-90.9090909090909,3,2,2,15,0,0
97790,-90.9090909090909,3,2,3,50,0,0
97874,-90.9090909090909,3,2,3,25,0,0
97957,-90.9090909090909,3,2,3,30,0,0
98040,-90.9090909090909,3,2,3,35,0,0
98123,-90.9090909090909,3,2,3,40,0,0
98207,-90.9090909090909,3,2,3,45,0,0
98290,-90.9090909090909,3,2,1,50,0,0
98790,-90.9090909090909,3,2,2,50,0,0
99124,-90.9090909090909,3,2,1,50,0,0
101790,-90.9090909090909,3,2,3,50,0,0
101957,-90.9090909090909,3,2,1,50,0,0
103624,-90.9090909090909,3,2,2,50,0,0
103957,-90.9090909090909,3,2,3,50,0,0
104290,-90.9090909090909,3,2,1,50,0,0
106290,-83.3333333333333,3,2,1,70,0,1
107957,-83.3333333333333,3,2,1,55,0,1
108068,-83.3333333333333,3,2,1,60,0,1
108179,-83.3333333333333,3,2,1,65,0,1
108290,-83.3333333333333,3,2,1,70,0,1
109846,-83.3333333333333,3,2,1,50,0,1
109957,-83.3333333333333,3,2,1,55,0,1
110068,-83.3333333333333,3,2,1,60,0,1
110179,-83.3333333333333,3,2,1,65,0,1
110290,-83.3333333333333,3,2,1,70,0,1
113179,-83.3333333333333,3,2,2,70,0,1
113290,-83.3333333333333,3,2,1,70,0,1
113512,-83.3333333333333,3,2,3,70,0,1
113624,-83.3333333333333,3,2,2,70,0,1
113846,-83.3333333333333,3,2,3,70,0,1
113957,-83.3333333333333,3,2,2,70,0,1
114068,-83.3333333333333,3,2,1,70,0,1
114179,-83.3333333333333,3,2,2,70,0,1
114290,-83.3333333333333,3,2,1,70,0,1
115846,-83.3333333333333,3,2,1,50,0,1
115957,-83.3333333333333,3,2,1,55,0,1
116068,-83.3333333333333,3,2,1,60,0,1
116290,-83.3333333333333,3,2,1,70,0,1
121179,-83.3333333333333,3,2,2,70,0,1
121624,-80,3,2,2,70,0,1
121957,-80,3,2,1,70,0,1
122068,-80,3,2,3,70,0,1
122179,-80,3,2,3,70,0,0
122290,-80,3,2,1,70,0,1
122513,-76.9230769230769,3,2,1,70,0,1
124068,-76.9230769230769,3,2,1,60,0,1
124179,-76.9230769230769,3,2,1,65,0,1
124290,-76.9230769230769,3,2,1,70,0,1
125401,-76.9230769230769,3,2,2,70,0,1
125624,-76.9230769230769,3,2,1,70,0,1
126068,-76.9230769230769,3,2,1,60,0,1
126290,-76.9230769230769,3,2,1,70,0,1
129179,-76.9230769230769,3,2,2,70,0,1
129512,-76.9230769230769,3,2,3,70,0,1
129624,-76.9230769230769,3,2,1,70,0,1
129846,-76.9230769230769,3,2,2,70,0,1
129957,-76.9230769230769,3,2,3,70,0,1
130179,-76.9230769230769,3,2,2,70,0,1
130290,-76.9230769230769,3,2,1,70,0,1
131846,-76.9230769230769,3,2,2,70,0,1
132068,-76.9230769230769,3,2,1,70,0,1
135290,-76.9230769230769,3,2,2,70,0,1
136290,-76.9230769230769,3,2,1,70,0,1
136512,-76.9230769230769,3,2,2,70,0,1
136624,-76.9230769230769,3,2,1,70,0,1
136846,-76.9230769230769,3,2,3,70,0,1
136957,-76.9230769230769,3,2,1,70,0,1
137624,-76.9230769230769,3,2,2,70,0,1
138179,-76.9230769230769,3,2,3,70,0,1
138290,-100,3,2,1,50,0,0
139457,-100,3,2,2,50,0,0
140290,-100,3,2,1,50,0,0
141373,-100,3,2,2,50,0,0
141456,-100,3,2,3,50,0,0
141624,-100,3,2,2,50,0,0
141957,-100,3,2,3,50,0,0
142290,-100,3,2,1,50,0,0

[Colours]
Combo1 : 155,0,155
Combo2 : 255,49,49
Combo3 : 255,128,64
Combo4 : 128,0,255

[HitObjects]
512,18,2290,6,0,L|392:7,1,120,4|0,3:2|3:0,2:0:0:0:
308,0,3290,1,8,2:0:0:0:
24,116,4290,5,8,3:1:0:0:
106,103,4624,2,0,P|95:160|48:196,1,120,0|8,3:0|2:0,2:0:0:0:
3,267,5624,2,0,P|10:285|15:304,1,40.12,8|0,2:3|3:0,2:0:0:0:
89,343,6179,1,8,2:3:0:0:
103,357,6290,6,0,B|130:375|176:364|151:351|186:345|219:359,1,120,4|0,3:2|3:0,2:0:0:0:
304,383,7290,2,0,P|342:340|401:338,1,120,8|2,2:0|2:1,2:0:0:0:
487,362,8290,6,0,P|488:332|498:304,1,59.9999999999997,6|8,3:2|2:3,2:0:0:0:
483,237,8846,2,0,L|448:230,2,30.0900011444092,10|8|8,2:3|2:3|2:3,2:0:0:0:
355,189,9290,5,2,2:0:0:0:
363,157,9402,2,0,P|359:137|351:118,1,40.12,4|4,3:2|3:2,2:0:0:0:
374,55,9846,1,10,2:3:0:0:
491,24,10179,1,8,2:3:0:0:
487,40,10290,5,4,3:2:0:0:
355,189,10846,1,2,2:0:0:0:
351,173,10957,2,0,P|381:175|409:186,1,60.1800022888181,2|0,2:0|2:0,2:0:0:0:
433,212,11290,6,0,P|388:288|404:359,1,150.180005722046,8|2,2:3|2:0,2:0:0:0:
314,375,12179,1,2,2:0:0:0:
301,384,12290,2,0,B|113:370|256:300|63:282,1,270.000010299683,8|8,3:1|2:3,2:0:0:0:
11,199,13624,2,0,P|2:170|6:141,1,60.1800022888181,0|0,3:0|3:0,2:0:0:0:
26,118,13957,2,0,P|34:89|30:60,1,60.1800022888181,8|2,2:3|3:2,2:0:0:0:
14,33,14290,6,0,P|104:30|188:-1,1,180.000006866455,8|8,3:1|2:1,2:0:0:0:
270,35,15290,2,0,P|300:119|356:189,1,180.000006866455,10|2,2:3|2:0,2:0:0:0:
439,220,16290,2,0,P|484:171|428:134,1,150.180005722046,8|8,3:1|2:3,2:0:0:0:
338,212,17290,6,0,P|333:241|332:271,2,60.0450022888181,4|4|4,3:2|3:2|3:2,2:0:0:0:
315,170,17957,2,0,P|287:159|257:160,1,60.1800022888181,6|2,3:2|2:0,2:0:0:0:
233,173,18290,6,0,P|156:161|122:96,1,150.180005722046,6|0,3:2|3:0,2:0:0:0:
199,10,19290,2,0,P|267:35|288:105,1,150.180005722046,8|10,2:3|2:3,2:0:0:0:
222,191,20179,5,0,3:0:0:0:
211,201,20290,2,0,B|152:188|183:223|118:211,1,90.0000034332274,10|0,3:1|3:0,2:0:0:0:
78,201,20846,1,8,2:3:0:0:
1,347,21290,6,0,B|60:333|29:368|94:356,1,90.0000034332274,10|8,2:3|2:1,2:0:0:0:
135,347,21846,1,8,2:3:0:0:
311,382,22290,6,0,P|357:345|454:329,1,150.180005722046,8|4,3:1|3:2,2:0:0:0:
473,305,22957,2,0,L|462:245,1,60.1800022888181,2|0,2:0|3:0,2:0:0:0:
465,210,23290,6,0,L|470:180,2,30.0900011444092,8|8|8,2:3|2:3|2:3,2:0:0:0:
428,179,23624,2,0,L|410:154,2,30.0900011444092,0|8|8,3:0|2:3|2:3,2:0:0:0:
380,179,23957,1,0,3:0:0:0:
267,290,24290,6,0,L|207:300,1,59.9999999999997,8|8,3:0|2:3,2:0:0:0:
123,285,24624,2,0,L|63:296,1,59.9999999999997,8|10,2:3|2:3,2:0:0:0:
58,304,24874,1,2,2:0:0:0:
51,311,24957,2,0,L|46:341,2,30,2|2|8,2:0|2:0|2:3,2:0:0:0:
54,211,25290,6,0,L|40:135,2,54.1619983520505,8|0|0,2:3|2:0|2:0,2:0:0:0:
157,188,25790,2,0,L|164:111,1,59.9999999999997,0|0,3:0|3:0,2:0:0:0:
135,47,26124,1,0,3:0:0:0:
256,0,26290,5,6,2:0:0:0:
431,39,27290,1,10,2:1:0:0:
256,120,28290,6,0,L|211:116,1,45.0000017166138,8|0,2:1|2:0,2:0:0:0:
175,89,28624,1,2,2:0:0:0:
350,128,29124,1,10,2:1:0:0:
175,187,29624,6,0,L|130:191,1,45.0000017166138,8|0,2:1|2:0,2:0:0:0:
94,218,29957,2,0,L|97:240,2,22.5000008583069,8|8|8,2:3|2:3|2:3,2:0:0:0:
63,316,30290,5,6,2:0:0:0:
238,277,31290,1,10,2:1:0:0:
473,384,32124,5,8,3:1:0:0:
385,365,32290,1,4,2:0:0:0:
238,277,32624,1,8,2:1:0:0:
380,182,32957,5,6,2:0:0:0:
386,212,33124,1,6,2:0:0:0:
479,244,33457,1,6,2:0:0:0:
486,274,33624,1,6,2:0:0:0:
471,378,33957,1,8,2:3:0:0:
388,314,34290,6,0,P|344:320|302:344,2,89.9999999999997,2|2|10,3:2|2:0|2:3,2:0:0:0:
486,246,35124,2,0,L|488:216,1,30,8|8,2:3|2:3,2:0:0:0:
499,198,35290,6,0,P|424:153|406:65,1,180,2|0,3:2|2:0,2:0:0:0:
471,5,35957,2,0,L|500:7,2,30,10|10|0,2:3|2:3|3:0,2:0:0:0:
297,52,36624,6,0,L|237:62,1,59.9999999999997,2|8,2:0|2:3,2:0:0:0:
91,143,37124,2,0,L|149:132,1,59.9999999999997,10|0,2:3|3:0,2:0:0:0:
158,125,37374,1,0,0:0:0:0:
166,118,37457,2,0,P|156:90|139:66,1,60,2|8,2:0|2:3,2:0:0:0:
21,62,37790,5,8,2:3:0:0:
12,64,37874,1,8,2:3:0:0:
3,66,37957,2,0,L|6:37,2,30,10|2|10,2:3|2:3|2:3,2:0:0:0:
13,175,38290,5,6,3:2:0:0:
0,327,38624,2,0,L|2:356,2,30,0|0|8,3:0|2:0|2:3,2:0:0:0:
75,275,38957,2,0,L|77:245,2,30,2|0|10,2:0|2:0|2:3,2:0:0:0:
154,318,39290,5,2,3:2:0:0:
289,257,39624,2,0,L|334:252,2,30,2|0|2,3:2|2:0|2:0,2:0:0:0:
226,191,39957,1,10,2:3:0:0:
225,183,40040,1,8,2:3:0:0:
224,176,40124,1,2,3:2:0:0:
280,105,40290,6,0,L|309:107,3,30,2|8|2|2,3:2|2:3|2:0|3:2,2:0:0:0:
351,89,40624,2,0,L|380:91,3,30,10|8|2|10,2:3|2:3|3:2|2:3,2:0:0:0:
422,72,40957,6,0,L|411:131,1,59.9999999999997,10|10,2:3|2:3,2:0:0:0:
460,240,41457,2,0,L|450:299,1,59.9999999999997,10|10,2:3|2:3,2:0:0:0:
279,268,42124,5,6,3:2:0:0:
279,268,42290,2,0,L|208:280,1,72.4319978027341,6|8,3:2|2:3,2:0:0:0:
123,335,42624,1,6,3:2:0:0:
123,335,42790,1,6,3:2:0:0:
8,225,43124,5,6,3:2:0:0:
256,192,43207,12,12,45624,2:3:0:0:
0,0,46290,6,0,P|76:10|132:61,1,156.467992858887,6|0,2:0|3:0,2:0:0:0:
206,114,46790,2,0,P|282:103|338:52,1,156.467992858887,10|8,3:1|2:3,2:0:0:0:
412,0,47290,5,10,3:0:0:0:
486,100,47624,1,10,2:1:0:0:
449,219,47957,2,0,L|464:305,1,78.4679964294432,8|8,2:3|2:1,2:0:0:0:
401,361,48290,6,0,B|253:382|333:294|168:316,1,234.467989288331,10|8,2:1|2:0,2:0:0:0:
102,366,48957,2,0,P|101:326|86:291,1,78.4679964294432,10|4,2:1|2:0,2:0:0:0:
0,260,49290,5,6,2:0:0:0:
176,182,49624,2,0,L|252:168,2,78.2339964294432,8|8|8,2:3|2:3|2:3,2:0:0:0:
95,229,50124,1,8,2:3:0:0:
27,165,50290,6,0,L|40:88,1,78.4679964294432,6|2,2:0|3:2,2:0:0:0:
6,8,50624,1,8,2:1:0:0:
154,9,50957,2,0,L|231:2,1,78.4679964294432,8|0,2:3|3:0,2:0:0:0:
339,49,51290,6,0,L|415:62,1,78.4679964294432,10|2,2:1|3:0,2:0:0:0:
496,30,51624,1,8,2:1:0:0:
459,166,51957,2,0,L|465:243,1,78.4679964294432,8|8,2:3|2:0,2:0:0:0:
407,345,52290,6,0,L|330:331,1,78.4679964294432,6|10,3:2|2:3,2:0:0:0:
183,162,52790,2,0,L|260:176,1,78.4679964294432,6|10,3:2|2:3,2:0:0:0:
380,232,53290,6,0,L|309:244,1,72.4319978027341,6|10,3:2|2:3,2:0:0:0:
210,275,53624,1,8,2:3:0:0:
210,275,53707,1,8,2:3:0:0:
210,275,53790,2,0,L|280:262,1,72.4319978027341,6|10,3:2|2:3,2:0:0:0:
338,159,54124,1,10,2:3:0:0:
343,149,54207,1,2,2:0:0:0:
348,138,54290,6,0,P|331:71|245:52,1,156.467992858887,6|0,3:2|3:0,2:0:0:0:
170,66,54790,1,8,2:1:0:0:
96,21,54957,1,10,2:1:0:0:
6,167,55290,6,0,P|22:222|21:326,1,156.467992858887,8|8,2:3|2:3,2:0:0:0:
87,375,55790,1,8,2:3:0:0:
155,322,55957,2,0,P|192:312|230:315,1,78.4679964294432,10|0,2:1|3:0,2:0:0:0:
342,354,56290,6,0,B|314:314|332:269|343:294|362:242|332:199,1,156.467992858887,10|8,2:1|2:1,2:0:0:0:
263,160,56790,2,0,L|276:82,1,78.4679964294432,8|8,2:0|2:1,2:0:0:0:
473,34,57290,6,0,B|401:21|401:21|372:31,1,104.311995239258,10|8,2:1|2:3,2:0:0:0:
361,43,57624,2,0,B|383:62|383:62|408:131,1,104.311995239258,10|8,2:1|2:3,2:0:0:0:
412,147,57957,2,0,L|402:198,2,52.1559976196287,10|8|8,2:3|2:3|2:3,2:0:0:0:
420,225,58290,6,0,L|433:301,1,78.4679964294432,6|2,3:2|3:2,2:0:0:0:
295,375,58790,1,10,2:0:0:0:
295,375,58957,2,0,P|259:359|235:328,1,78.4679964294432,8|0,2:0|3:0,2:0:0:0:
261,239,59290,6,0,L|248:315,1,78.4679964294432,10|2,2:1|3:2,2:0:0:0:
98,362,59790,1,8,2:3:0:0:
98,362,59957,2,0,P|83:325|88:286,1,78.4679964294432,8|8,2:3|2:0,2:0:0:0:
163,208,60290,6,0,L|149:131,1,78.4679964294432,6|8,3:2|2:3,2:0:0:0:
248,67,60624,1,8,2:3:0:0:
248,67,60707,1,8,2:3:0:0:
248,67,60790,2,0,L|261:143,1,78.4679964294432,6|8,3:2|2:3,2:0:0:0:
343,363,61290,6,0,L|356:286,1,78.4679964294432,6|10,3:2|2:3,2:0:0:0:
444,207,61624,1,8,2:3:0:0:
444,207,61790,2,0,L|457:130,1,78.4679964294432,6|10,3:2|2:3,2:0:0:0:
510,29,62124,1,10,2:3:0:0:
510,29,62207,1,2,2:0:0:0:
510,29,62290,6,0,P|431:33|358:1,1,156.467992858887,6|8,3:2|2:1,2:0:0:0:
284,49,62790,2,0,P|205:45|132:77,1,156.467992858887,10|8,3:1|2:1,2:0:0:0:
58,29,63290,5,2,2:1:0:0:
12,145,63624,1,10,2:1:0:0:
94,238,63957,2,0,L|107:314,1,78.4679964294432,8|8,2:1|3:1,2:0:0:0:
197,360,64290,6,0,P|235:362|271:377,1,78.4679964294432,10|8,3:1|2:3,2:0:0:0:
342,327,64624,2,0,L|380:333,2,39.2339982147218,0|8|0,3:0|2:3|3:0,2:0:0:0:
307,248,64957,1,10,2:0:0:0:
461,139,65290,6,0,P|467:100|485:65,1,78.4679964294432,6|8,3:2|2:3,2:0:0:0:
428,0,65624,1,8,2:3:0:0:
354,43,65790,1,4,2:0:0:0:
270,23,65957,2,0,L|193:9,1,78.4679964294432,10|8,2:0|2:0,2:0:0:0:
44,55,66290,6,0,P|82:50|117:32,2,78.2339964294432,6|2|2,3:2|2:0|2:0,2:0:0:0:
0,129,66790,1,14,2:3:0:0:
54,195,66957,1,2,2:0:0:0:
4,359,67290,5,4,3:2:0:0:
4,359,67457,2,0,L|80:345,1,78.4679964294432,10|8,2:3|2:3,2:0:0:0:
154,302,67790,2,0,L|230:315,2,78.2339964294432,6|10|8,3:2|2:3|2:3,2:0:0:0:
139,217,68290,1,6,3:2:0:0:
303,89,68790,5,6,3:2:0:0:
314,90,68874,1,2,2:0:0:0:
324,90,68957,2,0,P|361:100|394:120,1,78.4679964294432,2|8,2:0|2:3,2:0:0:0:
477,144,69290,6,0,L|484:183,3,39.1559982147218,6|0|2|2,3:2|2:0|2:0|2:0,2:0:0:0:
497,197,69624,2,0,P|485:221|482:246,2,51.999997619629,2|2|2,2:0|2:0|2:0,2:0:0:0:
512,285,69957,2,0,P|490:300|474:320,2,51.999997619629,2|2|2,2:0|2:0|2:0,2:0:0:0:
486,362,70290,6,0,P|430:316|348:309,1,156.467992858887,6|8,3:2|2:1,2:0:0:0:
274,356,70790,2,0,L|197:369,2,78.2339964294432,0|8|8,3:0|2:1|2:3,2:0:0:0:
342,303,71290,2,0,P|359:253|320:148,2,156.233992858887,10|10|10,2:1|2:0|2:3,2:0:0:0:
205,378,72290,6,0,P|151:322|76:307,1,156.467992858887,10|8,3:1|2:1,2:0:0:0:
0,346,72790,2,0,P|23:315|28:277,1,78.4679964294432,2|8,3:2|2:1,2:0:0:0:
6,121,73290,1,4,3:2:0:0:
124,16,73624,6,0,L|162:19,3,39.1559982147218,10|2|2|2,2:3|2:0|2:0|2:0,2:0:0:0:
182,23,73957,1,10,2:3:0:0:
201,19,74040,1,2,2:0:0:0:
220,16,74124,1,2,2:0:0:0:
239,12,74207,1,2,2:0:0:0:
257,9,74290,6,0,P|296:14|332:29,1,78.4679964294432,4|0,3:2|2:0,2:0:0:0:
397,86,74624,1,8,2:0:0:0:
481,98,74790,2,0,P|442:103|406:118,1,78.4679964294432,0|8,3:0|2:1,2:0:0:0:
341,175,75124,1,8,2:0:0:0:
341,175,75290,6,0,P|305:160|266:155,1,78.4679964294432,10|0,2:1|2:0,2:0:0:0:
194,202,75624,1,6,2:0:0:0:
234,277,75790,1,4,3:2:0:0:
201,356,75957,2,0,P|162:361|126:376,1,78.4679964294432,10|0,2:1|3:0,2:0:0:0:
44,348,76290,5,6,3:2:0:0:
2,197,76624,1,8,2:3:0:0:
2,197,76790,1,6,3:2:0:0:
95,71,77124,1,8,2:3:0:0:
95,71,77290,5,6,2:3:0:0:
250,58,77624,2,0,L|301:67,2,52.1559976196287,8|8|8,2:3|2:3|2:3,2:0:0:0:
329,47,77957,2,0,L|380:37,2,52.1559976196287,8|8|8,2:3|2:3|2:3,2:0:0:0:
408,58,78290,5,4,3:2:0:0:
408,58,80290,5,8,2:1:0:0:
408,58,82290,5,4,3:2:0:0:
443,166,82790,1,8,2:3:0:0:
300,93,83290,1,8,2:1:0:0:
335,201,83790,1,8,2:3:0:0:
408,58,84290,5,8,3:1:0:0:
443,166,84790,1,8,2:3:0:0:
300,93,85290,1,8,2:1:0:0:
335,201,85790,1,8,2:3:0:0:
370,309,86290,6,0,P|398:292|431:289,2,66.0000020141599,8|2|2,3:1|3:2|2:0,2:0:0:0:
290,349,86790,2,0,P|262:332|229:329,2,66.0000020141599,8|2|2,3:1|3:2|2:0,2:0:0:0:
174,268,87290,6,0,P|202:251|235:248,2,66.0000020141599,8|2|2,3:1|3:2|2:0,2:0:0:0:
95,310,87790,2,0,P|62:306|34:289,2,66.0000020141599,8|2|2,3:1|3:2|2:0,2:0:0:0:
96,222,88290,6,0,L|84:157,1,66.0000020141599,6|8,2:0|2:3,2:0:0:0:
117,84,88624,1,2,3:0:0:0:
192,52,88790,1,10,2:3:0:0:
192,52,88957,2,0,L|224:54,3,33.0000010070801,10|8|8|8,2:3|2:3|2:3|2:3,2:0:0:0:
252,68,89290,6,0,P|280:52|313:48,1,66.0000020141599,6|8,3:2|2:3,2:0:0:0:
388,73,89624,1,10,2:3:0:0:
436,135,89790,2,0,P|417:191|419:212,1,66.0000020141599,10|10,2:3|2:3,2:0:0:0:
449,269,90124,1,8,2:3:0:0:
510,354,90290,6,0,P|450:325|385:320,1,132.00000402832,6|2,3:2|2:0,2:0:0:0:
311,349,90790,1,8,2:0:0:0:
185,306,91124,1,8,2:3:0:0:
185,306,91290,6,0,P|152:309|123:325,1,66.0000020141599,10|0,2:3|2:0,2:0:0:0:
61,375,91624,2,0,P|81:327|83:235,1,132.00000402832,8|8,2:0|2:1,2:0:0:0:
0,114,92290,6,0,P|60:139|125:141,1,132.00000402832,2|2,3:2|2:0,2:0:0:0:
236,67,92957,1,2,2:0:0:0:
348,136,93290,2,0,L|324:267,2,132.00000402832,10|0|8,2:3|2:0|2:1,2:0:0:0:
460,67,94290,6,0,P|428:65|391:49,1,66.0000020141599,2|0,3:2|2:0,2:0:0:0:
336,0,94624,1,2,2:0:0:0:
205,18,94957,2,0,L|151:54,1,66.0000020141599,2|8,2:3|2:3,2:0:0:0:
72,70,95290,6,0,L|60:134,1,66.0000020141599,10|0,2:3|2:0,2:0:0:0:
10,197,95624,2,0,P|20:228|23:261,2,66.0000020141599,8|8|8,2:1|2:0|2:1,2:0:0:0:
136,159,96290,6,0,P|167:165|197:179,1,66.0000020141599,2|0,3:2|2:0,2:0:0:0:
275,161,96624,2,0,P|299:182|318:209,1,66.0000020141599,10|0,2:3|3:0,2:0:0:0:
394,232,96957,2,0,P|404:263|406:295,1,66.0000020141599,10|8,2:3|2:3,2:0:0:0:
461,352,97290,5,10,2:3:0:0:
505,227,97624,2,0,L|502:194,3,33.0000010070801,10|2|10|2,2:3|2:0|2:3|2:0,2:0:0:0:
484,165,97957,2,0,L|481:132,3,33.0000010070801,2|2|2|2,2:0|2:0|2:0|2:0,2:0:0:0:
463,103,98290,6,0,P|408:129|318:122,1,132.00000402832,6|2,3:2|2:0,2:0:0:0:
263,99,98790,1,8,2:0:0:0:
152,26,99124,1,8,2:3:0:0:
152,26,99290,6,0,P|169:70|165:114,1,66.0000020141599,10|0,2:3|2:0,2:0:0:0:
117,148,99624,2,0,P|148:205|157:270,1,132.00000402832,8|8,2:1|2:1,2:0:0:0:
18,348,100290,6,0,P|84:349|141:382,1,132.00000402832,2|2,3:2|2:0,2:0:0:0:
272,371,100957,1,2,2:0:0:0:
365,276,101290,6,0,L|340:138,1,132.00000402832,10|0,2:3|2:0,2:0:0:0:
378,76,101790,1,8,2:3:0:0:
456,89,101957,1,8,2:1:0:0:
510,209,102290,6,0,P|479:258|465:338,1,132.00000402832,2|2,3:2|2:0,2:0:0:0:
341,378,102957,2,0,L|287:342,1,66.0000020141599,2|8,2:3|2:3,2:0:0:0:
208,326,103290,6,0,L|196:262,1,66.0000020141599,10|0,2:3|2:0,2:0:0:0:
232,190,103624,1,8,2:3:0:0:
171,164,103790,1,8,2:3:0:0:
142,119,103957,2,0,L|153:54,1,66.0000020141599,8|8,2:3|2:3,2:0:0:0:
219,10,104290,6,0,P|250:17|277:36,1,66.0000020141599,6|8,3:2|2:3,2:0:0:0:
357,42,104624,2,0,P|374:69|379:102,1,66.0000020141599,10|8,2:3|2:3,2:0:0:0:
431,162,104957,1,10,2:3:0:0:
405,237,105124,1,8,2:3:0:0:
445,326,105290,5,10,2:3:0:0:
445,326,106290,6,0,P|374:335|312:369,1,144.431995605469,6|2,3:2|2:0,2:0:0:0:
181,383,106957,2,0,P|138:361|107:325,1,96.2879970703123,10|8,2:3|2:1,2:0:0:0:
84,241,107402,1,2,2:0:0:0:
150,185,107624,6,0,P|230:192|299:143,1,144.431995605469,10|0,2:1|2:0,2:0:0:0:
302,128,108068,2,0,L|293:80,1,48.143998535156,8|8,2:3|2:3,2:0:0:0:
311,46,108290,6,0,P|391:39|460:88,1,144.431995605469,2|2,3:2|2:0,2:0:0:0:
496,188,108957,2,0,P|467:259|466:300,1,96.2879970703123,10|0,2:3|3:0,2:0:0:0:
492,304,109290,2,0,P|498:326|510:347,1,48.143998535156,10|2,2:3|2:0,2:0:0:0:
430,381,109624,6,0,P|388:360|341:352,1,96.2879970703123,10|8,3:1|2:3,2:0:0:0:
310,329,109957,2,0,L|318:281,2,48.143998535156,8|8|8,2:3|2:3|2:3,2:0:0:0:
272,321,110290,6,0,P|224:329|182:350,2,96.0719970703123,10|2|2,3:1|2:0|2:0,2:0:0:0:
331,257,110957,2,0,P|331:208|318:163,1,96.2879970703123,10|10,3:1|2:3,2:0:0:0:
257,101,111402,1,10,2:3:0:0:
176,132,111624,2,0,P|123:132|44:81,1,144.431995605469,10|10,3:1|2:3,2:0:0:0:
149,5,112290,5,8,3:1:0:0:
250,86,112624,1,2,2:0:0:0:
374,50,112957,6,0,P|421:56|462:79,1,96.2879970703123,2|8,3:2|2:3,2:0:0:0:
483,111,113290,2,0,P|432:149|420:194,1,96.2879970703123,2|8,2:0|2:3,2:0:0:0:
430,210,113624,2,0,P|477:238|489:282,1,96.2879970703123,6|8,3:2|2:3,2:0:0:0:
484,313,113957,2,0,L|512:361,2,48.143998535156,6|10|10,3:2|2:3|2:3,2:0:0:0:
445,308,114290,6,0,P|374:314|293:369,1,144.431995605469,6|10,3:2|2:3,2:0:0:0:
183,329,114957,2,0,P|168:283|173:234,1,96.2879970703123,10|8,3:1|2:3,2:0:0:0:
214,159,115402,1,10,2:1:0:0:
287,115,115624,6,0,P|240:112|196:93,1,96.2879970703123,10|8,2:1|2:3,2:0:0:0:
186,55,115957,2,0,P|168:41|153:22,1,48.143998535156,8|8,2:3|2:3,2:0:0:0:
59,44,116290,6,0,P|85:95|81:193,1,144.431995605469,10|2,3:1|2:0,2:0:0:0:
19,292,116957,2,0,P|61:313|93:349,1,96.2879970703123,10|8,2:3|2:1,2:0:0:0:
129,359,117290,2,0,P|156:351|175:333,1,48.143998535156,10|2,2:3|2:0,2:0:0:0:
203,257,117624,6,0,P|243:232|290:227,1,96.2879970703123,10|0,3:1|3:0,2:0:0:0:
324,208,117957,2,0,P|347:212|369:221,1,48.143998535156,2|8,3:2|2:3,2:0:0:0:
449,275,118290,6,0,P|461:197|419:140,1,144.431995605469,6|2,3:2|2:0,2:0:0:0:
305,98,118957,2,0,P|352:91|394:69,2,96.0719970703123,10|10|2,2:1|2:3|2:0,2:0:0:0:
224,66,119624,2,0,P|149:63|90:108,1,144.431995605469,10|10,2:1|2:1,2:0:0:0:
88,139,120068,2,0,L|96:186,1,48.143998535156,8|8,2:3|2:3,2:0:0:0:
83,222,120290,5,6,3:2:0:0:
158,265,120513,2,0,P|205:269|246:295,1,96.2879970703123,8|8,2:3|2:3,2:0:0:0:
304,358,120957,6,0,P|344:332|391:328,1,96.2879970703123,10|10,2:3|2:3,2:0:0:0:
432,315,121290,2,0,P|452:303|468:285,2,48.143998535156,2|4|2,3:2|2:0|3:2,2:0:0:0:
387,295,121624,2,0,P|374:251|385:190,1,100.3,6|10,2:0|2:3,2:0:0:0:
370,149,121957,2,0,P|383:127|401:111,2,50.1499999999998,6|10|10,2:0|2:3|2:3,2:0:0:0:
324,157,122290,5,6,3:2:0:0:
238,196,122513,2,0,P|186:192|142:166,1,104.311995239258,2|2,2:0|2:0,2:0:0:0:
49,180,122957,2,0,P|15:140|2:90,1,104.311995239258,8|10,2:3|2:1,2:0:0:0:
29,1,123402,1,10,2:3:0:0:
115,35,123624,2,0,P|164:49|216:46,1,104.311995239258,10|8,3:1|2:1,2:0:0:0:
298,2,124068,2,0,L|307:53,1,52.1559976196287,10|8,2:3|2:3,2:0:0:0:
340,86,124290,6,0,P|314:137|308:190,1,104.311995239258,8|10,3:1|2:1,2:0:0:0:
350,266,124735,1,10,2:3:0:0:
438,297,124957,2,0,P|386:304|341:329,1,104.311995239258,10|2,2:3|3:2,2:0:0:0:
295,334,125290,2,0,P|275:350|260:372,1,52.1559976196287,8|10,2:3|2:3,2:0:0:0:
175,331,125624,2,0,P|185:280|181:228,2,104.077995239258,2|10|10,3:2|2:1|2:3,2:0:0:0:
81,340,126290,6,0,P|51:268|52:190,1,156.467992858887,10|8,3:1|2:3,2:0:0:0:
182,107,126957,2,0,P|177:55|155:8,2,103.999995239258,10|10|2,3:1|3:1|3:2,2:0:0:0:
274,145,127624,6,0,P|322:127|374:125,1,104.311995239258,10|8,2:1|2:3,2:0:0:0:
412,142,127957,1,10,2:3:0:0:
481,222,128179,1,8,2:3:0:0:
490,257,128290,6,0,P|442:240|390:239,1,104.311995239258,6|2,3:2|2:0,2:0:0:0:
344,228,128624,2,0,P|320:238|299:253,1,52.1559976196287,6|2,3:2|2:0,2:0:0:0:
256,336,128957,5,8,2:1:0:0:
165,312,129179,1,10,2:3:0:0:
165,312,129290,2,0,P|113:313|71:342,1,104.311995239258,10|8,2:3|2:3,2:0:0:0:
28,361,129624,6,0,P|46:313|44:261,1,104.311995239258,6|10,3:2|2:3,2:0:0:0:
68,221,129957,2,0,P|62:195|50:172,2,52.1559976196287,10|10|10,2:3|2:3|2:3,2:0:0:0:
114,224,130290,6,0,P|187:201|236:142,1,156.467992858887,6|2,3:2|2:0,2:0:0:0:
183,29,130957,2,0,P|231:47|294:46,1,104.311995239258,0|8,3:0|2:3,2:0:0:0:
371,16,131402,1,8,2:1:0:0:
439,77,131624,2,0,P|419:124|413:175,1,104.311995239258,2|10,3:2|2:3,2:0:0:0:
448,262,132068,1,10,2:3:0:0:
373,318,132290,6,0,B|275:297|325:353|221:334,1,156.467992858887,10|10,2:1|2:3,2:0:0:0:
131,354,132846,2,0,P|147:305|127:202,1,156.467992858887,2|8,3:0|2:1,2:0:0:0:
89,179,133290,6,0,B|187:200|137:144|241:163,1,156.467992858887,10|2,2:3|3:0,2:0:0:0:
325,126,133846,1,10,2:3:0:0:
325,126,133957,2,0,L|315:74,2,52.1559976196287,8|8|8,2:3|2:3|2:3,2:0:0:0:
362,142,134290,6,0,P|438:155|497:204,1,156.467992858887,6|0,3:2|3:0,2:0:0:0:
507,282,134790,2,0,P|457:341|385:367,1,156.467992858887,2|0,2:0|2:0,2:0:0:0:
313,337,135290,5,6,2:0:0:0:
173,321,135624,1,6,2:0:0:0:
33,305,135957,1,4,2:0:0:0:
117,192,136290,6,0,P|166:178|217:186,1,104.311995239258,6|8,2:0|2:3,2:0:0:0:
257,211,136624,2,0,P|306:225|357:217,1,104.311995239258,4|8,2:0|2:3,2:0:0:0:
389,183,136957,2,0,P|374:133|382:82,1,104.311995239258,6|8,2:0|2:3,2:0:0:0:
423,50,137290,6,0,L|474:59,2,52.1559976196287,10|8|8,2:3|2:3|2:3,2:0:0:0:
394,5,137624,1,12,2:3:0:0:
266,95,137957,2,0,P|215:95|169:71,1,104.311995239258,6|8,2:0|2:3,2:0:0:0:
143,39,138290,6,0,L|132:98,1,59.9999999999997,6|0,3:2|2:0,2:0:0:0:
76,162,138624,2,0,L|87:221,1,59.9999999999997,2|2,2:0|2:0,2:0:0:0:
143,283,138957,1,10,2:1:0:0:
324,317,139457,5,10,2:0:0:0:
324,317,139790,2,0,L|314:376,2,59.9999999999997,2|10|2,2:0|2:0|2:0,2:0:0:0:
398,277,140290,1,6,3:2:0:0:
299,141,140790,5,6,3:2:0:0:
299,141,140874,1,2,2:0:0:0:
299,141,140957,2,0,L|363:152,1,59.9999999999997,10|8,2:1|2:3,2:0:0:0:
431,193,141290,2,0,L|460:187,3,30,2|8|10|10,3:2|2:3|2:3|2:3,2:0:0:0:
486,194,141624,6,0,P|496:208|505:227,2,40,10|10|10,2:3|2:3|2:3,2:0:0:0:
482,274,141957,2,0,P|471:288|462:307,2,40,10|10|10,2:3|2:3|2:3,2:0:0:0:
475,356,142290,1,6,3:2:0:0:
334,384,142790,5,2,2:0:0:0:
