osu file format v14

[General]
AudioFilename: nothing
AudioLeadIn: 0
PreviewTime: 0
Countdown: 0
SampleSet: None
StackLeniency: 0.4
Mode: 3
LetterboxInBreaks: 0
SpecialStyle: 0
WidescreenStoryboard: 1

[Editor]
DistanceSpacing: 1.2
BeatDivisor: 4
GridSize: 4
TimelineZoom: 1.6

[Metadata]
Title:Summer
TitleUnicode:Summer
Artist:Hisaishi Joe
ArtistUnicode:久石譲
Creator:MidSoul
Version:7key short
Source:
Tags:
BeatmapID:1749146
BeatmapSetID:834796

[Difficulty]
HPDrainRate:8.8
CircleSize:7
OverallDifficulty:8.4
ApproachRate:7
SliderMultiplier:0.4
SliderTickRate:1

[Events]
//Background and Video events
0,0,"BG.jpg",0,0
//Break Periods
//Storyboard Layer 0 (Background)
//Storyboard Layer 1 (Fail)
//Storyboard Layer 2 (Pass)
//Storyboard Layer 3 (Foreground)
//Storyboard Sound Samples

[TimingPoints]
0,714.285714285714,4,2,0,70,1,0
36428,-100,4,2,0,70,0,1
59285,-100,4,2,0,70,0,0
70714,-100,4,2,0,70,0,1
90714,-100,4,2,0,70,0,0
157857,238.095238095238,6,2,0,70,1,1
157857,-294.117647058824,6,2,0,70,0,1
213571,714.285714285714,4,2,0,70,1,0

[HitObjects]
256,192,625,5,0,0:0:0:127:b_FL Keys_v89l64-7o5a.ogg
329,192,669,1,0,0:0:0:127:b_FL Keys_v89l8o6d.ogg
402,192,684,1,0,0:0:0:127:b_FL Keys_v89l64-9o6e.ogg
36,192,714,1,0,0:0:0:127:b_FL Keys_v95l2o3b.ogg
182,192,714,1,0,0:0:0:127:b_FL Keys_v95l2o4fp.ogg
475,192,714,1,0,0:0:0:127:b_FL Keys_v95l8o6a.ogg
256,192,1071,1,0,0:0:0:127:b_FL Keys_v90l8o5a.ogg
475,192,1428,1,0,0:0:0:127:b_FL Keys_v80l8o6a.ogg
256,192,1785,1,0,0:0:0:127:b_FL Keys_v80l8o5a.ogg
36,192,2142,1,0,0:0:0:127:b_FL Keys_v94l2o3g.ogg
182,192,2142,1,0,0:0:0:127:b_FL Keys_v94l2o4d.ogg
475,192,2142,1,0,0:0:0:127:b_FL Keys_v94l8o6a.ogg
256,192,2500,1,0,0:0:0:127:b_FL Keys_v80l8o5a.ogg
475,192,2857,1,0,0:0:0:127:b_FL Keys_v85l8o6a.ogg
256,192,3214,1,0,0:0:0:127:b_FL Keys_v80l8o5a.ogg
109,192,3571,1,0,0:0:0:127:b_FL Keys_v92l2o3a.ogg
329,192,3571,1,0,0:0:0:127:b_FL Keys_v92l2o4e.ogg
475,192,3571,1,0,0:0:0:127:b_FL Keys_v92l8o6a.ogg
256,192,3928,1,0,0:0:0:127:b_FL Keys_v80l8o5a.ogg
475,192,4285,1,0,0:0:0:127:b_FL Keys_v88l8o6a.ogg
256,192,4642,1,0,0:0:0:127:b_FL Keys_v80l8o5a.ogg
36,192,5000,1,0,0:0:0:127:b_FL Keys_v93l2o3d.ogg
109,192,5000,1,0,0:0:0:127:b_FL Keys_v93l8-3o3a.ogg
475,192,5000,1,0,0:0:0:127:b_FL Keys_v93l8o6a.ogg
256,192,5357,1,0,0:0:0:127:b_FL Keys_v80l8o5a.ogg
182,192,5714,1,0,0:0:0:127:b_FL Keys_v86l4o4d.ogg
256,192,5714,1,0,0:0:0:127:b_FL Keys_v80l16o5a.ogg
329,192,5892,1,0,0:0:0:127:b_FL Keys_v80l16o6d.ogg
36,192,6071,1,0,0:0:0:127:b_FL Keys_v86l8o3a.ogg
402,192,6071,1,0,0:0:0:127:b_FL Keys_v80l16o6e.ogg
475,192,6250,1,0,0:0:0:127:b_FL Keys_v80l16o6fp.ogg
109,192,6428,1,0,0:0:0:127:b_FL Keys_v86l8o3b.ogg
402,192,6428,1,0,0:0:0:127:b_FL Keys_v86l8o6e.ogg
182,192,6785,1,0,0:0:0:127:b_FL Keys_v86l8o4fp.ogg
329,192,6785,1,0,0:0:0:127:b_FL Keys_v86l32o6d.ogg
329,192,6964,128,0,7857:0:0:0:127:b_FL Keys_v86l2o6d.ogg
256,192,7142,1,0,0:0:0:127:b_FL Keys_v86l8o4b.ogg
182,192,7500,1,0,0:0:0:127:b_FL Keys_v86l8o4fp.ogg
36,192,7857,1,0,0:0:0:127:b_FL Keys_v86l8o3g.ogg
109,192,8214,1,0,0:0:0:127:b_FL Keys_v86l8o4d.ogg
182,192,8571,1,0,0:0:0:127:b_FL Keys_v86l8o4g.ogg
256,192,8571,1,0,0:0:0:127:b_FL Keys_v80l16o5a.ogg
329,192,8750,1,0,0:0:0:127:b_FL Keys_v80l16o6d.ogg
109,192,8928,1,0,0:0:0:127:b_FL Keys_v86l8o4d.ogg
402,192,8928,1,0,0:0:0:127:b_FL Keys_v80l16o6e.ogg
475,192,9107,1,0,0:0:0:127:b_FL Keys_v80l16o6fp.ogg
36,192,9285,1,0,0:0:0:127:b_FL Keys_v86l8o3a.ogg
402,192,9285,1,0,0:0:0:127:b_FL Keys_v80l8o6e.ogg
182,192,9642,1,0,0:0:0:127:b_FL Keys_v86l8o4e.ogg
329,192,9642,1,0,0:0:0:127:b_FL Keys_v80l16o6d.ogg
402,192,9821,1,0,0:0:0:127:b_FL Keys_v80l16o6e.ogg
256,192,10000,1,0,0:0:0:127:b_FL Keys_v86l8o4a.ogg
475,192,10178,1,0,0:0:0:127:b_FL Keys_v80l16o6fp.ogg
182,192,10357,1,0,0:0:0:127:b_FL Keys_v86l8o4e.ogg
475,192,10535,128,0,11071:0:0:0:127:b_FL Keys_v80l4o6fp.ogg
36,192,10714,1,0,0:0:0:127:b_FL Keys_v86l8o4d.ogg
109,192,11071,1,0,0:0:0:127:b_FL Keys_v86l8o4a.ogg
182,192,11428,1,0,0:0:0:127:b_FL Keys_v86l8o5d.ogg
256,192,11428,1,0,0:0:0:127:b_FL Keys_v86l16o5a.ogg
329,192,11607,1,0,0:0:0:127:b_FL Keys_v86l16o6d.ogg
109,192,11785,1,0,0:0:0:127:b_FL Keys_v86l8o4a.ogg
402,192,11785,1,0,0:0:0:127:b_FL Keys_v86l16o6e.ogg
475,192,11964,1,0,0:0:0:127:b_FL Keys_v86l16o6fp.ogg
36,192,12142,1,0,0:0:0:127:b_FL Keys_v86l8o3b.ogg
402,192,12142,1,0,0:0:0:127:b_FL Keys_v86l8o6e.ogg
182,192,12500,1,0,0:0:0:127:b_FL Keys_v86l8o4fp.ogg
329,192,12500,1,0,0:0:0:127:b_FL Keys_v86l32o6d.ogg
329,192,12678,128,0,13571:0:0:0:127:b_FL Keys_v86l16-7o6d.ogg
256,192,12857,1,0,0:0:0:127:b_FL Keys_v86l8o4b.ogg
182,192,13214,1,0,0:0:0:127:b_FL Keys_v86l8o4fp.ogg
36,192,13571,1,0,0:0:0:127:b_FL Keys_v86l8o3g.ogg
109,192,13928,1,0,0:0:0:127:b_FL Keys_v86l8o4d.ogg
182,192,14285,1,0,0:0:0:127:b_FL Keys_v86l8o4g.ogg
256,192,14285,1,0,0:0:0:127:b_FL Keys_v86l16o5a.ogg
329,192,14464,1,0,0:0:0:127:b_FL Keys_v86l16o6d.ogg
109,192,14642,1,0,0:0:0:127:b_FL Keys_v86l8o4d.ogg
402,192,14642,1,0,0:0:0:127:b_FL Keys_v86l16o6e.ogg
475,192,14821,1,0,0:0:0:127:b_FL Keys_v86l16o6fp.ogg
36,192,15000,1,0,0:0:0:127:b_FL Keys_v86l8o3a.ogg
402,192,15000,1,0,0:0:0:127:b_FL Keys_v86l32-3o6e.ogg
329,192,15357,1,0,0:0:0:127:b_FL Keys_v86l16o6d.ogg
109,192,15357,1,0,0:0:0:127:b_FL Keys_v86l8o4e.ogg
402,192,15535,1,0,0:0:0:127:b_FL Keys_v86l16o6e.ogg
182,192,15714,1,0,0:0:0:127:b_FL Keys_v86l8o4a.ogg
475,192,15892,1,0,0:0:0:127:b_FL Keys_v86l32-3o6a.ogg
109,192,16071,1,0,0:0:0:127:b_FL Keys_v86l8o4e.ogg
402,192,16250,1,0,0:0:0:127:b_FL Keys_v86l32-3o6fp.ogg
36,192,16428,1,0,0:0:0:127:b_FL Keys_v86l8o4d.ogg
109,192,16785,1,0,0:0:0:127:b_FL Keys_v86l8o4a.ogg
36,192,17142,1,0,0:0:0:127:b_FL Keys_v90l8o5d.ogg
182,192,17142,1,0,0:0:0:127:b_FL Keys_v90l16o5fp.ogg
329,192,17142,1,0,0:0:0:127:b_FL Keys_v90l16o6fp.ogg
36,192,17500,1,0,0:0:0:127:b_FL Keys_v92l8o4a.ogg
256,192,17500,1,0,0:0:0:127:b_FL Keys_v92l16o5g.ogg
402,192,17500,1,0,0:0:0:127:b_FL Keys_v92l16o6g.ogg
475,192,17857,1,0,0:0:0:127:b_FL Keys_v95l16o6a.ogg
402,192,17857,1,0,0:0:0:127:b_FL Keys_v95l16o6e.ogg
329,192,17857,1,0,0:0:0:127:b_FL Keys_v95l16o6cp.ogg
182,192,17857,1,0,0:0:0:127:b_FL Keys_v95l16o5a.ogg
36,192,17857,1,0,0:0:0:127:b_FL Keys_v95l8o3a.ogg
36,192,18214,1,0,0:0:0:127:b_FL Keys_v91l8o4e.ogg
182,192,18214,1,0,0:0:0:127:b_FL Keys_v91l32o5a.ogg
329,192,18214,1,0,0:0:0:127:b_FL Keys_v91l32o6cp.ogg
402,192,18214,1,0,0:0:0:127:b_FL Keys_v91l32o6e.ogg
475,192,18214,1,0,0:0:0:127:b_FL Keys_v91l32o6a.ogg
109,192,18392,1,0,0:0:0:127:b_FL Keys_v90l8o5a.ogg
329,192,18392,1,0,0:0:0:127:b_FL Keys_v90l8o6cp.ogg
402,192,18392,1,0,0:0:0:127:b_FL Keys_v90l8o6e.ogg
475,192,18392,1,0,0:0:0:127:b_FL Keys_v90l8o6a.ogg
182,192,18571,1,0,0:0:0:127:b_FL Keys_v86l8o4a.ogg
36,192,18928,1,0,0:0:0:127:b_FL Keys_v86l8o4e.ogg
256,192,18928,1,0,0:0:0:127:b_FL Keys_v86l16o5a.ogg
329,192,18928,1,0,0:0:0:127:b_FL Keys_v86l16o6cp.ogg
402,192,18928,1,0,0:0:0:127:b_FL Keys_v86l16o6e.ogg
475,192,18928,1,0,0:0:0:127:b_FL Keys_v86l16o6a.ogg
109,192,19285,1,0,0:0:0:127:b_FL Keys_v86l8o3g.ogg
182,192,19285,1,0,0:0:0:127:b_FL Keys_v86l16o5b.ogg
402,192,19285,1,0,0:0:0:127:b_FL Keys_v86l16o6d.ogg
475,192,19285,1,0,0:0:0:127:b_FL Keys_v86l16o6a.ogg
36,192,19642,1,0,0:0:0:127:b_FL Keys_v86l8o4d.ogg
329,192,19642,1,0,0:0:0:127:b_FL Keys_v86l16o6fp.ogg
256,192,19821,1,0,0:0:0:127:b_FL Keys_v86l16o6d.ogg
182,192,20000,1,0,0:0:0:127:b_FL Keys_v86l8o4g.ogg
329,192,20357,1,0,0:0:0:127:b_FL Keys_v91l16o6fp.ogg
109,192,20357,1,0,0:0:0:127:b_FL Keys_v91l8o4d.ogg
402,192,20535,1,0,0:0:0:127:b_FL Keys_v94l16o6g.ogg
36,192,20714,1,0,0:0:0:127:b_FL Keys_v96l8o3fp.ogg
256,192,20714,1,0,0:0:0:127:b_FL Keys_v96l16o5a.ogg
329,192,20714,1,0,0:0:0:127:b_FL Keys_v96l16o6cp.ogg
475,192,20714,1,0,0:0:0:127:b_FL Keys_v96l16o6a.ogg
109,192,21071,1,0,0:0:0:127:b_FL Keys_v93l8o4cp.ogg
256,192,21071,1,0,0:0:0:127:b_FL Keys_v93l32o5a.ogg
329,192,21071,1,0,0:0:0:127:b_FL Keys_v93l32o6cp.ogg
475,192,21071,1,0,0:0:0:127:b_FL Keys_v93l32o6a.ogg
256,192,21250,1,0,0:0:0:127:b_FL Keys_v91l8o5a.ogg
329,192,21250,1,0,0:0:0:127:b_FL Keys_v91l8o6cp.ogg
475,192,21250,1,0,0:0:0:127:b_FL Keys_v91l8o6a.ogg
182,192,21428,1,0,0:0:0:127:b_FL Keys_v86l8o4fp.ogg
109,192,21785,1,0,0:0:0:127:b_FL Keys_v86l8o4cp.ogg
256,192,21785,1,0,0:0:0:127:b_FL Keys_v86l16o5a.ogg
329,192,21785,1,0,0:0:0:127:b_FL Keys_v86l16o6cp.ogg
475,192,21785,1,0,0:0:0:127:b_FL Keys_v86l16o6a.ogg
36,192,22142,1,0,0:0:0:127:b_FL Keys_v86l8o3b.ogg
256,192,22142,1,0,0:0:0:127:b_FL Keys_v86l16o5a.ogg
329,192,22142,1,0,0:0:0:127:b_FL Keys_v86l16o6cp.ogg
475,192,22142,1,0,0:0:0:127:b_FL Keys_v86l16o6a.ogg
109,192,22500,1,0,0:0:0:127:b_FL Keys_v86l8o4fp.ogg
402,192,22500,1,0,0:0:0:127:b_FL Keys_v86l16o6fp.ogg
329,192,22678,1,0,0:0:0:127:b_FL Keys_v86l16o6d.ogg
182,192,22857,1,0,0:0:0:127:b_FL Keys_v86l8o4b.ogg
109,192,23214,1,0,0:0:0:127:b_FL Keys_v86l8o4fp.ogg
256,192,23214,1,0,0:0:0:127:b_FL Keys_v86l16o6d.ogg
329,192,23392,1,0,0:0:0:127:b_FL Keys_v86l16o6e.ogg
36,192,23571,1,0,0:0:0:127:b_FL Keys_v90l8o3e.ogg
182,192,23571,1,0,0:0:0:127:b_FL Keys_v90l16o5gp.ogg
256,192,23571,1,0,0:0:0:127:b_FL Keys_v90l16o6d.ogg
402,192,23571,1,0,0:0:0:127:b_FL Keys_v90l16o6fp.ogg
36,192,23928,1,0,0:0:0:127:b_FL Keys_v92l8o3b.ogg
182,192,23928,1,0,0:0:0:127:b_FL Keys_v92l32o5gp.ogg
256,192,23928,1,0,0:0:0:127:b_FL Keys_v92l32o6d.ogg
402,192,23928,1,0,0:0:0:127:b_FL Keys_v92l32o6fp.ogg
402,192,24107,1,0,0:0:0:127:b_FL Keys_v92l8o6fp.ogg
256,192,24107,1,0,0:0:0:127:b_FL Keys_v92l8o6d.ogg
109,192,24107,1,0,0:0:0:127:b_FL Keys_v92l8o5gp.ogg
182,192,24285,1,0,0:0:0:127:b_FL Keys_v86l8o4e.ogg
36,192,24642,1,0,0:0:0:127:b_FL Keys_v86l8o3b.ogg
109,192,24642,1,0,0:0:0:127:b_FL Keys_v86l16o5gp.ogg
256,192,24642,1,0,0:0:0:127:b_FL Keys_v86l16o6d.ogg
402,192,24642,1,0,0:0:0:127:b_FL Keys_v86l16o6fp.ogg
36,192,25000,1,0,0:0:0:127:b_FL Keys_v86l8o3g.ogg
329,192,25000,1,0,0:0:0:127:b_FL Keys_v86l16o5b.ogg
402,192,25000,1,0,0:0:0:127:b_FL Keys_v86l16o6fp.ogg
475,192,25357,1,0,0:0:0:127:b_FL Keys_v86l16o6b.ogg
256,192,25357,1,0,0:0:0:127:b_FL Keys_v86l16o6fp.ogg
109,192,25357,1,0,0:0:0:127:b_FL Keys_v86l8o4d.ogg
182,192,25714,1,0,0:0:0:127:b_FL Keys_v86l8o4g.ogg
329,192,25714,1,0,0:0:0:127:b_FL Keys_v86l24o6e.ogg
475,192,25714,1,0,0:0:0:127:b_FL Keys_v86l16o6b.ogg
402,192,25833,1,0,0:0:0:127:b_FL Keys_v86l24o6fp.ogg
329,192,25952,1,0,0:0:0:127:b_FL Keys_v86l24o6e.ogg
109,192,26071,1,0,0:0:0:127:b_FL Keys_v86l8o4d.ogg
256,192,26071,1,0,0:0:0:127:b_FL Keys_v86l32-3o6d.ogg
36,192,26428,1,0,0:0:0:127:b_FL Keys_v86l8o3a.ogg
329,192,26428,1,0,0:0:0:127:b_FL Keys_v86l32-3o6e.ogg
109,192,26785,1,0,0:0:0:127:b_FL Keys_v86l8o4e.ogg
182,192,27142,1,0,0:0:0:127:b_FL Keys_v86l8o4a.ogg
256,192,27142,1,0,0:0:0:127:b_FL Keys_v86l8o5g.ogg
402,192,27142,1,0,0:0:0:127:b_FL Keys_v86l8o5b.ogg
475,192,27142,1,0,0:0:0:127:b_FL Keys_v86l8o6e.ogg
109,192,27500,1,0,0:0:0:127:b_FL Keys_v86l8o4e.ogg
256,192,27678,1,0,0:0:0:127:b_FL Keys_v86l32o5g.ogg
402,192,27678,1,0,0:0:0:127:b_FL Keys_v86l32o5b.ogg
475,192,27678,1,0,0:0:0:127:b_FL Keys_v86l32o6e.ogg
475,192,27857,1,0,0:0:0:127:b_FL Keys_v86l16o6e.ogg
402,192,27857,1,0,0:0:0:127:b_FL Keys_v86l16o5b.ogg
256,192,27857,1,0,0:0:0:127:b_FL Keys_v86l16o5g.ogg
36,192,27857,1,0,0:0:0:127:b_FL Keys_v86l8o3a.ogg
109,192,28214,1,0,0:0:0:127:b_FL Keys_v86l8o4e.ogg
256,192,28214,1,0,0:0:0:127:b_FL Keys_v86l16-3o5a.ogg
329,192,28214,1,0,0:0:0:127:b_FL Keys_v86l8o6cp.ogg
475,192,28214,1,0,0:0:0:127:b_FL Keys_v86l8o6e.ogg
182,192,28571,1,0,0:0:0:127:b_FL Keys_v86l8o4a.ogg
109,192,28928,1,0,0:0:0:127:b_FL Keys_v86l8o4e.ogg
36,192,29285,1,0,0:0:0:127:b_FL Keys_v86l2o3b.ogg
182,192,29285,1,0,0:0:0:127:b_FL Keys_v86l16-15o5e.ogg
329,192,29285,1,0,0:0:0:127:b_FL Keys_v86l16-15o5a.ogg
475,192,29285,1,0,0:0:0:127:b_FL Keys_v86l16-15o6d.ogg
109,192,30714,1,0,0:0:0:127:b_FL Keys_v80l2o3a.ogg
36,192,32142,1,0,0:0:0:127:b_FL Keys_v77l2o3g.ogg
182,192,32142,1,0,0:0:0:127:b_FL Keys_v77l16-15o5cp.ogg
256,192,32142,1,0,0:0:0:127:b_FL Keys_v77l16-15o5fp.ogg
475,192,32142,1,0,0:0:0:127:b_FL Keys_v77l16-15o5b.ogg
329,192,33571,1,0,0:0:0:127:b_FL Keys_v82l2o3a.ogg
109,192,34285,1,0,0:0:0:127:b_FL Keys_v86l24o6cp.ogg
182,192,34404,1,0,0:0:0:127:b_FL Keys_v86l24o6e.ogg
256,192,34523,1,0,0:0:0:127:b_FL Keys_v86l24o6fp.ogg
329,192,34642,1,0,0:0:0:127:b_FL Keys_v86l24o6a.ogg
402,192,34761,1,0,0:0:0:127:b_FL Keys_v86l24o6b.ogg
475,192,34880,1,0,0:0:0:127:b_FL Keys_v86l24o7cp.ogg
36,192,35000,1,0,0:0:0:127:b_FL Keys_v86l6o3fp.ogg
109,192,35000,1,0,0:0:0:127:b_FL Keys_v86l12o5cp.ogg
182,192,35000,1,0,0:0:0:127:b_FL Keys_v86l12o5fp.ogg
256,192,35000,1,0,0:0:0:127:b_FL Keys_v86l12o5b.ogg
402,192,35000,1,0,0:0:0:127:b_FL Keys_v86l12o6b.ogg
109,192,35714,1,0,0:0:0:127:b_FL Keys_v90l6o3fp.ogg
256,192,35714,1,0,0:0:0:127:b_FL Keys_v90l32o5e.ogg
475,192,35714,1,0,0:0:0:127:b_FL Keys_v90l32o5a.ogg
182,192,35892,1,0,0:0:0:127:b_FL Keys_v93l32o5a.ogg
329,192,35892,1,0,0:0:0:127:b_FL Keys_v93l32o6d.ogg
256,192,36071,1,0,0:0:0:127:b_FL Keys_v95l32o5b.ogg
402,192,36071,1,0,0:0:0:127:b_FL Keys_v95l32o6e.ogg
329,192,36250,1,0,0:0:0:127:b_FL Keys_v97l32o6cp.ogg
475,192,36250,1,0,0:0:0:127:b_FL Keys_v97l32o6fp.ogg
36,192,36428,1,0,0:0:0:127:b_FL Keys_v91l8o3b.ogg
256,192,36428,1,0,0:0:0:127:b_FL Keys_v91l16o5b.ogg
402,192,36428,1,0,0:0:0:127:b_FL Keys_v91l16o6e.ogg
109,192,36785,1,0,0:0:0:127:b_FL Keys_v82l8o4fp.ogg
182,192,36785,1,0,0:0:0:127:b_FL Keys_v86l32o5a.ogg
329,192,36785,1,0,0:0:0:127:b_FL Keys_v86l32o6d.ogg
329,192,36964,128,0,37857:0:0:0:127:b_FL Keys_v86l16-7o6d.ogg
182,192,36964,128,0,37857:0:0:0:127:b_FL Keys_v86l16-7o5a.ogg
256,192,37142,1,0,0:0:0:127:b_FL Keys_v82l8o4b.ogg
109,192,37500,1,0,0:0:0:127:b_FL Keys_v82l8o4fp.ogg
36,192,37857,1,0,0:0:0:127:b_FL Keys_v86l8o3g.ogg
182,192,38214,1,0,0:0:0:127:b_FL Keys_v86l8o4d.ogg
109,192,38571,1,0,0:0:0:127:b_FL Keys_v86l8o4g.ogg
36,192,38571,1,0,0:0:0:127:b_FL Keys_v86l32o5e.ogg
256,192,38571,1,0,0:0:0:127:b_FL Keys_v86l32o5a.ogg
182,192,38750,1,0,0:0:0:127:b_FL Keys_v86l32o5a.ogg
329,192,38750,1,0,0:0:0:127:b_FL Keys_v86l32o6d.ogg
109,192,38928,1,0,0:0:0:127:b_FL Keys_v86l8o4d.ogg
256,192,38928,1,0,0:0:0:127:b_FL Keys_v86l32o5b.ogg
402,192,38928,1,0,0:0:0:127:b_FL Keys_v86l32o6e.ogg
475,192,39107,1,0,0:0:0:127:b_FL Keys_v86l32o6fp.ogg
329,192,39107,1,0,0:0:0:127:b_FL Keys_v86l32o6cp.ogg
36,192,39285,1,0,0:0:0:127:b_FL Keys_v86l8o3a.ogg
256,192,39285,1,0,0:0:0:127:b_FL Keys_v86l16o5b.ogg
402,192,39285,1,0,0:0:0:127:b_FL Keys_v86l16o6e.ogg
109,192,39642,1,0,0:0:0:127:b_FL Keys_v86l8o4e.ogg
182,192,39642,1,0,0:0:0:127:b_FL Keys_v86l32o5a.ogg
329,192,39642,1,0,0:0:0:127:b_FL Keys_v86l32o6d.ogg
256,192,39821,1,0,0:0:0:127:b_FL Keys_v86l16o5b.ogg
402,192,39821,1,0,0:0:0:127:b_FL Keys_v86l16o6e.ogg
182,192,40000,1,0,0:0:0:127:b_FL Keys_v86l8o4a.ogg
329,192,40178,1,0,0:0:0:127:b_FL Keys_v86l16o5b.ogg
475,192,40178,1,0,0:0:0:127:b_FL Keys_v86l16o6fp.ogg
109,192,40357,1,0,0:0:0:127:b_FL Keys_v86l8o4e.ogg
329,192,40535,128,0,41071:0:0:0:127:b_FL Keys_v86l16-3o5b.ogg
475,192,40535,128,0,41071:0:0:0:127:b_FL Keys_v86l16-3o6fp.ogg
36,192,40714,1,0,0:0:0:127:b_FL Keys_v86l8o4d.ogg
109,192,41071,1,0,0:0:0:127:b_FL Keys_v86l8o4a.ogg
182,192,41428,1,0,0:0:0:127:b_FL Keys_v86l8o5d.ogg
329,192,41428,1,0,0:0:0:127:b_FL Keys_v86l32o5e.ogg
475,192,41428,1,0,0:0:0:127:b_FL Keys_v86l32o5a.ogg
402,192,41607,1,0,0:0:0:127:b_FL Keys_v86l32o6d.ogg
256,192,41607,1,0,0:0:0:127:b_FL Keys_v86l32o5a.ogg
109,192,41785,1,0,0:0:0:127:b_FL Keys_v86l8o4a.ogg
329,192,41785,1,0,0:0:0:127:b_FL Keys_v86l32o5b.ogg
475,192,41785,1,0,0:0:0:127:b_FL Keys_v86l32o6e.ogg
256,192,41964,1,0,0:0:0:127:b_FL Keys_v86l32o6cp.ogg
402,192,41964,1,0,0:0:0:127:b_FL Keys_v86l32o6fp.ogg
36,192,42142,1,0,0:0:0:127:b_FL Keys_v86l8o3b.ogg
329,192,42142,1,0,0:0:0:127:b_FL Keys_v86l16o5b.ogg
475,192,42142,1,0,0:0:0:127:b_FL Keys_v86l16o6e.ogg
109,192,42500,1,0,0:0:0:127:b_FL Keys_v86l8o4fp.ogg
256,192,42500,1,0,0:0:0:127:b_FL Keys_v86l32o5a.ogg
402,192,42500,1,0,0:0:0:127:b_FL Keys_v86l32o6d.ogg
256,192,42678,128,0,43571:0:0:0:127:b_FL Keys_v86l16-7o5a.ogg
402,192,42678,128,0,43571:0:0:0:127:b_FL Keys_v86l16-7o6d.ogg
182,192,42857,1,0,0:0:0:127:b_FL Keys_v86l8o4b.ogg
109,192,43214,1,0,0:0:0:127:b_FL Keys_v86l8o4fp.ogg
36,192,43571,1,0,0:0:0:127:b_FL Keys_v86l8o3g.ogg
109,192,43928,1,0,0:0:0:127:b_FL Keys_v86l8o4d.ogg
36,192,44285,1,0,0:0:0:127:b_FL Keys_v86l8o4g.ogg
182,192,44285,1,0,0:0:0:127:b_FL Keys_v86l32o5e.ogg
329,192,44285,1,0,0:0:0:127:b_FL Keys_v86l32o5a.ogg
256,192,44464,1,0,0:0:0:127:b_FL Keys_v86l32o5a.ogg
402,192,44464,1,0,0:0:0:127:b_FL Keys_v86l32o6d.ogg
109,192,44642,1,0,0:0:0:127:b_FL Keys_v86l8o4d.ogg
329,192,44642,1,0,0:0:0:127:b_FL Keys_v86l32o5b.ogg
475,192,44642,1,0,0:0:0:127:b_FL Keys_v86l32o6e.ogg
256,192,44821,1,0,0:0:0:127:b_FL Keys_v86l32o6cp.ogg
402,192,44821,1,0,0:0:0:127:b_FL Keys_v86l32o6fp.ogg
36,192,45000,1,0,0:0:0:127:b_FL Keys_v86l8o3a.ogg
182,192,45000,1,0,0:0:0:127:b_FL Keys_v86l16o5b.ogg
329,192,45000,1,0,0:0:0:127:b_FL Keys_v86l16o6e.ogg
256,192,45357,1,0,0:0:0:127:b_FL Keys_v86l32o6d.ogg
36,192,45357,1,0,0:0:0:127:b_FL Keys_v86l8o4e.ogg
109,192,45357,1,0,0:0:0:127:b_FL Keys_v86l32o5a.ogg
182,192,45535,1,0,0:0:0:127:b_FL Keys_v86l16o5b.ogg
329,192,45535,1,0,0:0:0:127:b_FL Keys_v86l16o6e.ogg
109,192,45714,1,0,0:0:0:127:b_FL Keys_v86l8o4a.ogg
256,192,45892,1,0,0:0:0:127:b_FL Keys_v86l16o6e.ogg
475,192,45892,1,0,0:0:0:127:b_FL Keys_v86l16o6a.ogg
36,192,46071,1,0,0:0:0:127:b_FL Keys_v86l8o4e.ogg
256,192,46250,128,0,46785:0:0:0:127:b_FL Keys_v86l16-3o6d.ogg
402,192,46250,128,0,46785:0:0:0:127:b_FL Keys_v86l16-3o6fp.ogg
36,192,46428,1,0,0:0:0:127:b_FL Keys_v86l8o4d.ogg
109,192,46785,1,0,0:0:0:127:b_FL Keys_v86l8o4a.ogg
36,192,47142,1,0,0:0:0:127:b_FL Keys_v86l8o5d.ogg
182,192,47142,1,0,0:0:0:127:b_FL Keys_v86l16o5fp.ogg
475,192,47142,1,0,0:0:0:127:b_FL Keys_v86l16o6fp.ogg
109,192,47500,1,0,0:0:0:127:b_FL Keys_v86l8o4a.ogg
256,192,47500,1,0,0:0:0:127:b_FL Keys_v86l16o5g.ogg
402,192,47500,1,0,0:0:0:127:b_FL Keys_v86l16o6g.ogg
475,192,47857,1,0,0:0:0:127:b_FL Keys_v91l16o6a.ogg
329,192,47857,1,0,0:0:0:127:b_FL Keys_v91l16o6e.ogg
256,192,47857,1,0,0:0:0:127:b_FL Keys_v91l16o6cp.ogg
182,192,47857,1,0,0:0:0:127:b_FL Keys_v91l16o5a.ogg
36,192,47857,1,0,0:0:0:127:b_FL Keys_v91l8o3a.ogg
36,192,48214,1,0,0:0:0:127:b_FL Keys_v93l8o4e.ogg
182,192,48214,1,0,0:0:0:127:b_FL Keys_v93l32o5a.ogg
256,192,48214,1,0,0:0:0:127:b_FL Keys_v93l32o6cp.ogg
329,192,48214,1,0,0:0:0:127:b_FL Keys_v93l32o6e.ogg
475,192,48214,1,0,0:0:0:127:b_FL Keys_v93l32o6a.ogg
36,192,48392,1,0,0:0:0:127:b_FL Keys_v93l8o5a.ogg
182,192,48392,1,0,0:0:0:127:b_FL Keys_v93l8o6cp.ogg
329,192,48392,1,0,0:0:0:127:b_FL Keys_v93l8o6e.ogg
475,192,48392,1,0,0:0:0:127:b_FL Keys_v93l8o6a.ogg
256,192,48571,1,0,0:0:0:127:b_FL Keys_v93l8o4a.ogg
36,192,48928,1,0,0:0:0:127:b_FL Keys_v94l8o4e.ogg
182,192,48928,1,0,0:0:0:127:b_FL Keys_v94l16o5a.ogg
256,192,48928,1,0,0:0:0:127:b_FL Keys_v94l16o6cp.ogg
329,192,48928,1,0,0:0:0:127:b_FL Keys_v94l16o6e.ogg
475,192,48928,1,0,0:0:0:127:b_FL Keys_v94l16o6a.ogg
36,192,49285,1,0,0:0:0:127:b_FL Keys_v91l8o3g.ogg
109,192,49285,1,0,0:0:0:127:b_FL Keys_v91l16o5b.ogg
402,192,49285,1,0,0:0:0:127:b_FL Keys_v91l16o6d.ogg
475,192,49285,1,0,0:0:0:127:b_FL Keys_v91l16o6a.ogg
182,192,49642,1,0,0:0:0:127:b_FL Keys_v86l8o4d.ogg
329,192,49642,1,0,0:0:0:127:b_FL Keys_v86l16o6fp.ogg
256,192,49821,1,0,0:0:0:127:b_FL Keys_v86l16o6d.ogg
109,192,50000,1,0,0:0:0:127:b_FL Keys_v86l8o4g.ogg
182,192,50357,1,0,0:0:0:127:b_FL Keys_v86l16o6fp.ogg
36,192,50357,1,0,0:0:0:127:b_FL Keys_v86l8o4d.ogg
256,192,50535,1,0,0:0:0:127:b_FL Keys_v86l16o6g.ogg
36,192,50714,1,0,0:0:0:127:b_FL Keys_v86l8o3fp.ogg
182,192,50714,1,0,0:0:0:127:b_FL Keys_v86l16o5a.ogg
329,192,50714,1,0,0:0:0:127:b_FL Keys_v86l16o6cp.ogg
475,192,50714,1,0,0:0:0:127:b_FL Keys_v86l16o6a.ogg
36,192,51071,1,0,0:0:0:127:b_FL Keys_v86l8o4cp.ogg
182,192,51071,1,0,0:0:0:127:b_FL Keys_v86l32o5a.ogg
329,192,51071,1,0,0:0:0:127:b_FL Keys_v86l32o6cp.ogg
475,192,51071,1,0,0:0:0:127:b_FL Keys_v86l32o6a.ogg
182,192,51250,1,0,0:0:0:127:b_FL Keys_v86l8o5a.ogg
329,192,51250,1,0,0:0:0:127:b_FL Keys_v86l8o6cp.ogg
475,192,51250,1,0,0:0:0:127:b_FL Keys_v86l8o6a.ogg
256,192,51428,1,0,0:0:0:127:b_FL Keys_v86l8o4fp.ogg
36,192,51785,1,0,0:0:0:127:b_FL Keys_v86l8o4cp.ogg
182,192,51785,1,0,0:0:0:127:b_FL Keys_v86l16o5a.ogg
329,192,51785,1,0,0:0:0:127:b_FL Keys_v86l16o6cp.ogg
475,192,51785,1,0,0:0:0:127:b_FL Keys_v86l16o6a.ogg
36,192,52142,1,0,0:0:0:127:b_FL Keys_v86l8o3b.ogg
256,192,52142,1,0,0:0:0:127:b_FL Keys_v86l16o5a.ogg
402,192,52142,1,0,0:0:0:127:b_FL Keys_v86l16o6cp.ogg
475,192,52142,1,0,0:0:0:127:b_FL Keys_v86l16o6a.ogg
109,192,52500,1,0,0:0:0:127:b_FL Keys_v86l8o4fp.ogg
329,192,52500,1,0,0:0:0:127:b_FL Keys_v86l16o6fp.ogg
256,192,52678,1,0,0:0:0:127:b_FL Keys_v86l16o6d.ogg
182,192,52857,1,0,0:0:0:127:b_FL Keys_v86l8o4b.ogg
109,192,53214,1,0,0:0:0:127:b_FL Keys_v86l8o4fp.ogg
256,192,53214,1,0,0:0:0:127:b_FL Keys_v86l16o6d.ogg
329,192,53392,1,0,0:0:0:127:b_FL Keys_v89l16o6e.ogg
36,192,53571,1,0,0:0:0:127:b_FL Keys_v90l8o3e.ogg
256,192,53571,1,0,0:0:0:127:b_FL Keys_v90l16o5b.ogg
402,192,53571,1,0,0:0:0:127:b_FL Keys_v90l16o6d.ogg
475,192,53571,1,0,0:0:0:127:b_FL Keys_v90l16o6fp.ogg
109,192,53928,1,0,0:0:0:127:b_FL Keys_v91l8o3b.ogg
256,192,53928,1,0,0:0:0:127:b_FL Keys_v91l32o5b.ogg
402,192,53928,1,0,0:0:0:127:b_FL Keys_v91l32o6d.ogg
475,192,53928,1,0,0:0:0:127:b_FL Keys_v91l32o6fp.ogg
475,192,54107,1,0,0:0:0:127:b_FL Keys_v93l8o6fp.ogg
402,192,54107,1,0,0:0:0:127:b_FL Keys_v93l8o6d.ogg
256,192,54107,1,0,0:0:0:127:b_FL Keys_v93l8o5b.ogg
182,192,54285,1,0,0:0:0:127:b_FL Keys_v93l8o4e.ogg
109,192,54642,1,0,0:0:0:127:b_FL Keys_v93l8o3b.ogg
256,192,54642,1,0,0:0:0:127:b_FL Keys_v93l16o5b.ogg
402,192,54642,1,0,0:0:0:127:b_FL Keys_v93l16o6d.ogg
475,192,54642,1,0,0:0:0:127:b_FL Keys_v93l16o6fp.ogg
36,192,55000,1,0,0:0:0:127:b_FL Keys_v86l8o3a.ogg
256,192,55000,1,0,0:0:0:127:b_FL Keys_v86l16o5b.ogg
402,192,55000,1,0,0:0:0:127:b_FL Keys_v86l16o6d.ogg
475,192,55000,1,0,0:0:0:127:b_FL Keys_v86l16o6fp.ogg
109,192,55357,1,0,0:0:0:127:b_FL Keys_v86l8o4e.ogg
182,192,55714,1,0,0:0:0:127:b_FL Keys_v86l8o4a.ogg
329,192,55714,1,0,0:0:0:127:b_FL Keys_v86l16o6e.ogg
475,192,55714,1,0,0:0:0:127:b_FL Keys_v86l24o6a.ogg
402,192,55833,1,0,0:0:0:127:b_FL Keys_v86l24o6fp.ogg
329,192,55952,1,0,0:0:0:127:b_FL Keys_v86l24o6e.ogg
109,192,56071,1,0,0:0:0:127:b_FL Keys_v86l8o4e.ogg
256,192,56071,1,0,0:0:0:127:b_FL Keys_v86l16o6d.ogg
182,192,56250,1,0,0:0:0:127:b_FL Keys_v86l16o5b.ogg
36,192,56428,1,0,0:0:0:127:b_FL Keys_v86l8o3d.ogg
329,192,56428,1,0,0:0:0:127:b_FL Keys_v86l16o6d.ogg
109,192,56785,1,0,0:0:0:127:b_FL Keys_v86l8o4d.ogg
36,192,57142,1,0,0:0:0:127:b_FL Keys_v86l8o4fp.ogg
182,192,57142,1,0,0:0:0:127:b_FL Keys_v86l8o5fp.ogg
329,192,57142,1,0,0:0:0:127:b_FL Keys_v86l8o5a.ogg
475,192,57142,1,0,0:0:0:127:b_FL Keys_v86l16o6d.ogg
109,192,57500,1,0,0:0:0:127:b_FL Keys_v86l8o4a.ogg
402,192,57500,1,0,0:0:0:127:b_FL Keys_v86l16o5d.ogg
256,192,57857,1,0,0:0:0:127:b_FL Keys_v86l16o5a.ogg
36,192,57857,1,0,0:0:0:127:b_FL Keys_v86l8o4d.ogg
329,192,58035,1,0,0:0:0:127:b_FL Keys_v86l16o6d.ogg
109,192,58214,1,0,0:0:0:127:b_FL Keys_v86l8o4fp.ogg
475,192,58214,1,0,0:0:0:127:b_FL Keys_v86l16o6e.ogg
329,192,58392,1,0,0:0:0:127:b_FL Keys_v86l16o6d.ogg
182,192,58571,1,0,0:0:0:127:b_FL Keys_v86l8o4a.ogg
475,192,58571,1,0,0:0:0:127:b_FL Keys_v86l16o6e.ogg
329,192,58750,1,0,0:0:0:127:b_FL Keys_v86l16o6d.ogg
36,192,58928,1,0,0:0:0:127:b_FL Keys_v86l8o4d.ogg
475,192,58928,1,0,0:0:0:127:b_FL Keys_v86l16o6e.ogg
329,192,59107,1,0,0:0:0:127:b_FL Keys_v86l16o6d.ogg
36,192,59285,1,0,0:0:0:127:b_FL Keys_v86l8o3b.ogg
109,192,59285,1,0,0:0:0:127:b_FL Keys_v86l8o4b.ogg
182,192,59285,1,0,0:0:0:127:b_FL Keys_v86l4o5d.ogg
256,192,59285,1,0,0:0:0:127:b_FL Keys_v86l8-3o5fp.ogg
329,192,59642,1,0,0:0:0:127:b_FL Keys_v86l8o4fp.ogg
475,192,60000,1,0,0:0:0:127:b_FL Keys_v86l8o4b.ogg
182,192,60357,1,0,0:0:0:127:b_FL Keys_v86l8o4fp.ogg
36,192,60714,1,0,0:0:0:127:b_FL Keys_v86l8o3g.ogg
109,192,60714,1,0,0:0:0:127:b_FL Keys_v86l8o4g.ogg
329,192,60714,1,0,0:0:0:127:b_FL Keys_v86l4o4b.ogg
402,192,60714,1,0,0:0:0:127:b_FL Keys_v86l8-3o5d.ogg
182,192,61071,1,0,0:0:0:127:b_FL Keys_v86l8o4d.ogg
475,192,61428,1,0,0:0:0:127:b_FL Keys_v86l8o4g.ogg
182,192,61785,1,0,0:0:0:127:b_FL Keys_v86l8o4d.ogg
36,192,62142,1,0,0:0:0:127:b_FL Keys_v86l8o3a.ogg
109,192,62142,1,0,0:0:0:127:b_FL Keys_v86l8o4a.ogg
256,192,62142,1,0,0:0:0:127:b_FL Keys_v86l4o5cp.ogg
402,192,62142,1,0,0:0:0:127:b_FL Keys_v86l8-3o5e.ogg
182,192,62500,1,0,0:0:0:127:b_FL Keys_v86l8o4e.ogg
329,192,62857,1,0,0:0:0:127:b_FL Keys_v86l8o4a.ogg
182,192,63214,1,0,0:0:0:127:b_FL Keys_v86l8o4e.ogg
36,192,63571,1,0,0:0:0:127:b_FL Keys_v86l8o3d.ogg
256,192,63571,1,0,0:0:0:127:b_FL Keys_v86l8o4d.ogg
402,192,63571,1,0,0:0:0:127:b_FL Keys_v86l4o4fp.ogg
475,192,63571,1,0,0:0:0:127:b_FL Keys_v86l8-3o4a.ogg
182,192,63928,1,0,0:0:0:127:b_FL Keys_v86l8o3a.ogg
329,192,64285,1,0,0:0:0:127:b_FL Keys_v86l8o4d.ogg
182,192,64642,1,0,0:0:0:127:b_FL Keys_v86l8o3a.ogg
36,192,65000,1,0,0:0:0:127:b_FL Keys_v86l8o3b.ogg
256,192,65000,1,0,0:0:0:127:b_FL Keys_v86l8o4b.ogg
329,192,65000,1,0,0:0:0:127:b_FL Keys_v86l4o5d.ogg
475,192,65000,1,0,0:0:0:127:b_FL Keys_v86l8-3o5fp.ogg
182,192,65357,1,0,0:0:0:127:b_FL Keys_v86l8o4fp.ogg
402,192,65714,1,0,0:0:0:127:b_FL Keys_v86l8o4b.ogg
182,192,66071,1,0,0:0:0:127:b_FL Keys_v86l8o4fp.ogg
36,192,66428,1,0,0:0:0:127:b_FL Keys_v86l8o3g.ogg
109,192,66428,1,0,0:0:0:127:b_FL Keys_v86l8o4g.ogg
256,192,66428,1,0,0:0:0:127:b_FL Keys_v86l4o4b.ogg
329,192,66428,1,0,0:0:0:127:b_FL Keys_v86l8-3o5d.ogg
182,192,66785,1,0,0:0:0:127:b_FL Keys_v86l8o4d.ogg
402,192,67142,1,0,0:0:0:127:b_FL Keys_v86l8o4g.ogg
182,192,67500,1,0,0:0:0:127:b_FL Keys_v86l8o4d.ogg
475,192,67857,1,0,0:0:0:127:b_FL Keys_v86l8-3o5e.ogg
329,192,67857,1,0,0:0:0:127:b_FL Keys_v86l4o5cp.ogg
109,192,67857,1,0,0:0:0:127:b_FL Keys_v86l8o4a.ogg
36,192,67857,1,0,0:0:0:127:b_FL Keys_v86l8o3a.ogg
256,192,68214,1,0,0:0:0:127:b_FL Keys_v86l8o4e.ogg
402,192,68571,1,0,0:0:0:127:b_FL Keys_v86l8o4a.ogg
256,192,68928,1,0,0:0:0:127:b_FL Keys_v86l8o4e.ogg
36,192,69285,1,0,0:0:0:127:b_FL Keys_v86l8o4d.ogg
182,192,69285,1,0,0:0:0:127:b_FL Keys_v86l8o5d.ogg
329,192,69285,1,0,0:0:0:127:b_FL Keys_v86l8o5fp.ogg
475,192,69285,1,0,0:0:0:127:b_FL Keys_v86l8o5a.ogg
109,192,69642,1,0,0:0:0:127:b_FL Keys_v86l8o4a.ogg
182,192,70000,1,0,0:0:0:127:b_FL Keys_v86l8o5d.ogg
256,192,70000,1,0,0:0:0:127:b_FL Keys_v86l16o5a.ogg
329,192,70178,1,0,0:0:0:127:b_FL Keys_v86l16o6d.ogg
402,192,70357,1,0,0:0:0:127:b_FL Keys_v86l16o6e.ogg
109,192,70357,1,0,0:0:0:127:b_FL Keys_v86l8o4a.ogg
475,192,70535,1,0,0:0:0:127:b_FL Keys_v86l16o6fp.ogg
36,192,70714,1,0,0:0:0:127:b_FL Keys_v86l8o3b.ogg
402,192,70714,1,0,0:0:0:127:b_FL Keys_v86l8o6e.ogg
182,192,71071,1,0,0:0:0:127:b_FL Keys_v86l8o4fp.ogg
329,192,71071,1,0,0:0:0:127:b_FL Keys_v86l32o6d.ogg
329,192,71250,128,0,72142:0:0:0:127:b_FL Keys_v86l2o6d.ogg
256,192,71428,1,0,0:0:0:127:b_FL Keys_v86l8o4b.ogg
182,192,71785,1,0,0:0:0:127:b_FL Keys_v86l8o4fp.ogg
36,192,72142,1,0,0:0:0:127:b_FL Keys_v86l8o3g.ogg
109,192,72500,1,0,0:0:0:127:b_FL Keys_v86l8o4d.ogg
256,192,72857,1,0,0:0:0:127:b_FL Keys_v80l16o5a.ogg
182,192,72857,1,0,0:0:0:127:b_FL Keys_v86l8o4g.ogg
329,192,73035,1,0,0:0:0:127:b_FL Keys_v80l16o6d.ogg
109,192,73214,1,0,0:0:0:127:b_FL Keys_v86l8o4d.ogg
402,192,73214,1,0,0:0:0:127:b_FL Keys_v80l16o6e.ogg
475,192,73392,1,0,0:0:0:127:b_FL Keys_v80l16o6fp.ogg
36,192,73571,1,0,0:0:0:127:b_FL Keys_v86l8o3a.ogg
402,192,73571,1,0,0:0:0:127:b_FL Keys_v80l8o6e.ogg
182,192,73928,1,0,0:0:0:127:b_FL Keys_v86l8o4e.ogg
329,192,73928,1,0,0:0:0:127:b_FL Keys_v80l16o6d.ogg
402,192,74107,1,0,0:0:0:127:b_FL Keys_v80l16o6e.ogg
256,192,74285,1,0,0:0:0:127:b_FL Keys_v86l8o4a.ogg
475,192,74464,1,0,0:0:0:127:b_FL Keys_v80l16o6fp.ogg
182,192,74642,1,0,0:0:0:127:b_FL Keys_v86l8o4e.ogg
475,192,74821,128,0,75357:0:0:0:127:b_FL Keys_v80l4o6fp.ogg
36,192,75000,1,0,0:0:0:127:b_FL Keys_v86l8o4d.ogg
109,192,75357,1,0,0:0:0:127:b_FL Keys_v86l8o4a.ogg
182,192,75714,1,0,0:0:0:127:b_FL Keys_v86l8o5d.ogg
256,192,75714,1,0,0:0:0:127:b_FL Keys_v86l16o5a.ogg
329,192,75892,1,0,0:0:0:127:b_FL Keys_v86l16o6d.ogg
109,192,76071,1,0,0:0:0:127:b_FL Keys_v86l8o4a.ogg
402,192,76071,1,0,0:0:0:127:b_FL Keys_v86l16o6e.ogg
475,192,76250,1,0,0:0:0:127:b_FL Keys_v86l16o6fp.ogg
36,192,76428,1,0,0:0:0:127:b_FL Keys_v86l8o3b.ogg
402,192,76428,1,0,0:0:0:127:b_FL Keys_v86l8o6e.ogg
182,192,76785,1,0,0:0:0:127:b_FL Keys_v86l8o4fp.ogg
329,192,76785,1,0,0:0:0:127:b_FL Keys_v86l32o6d.ogg
329,192,76964,128,0,77857:0:0:0:127:b_FL Keys_v86l16-7o6d.ogg
256,192,77142,1,0,0:0:0:127:b_FL Keys_v86l8o4b.ogg
182,192,77500,1,0,0:0:0:127:b_FL Keys_v86l8o4fp.ogg
36,192,77857,1,0,0:0:0:127:b_FL Keys_v86l8o3g.ogg
109,192,78214,1,0,0:0:0:127:b_FL Keys_v86l8o4d.ogg
182,192,78571,1,0,0:0:0:127:b_FL Keys_v86l8o4g.ogg
256,192,78571,1,0,0:0:0:127:b_FL Keys_v86l16o5a.ogg
329,192,78750,1,0,0:0:0:127:b_FL Keys_v86l16o6d.ogg
109,192,78928,1,0,0:0:0:127:b_FL Keys_v86l8o4d.ogg
402,192,78928,1,0,0:0:0:127:b_FL Keys_v86l16o6e.ogg
475,192,79107,1,0,0:0:0:127:b_FL Keys_v86l16o6fp.ogg
36,192,79285,1,0,0:0:0:127:b_FL Keys_v86l8o3a.ogg
402,192,79285,1,0,0:0:0:127:b_FL Keys_v86l32-3o6e.ogg
109,192,79642,1,0,0:0:0:127:b_FL Keys_v86l8o4e.ogg
329,192,79642,1,0,0:0:0:127:b_FL Keys_v86l16o6d.ogg
402,192,79821,1,0,0:0:0:127:b_FL Keys_v86l16o6e.ogg
182,192,80000,1,0,0:0:0:127:b_FL Keys_v86l8o4a.ogg
475,192,80178,1,0,0:0:0:127:b_FL Keys_v86l32-3o6a.ogg
109,192,80357,1,0,0:0:0:127:b_FL Keys_v86l8o4e.ogg
329,192,80535,1,0,0:0:0:127:b_FL Keys_v86l32-3o6fp.ogg
36,192,80714,1,0,0:0:0:127:b_FL Keys_v86l8o4d.ogg
109,192,81071,1,0,0:0:0:127:b_FL Keys_v90l8o4a.ogg
36,192,81428,1,0,0:0:0:127:b_FL Keys_v92l8o5d.ogg
182,192,81428,1,0,0:0:0:127:b_FL Keys_v92l16o5fp.ogg
329,192,81428,1,0,0:0:0:127:b_FL Keys_v92l16o6fp.ogg
109,192,81785,1,0,0:0:0:127:b_FL Keys_v93l8o4a.ogg
256,192,81785,1,0,0:0:0:127:b_FL Keys_v93l16o5g.ogg
402,192,81785,1,0,0:0:0:127:b_FL Keys_v93l16o6g.ogg
36,192,82142,1,0,0:0:0:127:b_FL Keys_v97l8o3a.ogg
109,192,82142,1,0,0:0:0:127:b_FL Keys_v97l16o5a.ogg
256,192,82142,1,0,0:0:0:127:b_FL Keys_v97l16o6cp.ogg
329,192,82142,1,0,0:0:0:127:b_FL Keys_v97l16o6e.ogg
475,192,82142,1,0,0:0:0:127:b_FL Keys_v97l16o6a.ogg
36,192,82500,1,0,0:0:0:127:b_FL Keys_v94l8o4e.ogg
109,192,82500,1,0,0:0:0:127:b_FL Keys_v94l32o5a.ogg
256,192,82500,1,0,0:0:0:127:b_FL Keys_v94l32o6cp.ogg
329,192,82500,1,0,0:0:0:127:b_FL Keys_v94l32o6e.ogg
475,192,82500,1,0,0:0:0:127:b_FL Keys_v94l32o6a.ogg
109,192,82678,1,0,0:0:0:127:b_FL Keys_v94l8o5a.ogg
256,192,82678,1,0,0:0:0:127:b_FL Keys_v94l8o6cp.ogg
329,192,82678,1,0,0:0:0:127:b_FL Keys_v94l8o6e.ogg
475,192,82678,1,0,0:0:0:127:b_FL Keys_v94l8o6a.ogg
36,192,82857,1,0,0:0:0:127:b_FL Keys_v94l8o4a.ogg
36,192,83214,1,0,0:0:0:127:b_FL Keys_v86l8o4e.ogg
109,192,83214,1,0,0:0:0:127:b_FL Keys_v86l16o5a.ogg
256,192,83214,1,0,0:0:0:127:b_FL Keys_v86l16o6cp.ogg
329,192,83214,1,0,0:0:0:127:b_FL Keys_v86l16o6e.ogg
475,192,83214,1,0,0:0:0:127:b_FL Keys_v86l16o6a.ogg
36,192,83571,1,0,0:0:0:127:b_FL Keys_v86l8o3g.ogg
182,192,83571,1,0,0:0:0:127:b_FL Keys_v86l16o5b.ogg
329,192,83571,1,0,0:0:0:127:b_FL Keys_v86l16o6d.ogg
475,192,83571,1,0,0:0:0:127:b_FL Keys_v86l16o6a.ogg
109,192,83928,1,0,0:0:0:127:b_FL Keys_v86l8o4d.ogg
402,192,83928,1,0,0:0:0:127:b_FL Keys_v86l16o6fp.ogg
256,192,84107,1,0,0:0:0:127:b_FL Keys_v86l16o6d.ogg
182,192,84285,1,0,0:0:0:127:b_FL Keys_v88l8o4g.ogg
109,192,84642,1,0,0:0:0:127:b_FL Keys_v91l8o4d.ogg
329,192,84642,1,0,0:0:0:127:b_FL Keys_v91l16o6fp.ogg
402,192,84821,1,0,0:0:0:127:b_FL Keys_v92l16o6g.ogg
36,192,85000,1,0,0:0:0:127:b_FL Keys_v92l8o3fp.ogg
182,192,85000,1,0,0:0:0:127:b_FL Keys_v92l16o5a.ogg
329,192,85000,1,0,0:0:0:127:b_FL Keys_v92l16o6cp.ogg
475,192,85000,1,0,0:0:0:127:b_FL Keys_v92l16o6a.ogg
475,192,85357,1,0,0:0:0:127:b_FL Keys_v91l32o6a.ogg
329,192,85357,1,0,0:0:0:127:b_FL Keys_v91l32o6cp.ogg
182,192,85357,1,0,0:0:0:127:b_FL Keys_v91l32o5a.ogg
36,192,85357,1,0,0:0:0:127:b_FL Keys_v91l8o4cp.ogg
182,192,85535,1,0,0:0:0:127:b_FL Keys_v89l8o5a.ogg
329,192,85535,1,0,0:0:0:127:b_FL Keys_v89l8o6cp.ogg
475,192,85535,1,0,0:0:0:127:b_FL Keys_v89l8o6a.ogg
36,192,85714,1,0,0:0:0:127:b_FL Keys_v89l8o4fp.ogg
36,192,86071,1,0,0:0:0:127:b_FL Keys_v89l8o4cp.ogg
182,192,86071,1,0,0:0:0:127:b_FL Keys_v89l16o5a.ogg
329,192,86071,1,0,0:0:0:127:b_FL Keys_v89l16o6cp.ogg
475,192,86071,1,0,0:0:0:127:b_FL Keys_v89l16o6a.ogg
36,192,86428,1,0,0:0:0:127:b_FL Keys_v86l8o3b.ogg
182,192,86428,1,0,0:0:0:127:b_FL Keys_v86l16o5a.ogg
329,192,86428,1,0,0:0:0:127:b_FL Keys_v86l16o6cp.ogg
475,192,86428,1,0,0:0:0:127:b_FL Keys_v86l16o6a.ogg
109,192,86785,1,0,0:0:0:127:b_FL Keys_v86l8o4fp.ogg
402,192,86785,1,0,0:0:0:127:b_FL Keys_v86l16o6fp.ogg
256,192,86964,1,0,0:0:0:127:b_FL Keys_v86l16o6d.ogg
182,192,87142,1,0,0:0:0:127:b_FL Keys_v86l8o4b.ogg
109,192,87500,1,0,0:0:0:127:b_FL Keys_v86l8o4fp.ogg
329,192,87500,1,0,0:0:0:127:b_FL Keys_v86l16o6d.ogg
402,192,87678,1,0,0:0:0:127:b_FL Keys_v86l16o6e.ogg
475,192,87857,1,0,0:0:0:127:b_FL Keys_v86l16o6fp.ogg
329,192,87857,1,0,0:0:0:127:b_FL Keys_v86l16o6d.ogg
256,192,87857,1,0,0:0:0:127:b_FL Keys_v86l16o5b.ogg
36,192,87857,1,0,0:0:0:127:b_FL Keys_v86l8o3e.ogg
109,192,88214,1,0,0:0:0:127:b_FL Keys_v86l8o3b.ogg
256,192,88214,1,0,0:0:0:127:b_FL Keys_v86l32o5b.ogg
329,192,88214,1,0,0:0:0:127:b_FL Keys_v86l32o6d.ogg
475,192,88214,1,0,0:0:0:127:b_FL Keys_v86l32o6fp.ogg
256,192,88392,1,0,0:0:0:127:b_FL Keys_v86l8o5b.ogg
329,192,88392,1,0,0:0:0:127:b_FL Keys_v86l8o6d.ogg
475,192,88392,1,0,0:0:0:127:b_FL Keys_v86l8o6fp.ogg
182,192,88571,1,0,0:0:0:127:b_FL Keys_v86l8o4e.ogg
109,192,88928,1,0,0:0:0:127:b_FL Keys_v86l8o3b.ogg
256,192,88928,1,0,0:0:0:127:b_FL Keys_v86l16o5b.ogg
329,192,88928,1,0,0:0:0:127:b_FL Keys_v86l16o6d.ogg
475,192,88928,1,0,0:0:0:127:b_FL Keys_v86l16o6fp.ogg
36,192,89285,1,0,0:0:0:127:b_FL Keys_v86l8o3a.ogg
182,192,89285,1,0,0:0:0:127:b_FL Keys_v86l16o5b.ogg
256,192,89285,1,0,0:0:0:127:b_FL Keys_v86l16o6d.ogg
402,192,89285,1,0,0:0:0:127:b_FL Keys_v86l16o6fp.ogg
109,192,89642,1,0,0:0:0:127:b_FL Keys_v86l8o4e.ogg
182,192,90000,1,0,0:0:0:127:b_FL Keys_v86l8o4a.ogg
256,192,90000,1,0,0:0:0:127:b_FL Keys_v86l16o6e.ogg
475,192,90000,1,0,0:0:0:127:b_FL Keys_v86l24o6a.ogg
402,192,90119,1,0,0:0:0:127:b_FL Keys_v86l24o6fp.ogg
329,192,90238,1,0,0:0:0:127:b_FL Keys_v86l24o6e.ogg
256,192,90357,1,0,0:0:0:127:b_FL Keys_v86l16o6d.ogg
109,192,90357,1,0,0:0:0:127:b_FL Keys_v86l8o4e.ogg
182,192,90535,1,0,0:0:0:127:b_FL Keys_v86l16o5b.ogg
36,192,90714,1,0,0:0:0:127:b_FL Keys_v86l8o3d.ogg
329,192,90714,1,0,0:0:0:127:b_FL Keys_v86l16o6d.ogg
109,192,91071,1,0,0:0:0:127:b_FL Keys_v86l8o4d.ogg
36,192,91428,1,0,0:0:0:127:b_FL Keys_v86l8o4fp.ogg
182,192,91428,1,0,0:0:0:127:b_FL Keys_v86l8o5fp.ogg
256,192,91428,1,0,0:0:0:127:b_FL Keys_v86l8o5a.ogg
475,192,91428,1,0,0:0:0:127:b_FL Keys_v86l16o6d.ogg
109,192,91785,1,0,0:0:0:127:b_FL Keys_v86l8o4a.ogg
329,192,91785,1,0,0:0:0:127:b_FL Keys_v86l32o5d.ogg
36,192,92142,1,0,0:0:0:127:b_FL Keys_v86l8o3b.ogg
182,192,92142,1,0,0:0:0:127:b_FL Keys_v86l8o5d.ogg
256,192,92142,1,0,0:0:0:127:b_FL Keys_v86l8o5fp.ogg
402,192,92142,1,0,0:0:0:127:b_FL Keys_v86l8o5b.ogg
109,192,92500,1,0,0:0:0:127:b_FL Keys_v86l32-3o4fp.ogg
329,192,92500,1,0,0:0:0:127:b_FL Keys_v86l32-3o4b.ogg
475,192,92857,1,0,0:0:0:127:b_FL Keys_v86l32-3o5b.ogg
402,192,92857,1,0,0:0:0:127:b_FL Keys_v86l32-3o5fp.ogg
182,192,92857,1,0,0:0:0:127:b_FL Keys_v86l32-3o5d.ogg
36,192,92857,1,0,0:0:0:127:b_FL Keys_v86l32-3o4b.ogg
109,192,93214,1,0,0:0:0:127:b_FL Keys_v86l32-3o4fp.ogg
256,192,93214,1,0,0:0:0:127:b_FL Keys_v86l32-3o4b.ogg
36,192,93571,1,0,0:0:0:127:b_FL Keys_v86l32-3o3g.ogg
182,192,93571,1,0,0:0:0:127:b_FL Keys_v86l32-3o5d.ogg
329,192,93571,1,0,0:0:0:127:b_FL Keys_v86l32-3o5g.ogg
402,192,93571,1,0,0:0:0:127:b_FL Keys_v86l32-3o5b.ogg
109,192,93928,1,0,0:0:0:127:b_FL Keys_v86l32-3o4d.ogg
256,192,93928,1,0,0:0:0:127:b_FL Keys_v86l32-3o4b.ogg
36,192,94285,1,0,0:0:0:127:b_FL Keys_v86l32-3o4g.ogg
182,192,94285,1,0,0:0:0:127:b_FL Keys_v86l32-3o5d.ogg
329,192,94285,1,0,0:0:0:127:b_FL Keys_v86l32-3o5g.ogg
402,192,94285,1,0,0:0:0:127:b_FL Keys_v86l32-3o5b.ogg
109,192,94642,1,0,0:0:0:127:b_FL Keys_v86l32-3o4d.ogg
256,192,94642,1,0,0:0:0:127:b_FL Keys_v86l32-3o4b.ogg
36,192,95000,1,0,0:0:0:127:b_FL Keys_v86l32-3o3a.ogg
182,192,95000,1,0,0:0:0:127:b_FL Keys_v86l32-3o5cp.ogg
402,192,95000,1,0,0:0:0:127:b_FL Keys_v86l32-3o5e.ogg
475,192,95000,1,0,0:0:0:127:b_FL Keys_v86l32-3o5a.ogg
256,192,95357,1,0,0:0:0:127:b_FL Keys_v86l32o4a.ogg
109,192,95357,1,0,0:0:0:127:b_FL Keys_v86l32-3o4e.ogg
182,192,95714,1,0,0:0:0:127:b_FL Keys_v86l32-3o4a.ogg
329,192,95714,1,0,0:0:0:127:b_FL Keys_v86l16o5b.ogg
475,192,95714,1,0,0:0:0:127:b_FL Keys_v86l16o6e.ogg
402,192,95892,1,0,0:0:0:127:b_FL Keys_v86l16o6cp.ogg
109,192,96071,1,0,0:0:0:127:b_FL Keys_v86l32-3o4e.ogg
329,192,96071,1,0,0:0:0:127:b_FL Keys_v86l16o5b.ogg
256,192,96250,1,0,0:0:0:127:b_FL Keys_v86l32o5a.ogg
36,192,96428,1,0,0:0:0:127:b_FL Keys_v86l8o4d.ogg
256,192,96428,1,0,0:0:0:127:b_FL Keys_v86l16-3o5a.ogg
109,192,96785,1,0,0:0:0:127:b_FL Keys_v86l8o4a.ogg
182,192,96785,1,0,0:0:0:127:b_FL Keys_v86l32-3o5d.ogg
36,192,97142,1,0,0:0:0:127:b_FL Keys_v86l32-3o5d.ogg
329,192,97142,1,0,0:0:0:127:b_FL Keys_v86l8o5fp.ogg
402,192,97142,1,0,0:0:0:127:b_FL Keys_v86l8o5a.ogg
475,192,97142,1,0,0:0:0:127:b_FL Keys_v86l8o6d.ogg
109,192,97500,1,0,0:0:0:127:b_FL Keys_v86l8o4a.ogg
256,192,97500,1,0,0:0:0:127:b_FL Keys_v86l32-3o5d.ogg
402,192,97857,1,0,0:0:0:127:b_FL Keys_v86l8o5b.ogg
329,192,97857,1,0,0:0:0:127:b_FL Keys_v86l8o5fp.ogg
182,192,97857,1,0,0:0:0:127:b_FL Keys_v86l32-3o5d.ogg
36,192,97857,1,0,0:0:0:127:b_FL Keys_v86l8o3b.ogg
109,192,98214,1,0,0:0:0:127:b_FL Keys_v86l8o4fp.ogg
256,192,98214,1,0,0:0:0:127:b_FL Keys_v86l32-3o4b.ogg
36,192,98571,1,0,0:0:0:127:b_FL Keys_v86l32-3o4b.ogg
182,192,98571,1,0,0:0:0:127:b_FL Keys_v86l32-3o5d.ogg
402,192,98571,1,0,0:0:0:127:b_FL Keys_v86l8o5fp.ogg
475,192,98571,1,0,0:0:0:127:b_FL Keys_v86l8o5b.ogg
109,192,98928,1,0,0:0:0:127:b_FL Keys_v86l8o4fp.ogg
329,192,98928,1,0,0:0:0:127:b_FL Keys_v86l32-3o4b.ogg
36,192,99285,1,0,0:0:0:127:b_FL Keys_v86l8o3g.ogg
182,192,99285,1,0,0:0:0:127:b_FL Keys_v86l8o5d.ogg
256,192,99285,1,0,0:0:0:127:b_FL Keys_v86l8o5g.ogg
475,192,99285,1,0,0:0:0:127:b_FL Keys_v86l8o5b.ogg
109,192,99642,1,0,0:0:0:127:b_FL Keys_v86l8o4d.ogg
329,192,99642,1,0,0:0:0:127:b_FL Keys_v86l8o4b.ogg
182,192,100000,1,0,0:0:0:127:b_FL Keys_v86l8o4g.ogg
256,192,100000,1,0,0:0:0:127:b_FL Keys_v86l8o5d.ogg
402,192,100000,1,0,0:0:0:127:b_FL Keys_v86l8o5g.ogg
475,192,100000,1,0,0:0:0:127:b_FL Keys_v86l8o5b.ogg
329,192,100357,1,0,0:0:0:127:b_FL Keys_v86l32-3o4b.ogg
109,192,100357,1,0,0:0:0:127:b_FL Keys_v86l8o4d.ogg
36,192,100714,1,0,0:0:0:127:b_FL Keys_v86l8o3e.ogg
109,192,100714,1,0,0:0:0:127:b_FL Keys_v86l8o4e.ogg
182,192,100714,1,0,0:0:0:127:b_FL Keys_v86l32-13o4b.ogg
256,192,100758,1,0,0:0:0:127:b_FL Keys_v86l32-13o5d.ogg
402,192,100758,1,0,0:0:0:127:b_FL Keys_v86l32-13o5e.ogg
475,192,100803,1,0,0:0:0:127:b_FL Keys_v86l32-13o5gp.ogg
36,192,101428,1,0,0:0:0:127:b_FL Keys_v86l8o4e.ogg
182,192,102142,1,0,0:0:0:127:b_FL Keys_v86l12o5fp.ogg
402,192,102142,1,0,0:0:0:127:b_FL Keys_v86l12o5b.ogg
475,192,102380,1,0,0:0:0:127:b_FL Keys_v86l12o5gp.ogg
402,192,102619,1,0,0:0:0:127:b_FL Keys_v86l12o5fp.ogg
329,192,102857,1,0,0:0:0:127:b_FL Keys_v86l12o5e.ogg
36,192,103571,1,0,0:0:0:127:b_FL Keys_v86l192-97o4e.ogg
109,192,103928,1,0,0:0:0:127:b_FL Keys_v86l8o5e.ogg
182,192,104285,1,0,0:0:0:127:b_FL Keys_v86l8o5a.ogg
256,192,104642,1,0,0:0:0:127:b_FL Keys_v86l64-5o5b.ogg
329,192,104910,1,0,0:0:0:127:b_FL Keys_v86l8o5e.ogg
402,192,104955,1,0,0:0:0:127:b_FL Keys_v86l8o5a.ogg
36,192,105000,1,0,0:0:0:127:b_FL Keys_v86l192-73o3a.ogg
182,192,105000,1,0,0:0:0:127:b_FL Keys_v86l8o5b.ogg
475,192,105000,1,0,0:0:0:127:b_FL Keys_v86l8o6cp.ogg
256,192,106071,1,0,0:0:0:127:b_FL Keys_v86l8o5b.ogg
36,192,106428,1,0,0:0:0:127:b_FL Keys_v86l192-37o3a.ogg
182,192,106428,1,0,0:0:0:127:b_FL Keys_v86l8o5e.ogg
329,192,106428,1,0,0:0:0:127:b_FL Keys_v86l8o6cp.ogg
109,192,106964,1,0,0:0:0:127:b_FL Keys_v86l192-37o3b.ogg
256,192,106964,1,0,0:0:0:127:b_FL Keys_v86l8o5a.ogg
402,192,106964,1,0,0:0:0:127:b_FL Keys_v86l8o6d.ogg
182,192,107500,1,0,0:0:0:127:b_FL Keys_v86l192-25o4cp.ogg
329,192,107500,1,0,0:0:0:127:b_FL Keys_v86l8o5a.ogg
475,192,107500,1,0,0:0:0:127:b_FL Keys_v86l8o6e.ogg
329,192,107946,1,0,0:0:0:127:b_FL Keys_v86l16-9o5d.ogg
402,192,107991,1,0,0:0:0:127:b_FL Keys_v86l16-9o5e.ogg
36,192,108035,1,0,0:0:0:127:b_FL Keys_v86l192-109o4d.ogg
109,192,108035,1,0,0:0:0:127:b_FL Keys_v86l16-9o4a.ogg
256,192,108035,1,0,0:0:0:127:b_FL Keys_v86l16-9o5fp.ogg
475,192,108035,1,0,0:0:0:127:b_FL Keys_v86l16-9o5a.ogg
109,192,110000,1,0,0:0:0:127:b_FL Keys_v86l24-5o4a.ogg
182,192,110357,1,0,0:0:0:127:b_FL Keys_v86l12o5d.ogg
256,192,110714,1,0,0:0:0:127:b_FL Keys_v86l12o5e.ogg
329,192,111071,1,0,0:0:0:127:b_FL Keys_v86l12o5a.ogg
256,192,111339,1,0,0:0:0:127:b_FL Keys_v86l192-49o5e.ogg
402,192,111383,1,0,0:0:0:127:b_FL Keys_v86l192-49o5a.ogg
36,192,111428,1,0,0:0:0:127:b_FL Keys_v86l192-49o3a.ogg
182,192,111428,1,0,0:0:0:127:b_FL Keys_v86l192-49o5b.ogg
475,192,111428,1,0,0:0:0:127:b_FL Keys_v86l192-49o6cp.ogg
109,192,112500,1,0,0:0:0:127:b_FL Keys_v86l192-25o5b.ogg
256,192,112857,1,0,0:0:0:127:b_FL Keys_v86l192-25o6cp.ogg
182,192,112857,1,0,0:0:0:127:b_FL Keys_v86l192-25o5e.ogg
36,192,112857,1,0,0:0:0:127:b_FL Keys_v86l192-25o3a.ogg
109,192,113392,1,0,0:0:0:127:b_FL Keys_v86l192-25o3b.ogg
256,192,113392,1,0,0:0:0:127:b_FL Keys_v86l192-25o5a.ogg
329,192,113392,1,0,0:0:0:127:b_FL Keys_v86l192-25o6d.ogg
182,192,113928,1,0,0:0:0:127:b_FL Keys_v86l192-25o4cp.ogg
329,192,113928,1,0,0:0:0:127:b_FL Keys_v86l192-25o5a.ogg
402,192,113928,1,0,0:0:0:127:b_FL Keys_v86l192-25o6e.ogg
36,192,114464,1,0,0:0:0:127:b_FL Keys_v86l96-71o3d.ogg
109,192,114464,1,0,0:0:0:127:b_FL Keys_v86l96-71o4d.ogg
182,192,114464,1,0,0:0:0:127:b_FL Keys_v86l48-25o5a.ogg
256,192,114464,1,0,0:0:0:127:b_FL Keys_v86l48-25o5b.ogg
475,192,114464,1,0,0:0:0:127:b_FL Keys_v86l48-25o6fp.ogg
475,192,116964,1,0,0:0:0:127:b_FL Keys_v86l192-25o6fp.ogg
256,192,117678,1,0,0:0:0:127:b_FL Keys_v86l192-49o5e.ogg
36,192,117767,1,0,0:0:0:127:b_FL Keys_v86l192-49o3gp.ogg
109,192,117767,1,0,0:0:0:127:b_FL Keys_v86l192-49o4gp.ogg
329,192,117767,1,0,0:0:0:127:b_FL Keys_v86l192-49o5b.ogg
402,192,117857,1,0,0:0:0:127:b_FL Keys_v86l192-49o6e.ogg
182,192,118928,1,0,0:0:0:127:b_FL Keys_v86l192-25o5b.ogg
36,192,119285,1,0,0:0:0:127:b_FL Keys_v86l192-49o4f.ogg
109,192,119285,1,0,0:0:0:127:b_FL Keys_v86l192-49o4gp.ogg
256,192,119285,1,0,0:0:0:127:b_FL Keys_v86l192-49o5d.ogg
402,192,119285,1,0,0:0:0:127:b_FL Keys_v86l192-49o6d.ogg
329,192,120357,1,0,0:0:0:127:b_FL Keys_v86l192-25o6cp.ogg
36,192,120714,1,0,0:0:0:127:b_FL Keys_v86l192-91o4fp.ogg
109,192,120714,1,0,0:0:0:127:b_FL Keys_v86l192-91o4a.ogg
182,192,120714,1,0,0:0:0:127:b_FL Keys_v86l192-91o5cp.ogg
256,192,120714,1,0,0:0:0:127:b_FL Keys_v86l192-91o5a.ogg
256,192,122857,1,0,0:0:0:127:b_FL Keys_v86l192-25o5a.ogg
329,192,123214,1,0,0:0:0:127:b_FL Keys_v86l192-25o5b.ogg
36,192,123571,1,0,0:0:0:127:b_FL Keys_v86l192-145o4dp.ogg
182,192,123571,1,0,0:0:0:127:b_FL Keys_v86l192-145o4ap.ogg
256,192,123571,1,0,0:0:0:127:b_FL Keys_v86l192-25o5fp.ogg
402,192,123571,1,0,0:0:0:127:b_FL Keys_v86l192-25o6cp.ogg
329,192,124642,1,0,0:0:0:127:b_FL Keys_v86l192-19o5b.ogg
329,192,125000,1,0,0:0:0:127:b_FL Keys_v86l192-25o5b.ogg
256,192,125357,1,0,0:0:0:127:b_FL Keys_v86l192-25o5a.ogg
109,192,125714,1,0,0:0:0:127:b_FL Keys_v86l192-25o5fp.ogg
402,192,126071,1,0,0:0:0:127:b_FL Keys_v86l192-25o6cp.ogg
36,192,126428,1,0,0:0:0:127:b_FL Keys_v86l192-73o4e.ogg
109,192,126428,1,0,0:0:0:127:b_FL Keys_v86l192-73o4b.ogg
182,192,126428,1,0,0:0:0:127:b_FL Keys_v86l192-73o5e.ogg
256,192,126428,1,0,0:0:0:127:b_FL Keys_v86l192-73o5fp.ogg
329,192,126428,1,0,0:0:0:127:b_FL Keys_v86l192-73o5b.ogg
36,192,127857,1,0,0:0:0:127:b_FL Keys_v86l192-73o3e.ogg
109,192,127857,1,0,0:0:0:127:b_FL Keys_v86l192-73o4e.ogg
182,192,127857,1,0,0:0:0:127:b_FL Keys_v86l192-73o5e.ogg
256,192,127857,1,0,0:0:0:127:b_FL Keys_v86l192-43o5fp.ogg
329,192,127857,1,0,0:0:0:127:b_FL Keys_v86l192-73o5b.ogg
182,192,128571,1,0,0:0:0:127:b_FL Keys_v86l192-25o5gp.ogg
256,192,129196,1,0,0:0:0:127:b_FL Keys_v86l192-43o5e.ogg
329,192,129241,1,0,0:0:0:127:b_FL Keys_v86l192-43o5a.ogg
36,192,129285,1,0,0:0:0:127:b_FL Keys_v86l192-43o3a.ogg
109,192,129285,1,0,0:0:0:127:b_FL Keys_v86l192-31o5b.ogg
402,192,129285,1,0,0:0:0:127:b_FL Keys_v86l192-43o6cp.ogg
109,192,129642,1,0,0:0:0:127:b_FL Keys_v86l192-25o4e.ogg
182,192,130000,1,0,0:0:0:127:b_FL Keys_v86l192-25o4a.ogg
402,192,130357,1,0,0:0:0:127:b_FL Keys_v86l192-19o5b.ogg
256,192,130357,1,0,0:0:0:127:b_FL Keys_v86l192-25o4b.ogg
36,192,130714,1,0,0:0:0:127:b_FL Keys_v86l192-41o5cp.ogg
182,192,130714,1,0,0:0:0:127:b_FL Keys_v86l192-41o5e.ogg
329,192,130714,1,0,0:0:0:127:b_FL Keys_v86l192-25o6cp.ogg
402,192,131250,1,0,0:0:0:127:b_FL Keys_v86l192-25o6d.ogg
475,192,131785,1,0,0:0:0:127:b_FL Keys_v86l192-25o6e.ogg
36,192,132142,1,0,0:0:0:127:b_FL Keys_v86l192-25o3d.ogg
182,192,132142,1,0,0:0:0:127:b_FL Keys_v86l192-109o5d.ogg
256,192,132187,1,0,0:0:0:127:b_FL Keys_v86l192-109o5e.ogg
329,192,132232,1,0,0:0:0:127:b_FL Keys_v86l192-109o5fp.ogg
402,192,132232,1,0,0:0:0:127:b_FL Keys_v86l192-109o5a.ogg
109,192,132500,1,0,0:0:0:127:b_FL Keys_v86l192-25o3a.ogg
182,192,132857,1,0,0:0:0:127:b_FL Keys_v86l192-25o4d.ogg
256,192,133214,1,0,0:0:0:127:b_FL Keys_v86l192-25o4fp.ogg
329,192,133571,1,0,0:0:0:127:b_FL Keys_v86l192-25o4a.ogg
256,192,133928,1,0,0:0:0:127:b_FL Keys_v86l192-25o4fp.ogg
402,192,134285,1,0,0:0:0:127:b_FL Keys_v86l192-25o5d.ogg
109,192,134642,1,0,0:0:0:127:b_FL Keys_v86l192-25o4a.ogg
329,192,134910,1,0,0:0:0:127:b_FL Keys_v86l192-73o5e.ogg
402,192,134955,1,0,0:0:0:127:b_FL Keys_v86l192-73o5a.ogg
36,192,135000,1,0,0:0:0:127:b_FL Keys_v86l192-25o3a.ogg
182,192,135000,1,0,0:0:0:127:b_FL Keys_v86l192-61o5b.ogg
475,192,135000,1,0,0:0:0:127:b_FL Keys_v86l192-73o6cp.ogg
109,192,135357,1,0,0:0:0:127:b_FL Keys_v86l192-25o4e.ogg
182,192,135714,1,0,0:0:0:127:b_FL Keys_v86l192-25o4a.ogg
109,192,136071,1,0,0:0:0:127:b_FL Keys_v86l192-25o4b.ogg
256,192,136071,1,0,0:0:0:127:b_FL Keys_v86l192-25o5b.ogg
36,192,136428,1,0,0:0:0:127:b_FL Keys_v86l64-15o5cp.ogg
182,192,136428,1,0,0:0:0:127:b_FL Keys_v86l64-15o5e.ogg
329,192,136428,1,0,0:0:0:127:b_FL Keys_v86l192-25o6cp.ogg
402,192,136964,1,0,0:0:0:127:b_FL Keys_v86l192-25o6d.ogg
475,192,137500,1,0,0:0:0:127:b_FL Keys_v86l192-25o6e.ogg
36,192,137857,1,0,0:0:0:127:b_FL Keys_v86l192-25o3d.ogg
256,192,137901,1,0,0:0:0:127:b_FL Keys_v86l192-121o5fp.ogg
402,192,137946,1,0,0:0:0:127:b_FL Keys_v86l192-121o6fp.ogg
109,192,138214,1,0,0:0:0:127:b_FL Keys_v86l192-25o3a.ogg
182,192,138571,1,0,0:0:0:127:b_FL Keys_v86l192-25o4d.ogg
256,192,138928,1,0,0:0:0:127:b_FL Keys_v86l192-25o4fp.ogg
329,192,139285,1,0,0:0:0:127:b_FL Keys_v86l192-25o4a.ogg
256,192,139642,1,0,0:0:0:127:b_FL Keys_v86l192-25o4fp.ogg
182,192,140000,1,0,0:0:0:127:b_FL Keys_v86l192-25o5d.ogg
329,192,140000,1,0,0:0:0:127:b_FL Keys_v86l192-25o5fp.ogg
475,192,140000,1,0,0:0:0:127:b_FL Keys_v86l192-25o6fp.ogg
402,192,140357,1,0,0:0:0:127:b_FL Keys_v86l192-25o6gp.ogg
256,192,140357,1,0,0:0:0:127:b_FL Keys_v86l192-25o5gp.ogg
109,192,140357,1,0,0:0:0:127:b_FL Keys_v86l192-25o4a.ogg
36,192,140714,1,0,0:0:0:127:b_FL Keys_v86l192-25o3fp.ogg
182,192,140714,1,0,0:0:0:127:b_FL Keys_v86l384-97o5a.ogg
329,192,140714,1,0,0:0:0:127:b_FL Keys_v86l384-97o6cp.ogg
475,192,140714,1,0,0:0:0:127:b_FL Keys_v86l384-97o6a.ogg
109,192,141071,1,0,0:0:0:127:b_FL Keys_v86l192-25o4cp.ogg
256,192,141428,1,0,0:0:0:127:b_FL Keys_v86l192-25o4a.ogg
109,192,141785,1,0,0:0:0:127:b_FL Keys_v86l192-25o4cp.ogg
182,192,141785,1,0,0:0:0:127:b_FL Keys_v86l384-25o5a.ogg
329,192,141785,1,0,0:0:0:127:b_FL Keys_v86l384-25o6cp.ogg
475,192,141785,1,0,0:0:0:127:b_FL Keys_v86l384-25o6a.ogg
36,192,142142,1,0,0:0:0:127:b_FL Keys_v86l192-25o3e.ogg
256,192,142142,1,0,0:0:0:127:b_FL Keys_v86l384-97o5gp.ogg
402,192,142142,1,0,0:0:0:127:b_FL Keys_v86l384-97o6gp.ogg
109,192,142500,1,0,0:0:0:127:b_FL Keys_v86l192-25o4e.ogg
329,192,142857,1,0,0:0:0:127:b_FL Keys_v86l384-73o6e.ogg
182,192,142857,1,0,0:0:0:127:b_FL Keys_v86l192-25o4gp.ogg
109,192,143214,1,0,0:0:0:127:b_FL Keys_v86l192-25o4e.ogg
36,192,143571,1,0,0:0:0:127:b_FL Keys_v86l192-25o3d.ogg
182,192,143571,1,0,0:0:0:127:b_FL Keys_v86l384-241o5fp.ogg
329,192,143571,1,0,0:0:0:127:b_FL Keys_v86l384-241o6d.ogg
475,192,143571,1,0,0:0:0:127:b_FL Keys_v86l384-241o6fp.ogg
109,192,143928,1,0,0:0:0:127:b_FL Keys_v86l192-25o3a.ogg
182,192,144285,1,0,0:0:0:127:b_FL Keys_v86l192-25o4d.ogg
256,192,144642,1,0,0:0:0:127:b_FL Keys_v86l192-25o4fp.ogg
329,192,145000,1,0,0:0:0:127:b_FL Keys_v86l192-25o4a.ogg
256,192,145357,1,0,0:0:0:127:b_FL Keys_v86l192-25o4fp.ogg
36,192,145714,1,0,0:0:0:127:b_FL Keys_v86l192-25o5d.ogg
182,192,145714,1,0,0:0:0:127:b_FL Keys_v86l384-25o5fp.ogg
329,192,145714,1,0,0:0:0:127:b_FL Keys_v86l384-25o6fp.ogg
109,192,146071,1,0,0:0:0:127:b_FL Keys_v86l192-25o4a.ogg
256,192,146071,1,0,0:0:0:127:b_FL Keys_v86l384-25o5gp.ogg
402,192,146071,1,0,0:0:0:127:b_FL Keys_v86l384-25o6gp.ogg
36,192,146428,1,0,0:0:0:127:b_FL Keys_v86l384-49o3fp.ogg
182,192,146428,1,0,0:0:0:127:b_FL Keys_v86l384-97o5a.ogg
329,192,146473,1,0,0:0:0:127:b_FL Keys_v86l384-97o6cp.ogg
475,192,146517,1,0,0:0:0:127:b_FL Keys_v86l384-97o6a.ogg
109,192,146785,1,0,0:0:0:127:b_FL Keys_v86l384-49o4cp.ogg
256,192,147142,1,0,0:0:0:127:b_FL Keys_v86l384-49o4a.ogg
109,192,147500,1,0,0:0:0:127:b_FL Keys_v86l384-49o4cp.ogg
182,192,147500,1,0,0:0:0:127:b_FL Keys_v86l384-25o5a.ogg
329,192,147500,1,0,0:0:0:127:b_FL Keys_v86l384-25o6cp.ogg
475,192,147500,1,0,0:0:0:127:b_FL Keys_v86l384-25o6a.ogg
402,192,147857,1,0,0:0:0:127:b_FL Keys_v86l384-49o6gp.ogg
256,192,147857,1,0,0:0:0:127:b_FL Keys_v86l384-49o5gp.ogg
36,192,147857,1,0,0:0:0:127:b_FL Keys_v86l384-49o3e.ogg
109,192,148214,1,0,0:0:0:127:b_FL Keys_v86l384-49o4e.ogg
182,192,148571,1,0,0:0:0:127:b_FL Keys_v86l384-49o4gp.ogg
256,192,148571,1,0,0:0:0:127:b_FL Keys_v86l384-49o5e.ogg
329,192,148571,1,0,0:0:0:127:b_FL Keys_v86l384-49o6e.ogg
109,192,148928,1,0,0:0:0:127:b_FL Keys_v86l384-49o4e.ogg
36,192,149285,1,0,0:0:0:127:b_FL Keys_v86l384-49o3d.ogg
256,192,149285,1,0,0:0:0:127:b_FL Keys_v86l384-73o5fp.ogg
402,192,149285,1,0,0:0:0:127:b_FL Keys_v86l384-73o6cp.ogg
475,192,149285,1,0,0:0:0:127:b_FL Keys_v86l384-73o6fp.ogg
109,192,149642,1,0,0:0:0:127:b_FL Keys_v86l384-49o4d.ogg
182,192,150000,1,0,0:0:0:127:b_FL Keys_v86l384-97o4fp.ogg
329,192,150000,1,0,0:0:0:127:b_FL Keys_v86l384-25o5e.ogg
475,192,150000,1,0,0:0:0:127:b_FL Keys_v86l384-25o6e.ogg
402,192,150357,1,0,0:0:0:127:b_FL Keys_v86l384-25o6d.ogg
109,192,150357,1,0,0:0:0:127:b_FL Keys_v86l384-25o5d.ogg
36,192,150714,1,0,0:0:0:127:b_FL Keys_v86l384-145o3cp.ogg
256,192,150714,1,0,0:0:0:127:b_FL Keys_v86l384-25o5e.ogg
329,192,150714,1,0,0:0:0:127:b_FL Keys_v86l384-73o5b.ogg
475,192,150714,1,0,0:0:0:127:b_FL Keys_v86l384-25o6e.ogg
182,192,151428,1,0,0:0:0:127:b_FL Keys_v86l384-25o5a.ogg
256,192,151785,1,0,0:0:0:127:b_FL Keys_v86l384-25o5b.ogg
36,192,152142,128,0,153928:0:0:0:127:b_FL Keys_v86l384-217o4dp.ogg
329,192,152142,128,0,153928:0:0:0:127:b_FL Keys_v86l384-217o5fp.ogg
402,192,152142,128,0,153928:0:0:0:127:b_FL Keys_v86l384-217o6cp.ogg
109,192,154285,1,0,0:0:0:127:b_FL Keys_v86l384-49o5fp.ogg
256,192,154642,1,0,0:0:0:127:b_FL Keys_v86l384-49o5a.ogg
36,192,155000,128,0,156785:0:0:0:127:b_FL Keys_v86l384-193o4e.ogg
182,192,155000,128,0,156785:0:0:0:127:b_FL Keys_v86l384-145o5d.ogg
329,192,155044,128,0,156785:0:0:0:127:b_FL Keys_v86l384-145o5fp.ogg
475,192,155089,128,0,156785:0:0:0:127:b_FL Keys_v86l384-145o6cp.ogg
475,192,157142,1,0,0:0:0:127:b_FL Keys_v93l384-49o6e.ogg
402,192,157500,1,0,0:0:0:127:b_FL Keys_v105l384-49o6cp.ogg
109,192,157857,1,0,0:0:0:127:b_FL Keys_v102l384-17o3a.ogg
182,192,157857,1,0,0:0:0:127:b_FL Keys_v102l384-17o4e.ogg
256,192,157857,128,0,160714:0:0:0:127:b_FL Keys_v102l384-577o5a.ogg
109,192,158095,1,0,0:0:0:127:b_FL Keys_v107l384-17o3a.ogg
182,192,158095,1,0,0:0:0:127:b_FL Keys_v107l384-17o4e.ogg
109,192,158333,1,0,0:0:0:127:b_FL Keys_v99l384-17o3a.ogg
182,192,158333,1,0,0:0:0:127:b_FL Keys_v99l384-17o4e.ogg
109,192,158571,1,0,0:0:0:127:b_FL Keys_v107l384-17o3a.ogg
182,192,158571,1,0,0:0:0:127:b_FL Keys_v107l384-17o4e.ogg
109,192,158809,1,0,0:0:0:127:b_FL Keys_v105l384-17o3a.ogg
182,192,158809,1,0,0:0:0:127:b_FL Keys_v105l384-17o4e.ogg
109,192,159047,1,0,0:0:0:127:b_FL Keys_v99l384-17o3a.ogg
182,192,159047,1,0,0:0:0:127:b_FL Keys_v99l384-17o4e.ogg
109,192,159285,1,0,0:0:0:127:b_FL Keys_v105l384-17o3a.ogg
182,192,159285,1,0,0:0:0:127:b_FL Keys_v105l384-17o4e.ogg
109,192,159523,1,0,0:0:0:127:b_FL Keys_v103l384-17o3a.ogg
182,192,159523,1,0,0:0:0:127:b_FL Keys_v103l384-17o4e.ogg
109,192,159761,1,0,0:0:0:127:b_FL Keys_v105l384-17o3a.ogg
182,192,159761,1,0,0:0:0:127:b_FL Keys_v105l384-17o4e.ogg
109,192,160000,1,0,0:0:0:127:b_FL Keys_v97l384-17o3a.ogg
182,192,160000,1,0,0:0:0:127:b_FL Keys_v97l384-17o4e.ogg
109,192,160238,1,0,0:0:0:127:b_FL Keys_v105l384-17o3a.ogg
182,192,160238,1,0,0:0:0:127:b_FL Keys_v105l384-17o4e.ogg
109,192,160476,1,0,0:0:0:127:b_FL Keys_v103l384-17o3a.ogg
182,192,160476,1,0,0:0:0:127:b_FL Keys_v103l384-17o4e.ogg
109,192,160714,1,0,0:0:0:127:b_FL Keys_v105l384-17o3a.ogg
182,192,160714,1,0,0:0:0:127:b_FL Keys_v105l384-17o4e.ogg
109,192,160952,1,0,0:0:0:127:b_FL Keys_v98l384-17o3a.ogg
182,192,160952,1,0,0:0:0:127:b_FL Keys_v98l384-17o4e.ogg
109,192,161190,1,0,0:0:0:127:b_FL Keys_v106l384-17o3a.ogg
182,192,161190,1,0,0:0:0:127:b_FL Keys_v106l384-17o4e.ogg
109,192,161428,1,0,0:0:0:127:b_FL Keys_v101l384-17o3a.ogg
182,192,161428,1,0,0:0:0:127:b_FL Keys_v101l384-17o4e.ogg
109,192,161666,1,0,0:0:0:127:b_FL Keys_v107l384-17o3a.ogg
182,192,161666,1,0,0:0:0:127:b_FL Keys_v107l384-17o4e.ogg
109,192,161904,1,0,0:0:0:127:b_FL Keys_v108l384-17o3a.ogg
182,192,161904,1,0,0:0:0:127:b_FL Keys_v108l384-17o4e.ogg
329,192,162098,128,0,165000:0:0:0:127:b_FL Keys_v102l384-577o6e.ogg
36,192,162142,1,0,0:0:0:127:b_FL Keys_v101l384-17o3d.ogg
109,192,162142,1,0,0:0:0:127:b_FL Keys_v106l384-17o3a.ogg
256,192,162142,128,0,165000:0:0:0:127:b_FL Keys_v102l384-577o6a.ogg
402,192,162187,128,0,165000:0:0:0:127:b_FL Keys_v102l384-577o6b.ogg
475,192,162187,128,0,165000:0:0:0:127:b_FL Keys_v102l384-577o7e.ogg
36,192,162380,1,0,0:0:0:127:b_FL Keys_v104l384-17o3d.ogg
109,192,162380,1,0,0:0:0:127:b_FL Keys_v101l384-17o3a.ogg
36,192,162619,1,0,0:0:0:127:b_FL Keys_v100l384-17o3d.ogg
109,192,162619,1,0,0:0:0:127:b_FL Keys_v101l384-17o3a.ogg
36,192,162857,1,0,0:0:0:127:b_FL Keys_v106l384-17o3d.ogg
109,192,162857,1,0,0:0:0:127:b_FL Keys_v104l384-17o3a.ogg
36,192,163095,1,0,0:0:0:127:b_FL Keys_v105l384-17o3d.ogg
109,192,163095,1,0,0:0:0:127:b_FL Keys_v102l384-17o3a.ogg
36,192,163333,1,0,0:0:0:127:b_FL Keys_v104l384-17o3d.ogg
109,192,163333,1,0,0:0:0:127:b_FL Keys_v101l384-17o3a.ogg
36,192,163571,1,0,0:0:0:127:b_FL Keys_v100l384-17o3d.ogg
109,192,163571,1,0,0:0:0:127:b_FL Keys_v102l384-17o3a.ogg
36,192,163809,1,0,0:0:0:127:b_FL Keys_v99l384-17o3d.ogg
109,192,163809,1,0,0:0:0:127:b_FL Keys_v102l384-17o3a.ogg
36,192,164047,1,0,0:0:0:127:b_FL Keys_v101l384-17o3d.ogg
109,192,164047,1,0,0:0:0:127:b_FL Keys_v105l384-17o3a.ogg
36,192,164285,1,0,0:0:0:127:b_FL Keys_v102l384-17o3d.ogg
109,192,164285,1,0,0:0:0:127:b_FL Keys_v98l384-17o3a.ogg
36,192,164523,1,0,0:0:0:127:b_FL Keys_v103l384-17o3d.ogg
109,192,164523,1,0,0:0:0:127:b_FL Keys_v98l384-17o3a.ogg
36,192,164761,1,0,0:0:0:127:b_FL Keys_v102l384-17o3d.ogg
109,192,164761,1,0,0:0:0:127:b_FL Keys_v102l384-17o3a.ogg
36,192,165000,1,0,0:0:0:127:b_FL Keys_v102l384-17o3d.ogg
109,192,165238,1,0,0:0:0:127:b_FL Keys_v102l384-17o3a.ogg
182,192,165476,1,0,0:0:0:127:b_FL Keys_v102l384-17o4d.ogg
36,192,165714,1,0,0:0:0:127:b_FL Keys_v102l384-17o3d.ogg
109,192,165952,1,0,0:0:0:127:b_FL Keys_v102l384-17o3a.ogg
182,192,166190,1,0,0:0:0:127:b_FL Keys_v102l384-17o4d.ogg
36,192,166428,1,0,0:0:0:127:b_FL Keys_v102l384-17o3d.ogg
109,192,166666,1,0,0:0:0:127:b_FL Keys_v102l384-17o3a.ogg
182,192,166904,1,0,0:0:0:127:b_FL Keys_v102l384-17o4d.ogg
36,192,167142,1,0,0:0:0:127:b_FL Keys_v102l384-17o3d.ogg
109,192,167380,1,0,0:0:0:127:b_FL Keys_v102l384-17o3a.ogg
182,192,167619,1,0,0:0:0:127:b_FL Keys_v102l384-17o4d.ogg
329,192,167857,1,0,0:0:0:127:b_FL Keys_v107l384-49o5cp.ogg
256,192,167857,1,0,0:0:0:127:b_FL Keys_v107l384-49o4a.ogg
36,192,167857,1,0,0:0:0:127:b_FL Keys_v102l384-17o3d.ogg
109,192,168095,1,0,0:0:0:127:b_FL Keys_v102l384-17o3a.ogg
182,192,168333,1,0,0:0:0:127:b_FL Keys_v102l384-17o4d.ogg
329,192,168333,1,0,0:0:0:127:b_FL Keys_v107l384-17o4b.ogg
402,192,168333,1,0,0:0:0:127:b_FL Keys_v107l384-17o5d.ogg
36,192,168571,1,0,0:0:0:127:b_FL Keys_v102l384-17o3d.ogg
182,192,168571,1,0,0:0:0:127:b_FL Keys_v107l384-49o5cp.ogg
329,192,168571,1,0,0:0:0:127:b_FL Keys_v107l384-49o5e.ogg
109,192,168809,1,0,0:0:0:127:b_FL Keys_v102l384-17o3a.ogg
182,192,169047,1,0,0:0:0:127:b_FL Keys_v102l384-17o4d.ogg
256,192,169047,1,0,0:0:0:127:b_FL Keys_v107l384-17o5d.ogg
402,192,169047,1,0,0:0:0:127:b_FL Keys_v107l384-17o5fp.ogg
36,192,169285,1,0,0:0:0:127:b_FL Keys_v102l384-17o3d.ogg
329,192,169285,1,0,0:0:0:127:b_FL Keys_v107l384-49o5e.ogg
475,192,169285,1,0,0:0:0:127:b_FL Keys_v107l384-49o5gp.ogg
109,192,169523,1,0,0:0:0:127:b_FL Keys_v102l384-17o3a.ogg
182,192,169761,1,0,0:0:0:127:b_FL Keys_v102l384-17o4d.ogg
329,192,169761,1,0,0:0:0:127:b_FL Keys_v107l384-17o5fp.ogg
402,192,169761,1,0,0:0:0:127:b_FL Keys_v107l384-17o5a.ogg
36,192,170000,1,0,0:0:0:127:b_FL Keys_v102l384-17o3d.ogg
256,192,170000,1,0,0:0:0:127:b_FL Keys_v107l384-49o5gp.ogg
475,192,170000,1,0,0:0:0:127:b_FL Keys_v107l384-49o5b.ogg
109,192,170238,1,0,0:0:0:127:b_FL Keys_v102l384-17o3a.ogg
182,192,170476,1,0,0:0:0:127:b_FL Keys_v102l384-17o4d.ogg
256,192,170476,1,0,0:0:0:127:b_FL Keys_v107l384-17o5a.ogg
329,192,170476,1,0,0:0:0:127:b_FL Keys_v107l384-17o6cp.ogg
36,192,170714,1,0,0:0:0:127:b_FL Keys_v102l384-17o3d.ogg
402,192,170714,1,0,0:0:0:127:b_FL Keys_v107l384-49o5b.ogg
475,192,170714,1,0,0:0:0:127:b_FL Keys_v107l384-49o6d.ogg
109,192,170952,1,0,0:0:0:127:b_FL Keys_v102l384-17o3a.ogg
182,192,171190,1,0,0:0:0:127:b_FL Keys_v102l384-17o4d.ogg
256,192,171190,1,0,0:0:0:127:b_FL Keys_v107l384-17o5a.ogg
329,192,171190,1,0,0:0:0:127:b_FL Keys_v107l384-17o6cp.ogg
36,192,171428,1,0,0:0:0:127:b_FL Keys_v102l384-17o3d.ogg
475,192,171428,1,0,0:0:0:127:b_FL Keys_v107l384-17o6e.ogg
109,192,171666,1,0,0:0:0:127:b_FL Keys_v102l384-17o3a.ogg
402,192,171666,1,0,0:0:0:127:b_FL Keys_v107l384-17o6d.ogg
182,192,171904,1,0,0:0:0:127:b_FL Keys_v102l384-17o4d.ogg
329,192,171904,1,0,0:0:0:127:b_FL Keys_v107l384-17o6cp.ogg
36,192,172142,1,0,0:0:0:127:b_FL Keys_v102l384-17o3d.ogg
256,192,172142,1,0,0:0:0:127:b_FL Keys_v107l384-49o5b.ogg
109,192,172380,1,0,0:0:0:127:b_FL Keys_v102l384-17o3a.ogg
182,192,172619,1,0,0:0:0:127:b_FL Keys_v102l384-17o4d.ogg
329,192,172619,1,0,0:0:0:127:b_FL Keys_v107l384-17o5a.ogg
475,192,172857,1,0,0:0:0:127:b_FL Keys_v107l384-17o6cp.ogg
36,192,172857,1,0,0:0:0:127:b_FL Keys_v102l384-17o3d.ogg
109,192,173095,1,0,0:0:0:127:b_FL Keys_v102l384-17o3a.ogg
402,192,173095,1,0,0:0:0:127:b_FL Keys_v107l384-17o5b.ogg
182,192,173333,1,0,0:0:0:127:b_FL Keys_v102l384-17o4d.ogg
329,192,173333,1,0,0:0:0:127:b_FL Keys_v107l384-17o5a.ogg
36,192,173571,1,0,0:0:0:127:b_FL Keys_v107l384-17o3e.ogg
256,192,173571,1,0,0:0:0:127:b_FL Keys_v107l384-49o5e.ogg
475,192,173571,1,0,0:0:0:127:b_FL Keys_v107l384-49o5gp.ogg
109,192,173809,1,0,0:0:0:127:b_FL Keys_v107l384-17o3b.ogg
182,192,174047,1,0,0:0:0:127:b_FL Keys_v107l384-17o4e.ogg
329,192,174047,1,0,0:0:0:127:b_FL Keys_v107l384-17o5d.ogg
402,192,174047,1,0,0:0:0:127:b_FL Keys_v107l384-17o5fp.ogg
36,192,174270,1,0,0:0:0:127:b_FL Keys_v107l384-17o3e.ogg
256,192,174285,1,0,0:0:0:127:b_FL Keys_v107l384-49o5e.ogg
475,192,174285,1,0,0:0:0:127:b_FL Keys_v107l384-49o5gp.ogg
109,192,174523,1,0,0:0:0:127:b_FL Keys_v107l384-17o3b.ogg
182,192,174747,1,0,0:0:0:127:b_FL Keys_v107l384-17o4e.ogg
329,192,174761,1,0,0:0:0:127:b_FL Keys_v107l384-17o5d.ogg
402,192,174761,1,0,0:0:0:127:b_FL Keys_v107l384-17o5fp.ogg
36,192,175000,1,0,0:0:0:127:b_FL Keys_v107l384-17o3e.ogg
475,192,175000,1,0,0:0:0:127:b_FL Keys_v107l384-17o5gp.ogg
109,192,175238,1,0,0:0:0:127:b_FL Keys_v107l384-17o3b.ogg
402,192,175238,1,0,0:0:0:127:b_FL Keys_v107l384-17o5fp.ogg
182,192,175476,1,0,0:0:0:127:b_FL Keys_v107l384-17o4e.ogg
329,192,175476,1,0,0:0:0:127:b_FL Keys_v107l384-17o5e.ogg
36,192,175714,1,0,0:0:0:127:b_FL Keys_v107l384-17o3e.ogg
402,192,175714,1,0,0:0:0:127:b_FL Keys_v107l384-17o5d.ogg
109,192,175952,1,0,0:0:0:127:b_FL Keys_v107l384-17o3b.ogg
329,192,175952,1,0,0:0:0:127:b_FL Keys_v107l384-17o5cp.ogg
182,192,176190,1,0,0:0:0:127:b_FL Keys_v107l384-17o4e.ogg
256,192,176190,1,0,0:0:0:127:b_FL Keys_v107l384-17o4b.ogg
36,192,176428,1,0,0:0:0:127:b_FL Keys_v102l384-17o3d.ogg
109,192,176428,1,0,0:0:0:127:b_FL Keys_v107l384-49o5a.ogg
402,192,176428,1,0,0:0:0:127:b_FL Keys_v107l384-49o6cp.ogg
182,192,176666,1,0,0:0:0:127:b_FL Keys_v102l384-17o3a.ogg
256,192,176904,1,0,0:0:0:127:b_FL Keys_v102l384-17o4d.ogg
329,192,176904,1,0,0:0:0:127:b_FL Keys_v107l384-17o5b.ogg
475,192,176904,1,0,0:0:0:127:b_FL Keys_v107l384-17o6d.ogg
36,192,177142,1,0,0:0:0:127:b_FL Keys_v102l384-17o3d.ogg
182,192,177142,1,0,0:0:0:127:b_FL Keys_v107l384-49o6cp.ogg
402,192,177142,1,0,0:0:0:127:b_FL Keys_v107l384-49o6e.ogg
109,192,177380,1,0,0:0:0:127:b_FL Keys_v102l384-17o3a.ogg
182,192,177619,1,0,0:0:0:127:b_FL Keys_v102l384-17o4d.ogg
329,192,177619,1,0,0:0:0:127:b_FL Keys_v107l384-17o6d.ogg
475,192,177619,1,0,0:0:0:127:b_FL Keys_v107l384-17o6fp.ogg
402,192,177857,1,0,0:0:0:127:b_FL Keys_v107l384-49o6gp.ogg
256,192,177857,1,0,0:0:0:127:b_FL Keys_v107l384-49o6e.ogg
36,192,177857,1,0,0:0:0:127:b_FL Keys_v102l384-17o3d.ogg
109,192,178095,1,0,0:0:0:127:b_FL Keys_v102l384-17o3a.ogg
182,192,178333,1,0,0:0:0:127:b_FL Keys_v102l384-17o4d.ogg
256,192,178333,1,0,0:0:0:127:b_FL Keys_v107l384-17o6fp.ogg
329,192,178333,1,0,0:0:0:127:b_FL Keys_v107l384-17o6a.ogg
36,192,178571,1,0,0:0:0:127:b_FL Keys_v102l384-17o3d.ogg
109,192,178571,1,0,0:0:0:127:b_FL Keys_v107l384-49o6gp.ogg
475,192,178571,1,0,0:0:0:127:b_FL Keys_v107l384-49o6b.ogg
182,192,178809,1,0,0:0:0:127:b_FL Keys_v102l384-17o3a.ogg
256,192,179047,1,0,0:0:0:127:b_FL Keys_v102l384-17o4d.ogg
329,192,179047,1,0,0:0:0:127:b_FL Keys_v107l384-17o6a.ogg
402,192,179047,1,0,0:0:0:127:b_FL Keys_v107l384-17o7cp.ogg
36,192,179285,1,0,0:0:0:127:b_FL Keys_v102l384-17o3d.ogg
182,192,179285,1,0,0:0:0:127:b_FL Keys_v107l384-49o6b.ogg
475,192,179285,1,0,0:0:0:127:b_FL Keys_v107l384-49o7d.ogg
109,192,179523,1,0,0:0:0:127:b_FL Keys_v102l384-17o3a.ogg
182,192,179761,1,0,0:0:0:127:b_FL Keys_v102l384-17o4d.ogg
256,192,179761,1,0,0:0:0:127:b_FL Keys_v107l384-17o6a.ogg
402,192,179761,1,0,0:0:0:127:b_FL Keys_v107l384-17o7cp.ogg
36,192,180000,1,0,0:0:0:127:b_FL Keys_v102l384-17o3d.ogg
475,192,180000,1,0,0:0:0:127:b_FL Keys_v107l384-17o7e.ogg
109,192,180238,1,0,0:0:0:127:b_FL Keys_v102l384-17o3a.ogg
402,192,180238,1,0,0:0:0:127:b_FL Keys_v107l384-17o7d.ogg
182,192,180476,1,0,0:0:0:127:b_FL Keys_v102l384-17o4d.ogg
329,192,180476,1,0,0:0:0:127:b_FL Keys_v107l384-17o7cp.ogg
36,192,180714,1,0,0:0:0:127:b_FL Keys_v102l384-17o3d.ogg
256,192,180714,1,0,0:0:0:127:b_FL Keys_v107l384-49o6b.ogg
109,192,180952,1,0,0:0:0:127:b_FL Keys_v102l384-17o3a.ogg
182,192,181190,1,0,0:0:0:127:b_FL Keys_v102l384-17o4d.ogg
329,192,181190,1,0,0:0:0:127:b_FL Keys_v107l384-17o6a.ogg
36,192,181428,1,0,0:0:0:127:b_FL Keys_v102l384-17o3d.ogg
475,192,181428,1,0,0:0:0:127:b_FL Keys_v107l384-17o7cp.ogg
109,192,181666,1,0,0:0:0:127:b_FL Keys_v102l384-17o3a.ogg
402,192,181666,1,0,0:0:0:127:b_FL Keys_v107l384-17o6b.ogg
182,192,181904,1,0,0:0:0:127:b_FL Keys_v102l384-17o4d.ogg
329,192,181904,1,0,0:0:0:127:b_FL Keys_v107l384-17o6a.ogg
36,192,182142,1,0,0:0:0:127:b_FL Keys_v107l384-17o3e.ogg
402,192,182142,1,0,0:0:0:127:b_FL Keys_v107l384-49o6e.ogg
475,192,182142,1,0,0:0:0:127:b_FL Keys_v107l384-49o6gp.ogg
109,192,182380,1,0,0:0:0:127:b_FL Keys_v107l384-17o3b.ogg
182,192,182619,1,0,0:0:0:127:b_FL Keys_v107l384-17o4e.ogg
256,192,182619,1,0,0:0:0:127:b_FL Keys_v107l384-17o6d.ogg
329,192,182619,1,0,0:0:0:127:b_FL Keys_v107l384-17o6fp.ogg
36,192,182842,1,0,0:0:0:127:b_FL Keys_v107l384-17o3e.ogg
475,192,182857,1,0,0:0:0:127:b_FL Keys_v107l384-49o6gp.ogg
402,192,182857,1,0,0:0:0:127:b_FL Keys_v107l384-49o6e.ogg
109,192,183095,1,0,0:0:0:127:b_FL Keys_v107l384-17o3b.ogg
182,192,183333,1,0,0:0:0:127:b_FL Keys_v107l384-17o4e.ogg
256,192,183333,1,0,0:0:0:127:b_FL Keys_v107l384-17o6d.ogg
329,192,183333,1,0,0:0:0:127:b_FL Keys_v107l384-17o6fp.ogg
36,192,183571,1,0,0:0:0:127:b_FL Keys_v107l384-17o3e.ogg
475,192,183571,1,0,0:0:0:127:b_FL Keys_v107l384-17o6gp.ogg
109,192,183809,1,0,0:0:0:127:b_FL Keys_v107l384-17o3b.ogg
402,192,183809,1,0,0:0:0:127:b_FL Keys_v107l384-17o6fp.ogg
182,192,184047,1,0,0:0:0:127:b_FL Keys_v107l384-17o4e.ogg
329,192,184047,1,0,0:0:0:127:b_FL Keys_v107l384-17o6e.ogg
36,192,184285,1,0,0:0:0:127:b_FL Keys_v107l384-17o3e.ogg
402,192,184285,1,0,0:0:0:127:b_FL Keys_v107l384-17o6d.ogg
109,192,184523,1,0,0:0:0:127:b_FL Keys_v107l384-17o3b.ogg
329,192,184523,1,0,0:0:0:127:b_FL Keys_v107l384-17o6cp.ogg
182,192,184761,1,0,0:0:0:127:b_FL Keys_v107l384-17o4e.ogg
256,192,184761,1,0,0:0:0:127:b_FL Keys_v107l384-17o5b.ogg
36,192,185000,1,0,0:0:0:127:b_FL Keys_v107l384-25o2b.ogg
109,192,185000,1,0,0:0:0:127:b_FL Keys_v107l128-91o5a.ogg
182,192,185238,1,0,0:0:0:127:b_FL Keys_v107l384-17o3fp.ogg
329,192,185476,1,0,0:0:0:127:b_FL Keys_v107l384-17o3b.ogg
36,192,185714,1,0,0:0:0:127:b_FL Keys_v107l384-25o2b.ogg
256,192,185952,1,0,0:0:0:127:b_FL Keys_v107l384-17o3fp.ogg
402,192,186190,1,0,0:0:0:127:b_FL Keys_v107l384-17o3b.ogg
36,192,186428,1,0,0:0:0:127:b_FL Keys_v107l384-25o2b.ogg
182,192,186666,1,0,0:0:0:127:b_FL Keys_v107l384-17o3fp.ogg
329,192,186904,1,0,0:0:0:127:b_FL Keys_v107l384-17o3b.ogg
36,192,187142,1,0,0:0:0:127:b_FL Keys_v107l384-25o2b.ogg
256,192,187142,1,0,0:0:0:127:b_FL Keys_v107l384-17o5gp.ogg
109,192,187380,1,0,0:0:0:127:b_FL Keys_v107l384-17o3fp.ogg
329,192,187380,1,0,0:0:0:127:b_FL Keys_v107l384-17o5a.ogg
182,192,187619,1,0,0:0:0:127:b_FL Keys_v107l384-17o3b.ogg
402,192,187619,1,0,0:0:0:127:b_FL Keys_v107l384-17o5b.ogg
256,192,187857,1,0,0:0:0:127:b_FL Keys_v107l384-145o5fp.ogg
36,192,187857,1,0,0:0:0:127:b_FL Keys_v107l384-17o3cp.ogg
182,192,188095,1,0,0:0:0:127:b_FL Keys_v107l384-17o3gp.ogg
329,192,188333,1,0,0:0:0:127:b_FL Keys_v107l384-17o4cp.ogg
36,192,188571,1,0,0:0:0:127:b_FL Keys_v107l384-17o3cp.ogg
256,192,188809,1,0,0:0:0:127:b_FL Keys_v107l384-17o3gp.ogg
329,192,189047,1,0,0:0:0:127:b_FL Keys_v107l384-17o4cp.ogg
36,192,189285,1,0,0:0:0:127:b_FL Keys_v107l384-17o3cp.ogg
256,192,189285,1,0,0:0:0:127:b_FL Keys_v107l384-17o5gp.ogg
402,192,189285,1,0,0:0:0:127:b_FL Keys_v107l384-17o6cp.ogg
475,192,189285,1,0,0:0:0:127:b_FL Keys_v107l384-17o6dp.ogg
109,192,189523,1,0,0:0:0:127:b_FL Keys_v107l384-17o3gp.ogg
256,192,189523,1,0,0:0:0:127:b_FL Keys_v107l384-17o5gp.ogg
402,192,189523,1,0,0:0:0:127:b_FL Keys_v107l384-17o6cp.ogg
475,192,189523,1,0,0:0:0:127:b_FL Keys_v107l384-17o6dp.ogg
182,192,189761,1,0,0:0:0:127:b_FL Keys_v107l384-17o4cp.ogg
256,192,189761,1,0,0:0:0:127:b_FL Keys_v107l384-17o5gp.ogg
402,192,189761,1,0,0:0:0:127:b_FL Keys_v107l384-17o6cp.ogg
475,192,189761,1,0,0:0:0:127:b_FL Keys_v107l384-17o6dp.ogg
36,192,190000,1,0,0:0:0:127:b_FL Keys_v107l384-17o3cp.ogg
256,192,190000,1,0,0:0:0:127:b_FL Keys_v107l384-17o5gp.ogg
402,192,190000,1,0,0:0:0:127:b_FL Keys_v107l384-17o6cp.ogg
475,192,190000,1,0,0:0:0:127:b_FL Keys_v107l384-17o6dp.ogg
109,192,190238,1,0,0:0:0:127:b_FL Keys_v107l384-17o3gp.ogg
256,192,190238,1,0,0:0:0:127:b_FL Keys_v107l384-17o5gp.ogg
402,192,190238,1,0,0:0:0:127:b_FL Keys_v107l384-17o6cp.ogg
475,192,190238,1,0,0:0:0:127:b_FL Keys_v107l384-17o6dp.ogg
182,192,190476,1,0,0:0:0:127:b_FL Keys_v107l384-17o4cp.ogg
256,192,190476,1,0,0:0:0:127:b_FL Keys_v107l384-17o5gp.ogg
402,192,190476,1,0,0:0:0:127:b_FL Keys_v107l384-17o6cp.ogg
475,192,190476,1,0,0:0:0:127:b_FL Keys_v107l384-17o6dp.ogg
36,192,190714,1,0,0:0:0:127:b_FL Keys_v107l384-17o3d.ogg
475,192,190714,1,0,0:0:0:127:b_FL Keys_v118l384-17o7e.ogg
109,192,190952,1,0,0:0:0:127:b_FL Keys_v107l384-17o3a.ogg
256,192,190952,1,0,0:0:0:127:b_FL Keys_v106l384-17o6e.ogg
329,192,191071,1,0,0:0:0:127:b_FL Keys_v107l384-17o6a.ogg
182,192,191190,1,0,0:0:0:127:b_FL Keys_v107l384-17o4d.ogg
402,192,191190,1,0,0:0:0:127:b_FL Keys_v109l384-17o6b.ogg
36,192,191428,1,0,0:0:0:127:b_FL Keys_v107l384-17o3d.ogg
475,192,191428,1,0,0:0:0:127:b_FL Keys_v115l384-17o7e.ogg
109,192,191666,1,0,0:0:0:127:b_FL Keys_v107l384-17o3a.ogg
402,192,191666,1,0,0:0:0:127:b_FL Keys_v111l384-17o6b.ogg
182,192,191904,1,0,0:0:0:127:b_FL Keys_v107l384-17o4d.ogg
329,192,191904,1,0,0:0:0:127:b_FL Keys_v107l384-17o6a.ogg
36,192,192142,1,0,0:0:0:127:b_FL Keys_v107l384-17o3d.ogg
475,192,192142,1,0,0:0:0:127:b_FL Keys_v118l384-17o7e.ogg
109,192,192380,1,0,0:0:0:127:b_FL Keys_v107l384-17o3a.ogg
256,192,192380,1,0,0:0:0:127:b_FL Keys_v106l384-17o6e.ogg
329,192,192500,1,0,0:0:0:127:b_FL Keys_v107l384-17o6a.ogg
182,192,192619,1,0,0:0:0:127:b_FL Keys_v107l384-17o4d.ogg
402,192,192619,1,0,0:0:0:127:b_FL Keys_v109l384-17o6b.ogg
475,192,192857,1,0,0:0:0:127:b_FL Keys_v115l384-17o7e.ogg
36,192,192857,1,0,0:0:0:127:b_FL Keys_v107l384-17o3d.ogg
109,192,193095,1,0,0:0:0:127:b_FL Keys_v107l384-17o3a.ogg
402,192,193095,1,0,0:0:0:127:b_FL Keys_v111l384-17o6b.ogg
182,192,193333,1,0,0:0:0:127:b_FL Keys_v107l384-17o4d.ogg
329,192,193333,1,0,0:0:0:127:b_FL Keys_v107l384-17o6a.ogg
36,192,193571,1,0,0:0:0:127:b_FL Keys_v107l384-17o3d.ogg
475,192,193571,1,0,0:0:0:127:b_FL Keys_v118l384-17o7e.ogg
109,192,193809,1,0,0:0:0:127:b_FL Keys_v107l384-17o3a.ogg
256,192,193809,1,0,0:0:0:127:b_FL Keys_v106l384-17o6e.ogg
329,192,193928,1,0,0:0:0:127:b_FL Keys_v107l384-17o6a.ogg
182,192,194047,1,0,0:0:0:127:b_FL Keys_v107l384-17o4d.ogg
402,192,194047,1,0,0:0:0:127:b_FL Keys_v109l384-17o6b.ogg
36,192,194285,1,0,0:0:0:127:b_FL Keys_v107l384-17o3d.ogg
475,192,194285,1,0,0:0:0:127:b_FL Keys_v115l384-17o7e.ogg
109,192,194523,1,0,0:0:0:127:b_FL Keys_v107l384-17o3a.ogg
402,192,194523,1,0,0:0:0:127:b_FL Keys_v111l384-17o6b.ogg
182,192,194761,1,0,0:0:0:127:b_FL Keys_v107l384-17o4d.ogg
329,192,194761,1,0,0:0:0:127:b_FL Keys_v107l384-17o6a.ogg
36,192,195000,1,0,0:0:0:127:b_FL Keys_v107l384-17o3d.ogg
475,192,195000,1,0,0:0:0:127:b_FL Keys_v118l384-17o7e.ogg
109,192,195238,1,0,0:0:0:127:b_FL Keys_v107l384-17o3a.ogg
256,192,195238,1,0,0:0:0:127:b_FL Keys_v106l384-17o6e.ogg
329,192,195357,1,0,0:0:0:127:b_FL Keys_v107l384-17o6a.ogg
182,192,195476,1,0,0:0:0:127:b_FL Keys_v107l384-17o4d.ogg
402,192,195476,1,0,0:0:0:127:b_FL Keys_v109l384-17o6b.ogg
36,192,195714,1,0,0:0:0:127:b_FL Keys_v107l384-17o3d.ogg
475,192,195714,1,0,0:0:0:127:b_FL Keys_v115l384-17o7e.ogg
109,192,195952,1,0,0:0:0:127:b_FL Keys_v107l384-17o3a.ogg
402,192,195952,1,0,0:0:0:127:b_FL Keys_v111l384-17o6b.ogg
182,192,196190,1,0,0:0:0:127:b_FL Keys_v107l384-17o4d.ogg
329,192,196190,1,0,0:0:0:127:b_FL Keys_v107l384-17o6a.ogg
36,192,196428,1,0,0:0:0:127:b_FL Keys_v107l384-17o3e.ogg
475,192,196428,1,0,0:0:0:127:b_FL Keys_v118l384-17o7e.ogg
182,192,196666,1,0,0:0:0:127:b_FL Keys_v107l384-17o3b.ogg
329,192,196666,1,0,0:0:0:127:b_FL Keys_v106l384-17o6e.ogg
402,192,196785,1,0,0:0:0:127:b_FL Keys_v107l384-17o6a.ogg
256,192,196904,1,0,0:0:0:127:b_FL Keys_v107l384-17o4e.ogg
475,192,196904,1,0,0:0:0:127:b_FL Keys_v109l384-17o6b.ogg
36,192,197127,1,0,0:0:0:127:b_FL Keys_v107l384-17o3e.ogg
475,192,197142,1,0,0:0:0:127:b_FL Keys_v115l384-17o7e.ogg
182,192,197380,1,0,0:0:0:127:b_FL Keys_v107l384-17o3b.ogg
402,192,197380,1,0,0:0:0:127:b_FL Keys_v111l384-17o6b.ogg
256,192,197619,1,0,0:0:0:127:b_FL Keys_v107l384-17o4e.ogg
329,192,197619,1,0,0:0:0:127:b_FL Keys_v107l384-17o6a.ogg
475,192,197857,1,0,0:0:0:127:b_FL Keys_v118l384-17o7e.ogg
36,192,197857,1,0,0:0:0:127:b_FL Keys_v107l384-17o3e.ogg
182,192,198095,1,0,0:0:0:127:b_FL Keys_v107l384-17o3b.ogg
329,192,198095,1,0,0:0:0:127:b_FL Keys_v106l384-17o6e.ogg
402,192,198214,1,0,0:0:0:127:b_FL Keys_v107l384-17o6a.ogg
256,192,198333,1,0,0:0:0:127:b_FL Keys_v107l384-17o4e.ogg
475,192,198333,1,0,0:0:0:127:b_FL Keys_v109l384-17o6b.ogg
36,192,198571,1,0,0:0:0:127:b_FL Keys_v107l384-17o3e.ogg
475,192,198571,1,0,0:0:0:127:b_FL Keys_v115l384-17o7e.ogg
182,192,198809,1,0,0:0:0:127:b_FL Keys_v107l384-17o3b.ogg
402,192,198809,1,0,0:0:0:127:b_FL Keys_v111l384-17o6b.ogg
256,192,199047,1,0,0:0:0:127:b_FL Keys_v107l384-17o4e.ogg
329,192,199047,1,0,0:0:0:127:b_FL Keys_v107l384-17o6a.ogg
36,192,199285,1,0,0:0:0:127:b_FL Keys_v106l384-17o3d.ogg
109,192,199285,1,0,0:0:0:127:b_FL Keys_v103l384-17o3a.ogg
475,192,199285,1,0,0:0:0:127:b_FL Keys_v118l384-17o7e.ogg
36,192,199523,1,0,0:0:0:127:b_FL Keys_v104l384-17o3d.ogg
109,192,199523,1,0,0:0:0:127:b_FL Keys_v103l384-17o3a.ogg
256,192,199523,1,0,0:0:0:127:b_FL Keys_v106l384-17o6e.ogg
329,192,199642,1,0,0:0:0:127:b_FL Keys_v107l384-17o6a.ogg
36,192,199761,1,0,0:0:0:127:b_FL Keys_v102l384-17o3d.ogg
109,192,199761,1,0,0:0:0:127:b_FL Keys_v103l384-17o3a.ogg
402,192,199761,1,0,0:0:0:127:b_FL Keys_v109l384-17o6b.ogg
36,192,200000,1,0,0:0:0:127:b_FL Keys_v104l384-17o3d.ogg
109,192,200000,1,0,0:0:0:127:b_FL Keys_v106l384-17o3a.ogg
475,192,200000,1,0,0:0:0:127:b_FL Keys_v115l384-17o7e.ogg
36,192,200238,1,0,0:0:0:127:b_FL Keys_v105l384-17o3d.ogg
109,192,200238,1,0,0:0:0:127:b_FL Keys_v103l384-17o3a.ogg
402,192,200238,1,0,0:0:0:127:b_FL Keys_v111l384-17o6b.ogg
36,192,200476,1,0,0:0:0:127:b_FL Keys_v104l384-17o3d.ogg
109,192,200476,1,0,0:0:0:127:b_FL Keys_v103l384-17o3a.ogg
329,192,200476,1,0,0:0:0:127:b_FL Keys_v107l384-17o6a.ogg
36,192,200714,1,0,0:0:0:127:b_FL Keys_v103l384-17o3d.ogg
109,192,200714,1,0,0:0:0:127:b_FL Keys_v102l384-17o3a.ogg
475,192,200714,1,0,0:0:0:127:b_FL Keys_v118l384-17o7e.ogg
36,192,200952,1,0,0:0:0:127:b_FL Keys_v101l384-17o3d.ogg
109,192,200952,1,0,0:0:0:127:b_FL Keys_v103l384-17o3a.ogg
256,192,200952,1,0,0:0:0:127:b_FL Keys_v106l384-17o6e.ogg
329,192,201071,1,0,0:0:0:127:b_FL Keys_v107l384-17o6a.ogg
36,192,201190,1,0,0:0:0:127:b_FL Keys_v104l384-17o3d.ogg
109,192,201190,1,0,0:0:0:127:b_FL Keys_v103l384-17o3a.ogg
402,192,201190,1,0,0:0:0:127:b_FL Keys_v109l384-17o6b.ogg
36,192,201428,1,0,0:0:0:127:b_FL Keys_v100l384-17o3d.ogg
109,192,201428,1,0,0:0:0:127:b_FL Keys_v103l384-17o3a.ogg
475,192,201428,1,0,0:0:0:127:b_FL Keys_v115l384-17o7e.ogg
36,192,201666,1,0,0:0:0:127:b_FL Keys_v104l384-17o3d.ogg
109,192,201666,1,0,0:0:0:127:b_FL Keys_v101l384-17o3a.ogg
402,192,201666,1,0,0:0:0:127:b_FL Keys_v111l384-17o6b.ogg
36,192,201904,1,0,0:0:0:127:b_FL Keys_v103l384-17o3d.ogg
109,192,201904,1,0,0:0:0:127:b_FL Keys_v103l384-17o3a.ogg
329,192,201904,1,0,0:0:0:127:b_FL Keys_v107l384-17o6a.ogg
36,192,202142,1,0,0:0:0:127:b_FL Keys_v104l384-17o3d.ogg
109,192,202142,1,0,0:0:0:127:b_FL Keys_v103l384-17o3a.ogg
475,192,202142,1,0,0:0:0:127:b_FL Keys_v118l384-17o7e.ogg
36,192,202380,1,0,0:0:0:127:b_FL Keys_v102l384-17o3d.ogg
109,192,202380,1,0,0:0:0:127:b_FL Keys_v103l384-17o3a.ogg
256,192,202380,1,0,0:0:0:127:b_FL Keys_v106l384-17o6e.ogg
329,192,202500,1,0,0:0:0:127:b_FL Keys_v107l384-17o6a.ogg
36,192,202619,1,0,0:0:0:127:b_FL Keys_v102l384-17o3d.ogg
109,192,202619,1,0,0:0:0:127:b_FL Keys_v102l384-17o3a.ogg
402,192,202619,1,0,0:0:0:127:b_FL Keys_v109l384-17o6b.ogg
475,192,202857,1,0,0:0:0:127:b_FL Keys_v115l384-17o7e.ogg
36,192,202857,1,0,0:0:0:127:b_FL Keys_v104l384-17o3d.ogg
109,192,202857,1,0,0:0:0:127:b_FL Keys_v101l384-17o3a.ogg
36,192,203095,1,0,0:0:0:127:b_FL Keys_v105l384-17o3d.ogg
109,192,203095,1,0,0:0:0:127:b_FL Keys_v104l384-17o3a.ogg
402,192,203095,1,0,0:0:0:127:b_FL Keys_v111l384-17o6b.ogg
36,192,203333,1,0,0:0:0:127:b_FL Keys_v101l384-17o3d.ogg
109,192,203333,1,0,0:0:0:127:b_FL Keys_v104l384-17o3a.ogg
329,192,203333,1,0,0:0:0:127:b_FL Keys_v107l384-17o6a.ogg
36,192,203571,1,0,0:0:0:127:b_FL Keys_v103l384-17o3d.ogg
109,192,203571,1,0,0:0:0:127:b_FL Keys_v102l384-17o3a.ogg
475,192,203571,1,0,0:0:0:127:b_FL Keys_v118l384-17o7e.ogg
36,192,203809,1,0,0:0:0:127:b_FL Keys_v104l384-17o3d.ogg
109,192,203809,1,0,0:0:0:127:b_FL Keys_v102l384-17o3a.ogg
256,192,203809,1,0,0:0:0:127:b_FL Keys_v106l384-17o6e.ogg
329,192,203928,1,0,0:0:0:127:b_FL Keys_v107l384-17o6a.ogg
36,192,204047,1,0,0:0:0:127:b_FL Keys_v103l384-17o3d.ogg
109,192,204047,1,0,0:0:0:127:b_FL Keys_v106l384-17o3a.ogg
402,192,204047,1,0,0:0:0:127:b_FL Keys_v109l384-17o6b.ogg
36,192,204285,1,0,0:0:0:127:b_FL Keys_v101l384-17o3d.ogg
109,192,204285,1,0,0:0:0:127:b_FL Keys_v103l384-17o3a.ogg
475,192,204285,1,0,0:0:0:127:b_FL Keys_v115l384-17o7e.ogg
36,192,204523,1,0,0:0:0:127:b_FL Keys_v101l384-17o3d.ogg
109,192,204523,1,0,0:0:0:127:b_FL Keys_v104l384-17o3a.ogg
402,192,204523,1,0,0:0:0:127:b_FL Keys_v111l384-17o6b.ogg
36,192,204761,1,0,0:0:0:127:b_FL Keys_v103l384-17o3d.ogg
109,192,204761,1,0,0:0:0:127:b_FL Keys_v101l384-17o3a.ogg
329,192,204761,1,0,0:0:0:127:b_FL Keys_v107l384-17o6a.ogg
109,192,205000,1,0,0:0:0:127:b_FL Keys_v113l384-17o3e.ogg
182,192,205000,1,0,0:0:0:127:b_FL Keys_v108l384-17o3b.ogg
475,192,205000,1,0,0:0:0:127:b_FL Keys_v118l384-17o7e.ogg
109,192,205238,1,0,0:0:0:127:b_FL Keys_v110l384-17o3e.ogg
182,192,205238,1,0,0:0:0:127:b_FL Keys_v108l384-17o3b.ogg
256,192,205238,1,0,0:0:0:127:b_FL Keys_v106l384-17o6e.ogg
329,192,205357,1,0,0:0:0:127:b_FL Keys_v107l384-17o6a.ogg
109,192,205476,1,0,0:0:0:127:b_FL Keys_v107l384-17o3e.ogg
182,192,205476,1,0,0:0:0:127:b_FL Keys_v108l384-17o3b.ogg
402,192,205476,1,0,0:0:0:127:b_FL Keys_v109l384-17o6b.ogg
109,192,205714,1,0,0:0:0:127:b_FL Keys_v111l384-17o3e.ogg
182,192,205714,1,0,0:0:0:127:b_FL Keys_v113l384-17o3b.ogg
475,192,205714,1,0,0:0:0:127:b_FL Keys_v115l384-17o7e.ogg
109,192,205952,1,0,0:0:0:127:b_FL Keys_v112l384-17o3e.ogg
182,192,205952,1,0,0:0:0:127:b_FL Keys_v109l384-17o3b.ogg
402,192,205952,1,0,0:0:0:127:b_FL Keys_v111l384-17o6b.ogg
109,192,206190,1,0,0:0:0:127:b_FL Keys_v111l384-17o3e.ogg
182,192,206190,1,0,0:0:0:127:b_FL Keys_v108l384-17o3b.ogg
329,192,206190,1,0,0:0:0:127:b_FL Keys_v107l384-17o6a.ogg
109,192,206428,1,0,0:0:0:127:b_FL Keys_v109l384-17o3e.ogg
182,192,206428,1,0,0:0:0:127:b_FL Keys_v107l384-17o3b.ogg
475,192,206428,1,0,0:0:0:127:b_FL Keys_v118l384-17o7e.ogg
109,192,206666,1,0,0:0:0:127:b_FL Keys_v106l384-17o3e.ogg
182,192,206666,1,0,0:0:0:127:b_FL Keys_v109l384-17o3b.ogg
256,192,206666,1,0,0:0:0:127:b_FL Keys_v106l384-17o6e.ogg
329,192,206785,1,0,0:0:0:127:b_FL Keys_v107l384-17o6a.ogg
109,192,206904,1,0,0:0:0:127:b_FL Keys_v112l384-17o3e.ogg
182,192,206904,1,0,0:0:0:127:b_FL Keys_v108l384-17o3b.ogg
402,192,206904,1,0,0:0:0:127:b_FL Keys_v109l384-17o6b.ogg
109,192,207142,1,0,0:0:0:127:b_FL Keys_v104l384-17o3e.ogg
182,192,207142,1,0,0:0:0:127:b_FL Keys_v109l384-17o3b.ogg
475,192,207142,1,0,0:0:0:127:b_FL Keys_v115l384-17o7e.ogg
109,192,207380,1,0,0:0:0:127:b_FL Keys_v110l384-17o3e.ogg
182,192,207380,1,0,0:0:0:127:b_FL Keys_v105l384-17o3b.ogg
402,192,207380,1,0,0:0:0:127:b_FL Keys_v111l384-17o6b.ogg
109,192,207619,1,0,0:0:0:127:b_FL Keys_v109l384-17o3e.ogg
182,192,207619,1,0,0:0:0:127:b_FL Keys_v109l384-17o3b.ogg
329,192,207619,1,0,0:0:0:127:b_FL Keys_v107l384-17o6a.ogg
475,192,207857,1,0,0:0:0:127:b_FL Keys_v118l384-17o7e.ogg
36,192,207857,1,0,0:0:0:127:b_FL Keys_v107l384-17o2b.ogg
109,192,207857,1,0,0:0:0:127:b_FL Keys_v107l384-17o3fp.ogg
182,192,207857,1,0,0:0:0:127:b_FL Keys_v107l384-17o3b.ogg
36,192,208095,1,0,0:0:0:127:b_FL Keys_v107l384-17o2b.ogg
109,192,208095,1,0,0:0:0:127:b_FL Keys_v107l384-17o3fp.ogg
182,192,208095,1,0,0:0:0:127:b_FL Keys_v107l384-17o3b.ogg
256,192,208095,1,0,0:0:0:127:b_FL Keys_v106l384-17o6e.ogg
329,192,208214,1,0,0:0:0:127:b_FL Keys_v107l384-17o6a.ogg
36,192,208333,1,0,0:0:0:127:b_FL Keys_v107l384-17o2b.ogg
109,192,208333,1,0,0:0:0:127:b_FL Keys_v107l384-17o3fp.ogg
182,192,208333,1,0,0:0:0:127:b_FL Keys_v107l384-17o3b.ogg
402,192,208333,1,0,0:0:0:127:b_FL Keys_v109l384-17o6b.ogg
36,192,208571,1,0,0:0:0:127:b_FL Keys_v107l384-17o2b.ogg
109,192,208571,1,0,0:0:0:127:b_FL Keys_v107l384-17o3fp.ogg
182,192,208571,1,0,0:0:0:127:b_FL Keys_v107l384-17o3b.ogg
475,192,208571,1,0,0:0:0:127:b_FL Keys_v115l384-17o7e.ogg
36,192,208809,1,0,0:0:0:127:b_FL Keys_v107l384-17o2b.ogg
109,192,208809,1,0,0:0:0:127:b_FL Keys_v107l384-17o3fp.ogg
182,192,208809,1,0,0:0:0:127:b_FL Keys_v107l384-17o3b.ogg
402,192,208809,1,0,0:0:0:127:b_FL Keys_v111l384-17o6b.ogg
36,192,209047,1,0,0:0:0:127:b_FL Keys_v107l384-17o2b.ogg
109,192,209047,1,0,0:0:0:127:b_FL Keys_v107l384-17o3fp.ogg
182,192,209047,1,0,0:0:0:127:b_FL Keys_v107l384-17o3b.ogg
329,192,209047,1,0,0:0:0:127:b_FL Keys_v107l384-17o6a.ogg
36,192,209285,1,0,0:0:0:127:b_FL Keys_v107l384-17o2b.ogg
109,192,209285,1,0,0:0:0:127:b_FL Keys_v107l384-17o3fp.ogg
182,192,209285,1,0,0:0:0:127:b_FL Keys_v107l384-17o3b.ogg
475,192,209285,1,0,0:0:0:127:b_FL Keys_v118l384-17o7e.ogg
36,192,209523,1,0,0:0:0:127:b_FL Keys_v107l384-17o2b.ogg
109,192,209523,1,0,0:0:0:127:b_FL Keys_v107l384-17o3fp.ogg
182,192,209523,1,0,0:0:0:127:b_FL Keys_v107l384-17o3b.ogg
256,192,209523,1,0,0:0:0:127:b_FL Keys_v106l384-17o6e.ogg
329,192,209642,1,0,0:0:0:127:b_FL Keys_v107l384-17o6a.ogg
36,192,209761,1,0,0:0:0:127:b_FL Keys_v107l384-17o2b.ogg
109,192,209761,1,0,0:0:0:127:b_FL Keys_v107l384-17o3fp.ogg
182,192,209761,1,0,0:0:0:127:b_FL Keys_v107l384-17o3b.ogg
402,192,209761,1,0,0:0:0:127:b_FL Keys_v109l384-17o6b.ogg
36,192,210000,1,0,0:0:0:127:b_FL Keys_v107l384-17o2b.ogg
109,192,210000,1,0,0:0:0:127:b_FL Keys_v107l384-17o3fp.ogg
182,192,210000,1,0,0:0:0:127:b_FL Keys_v107l384-17o3b.ogg
475,192,210000,1,0,0:0:0:127:b_FL Keys_v115l384-17o7e.ogg
36,192,210238,1,0,0:0:0:127:b_FL Keys_v107l384-17o2b.ogg
109,192,210238,1,0,0:0:0:127:b_FL Keys_v107l384-17o3fp.ogg
182,192,210238,1,0,0:0:0:127:b_FL Keys_v107l384-17o3b.ogg
402,192,210238,1,0,0:0:0:127:b_FL Keys_v111l384-17o6b.ogg
36,192,210476,1,0,0:0:0:127:b_FL Keys_v107l384-17o2b.ogg
109,192,210476,1,0,0:0:0:127:b_FL Keys_v107l384-17o3fp.ogg
182,192,210476,1,0,0:0:0:127:b_FL Keys_v107l384-17o3b.ogg
329,192,210476,1,0,0:0:0:127:b_FL Keys_v107l384-17o6a.ogg
109,192,210714,1,0,0:0:0:127:b_FL Keys_v107l384-17o3cp.ogg
182,192,210714,1,0,0:0:0:127:b_FL Keys_v107l384-17o3gp.ogg
256,192,210714,1,0,0:0:0:127:b_FL Keys_v107l384-17o4cp.ogg
475,192,210714,1,0,0:0:0:127:b_FL Keys_v118l384-41o7fp.ogg
109,192,210952,1,0,0:0:0:127:b_FL Keys_v107l384-17o3cp.ogg
182,192,210952,1,0,0:0:0:127:b_FL Keys_v107l384-17o3gp.ogg
256,192,210952,1,0,0:0:0:127:b_FL Keys_v107l384-17o4cp.ogg
329,192,210952,1,0,0:0:0:127:b_FL Keys_v106l384-17o6fp.ogg
402,192,211071,1,0,0:0:0:127:b_FL Keys_v107l384-17o6b.ogg
109,192,211190,1,0,0:0:0:127:b_FL Keys_v107l384-17o3cp.ogg
182,192,211190,1,0,0:0:0:127:b_FL Keys_v107l384-17o3gp.ogg
256,192,211190,1,0,0:0:0:127:b_FL Keys_v107l384-17o4cp.ogg
475,192,211190,1,0,0:0:0:127:b_FL Keys_v109l384-17o7cp.ogg
109,192,211428,1,0,0:0:0:127:b_FL Keys_v107l384-17o3cp.ogg
182,192,211428,1,0,0:0:0:127:b_FL Keys_v107l384-17o3gp.ogg
256,192,211428,1,0,0:0:0:127:b_FL Keys_v107l384-17o4cp.ogg
475,192,211428,1,0,0:0:0:127:b_FL Keys_v115l384-17o7fp.ogg
109,192,211666,1,0,0:0:0:127:b_FL Keys_v107l384-17o3cp.ogg
182,192,211666,1,0,0:0:0:127:b_FL Keys_v107l384-17o3gp.ogg
256,192,211666,1,0,0:0:0:127:b_FL Keys_v107l384-17o4cp.ogg
402,192,211666,1,0,0:0:0:127:b_FL Keys_v111l384-17o7cp.ogg
109,192,211904,1,0,0:0:0:127:b_FL Keys_v107l384-17o3cp.ogg
182,192,211904,1,0,0:0:0:127:b_FL Keys_v107l384-17o3gp.ogg
256,192,211904,1,0,0:0:0:127:b_FL Keys_v107l384-17o4cp.ogg
329,192,211904,1,0,0:0:0:127:b_FL Keys_v107l384-17o6b.ogg
109,192,212142,1,0,0:0:0:127:b_FL Keys_v107l384-17o3cp.ogg
182,192,212142,1,0,0:0:0:127:b_FL Keys_v107l384-17o3gp.ogg
256,192,212142,1,0,0:0:0:127:b_FL Keys_v107l384-17o4cp.ogg
475,192,212142,1,0,0:0:0:127:b_FL Keys_v118l384-49o7fp.ogg
109,192,212380,1,0,0:0:0:127:b_FL Keys_v107l384-17o3cp.ogg
182,192,212380,1,0,0:0:0:127:b_FL Keys_v107l384-17o3gp.ogg
256,192,212380,1,0,0:0:0:127:b_FL Keys_v107l384-17o4cp.ogg
329,192,212380,1,0,0:0:0:127:b_FL Keys_v106l384-17o6fp.ogg
402,192,212500,1,0,0:0:0:127:b_FL Keys_v107l384-17o6b.ogg
109,192,212619,1,0,0:0:0:127:b_FL Keys_v107l384-17o3cp.ogg
182,192,212619,1,0,0:0:0:127:b_FL Keys_v107l384-17o3gp.ogg
256,192,212619,1,0,0:0:0:127:b_FL Keys_v107l384-17o4cp.ogg
475,192,212619,1,0,0:0:0:127:b_FL Keys_v109l384-17o7cp.ogg
475,192,212857,1,0,0:0:0:127:b_FL Keys_v115l384-17o7fp.ogg
109,192,212857,1,0,0:0:0:127:b_FL Keys_v107l384-17o3cp.ogg
182,192,212857,1,0,0:0:0:127:b_FL Keys_v107l384-17o3gp.ogg
256,192,212857,1,0,0:0:0:127:b_FL Keys_v107l384-17o4cp.ogg
109,192,213095,1,0,0:0:0:127:b_FL Keys_v107l384-17o3cp.ogg
182,192,213095,1,0,0:0:0:127:b_FL Keys_v107l384-17o3gp.ogg
256,192,213095,1,0,0:0:0:127:b_FL Keys_v107l384-17o4cp.ogg
402,192,213095,1,0,0:0:0:127:b_FL Keys_v111l384-17o7cp.ogg
109,192,213333,1,0,0:0:0:127:b_FL Keys_v107l384-17o3cp.ogg
182,192,213333,1,0,0:0:0:127:b_FL Keys_v107l384-17o3gp.ogg
256,192,213333,1,0,0:0:0:127:b_FL Keys_v107l384-17o4cp.ogg
329,192,213333,1,0,0:0:0:127:b_FL Keys_v107l384-17o6b.ogg
36,192,213571,1,0,0:0:0:127:b_FL Keys_v99l384-121o3d.ogg
182,192,213571,1,0,0:0:0:127:b_FL Keys_v99l384-121o4d.ogg
256,192,213571,1,0,0:0:0:127:b_FL Keys_v99l384-121o5c.ogg
402,192,213571,1,0,0:0:0:127:b_FL Keys_v99l384-121o5e.ogg
475,192,213571,1,0,0:0:0:127:b_FL Keys_v99l384-121o5gp.ogg
109,192,215000,1,0,0:0:0:127:b_FL Keys_v99l384-121o5d.ogg
402,192,215000,1,0,0:0:0:127:b_FL Keys_v99l384-121o5fp.ogg
36,192,215714,1,0,0:0:0:127:b_FL Keys_v99l384-25o4e.ogg
256,192,216071,1,0,0:0:0:127:b_FL Keys_v99l384-25o5cp.ogg
329,192,216071,1,0,0:0:0:127:b_FL Keys_v99l384-25o5e.ogg
36,192,216428,1,0,0:0:0:127:b_FL Keys_v99l384-41o3b.ogg
256,192,216428,1,0,0:0:0:127:b_FL Keys_v99l384-89o5cp.ogg
329,192,216428,1,0,0:0:0:127:b_FL Keys_v99l384-169o5e.ogg
109,192,216785,1,0,0:0:0:127:b_FL Keys_v99l384-41o4fp.ogg
182,192,217142,1,0,0:0:0:127:b_FL Keys_v99l384-65o4b.ogg
256,192,217857,1,0,0:0:0:127:b_FL Keys_v99l384-65o5d.ogg
109,192,218571,1,0,0:0:0:127:b_FL Keys_v99l128-11o4b.ogg
329,192,219241,1,0,0:0:0:127:b_FL Keys_v99l384-337o5fp.ogg
36,192,219285,1,0,0:0:0:127:b_FL Keys_v99l384-97o3cp.ogg
402,192,219285,1,0,0:0:0:127:b_FL Keys_v99l384-337o5gp.ogg
475,192,219330,1,0,0:0:0:127:b_FL Keys_v99l384-337o6cp.ogg
109,192,219642,1,0,0:0:0:127:b_FL Keys_v99l384-49o3gp.ogg
182,192,220000,1,0,0:0:0:127:b_FL Keys_v99l384-49o4cp.ogg
256,192,220357,1,0,0:0:0:127:b_FL Keys_v99l384-49o4fp.ogg
329,192,220714,1,0,0:0:0:127:b_FL Keys_v99l384-49o4gp.ogg
402,192,221071,1,0,0:0:0:127:b_FL Keys_v99l384-49o5cp.ogg
182,192,221785,1,0,0:0:0:127:b_FL Keys_v99l384-49o4gp.ogg
329,192,221964,1,0,0:0:0:127:b_FL Keys_v99l384-97o5f.ogg
402,192,222053,1,0,0:0:0:127:b_FL Keys_v99l384-97o5gp.ogg
36,192,222142,1,0,0:0:0:127:b_FL Keys_v99l384-49o4cp.ogg
475,192,222142,1,0,0:0:0:127:b_FL Keys_v99l384-97o6cp.ogg
109,192,222499,1,0,0:0:0:127:b_FL Keys_v99l384-49o4gp.ogg
182,192,222857,1,0,0:0:0:127:b_FL Keys_v99l384-49o5cp.ogg
256,192,223214,1,0,0:0:0:127:b_FL Keys_v99l384-49o5gp.ogg
329,192,223571,1,0,0:0:0:127:b_FL Keys_v99l384-49o6cp.ogg
