osu file format v14

[General]
AudioFilename: audio.mp3
AudioLeadIn: 0
PreviewTime: -1
Countdown: 0
SampleSet: Normal
StackLeniency: 0.6
Mode: 0
LetterboxInBreaks: 0
WidescreenStoryboard: 0

[Editor]
DistanceSpacing: 0.5
BeatDivisor: 4
GridSize: 4
TimelineZoom: 1

[Metadata]
Title:Hirvea henri intro
TitleUnicode:Hirvea henri intro
Artist:Hirvea Henri
ArtistUnicode:Hirvea Henri
Creator:JamsuFTW
Version:Insane
Source:Hirvea Henri
Tags:Finnish
BeatmapID:1736214
BeatmapSetID:828692

[Difficulty]
HPDrainRate:7
CircleSize:4
OverallDifficulty:7
ApproachRate:9
SliderMultiplier:1.9
SliderTickRate:1

[Events]
//Background and Video events
0,0,"Hirveaaa.jpg",0,0
//Break Periods
//Storyboard Layer 0 (Background)
//Storyboard Layer 1 (Fail)
//Storyboard Layer 2 (Pass)
//Storyboard Layer 3 (Foreground)
//Storyboard Sound Samples

[TimingPoints]
73,352.941176470588,3,1,0,100,1,0

[HitObjects]
149,278,73,6,0,B|250:84|247:89,1,190
331,123,602,2,0,L|234:301,1,190
240,289,1131,1,0,0:0:0:0:
112,246,1308,1,0,0:0:0:0:
235,135,1837,1,0,0:0:0:0:
326,215,2014,5,0,0:0:0:0:
326,215,2102,1,0,0:0:0:0:
326,215,2190,1,0,0:0:0:0:
383,126,2367,1,0,0:0:0:0:
428,252,2543,1,0,0:0:0:0:
89,315,2896,5,0,0:0:0:0:
183,129,3249,1,0,0:0:0:0:
231,262,3425,2,0,L|311:162,1,95
290,187,3778,1,0,0:0:0:0:
140,147,3955,1,0,0:0:0:0:
140,147,4131,1,0,0:0:0:0:
300,312,4661,5,0,0:0:0:0:
385,153,5014,1,0,0:0:0:0:
194,229,5367,1,0,0:0:0:0:
177,107,5720,2,0,L|372:73,1,190
359,72,6425,1,0,0:0:0:0:
329,265,6778,5,0,0:0:0:0:
329,265,6955,2,0,L|170:145,1,190
177,150,7484,1,0,0:0:0:0:
309,61,7837,1,0,0:0:0:0:
370,195,8190,1,0,0:0:0:0:
196,101,8543,5,0,0:0:0:0:
83,295,8896,1,0,0:0:0:0:
68,51,9602,5,0,0:0:0:0:
202,257,9955,1,0,0:0:0:0:
341,194,10308,6,0,P|272:110|265:100,2,95
146,137,11014,1,0,0:0:0:0:
226,264,11367,1,0,0:0:0:0:
382,161,11720,6,0,L|448:347,1,190
262,283,12425,1,0,0:0:0:0:
262,283,12602,2,0,L|148:123,1,190
271,87,13131,1,0,0:0:0:0:
294,303,13484,5,0,0:0:0:0:
83,209,13837,1,0,0:0:0:0:
173,228,14543,5,0,0:0:0:0:
252,77,14720,1,0,0:0:0:0:
343,227,14896,1,0,0:0:0:0:
162,138,15073,1,0,0:0:0:0:
344,126,15249,1,0,0:0:0:0:
261,271,15425,1,0,0:0:0:0:
255,173,15602,1,0,0:0:0:0:
154,286,17014,5,0,0:0:0:0:
154,286,17190,1,0,0:0:0:0:
63,153,17367,1,0,0:0:0:0:
249,207,17543,1,0,0:0:0:0:
234,95,17720,2,0,L|425:151,2,190
250,229,19484,6,0,L|431:140,1,190
448,236,20014,1,0,0:0:0:0:
484,357,20190,1,0,0:0:0:0:
318,320,20367,1,0,0:0:0:0:
271,179,20543,2,0,L|136:333,2,190
202,239,22131,5,0,0:0:0:0:
334,94,22308,1,0,0:0:0:0:
202,239,22484,1,0,0:0:0:0:
169,81,22661,5,0,0:0:0:0:
160,301,22837,1,0,0:0:0:0:
59,81,23014,1,0,0:0:0:0:
1,275,23190,1,0,0:0:0:0:
139,156,23367,1,0,0:0:0:0:
124,335,23543,1,0,0:0:0:0:
276,204,23720,1,0,0:0:0:0:
391,267,24072,5,0,0:0:0:0:
193,330,24249,1,0,0:0:0:0:
177,186,24425,1,0,0:0:0:0:
303,262,24602,1,0,0:0:0:0:
316,99,24778,2,0,L|462:266,1,190
149,240,25484,5,0,0:0:0:0:
249,97,25661,1,0,0:0:0:0:
289,257,25837,1,0,0:0:0:0:
128,94,26014,1,0,0:0:0:0:
92,226,26190,2,0,L|307:154,1,190
385,131,26896,5,0,0:0:0:0:
304,302,27072,1,0,0:0:0:0:
279,118,27249,5,0,0:0:0:0:
423,295,27425,1,0,0:0:0:0:
211,223,27602,5,0,0:0:0:0:
123,266,28308,5,0,0:0:0:0:
218,114,28484,1,0,0:0:0:0:
241,267,28661,1,0,0:0:0:0:
322,120,28837,1,0,0:0:0:0:
183,178,29014,2,0,L|359:274,1,190
345,264,29720,1,0,0:0:0:0:
413,142,30072,1,0,0:0:0:0:
413,142,30425,6,0,L|435:336,2,190
170,115,31484,6,0,L|154:317,1,190
248,113,32190,2,0,L|273:319,2,190
392,197,33337,5,0,0:0:0:0:
256,192,33602,12,0,39818,0:0:0:0:
