osu file format v14

[General]
AudioFilename: audio.mp3
AudioLeadIn: 0
PreviewTime: -1
Countdown: 0
SampleSet: None
StackLeniency: 0.6
Mode: 0
LetterboxInBreaks: 0
WidescreenStoryboard: 1

[Editor]
DistanceSpacing: 0.5
BeatDivisor: 4
GridSize: 4
TimelineZoom: 1

[Metadata]
Title:Hirvea henri intro
TitleUnicode:Hirvea henri intro
Artist:Hirvea Henri
ArtistUnicode:Hirvea Henri
Creator:JamsuFTW
Version:Hard
Source:Hirvea Henri
Tags:Finnish
BeatmapID:1738972
BeatmapSetID:828692

[Difficulty]
HPDrainRate:7
CircleSize:3
OverallDifficulty:8
ApproachRate:9
SliderMultiplier:1.9
SliderTickRate:1

[Events]
//Background and Video events
0,0,"Hirveaaa.jpg",0,0
//Break Periods
//Storyboard Layer 0 (Background)
//Storyboard Layer 1 (Fail)
//Storyboard Layer 2 (Pass)
//Storyboard Layer 3 (Foreground)
//Storyboard Sound Samples

[TimingPoints]
71,352.941176470588,3,1,0,100,1,0

[HitObjects]
154,232,71,6,0,L|344:154,1,190
371,80,600,2,0,L|411:266,2,190
270,84,1835,1,0,0:0:0:0:
196,201,2188,1,0,0:0:0:0:
348,197,2541,1,0,0:0:0:0:
134,114,2894,6,0,L|180:315,1,190
176,299,3423,1,0,0:0:0:0:
176,299,3776,1,0,0:0:0:0:
310,332,4129,2,0,P|249:149|163:108,1,285
176,113,5012,1,0,0:0:0:0:
152,231,5365,1,0,0:0:0:0:
254,132,5718,1,0,0:0:0:0:
304,250,6776,5,0,0:0:0:0:
304,250,6953,2,0,P|201:192|62:284,1,285
189,318,7835,1,0,0:0:0:0:
302,178,8188,1,0,0:0:0:0:
166,94,8541,5,0,0:0:0:0:
186,314,8894,1,0,0:0:0:0:
322,84,9600,5,0,0:0:0:0:
90,258,9953,1,0,0:0:0:0:
205,284,10659,5,0,0:0:0:0:
255,73,11012,1,0,0:0:0:0:
285,291,11365,1,0,0:0:0:0:
116,180,12423,5,0,0:0:0:0:
116,180,12600,2,0,P|231:131|312:257,1,285
207,284,13482,1,0,0:0:0:0:
410,134,13835,1,0,0:0:0:0:
132,264,14541,5,0,0:0:0:0:
132,264,14718,2,0,L|240:200,2,95
176,320,15247,1,0,0:0:0:0:
260,280,15423,1,0,0:0:0:0:
296,200,15600,1,0,0:0:0:0:
276,124,15776,1,0,0:0:0:0:
156,284,17012,6,0,L|184:172,3,95
240,280,17894,1,0,0:0:0:0:
328,252,18247,1,0,0:0:0:0:
304,104,19482,6,0,L|384:296,1,190
280,280,20188,1,0,0:0:0:0:
280,280,20365,1,0,0:0:0:0:
88,280,20718,1,0,0:0:0:0:
76,224,21070,2,0,P|112:216|200:184,1,95
179,246,22129,5,0,0:0:0:0:
313,145,22306,1,0,0:0:0:0:
179,246,22482,1,0,0:0:0:0:
360,317,22659,6,0,P|443:259|382:182,1,190
413,193,23188,1,0,0:0:0:0:
322,141,23365,6,0,L|260:242,1,95
248,239,23718,6,0,L|277:118,1,95
66,186,24070,6,0,P|155:285|236:302,1,190
205,300,24600,1,0,0:0:0:0:
291,249,24776,1,0,0:0:0:0:
360,186,24953,1,0,0:0:0:0:
400,104,25129,1,0,0:0:0:0:
247,99,25482,6,0,L|145:109,4,95
247,99,26541,1,0,0:0:0:0:
148,185,26894,2,0,L|254:230,1,95
240,219,27247,1,0,0:0:0:0:
329,208,27600,1,0,0:0:0:0:
100,255,28306,6,0,P|169:328|255:348,1,190
253,348,28835,1,0,0:0:0:0:
376,297,29012,2,0,L|299:224,2,95
428,159,29718,5,0,0:0:0:0:
257,97,30070,1,0,0:0:0:0:
223,223,30423,5,0,0:0:0:0:
353,113,30776,1,0,0:0:0:0:
111,148,31129,6,0,P|185:231|260:280,1,190
240,312,31835,2,0,P|140:264|68:192,1,190
86,211,32541,1,0,0:0:0:0:
252,192,33247,5,0,0:0:0:0:
256,192,33600,12,0,39814,0:0:0:0:
