osu file format v14

[General]
AudioFilename: audio.mp3
AudioLeadIn: 0
PreviewTime: 43340
Countdown: 0
SampleSet: Soft
StackLeniency: 0.7
Mode: 0
LetterboxInBreaks: 0
EpilepsyWarning: 1
WidescreenStoryboard: 1

[Editor]
Bookmarks: 11964,113962
DistanceSpacing: 0.8
BeatDivisor: 4
GridSize: 4
TimelineZoom: 2.1

[Metadata]
Title:LiVE / EViL
TitleUnicode:LiVE / EViL
Artist:Hiroyuki Sawano
ArtistUnicode:澤野 弘之
Creator:Asaiga
Version:Light Extra
Source:Maou
Tags:maou lucifer sawano live evil asa rui ezreal ayyri panda hokichi 澤野 弘之
BeatmapID:930850
BeatmapSetID:431561

[Difficulty]
HPDrainRate:7
CircleSize:4.3
OverallDifficulty:7.5
ApproachRate:9.1
SliderMultiplier:1.60000000596046
SliderTickRate:1

[Events]
//Background and Video events
0,0,"bg.jpg",0,0
//Break Periods
2,69962,78015
2,167212,179347
//Storyboard Layer 0 (Background)
//Storyboard Layer 1 (Fail)
//Storyboard Layer 2 (Pass)
//Storyboard Layer 3 (Foreground)
//Storyboard Sound Samples

[TimingPoints]
631,333.333333333333,4,1,0,30,1,0
10979,-200,4,2,0,30,0,0
20630,-200,4,2,0,30,0,0
21963,-200,4,2,0,30,0,0
44630,-100,4,2,0,45,0,1
65797,-100,4,2,0,30,0,0
69311,-200,4,2,0,30,0,0
78340,-200,4,2,0,30,0,0
100712,333.333333333333,4,2,0,30,1,0
100712,-200,4,2,0,30,0,0
122295,333.333333333333,4,2,0,30,1,0
124461,-100,4,2,0,45,0,1
145294,-200,4,2,0,30,0,0
154379,-200,4,2,0,30,0,0
155463,-200,4,2,0,30,0,0
165213,-100,4,2,0,30,0,0
179629,-200,4,2,0,30,0,0
196963,-100,4,2,0,22,0,0
199296,-100,4,2,0,19,0,0
202296,-100,4,2,0,16,0,0
204629,-100,4,2,0,13,0,0
207629,-100,4,2,0,10,0,0
209963,-100,4,2,0,7,0,0
212628,-200,4,2,0,5,0,0

[Colours]
Combo1 : 0,128,255
Combo2 : 255,128,128
Combo3 : 255,255,128
Combo4 : 128,255,128

[HitObjects]
409,191,11297,6,0,P|381:159|345:143,1,80
164,143,11964,2,0,P|128:160|103:191,1,80
333,284,12630,2,0,P|365:292|421:276,1,80
333,100,13297,2,0,P|365:92|421:108,1,80
298,309,13964,6,0,P|265:286|250:250,1,80.000000298023
394,135,14630,2,0,L|378:223,1,80
323,113,15297,2,0,L|299:205,1,80
304,300,15964,2,0,L|216:340,1,80
135,238,16630,1,0,0:0:0:0:
135,238,16797,1,0,0:0:0:0:
135,238,16964,1,0,0:0:0:0:
321,103,17297,6,0,P|357:91|413:87,1,80.000000298023
371,195,17964,1,0,0:0:0:0:
307,243,18130,1,0,0:0:0:0:
232,214,18297,1,0,0:0:0:0:
154,122,18630,2,0,P|176:82|220:67,1,80.000000298023
304,229,19297,5,0,0:0:0:0:
373,268,19464,1,0,0:0:0:0:
419,203,19630,1,0,0:0:0:0:
336,115,19964,2,0,P|302:136|274:164,1,80
256,192,20464,12,0,21464,0:0:0:0:
215,63,21964,6,0,P|199:123|191:155,1,80.000000298023,0|8,0:0|2:2,0:0:0:0:
152,319,22630,1,0,0:0:0:0:
272,256,22964,1,0,0:0:0:0:
291,73,23297,1,0,0:0:0:0:
372,181,23630,1,8,0:0:0:0:
193,140,23964,1,0,0:0:0:0:
248,264,24297,1,0,0:0:0:0:
126,125,24630,1,0,0:0:0:0:
116,252,24964,5,8,0:0:0:0:
244,206,25297,1,0,0:0:0:0:
204,75,25630,1,0,0:0:0:0:
322,214,25964,1,0,0:0:0:0:
148,149,26297,1,8,0:0:0:0:
331,149,26630,1,0,0:0:0:0:
186,60,26964,2,0,L|160:99,1,40.0000001490115
127,149,27297,1,0,0:0:0:0:
344,52,27630,5,8,0:0:0:0:
294,228,27964,1,0,0:0:0:0:
217,114,28297,1,0,0:0:0:0:
111,264,28630,1,0,0:0:0:0:
233,206,28964,1,8,0:0:0:0:
235,21,29297,1,0,0:0:0:0:
271,143,29630,1,0,0:0:0:0:
91,104,29964,1,0,0:0:0:0:
203,26,30297,5,8,0:0:0:0:
159,204,30630,1,0,0:0:0:0:
239,95,30964,1,0,0:0:0:0:
278,225,31297,1,0,0:0:0:0:
376,131,31630,1,8,0:0:0:0:
197,171,31964,1,0,0:0:0:0:
148,272,32297,1,0,0:0:0:0:
277,275,32630,6,0,L|292:222,1,40.0000001490115
334,73,32964,2,0,L|292:110,1,40.0000001490115,8|0,0:0|0:0,0:0:0:0:
174,235,33297,2,0,L|230:217,1,40.0000001490115
399,161,33630,2,0,L|359:159,1,40.0000001490115,8|0,0:0|0:0,0:0:0:0:
176,151,33964,6,0,L|222:179,1,40.0000001490115
379,295,34297,2,0,L|367:233,1,40.0000001490115,8|0,0:0|0:0,0:0:0:0:
310,93,34630,2,0,L|294:129,1,40.0000001490115
220,295,34964,2,0,L|277:248,1,40.0000001490115,8|0,0:0|0:0,0:0:0:0:
384,152,35297,6,0,L|333:154,1,40.0000001490115
124,181,35630,1,8,0:0:0:0:
185,277,35797,1,0,0:0:0:0:
229,179,35964,1,0,0:0:0:0:
307,254,36130,1,0,0:0:0:0:
360,159,36297,2,0,P|381:125|395:88,2,80.000000298023,8|0|8,0:0|0:0|0:0,0:0:0:0:
157,172,37297,6,0,P|145:208|145:212,1,40.0000001490115
283,181,37630,2,0,L|306:137,1,40.0000001490115,8|0,0:0|0:0,0:0:0:0:
385,253,37964,2,0,P|373:274|356:292,1,40.0000001490115
242,177,38297,5,8,0:0:0:0:
197,300,38464,1,0,0:0:0:0:
95,211,38630,2,0,P|114:194|135:185,1,40.0000001490115
300,184,38964,2,0,L|260:149,1,40.0000001490115,8|0,0:0|0:0,0:0:0:0:
147,90,39297,2,0,L|200:76,1,40.0000001490115
184,260,39630,2,0,L|144:296,1,40.0000001490115,8|0,0:0|0:0,0:0:0:0:
54,183,39964,2,0,L|100:152,1,40.0000001490115,0|8,0:0|0:0,0:0:0:0:
210,84,40297,5,0,0:0:0:0:
307,201,40464,1,0,0:0:0:0:
184,243,40630,1,0,0:0:0:0:
223,84,40797,1,0,0:0:0:0:
359,224,40964,1,8,0:0:0:0:
181,213,41130,1,0,0:0:0:0:
260,62,41297,1,0,0:0:0:0:
378,197,41464,1,0,0:0:0:0:
207,186,41630,6,0,L|176:136,1,40.0000001490115,8|0,0:0|0:0,0:0:0:0:
331,100,41964,2,0,L|342:146,1,40.0000001490115
370,275,42297,1,0,0:0:0:0:
243,331,42464,1,0,0:0:0:0:
333,212,42630,1,0,0:0:0:0:
211,126,42797,1,0,0:0:0:0:
139,253,42964,1,4,0:0:0:0:
260,212,43297,6,0,L|332:272,1,80.000000298023
230,340,43797,1,0,0:0:0:0:
158,224,43964,5,0,0:0:0:0:
177,180,44047,1,0,0:0:0:0:
213,148,44130,1,0,0:0:0:0:
261,142,44214,1,0,0:0:0:0:
305,160,44297,1,0,0:0:0:0:
325,203,44380,1,0,0:0:0:0:
316,250,44464,1,0,0:0:0:0:
287,287,44547,1,0,0:0:0:0:
249,299,44630,6,0,B|206:303|167:294|128:252|135:183,1,160.000000596046,4|8,3:0|1:0,0:0:0:0:
158,93,45130,2,0,P|194:66|253:72,1,80.000000298023
351,156,45464,1,0,0:0:0:0:
288,286,45630,1,8,1:0:0:0:
148,237,45797,2,0,B|148:185|190:113|240:100,1,160.000000596046
354,219,46297,5,8,1:0:0:0:
230,105,46464,1,0,0:0:0:0:
202,301,46630,1,0,0:0:0:0:
372,125,46797,1,0,0:0:0:0:
145,199,46964,1,8,1:0:0:0:
366,242,47130,1,0,0:0:0:0:
175,301,47297,1,0,0:0:0:0:
355,124,47464,1,0,0:0:0:0:
145,112,47630,6,0,L|218:175,1,80.000000298023,8|0,1:0|0:0,0:0:0:0:
220,178,47880,1,0,0:0:0:0:
220,178,47964,1,0,0:0:0:0:
299,50,48130,2,0,L|390:59,2,80.000000298023,0|8|0,0:0|1:0|0:0,0:0:0:0:
152,152,48630,2,0,P|192:176|232:168,1,80.000000298023
391,136,48964,1,8,1:0:0:0:
257,69,49130,1,0,0:0:0:0:
289,213,49297,1,0,0:0:0:0:
338,63,49464,1,0,0:0:0:0:
200,143,49630,6,0,P|196:188|217:241,1,80.000000298023,8|0,1:0|0:0,0:0:0:0:
313,89,49964,1,0,0:0:0:0:
342,235,50130,1,0,0:0:0:0:
223,109,50297,1,8,1:0:0:0:
167,223,50464,1,0,0:0:0:0:
351,144,50630,2,0,P|328:107|287:80,1,80.000000298023
173,112,50964,6,0,P|137:167|138:199,1,80.000000298023,8|0,1:0|0:0,0:0:0:0:
288,194,51297,1,0,0:0:0:0:
151,300,51464,1,0,0:0:0:0:
364,270,51630,1,8,1:0:0:0:
181,232,51797,1,0,0:0:0:0:
373,181,51964,2,0,P|413:192|464:213,2,80.000000298023,0|0|8,0:0|0:0|1:0,0:0:0:0:
288,84,52464,5,0,0:0:0:0:
162,93,52630,1,0,0:0:0:0:
80,218,52797,1,0,0:0:0:0:
80,218,52880,1,0,0:0:0:0:
80,218,52964,2,0,L|136:296,1,80.000000298023,8|0,1:0|0:0,0:0:0:0:
160,155,53297,1,0,0:0:0:0:
235,270,53464,1,0,0:0:0:0:
255,109,53630,6,0,L|296:177,1,80.000000298023
149,85,53964,2,0,L|91:158,1,80.000000298023
271,239,54297,2,0,L|210:186,1,80.000000298023
83,203,54630,2,0,P|120:283|185:306,1,160.000000596046
321,170,55297,5,4,1:0:0:0:
285,82,55464,1,0,0:0:0:0:
226,159,55630,1,8,1:0:0:0:
199,66,55797,1,0,0:0:0:0:
356,249,55964,5,0,0:0:0:0:
285,82,56130,1,0,0:0:0:0:
181,247,56297,1,8,1:0:0:0:
199,66,56464,1,0,0:0:0:0:
325,203,56630,5,0,0:0:0:0:
135,190,56797,1,0,0:0:0:0:
298,113,56964,1,8,1:0:0:0:
187,275,57130,1,0,0:0:0:0:
199,66,57297,1,0,0:0:0:0:
262,238,57464,1,0,0:0:0:0:
107,160,57630,2,0,L|184:134,1,80.000000298023,8|0,1:0|0:0,0:0:0:0:
305,87,57964,5,0,0:0:0:0:
273,239,58130,1,0,0:0:0:0:
445,138,58297,2,0,L|424:220,1,80.000000298023,8|0,1:0|0:0,0:0:0:0:
281,100,58630,1,0,0:0:0:0:
368,241,58797,1,0,0:0:0:0:
374,82,58964,1,8,1:0:0:0:
266,231,59130,1,0,0:0:0:0:
208,72,59297,2,0,P|183:104|168:152,1,80.000000298023
169,278,59630,6,0,P|219:305|263:319,1,80.000000298023,8|0,1:0|0:0,0:0:0:0:
246,127,59964,2,0,P|292:155|329:190,1,80.000000298023
360,316,60297,2,0,B|372:314|407:301|438:276,1,80.000000298023,8|0,1:0|0:0,0:0:0:0:
466,120,60630,1,0,0:0:0:0:
329,240,60797,2,0,L|253:200,2,80.000000298023,0|8|0,0:0|1:0|0:0,0:0:0:0:
449,158,61297,1,0,0:0:0:0:
265,114,61464,2,0,L|341:91,2,80.000000298023,0|8|0,0:0|1:0|0:0,0:0:0:0:
356,88,61964,6,0,L|444:152,1,80.000000298023
298,278,62297,1,8,1:0:0:0:
237,81,62464,5,0,0:0:0:0:
186,261,62630,1,0,0:0:0:0:
123,60,62797,5,0,0:0:0:0:
65,253,62964,1,8,1:0:0:0:
157,122,63130,1,0,0:0:0:0:
196,288,63297,2,0,P|237:268|254:241,1,80.000000298023,0|8,0:0|1:0,0:0:0:0:
195,52,63630,5,0,0:0:0:0:
340,228,63797,1,0,0:0:0:0:
480,36,63964,1,0,0:0:0:0:
240,36,64130,1,0,0:0:0:0:
364,244,64297,1,8,1:0:0:0:
452,24,64464,1,0,0:0:0:0:
212,52,64630,1,0,0:0:0:0:
288,248,64797,6,0,B|300:209|300:209|315:162,1,80.000000298023,0|8,0:0|1:0,0:0:0:0:
349,35,65130,1,0,0:0:0:0:
189,119,65297,2,0,B|179:164|179:164|169:203,1,80.000000298023
140,332,65630,1,8,1:0:0:0:
272,262,65797,1,4,2:2:0:0:
140,181,65964,5,0,0:0:0:0:
156,101,66130,1,0,0:0:0:0:
212,41,66297,5,0,0:0:0:0:
292,29,66464,1,0,0:0:0:0:
360,69,66630,5,0,0:0:0:0:
384,145,66797,1,0,0:0:0:0:
428,236,66964,6,0,L|320:236,1,80.000000298023
280,275,67297,2,0,P|270:230|288:191,1,80.000000298023
180,236,67630,5,0,0:0:0:0:
212,160,67797,1,0,0:0:0:0:
292,167,67964,6,0,P|280:119|230:81,1,80.000000298023
193,68,68297,1,0,0:0:0:0:
106,191,68630,1,0,0:0:0:0:
139,216,78630,5,0,0:0:0:0:
168,192,78964,1,0,0:0:0:0:
153,115,79297,2,0,P|251:186|211:260,1,220.000000819563
384,246,80630,2,0,P|436:182|428:134,2,120.000000447034
356,176,81964,2,0,P|306:235|334:307,1,160.000000596046
80,164,83297,2,0,P|56:120|72:44,2,120.000000447034
128,100,84630,6,0,L|220:80,1,80.000000298023
216,124,85130,2,0,L|296:108,1,80.000000298023
306,147,85630,2,0,P|358:150|394:160,1,80.000000298023
238,295,86630,5,0,0:0:0:0:
316,220,87130,1,0,0:0:0:0:
212,164,87630,1,0,0:0:0:0:
116,282,88130,6,0,B|197:81|401:118,1,360.000001341103
135,48,89964,6,0,L|83:68,1,40.0000001490115,8|0,0:0|0:0,0:0:0:0:
143,152,90297,2,0,L|179:120,1,40.0000001490115
290,118,90630,2,0,L|278:170,1,40.0000001490115
307,283,90964,2,0,L|344:268,1,40.0000001490115
204,220,91297,6,0,L|152:244,1,40.0000001490115,8|0,0:0|0:0,0:0:0:0:
220,320,91630,2,0,L|260:340,1,40.0000001490115
372,306,91964,2,0,L|340:284,1,40.0000001490115
400,164,92297,2,0,L|436:188,1,40.0000001490115
384,296,92630,5,8,0:0:0:0:
332,188,92797,1,0,0:0:0:0:
244,268,92964,1,0,0:0:0:0:
308,168,93130,1,0,0:0:0:0:
212,240,93297,1,8,0:0:0:0:
128,156,93464,1,0,0:0:0:0:
168,268,93630,1,0,0:0:0:0:
92,172,93797,1,0,0:0:0:0:
201,195,93964,5,8,0:0:0:0:
180,92,94130,1,0,0:0:0:0:
343,170,94297,1,0,0:0:0:0:
236,40,94464,1,0,0:0:0:0:
210,178,94630,1,8,0:0:0:0:
161,46,94797,1,0,0:0:0:0:
291,93,94964,1,0,0:0:0:0:
236,223,95130,1,0,0:0:0:0:
112,172,95297,6,0,L|72:144,1,40.0000001490115,8|0,0:0|0:0,0:0:0:0:
228,68,95630,2,0,L|208:28,1,40.0000001490115
364,104,95964,2,0,L|400:72,1,40.0000001490115
372,244,96297,2,0,L|424:264,1,40.0000001490115
248,308,96630,2,8,L|256:360,1,40.0000001490115,8|0,0:0|0:0,0:0:0:0:
108,268,96964,2,0,L|60:292,1,40.0000001490115
128,124,97297,2,0,L|96:96,1,40.0000001490115
272,228,97630,2,0,L|312:260,1,40.0000001490115
400,60,97964,2,0,L|452:56,1,40.0000001490115,8|0,0:0|0:0,0:0:0:0:
424,276,98297,2,0,L|392:312,1,40.0000001490115
320,230,98630,5,8,0:0:0:0:
289,126,98797,1,0,0:0:0:0:
205,193,98964,1,0,0:0:0:0:
350,207,99130,1,0,0:0:0:0:
308,106,99297,1,8,0:0:0:0:
225,175,99464,1,0,0:0:0:0:
170,81,99630,1,0,0:0:0:0:
111,171,99797,1,0,0:0:0:0:
284,125,99964,2,0,P|324:143|354:168,1,80.000000298023,8|0,0:0|0:0,0:0:0:0:
280,213,100464,1,0,0:0:0:0:
216,165,100713,6,0,P|258:302|372:239,1,300.000001117586
187,140,102378,1,0,0:0:0:0:
240,80,102711,1,0,0:0:0:0:
248,160,103045,1,0,0:0:0:0:
197,217,103378,2,0,P|172:179|172:141,1,80.000000298023
109,98,103878,2,0,B|164:45|240:99,1,120.000000447034
274,313,104711,6,0,P|311:332|353:323,1,80.000000298023
369,148,105378,2,0,L|329:156,2,40.0000001490115
440,218,106045,2,0,P|464:262|410:355,1,160.000000596046
375,277,107044,1,0,0:0:0:0:
193,196,107628,6,0,L|219:247,1,40.0000001490115
422,153,108212,2,0,L|380:208,1,40.0000001490115
209,185,108878,5,0,0:0:0:0:
362,112,109212,2,0,L|409:126,2,40.0000001490115
168,180,109879,2,0,B|178:226|225:245,1,80.000000298023
245,170,110379,2,0,L|285:135,1,40.0000001490115
172,300,110879,1,0,0:0:0:0:
172,300,111044,2,0,L|227:279,1,40.0000001490115
290,210,111378,6,0,B|276:126|215:92|200:231|87:192|180:83|113:57|44:112,1,320.000001192092,0|0,2:0|2:0,2:0:0:0:
195,305,113044,6,0,P|195:269|201:224,1,80.000000298023
226,99,113710,1,0,0:0:0:0:
353,110,114044,2,0,L|319:165,1,40.0000001490115
264,99,114377,2,0,B|187:219|370:314|426:153,1,320.000001192092
264,99,116045,1,0,0:0:0:0:
294,196,116378,2,0,L|210:160,1,80.000000298023
345,71,117044,2,0,L|429:115,1,80.000000298023
263,108,117711,2,0,L|219:139,1,40.0000001490115
76,80,118378,5,0,0:0:0:0:
172,256,118711,1,0,0:0:0:0:
251,80,119045,1,0,0:0:0:0:
430,148,119378,2,0,P|469:214|483:302,1,160.000000596046
318,283,120628,2,0,P|202:355|54:255,1,320.000001192092
128,88,122295,5,0,0:0:0:0:
135,106,122377,1,0,0:0:0:0:
142,124,122460,1,0,0:0:0:0:
148,143,122544,1,0,0:0:0:0:
155,161,122627,1,0,0:0:0:0:
402,84,122960,5,8,3:0:0:0:
377,201,123128,1,8,3:0:0:0:
39,108,123460,5,8,3:0:0:0:
68,223,123628,1,8,3:0:0:0:
242,107,123960,5,0,0:0:0:0:
207,116,124045,1,0,0:0:0:0:
180,139,124128,1,0,0:0:0:0:
168,173,124210,1,0,0:0:0:0:
165,208,124295,1,0,0:0:0:0:
180,240,124378,1,0,0:0:0:0:
205,265,124460,1,0,0:0:0:0:
238,276,124545,1,0,0:0:0:0:
271,274,124628,6,0,P|323:165|306:100,1,160.000000596046,4|8,3:1|1:0,0:0:0:0:
180,56,125128,1,0,0:0:0:0:
139,206,125295,1,0,0:0:0:0:
251,74,125460,1,0,0:0:0:0:
289,254,125628,1,8,1:0:0:0:
191,101,125795,1,0,0:0:0:0:
366,222,125961,2,0,P|333:158|309:140,1,80.000000298023
315,308,126295,6,0,L|220:272,1,80.000000298023,8|0,1:0|0:0,0:0:0:0:
155,138,126628,2,0,L|251:175,1,80.000000298023
387,117,126961,2,0,P|376:159|342:188,1,80.000000298023,8|0,1:0|0:0,0:0:0:0:
244,325,127296,1,0,0:0:0:0:
209,158,127461,1,0,0:0:0:0:
329,299,127629,1,8,1:0:0:0:
158,225,127796,1,0,0:0:0:0:
352,209,127961,1,0,0:0:0:0:
191,304,128129,1,0,0:0:0:0:
265,156,128296,5,8,1:0:0:0:
373,315,128461,1,0,0:0:0:0:
226,187,128628,1,0,0:0:0:0:
175,330,128795,1,0,0:0:0:0:
308,242,128961,1,8,1:0:0:0:
120,263,129128,1,0,0:0:0:0:
307,322,129295,1,0,0:0:0:0:
161,196,129461,1,0,0:0:0:0:
183,379,129628,6,0,L|262:300,1,80.000000298023,8|0,1:0|0:0,0:0:0:0:
369,197,129961,2,0,L|281:210,1,80.000000298023,0|0,3:0|0:0,0:0:0:0:
113,231,130295,1,8,1:0:0:0:
257,107,130461,1,0,0:0:0:0:
210,256,130628,5,0,0:0:0:0:
308,84,130795,1,0,0:0:0:0:
149,211,130961,1,8,1:0:0:0:
369,148,131128,1,0,0:0:0:0:
167,124,131295,2,0,L|252:193,1,80.000000298023
349,276,131628,5,8,1:0:0:0:
250,129,131795,1,0,0:0:0:0:
272,319,131961,1,0,0:0:0:0:
331,148,132128,1,0,0:0:0:0:
199,277,132295,1,8,1:0:0:0:
402,231,132461,1,0,0:0:0:0:
247,114,132628,1,0,0:0:0:0:
238,297,132796,5,0,0:0:0:0:
354,184,132961,1,0,0:0:0:0:
201,144,133129,1,0,0:0:0:0:
291,293,133296,5,0,0:0:0:0:
333,133,133461,1,0,0:0:0:0:
168,177,133629,1,0,0:0:0:0:
296,76,133796,5,0,0:0:0:0:
214,253,133961,1,0,0:0:0:0:
236,81,134129,1,0,0:0:0:0:
372,222,134296,1,0,0:0:0:0:
188,145,134461,1,0,0:0:0:0:
372,132,134629,1,0,0:0:0:0:
299,291,134796,1,0,0:0:0:0:
255,122,134961,1,0,0:0:0:0:
222,292,135128,2,0,P|199:317|156:340,1,80.000000298023,0|4,0:0|1:0,0:0:0:0:
391,174,135628,5,8,1:0:0:0:
218,233,135795,1,0,0:0:0:0:
355,91,135960,1,0,0:0:0:0:
319,277,136128,1,0,0:0:0:0:
256,76,136295,1,8,1:0:0:0:
432,224,136461,2,0,P|404:292|336:356,1,160.000000596046
170,244,136960,5,8,1:0:0:0:
372,132,137128,1,0,0:0:0:0:
234,306,137293,1,0,0:0:0:0:
291,78,137460,1,0,0:0:0:0:
160,164,137628,1,8,1:0:0:0:
377,216,137795,1,0,0:0:0:0:
209,62,137960,1,0,0:0:0:0:
319,281,138128,1,0,0:0:0:0:
121,245,138294,5,8,1:0:0:0:
330,151,138461,1,0,0:0:0:0:
139,81,138628,1,0,0:0:0:0:
242,269,138794,1,0,0:0:0:0:
309,80,138961,1,8,1:0:0:0:
103,179,139128,1,0,0:0:0:0:
246,290,139294,1,0,0:0:0:0:
254,153,139461,1,0,0:0:0:0:
78,228,139628,6,0,P|123:292|204:303,1,160.000000596046,8|0,1:0|0:0,0:0:0:0:
253,139,140128,1,0,0:0:0:0:
372,277,140295,1,8,1:0:0:0:
333,107,140461,1,0,0:0:0:0:
275,280,140629,1,0,0:0:0:0:
233,112,140795,1,0,0:0:0:0:
370,221,140961,1,8,1:0:0:0:
171,254,141129,1,0,0:0:0:0:
259,105,141294,1,0,0:0:0:0:
407,213,141461,5,0,0:0:0:0:
277,54,141629,1,8,1:0:0:0:
114,177,141794,1,0,0:0:0:0:
114,177,141879,1,0,0:0:0:0:
114,177,141961,2,0,P|122:262|168:342,1,160.000000596046,0|8,1:0|1:0,0:0:0:0:
319,348,142461,2,2,B|393:308|377:219|316:223|254:225|263:156|266:100|326:83,1,320.000001192092,2|2,2:0|2:0,2:0:0:0:
373,105,143294,2,2,B|420:174|366:246|313:215|259:185|235:250|213:301|258:344,1,320.000001192092,2|2,2:0|2:0,2:0:0:0:
119,152,144294,2,2,B|65:104|65:104|18:135|19:228|83:318|274:244|222:98|150:82,1,480.000001788138,2|0,2:0|2:0,2:0:0:0:
147,267,145961,6,0,P|118:254|82:210,1,80.000000298023,8|0,0:0|0:0,0:0:0:0:
222,46,146628,1,0,0:0:0:0:
296,185,146878,2,0,P|256:249|243:261,1,80.000000298023,0|8,0:0|0:0,0:0:0:0:
140,156,147961,6,0,P|188:96|196:92,2,80.000000298023,0|0|8,0:0|0:0|0:0,0:0:0:0:
183,269,148795,1,0,0:0:0:0:
302,261,148961,2,0,L|278:230,1,40.0000001490115
388,212,149294,2,0,P|410:179|414:140,1,80.000000298023
263,90,149794,1,0,0:0:0:0:
153,140,149961,1,8,0:0:0:0:
357,265,150294,5,0,0:0:0:0:
71,297,150629,1,0,0:0:0:0:
193,35,150961,1,0,0:0:0:0:
153,228,151294,5,8,0:0:0:0:
221,169,151462,1,0,0:0:0:0:
174,102,151628,1,0,0:0:0:0:
114,160,151794,1,0,0:0:0:0:
195,249,151962,1,0,0:0:0:0:
280,165,152128,1,0,0:0:0:0:
192,88,152294,2,0,P|151:90|111:118,2,80.000000298023,0|8|0,0:0|0:0|0:0,0:0:0:0:
378,216,153294,6,0,P|346:244|310:240,1,80.000000298023
218,210,153794,1,0,0:0:0:0:
233,309,153961,2,0,P|197:307|146:330,2,80.000000298023,8|0|0,0:0|0:0|0:0,0:0:0:0:
434,295,154961,2,0,P|449:230|448:208,1,80.000000298023,0|8,0:0|2:0,0:0:0:0:
449,217,155627,5,4,0:0:0:0:
285,246,155961,1,4,0:0:0:0:
322,82,156294,1,4,0:0:0:0:
372,213,156627,5,10,3:2:0:0:
201,189,156794,1,10,3:2:0:0:
321,53,156961,1,10,3:2:0:0:
159,34,157127,1,10,3:2:0:0:
159,34,157211,1,8,3:0:0:0:
159,34,157294,1,4,3:2:0:0:
255,222,157627,5,10,3:2:0:0:
299,325,157794,1,10,3:2:0:0:
323,203,157961,1,10,3:2:0:0:
399,285,158127,1,10,3:2:0:0:
351,145,158294,1,10,3:2:0:0:
467,174,158460,1,10,3:2:0:0:
467,174,158544,1,8,3:0:0:0:
467,174,158628,1,4,3:2:0:0:
296,93,158961,5,10,3:2:0:0:
353,198,159129,1,10,3:2:0:0:
214,83,159294,1,10,3:2:0:0:
303,262,159461,1,10,3:2:0:0:
153,129,159629,1,10,3:2:0:0:
351,146,159794,1,10,3:2:0:0:
351,146,159878,1,8,3:0:0:0:
351,146,159961,1,4,3:2:0:0:
181,68,160295,5,10,3:2:0:0:
298,184,160460,1,10,3:2:0:0:
239,21,160628,1,10,3:2:0:0:
226,185,160795,1,10,3:2:0:0:
304,59,160960,1,10,3:2:0:0:
169,131,161128,1,10,3:2:0:0:
327,191,161294,2,10,L|302:157,1,40.0000001490115,10|10,3:2|3:2,3:2:0:0:
188,199,161628,5,10,3:2:0:0:
275,85,161795,1,10,3:2:0:0:
366,220,161960,1,10,3:2:0:0:
327,45,162128,1,10,3:2:0:0:
327,45,162210,1,8,3:0:0:0:
327,45,162295,1,10,3:2:0:0:
223,207,162460,1,10,3:2:0:0:
218,51,162628,1,4,3:2:0:0:
302,272,162960,5,10,3:2:0:0:
336,106,163128,1,10,3:2:0:0:
132,160,163295,1,10,3:2:0:0:
251,75,163460,1,10,3:2:0:0:
290,258,163628,1,10,3:2:0:0:
347,91,163795,1,10,3:2:0:0:
175,141,163960,1,4,3:2:0:0:
39,217,164295,5,10,3:2:0:0:
95,79,164460,1,10,3:2:0:0:
171,215,164628,1,10,3:2:0:0:
223,45,164795,1,10,3:2:0:0:
291,160,164960,1,10,3:2:0:0:
457,184,165128,1,10,3:2:0:0:
357,270,165294,2,14,B|126:234|153:13|398:-42|495:217|316:316|150:183,1,640.000002384184,8|4,3:2|3:2,1:1:0:0:
431,286,179962,6,0,L|375:218,1,80.000000298023
400,154,180628,2,0,P|344:151|299:235,1,160.000000596046
148,322,181962,2,0,P|100:302|79:239,1,120.000000447034
152,248,182962,1,0,0:0:0:0:
128,136,183294,2,0,P|239:194|252:306,1,240.000000894069,0|0,3:0|3:0,3:0:0:0:
396,80,184628,6,0,P|406:135|466:165,1,120.000000447034
323,129,185628,1,0,0:0:0:0:
268,60,185962,2,0,P|245:109|181:113,1,120.000000447034
141,141,186962,2,0,P|147:226|194:292,1,160.000000596046
358,321,187962,5,0,0:0:0:0:
326,111,188462,1,0,0:0:0:0:
142,214,188962,2,0,P|132:260|124:308,1,80.000000298023
258,135,189629,1,0,0:0:0:0:
154,94,189794,5,0,0:0:0:0:
171,205,189962,1,0,0:0:0:0:
276,122,190129,1,0,0:0:0:0:
161,58,190294,5,0,0:0:0:0:
166,191,190462,1,0,0:0:0:0:
290,107,190629,1,0,0:0:0:0:
291,313,190962,2,0,P|314:308|368:274,1,80.000000298023
368,172,191628,6,0,L|318:159,1,40.0000001490115
144,93,191961,2,0,L|178:126,1,40.0000001490115
312,275,192294,2,0,L|277:212,1,40.0000001490115
264,59,192628,6,0,L|260:120,1,40.0000001490115
246,250,192962,1,0,0:0:0:0:
171,149,193129,1,0,0:0:0:0:
128,291,193294,2,0,L|186:291,1,40.0000001490115
346,285,193629,2,0,L|301:245,1,40.0000001490115
170,150,193962,6,0,L|223:144,1,40.0000001490115
427,119,194294,2,0,L|383:145,1,40.0000001490115
285,230,194628,5,0,0:0:0:0:
240,105,194795,1,0,0:0:0:0:
348,177,194960,1,0,0:0:0:0:
366,45,195128,1,0,0:0:0:0:
201,162,195294,2,0,L|248:135,1,40.0000001490115
387,68,195628,2,0,L|336:65,1,40.0000001490115
170,45,195961,2,0,L|207:74,1,40.0000001490115
350,166,196294,2,0,L|398:183,2,40.0000001490115
155,193,196962,5,0,0:0:0:0:
379,192,197294,1,0,0:0:0:0:
165,125,197629,1,0,0:0:0:0:
349,252,197962,1,0,0:0:0:0:
210,74,198294,1,0,0:0:0:0:
288,283,198628,1,0,0:0:0:0:
276,60,198961,1,0,0:0:0:0:
221,261,199295,5,0,0:0:0:0:
338,89,199628,1,0,0:0:0:0:
170,210,199960,1,0,0:0:0:0:
370,151,200295,1,0,0:0:0:0:
162,142,200628,1,0,0:0:0:0:
353,220,200960,1,0,0:0:0:0:
197,80,201295,1,0,0:0:0:0:
299,260,201628,1,0,0:0:0:0:
162,141,202294,5,0,0:0:0:0:
329,193,202627,1,0,0:0:0:0:
153,213,202962,1,0,0:0:0:0:
306,128,203294,1,0,0:0:0:0:
199,268,203627,1,0,0:0:0:0:
243,96,203962,1,0,0:0:0:0:
272,268,204294,1,0,0:0:0:0:
180,117,204627,5,0,0:0:0:0:
323,219,204962,1,0,0:0:0:0:
150,189,205294,1,0,0:0:0:0:
320,147,205628,1,0,0:0:0:0:
179,255,205961,1,0,0:0:0:0:
265,101,206294,1,0,0:0:0:0:
247,275,206628,1,0,0:0:0:0:
193,106,206961,1,0,0:0:0:0:
320,133,207628,5,0,0:0:0:0:
264,265,207961,1,0,0:0:0:0:
250,120,208294,1,0,0:0:0:0:
328,240,208628,1,0,0:0:0:0:
203,167,208961,1,0,0:0:0:0:
347,171,209294,1,0,0:0:0:0:
236,107,209628,5,0,0:0:0:0:
297,218,209961,1,0,0:0:0:0:
302,89,210294,1,0,0:0:0:0:
231,195,210628,1,0,0:0:0:0:
348,143,210961,1,0,0:0:0:0:
220,126,211294,1,0,0:0:0:0:
337,75,211629,1,0,0:0:0:0:
210,53,211962,1,0,0:0:0:0:
253,200,212295,1,0,0:0:0:0:
253,200,212628,6,0,B|244:175|244:175|254:185|254:185|261:177|261:177|250:200,1,53.3333335320153
256,192,212961,12,0,221961,0:0:0:0:
