osu file format v14

[General]
AudioFilename: audio.mp3
AudioLeadIn: 0
PreviewTime: 59294
Countdown: 0
SampleSet: Normal
StackLeniency: 0.4
Mode: 0
LetterboxInBreaks: 0
WidescreenStoryboard: 0

[Editor]
Bookmarks: 55580
DistanceSpacing: 1
BeatDivisor: 4
GridSize: 32
TimelineZoom: 1.7

[Metadata]
Title:Barricades
TitleUnicode:Barricades
Artist:Hiroyuki Sawano
ArtistUnicode:澤野 弘之
Creator:Lorkee
Version:Over the wall
Source:
Tags:Hiroyuki Sawano Barricades 澤野 弘之 Lorkee Over the wall Attack on Titan Season S 2 II Historia OST Episode Last 12
BeatmapID:1332729
BeatmapSetID:631190

[Difficulty]
HPDrainRate:4
CircleSize:4
OverallDifficulty:8.8
ApproachRate:9.4
SliderMultiplier:1.9
SliderTickRate:1

[Events]
//Background and Video events
0,0,"bg.jpg",0,0
//Break Periods
2,49865,55040
2,55780,57325
//Storyboard Layer 0 (Background)
//Storyboard Layer 1 (Fail)
//Storyboard Layer 2 (Pass)
//Storyboard Layer 3 (Foreground)
//Storyboard Sound Samples

[TimingPoints]
723,285.714285714286,4,1,0,100,1,0
723,-1000,4,1,0,100,0,0
2937,-1000,4,1,0,5,0,0
3008,-1000,4,1,0,100,0,0
5223,-1000,4,1,0,5,0,0
5294,-666.666666666667,4,1,0,100,0,0
7508,-666.666666666667,4,1,0,5,0,0
7580,-500,4,1,0,100,0,0
9294,-250,4,1,0,100,0,0
9865,-200,4,1,0,100,0,0
11580,-181.818181818182,4,1,0,100,0,0
12151,-153.846153846154,4,1,0,100,0,0
14437,-147.058823529412,4,1,0,100,0,0
16723,-138.888888888889,4,1,0,100,0,0
17865,-131.578947368421,4,1,0,100,0,0
18151,-128.205128205128,4,1,0,100,0,0
18223,-128.205128205128,4,1,0,5,0,0
18294,-128.205128205128,4,1,0,100,0,0
18365,-128.205128205128,4,1,0,5,0,0
18437,-125,4,1,0,100,0,0
18508,-125,4,1,0,5,0,0
18580,-125,4,1,0,100,0,0
18651,-125,4,1,0,5,0,0
18723,-123.456790123457,4,1,0,100,0,0
18794,-123.456790123457,4,1,0,5,0,0
18865,-123.456790123457,4,1,0,100,0,0
18937,-123.456790123457,4,1,0,5,0,0
19008,-100,4,1,0,100,0,0
37294,-111.111111111111,4,1,0,100,0,0
46437,-105.263157894737,4,1,0,100,0,0
60151,-83.3333333333333,4,1,0,100,0,1
66437,-100,4,1,0,100,0,1
69294,-83.3333333333333,4,1,0,100,0,1
78151,-83.3333333333333,4,1,0,100,0,0
78437,-83.3333333333333,4,1,0,100,0,1
96723,-83.3333333333333,4,1,0,100,0,0
124151,-83.3333333333333,4,1,0,100,0,1
142151,-83.3333333333333,4,1,0,100,0,0
142437,-83.3333333333333,4,1,0,100,0,1
160723,-100,4,1,0,100,0,0
179008,-83.3333333333333,4,1,0,100,0,1
196151,-83.3333333333333,4,1,0,100,0,0
197294,-83.3333333333333,4,1,0,100,0,1
215580,-100,4,1,0,100,0,0

[HitObjects]
177,253,723,6,0,L|34:214,1,147.25
183,172,3008,6,0,P|244:208|253:278,1,147.25
108,148,5294,6,0,P|192:93|261:167,1,220.87499325943
40,125,7580,6,0,P|103:43|203:22,1,209
357,45,9294,2,0,L|337:118,1,76
409,215,9865,6,0,L|317:190,1,95
400,294,10294,2,0,P|446:285|479:252,1,95
385,173,10723,2,0,L|408:214,1,47.5
467,125,11008,6,0,L|490:166,1,47.5
385,78,11294,1,0,0:0:0:0:
467,30,11437,1,0,0:0:0:0:
302,30,11580,2,0,L|256:56,1,52.2500015945435
385,173,11865,1,0,0:0:0:0:
385,173,12151,6,0,P|339:212|278:216,1,123.499994346619
232,134,12580,2,0,P|192:179|188:239,1,123.499994346619
278,216,13008,1,0,0:0:0:0:
326,137,13151,1,0,0:0:0:0:
232,134,13294,5,0,0:0:0:0:
186,52,13437,1,0,0:0:0:0:
280,55,13580,1,0,0:0:0:0:
138,131,13723,1,0,0:0:0:0:
278,216,13865,2,0,L|337:231,1,61.7499971733095
326,137,14151,2,0,L|385:152,1,61.7499971733095
183,213,14437,6,0,P|121:223|67:190,1,129.200000788574
138,131,14865,2,0,P|200:120|254:153,1,129.200000788574
183,213,15294,1,0,0:0:0:0:
229,295,15437,2,0,L|213:354,1,61.7499971733095
323,298,15723,6,0,L|307:357,1,61.7499971733095
277,216,16008,1,0,0:0:0:0:
417,301,16151,2,0,L|432:241,1,61.7499971733095
462,114,16437,2,0,L|448:178,1,64.6000003942871
460,34,16723,6,0,P|401:62|383:126,1,136.800003339844
228,34,17151,2,0,P|288:62|306:126,1,136.800003339844
226,114,17580,1,0,0:0:0:0:
158,71,17723,1,0,0:0:0:0:
223,194,17865,5,0,0:0:0:0:
87,109,18008,1,0,0:0:0:0:
220,274,18151,2,0,L|220:311,1,37.0500012437439
152,231,18294,2,0,L|119:249,1,37.0500012437439
291,237,18437,2,0,L|323:255,1,37.0500012437439
223,194,18580,2,0,L|222:156,1,37.0500012437439
294,156,18723,2,0,L|326:137,1,37.0500012437439
152,156,18865,2,0,L|119:137,1,37.0500012437439
311,60,19008,6,0,P|358:65|392:97,1,95
406,174,19294,2,0,P|359:168|325:136,1,95,0|0,0:3|0:3,0:3:0:0:
464,122,19580,2,0,P|474:211|394:250,1,190
392,97,20008,1,0,0:0:0:0:
392,97,20294,5,0,0:0:0:0:
213,86,20437,2,0,L|304:61,1,95
282,164,20723,2,0,B|306:256|306:256|397:232,1,190
372,140,21151,1,0,0:0:0:0:
192,188,21294,6,0,B|216:280|216:280|125:305,1,190
101,213,21723,1,0,0:0:0:0:
240,370,21865,2,0,L|331:345,1,95
306,253,22151,2,0,L|214:277,1,95
306,253,22580,5,0,0:0:0:0:
396,229,22723,1,0,0:0:0:0:
282,164,22865,1,0,0:0:0:0:
191,189,23008,2,0,L|166:280,1,95
99,164,23294,2,0,L|123:72,1,95
216,97,23580,5,0,0:0:0:0:
257,254,23723,1,0,0:0:0:0:
282,164,23865,1,0,0:0:0:0:
323,321,24008,1,0,0:0:0:0:
373,139,24151,2,0,L|397:47,1,95
439,206,24437,2,0,L|415:298,1,95
415,297,24865,5,0,0:0:0:0:
439,206,25008,1,0,0:0:0:0:
347,230,25151,1,0,0:0:0:0:
231,344,25294,2,0,L|278:160,1,190
463,115,25723,1,0,0:0:0:0:
347,230,25865,6,0,L|163:182,1,190
296,46,26294,1,0,0:0:0:0:
322,139,26437,1,0,0:0:0:0:
229,115,26580,1,0,0:0:0:0:
390,71,26723,1,0,0:0:0:0:
204,23,26865,1,0,0:0:0:0:
204,23,27151,5,0,0:0:0:0:
137,91,27294,1,0,0:0:0:0:
162,183,27437,1,0,0:0:0:0:
204,23,27580,2,0,P|116:0|49:60,1,190
229,115,28008,1,0,0:0:0:0:
94,250,28151,5,0,0:0:0:0:
278,300,28294,2,0,L|327:116,1,190
485,257,28723,1,0,0:0:0:0:
485,257,29008,5,0,0:0:0:0:
302,208,29151,1,0,0:0:0:0:
302,208,29437,5,0,0:0:0:0:
394,233,29580,1,0,0:0:0:0:
370,141,29723,1,0,0:0:0:0:
326,300,29865,2,0,L|234:275,1,95
278,116,30151,1,0,0:0:0:0:
461,166,30294,1,0,0:0:0:0:
211,183,30437,6,0,L|119:158,1,95
186,91,30723,1,0,0:0:0:0:
278,116,30865,1,0,0:0:0:0:
119,158,31008,2,0,P|96:116|95:69,1,95
254,24,31294,1,0,0:0:0:0:
211,183,31437,1,0,0:0:0:0:
211,183,31723,5,0,0:0:0:0:
254,24,31865,1,0,0:0:0:0:
303,208,32008,1,0,0:0:0:0:
186,91,32151,1,0,0:0:0:0:
370,141,32294,1,0,0:0:0:0:
235,275,32437,1,0,0:0:0:0:
278,116,32580,1,0,0:0:0:0:
119,207,32723,5,0,0:0:0:0:
327,251,32865,1,0,0:0:0:0:
303,159,33008,1,0,0:0:0:0:
211,183,33151,1,0,0:0:0:0:
418,226,33294,2,0,P|418:274|395:315,1,95
395,134,33580,1,0,0:0:0:0:
235,275,33723,1,0,0:0:0:0:
235,275,34008,5,0,0:0:0:0:
143,299,34151,1,0,0:0:0:0:
211,183,34294,1,0,0:0:0:0:
51,323,34437,2,0,L|2:139,1,190
187,91,34865,1,0,0:0:0:0:
119,207,35008,6,0,B|143:298|143:298|234:274,1,190
279,67,35437,1,0,0:0:0:0:
327,251,35580,1,0,0:0:0:0:
211,183,35723,1,0,0:0:0:0:
419,227,35865,1,0,0:0:0:0:
303,159,36008,1,0,0:0:0:0:
303,159,36294,5,0,0:0:0:0:
351,343,36437,1,0,0:0:0:0:
395,135,36580,1,0,0:0:0:0:
235,275,36723,1,0,0:0:0:0:
419,227,36865,1,0,0:0:0:0:
211,183,37008,1,0,0:0:0:0:
327,251,37151,1,0,0:0:0:0:
162,244,37294,6,0,P|156:286|173:325,1,85.4999973907472
211,183,37580,2,0,P|171:166|130:173,1,85.4999973907472
245,258,37865,2,0,P|293:192|262:116,1,170.999994781494
130,172,38294,2,0,L|172:97,1,85.4999973907472
48,161,38580,2,0,P|78:237|159:249,1,170.999994781494
172,97,39008,2,0,L|130:172,1,85.4999973907472
97,54,39294,1,0,0:0:0:0:
247,141,39437,1,0,0:0:0:0:
171,11,39580,6,0,P|173:94|105:139,1,170.999994781494
97,54,40008,1,0,0:0:0:0:
250,53,40151,2,0,L|325:95,1,85.4999973907472
207,209,40437,1,0,0:0:0:0:
207,209,40508,1,0,0:0:0:0:
207,209,40580,1,0,0:0:0:0:
364,169,40723,5,0,0:0:0:0:
229,131,40865,2,0,L|154:89,1,85.4999973907472
207,209,41151,1,0,0:0:0:0:
323,94,41294,2,0,P|365:83|405:94,1,85.4999973907472
364,169,41580,1,0,0:0:0:0:
244,30,41723,1,0,0:0:0:0:
285,188,41865,6,0,P|306:225|343:247,1,85.4999973907472
404,93,42151,1,0,0:0:0:0:
229,131,42294,1,0,0:0:0:0:
459,150,42437,2,0,P|481:113|480:71,1,85.4999973907472
317,112,42723,1,0,0:0:0:0:
355,255,42865,1,0,0:0:0:0:
355,255,43151,5,0,0:0:0:0:
404,93,43294,1,0,0:0:0:0:
248,202,43437,1,0,0:0:0:0:
461,305,43580,2,0,P|436:340|400:363,1,85.4999973907472
336,184,43865,1,0,0:0:0:0:
491,74,44008,1,0,0:0:0:0:
229,130,44151,6,0,P|193:153|175:191,1,85.4999973907472
355,255,44437,1,0,0:0:0:0:
317,112,44580,1,0,0:0:0:0:
256,322,44723,1,0,0:0:0:0:
459,150,44865,1,0,0:0:0:0:
248,202,45008,1,0,0:0:0:0:
467,270,45151,1,0,0:0:0:0:
467,270,45437,5,0,0:0:0:0:
336,184,45580,1,0,0:0:0:0:
328,341,45723,1,0,0:0:0:0:
406,148,45865,2,0,P|377:116|337:104,1,85.4999973907472
196,255,46151,1,0,0:0:0:0:
463,348,46294,1,0,0:0:0:0:
199,175,46437,6,0,P|156:186|126:219,1,90.2499975900651
336,184,46723,1,0,0:0:0:0:
56,326,46865,1,0,0:0:0:0:
402,227,47008,2,0,P|416:185|405:142,1,90.2499975900651
331,262,47294,1,0,0:0:0:0:
341,105,47437,2,0,P|373:75|417:68,1,90.2499975900651
397,305,47723,2,0,P|365:334|321:341,1,90.2499975900651
66,94,48151,5,0,0:0:0:0:
150,247,48294,1,0,0:0:0:0:
110,19,48437,1,0,0:0:0:0:
63,246,48580,1,0,0:0:0:0:
152,95,48723,6,0,P|185:63|197:21,1,90.2499975900651
55,139,55580,5,0,0:0:0:0:
145,139,57865,5,0,0:0:0:0:
145,216,59437,5,0,0:0:0:0:
363,129,59580,2,0,L|279:162,1,90.2499975900651
95,333,59865,2,0,L|178:299,1,90.2499975900651
329,44,60151,6,0,P|432:69|440:175,1,227.999993041992
261,265,60580,1,0,0:0:0:0:
363,129,60723,1,0,0:0:0:0:
145,216,60865,1,0,0:0:0:0:
440,174,61008,2,0,P|454:120|432:69,1,113.999996520996
65,170,61294,6,0,P|51:224|73:275,1,113.999996520996
313,198,61580,1,0,0:0:0:0:
346,40,61723,1,0,0:0:0:0:
145,216,61865,1,0,0:0:0:0:
363,129,62008,1,0,0:0:0:0:
231,246,62151,1,0,0:0:0:0:
277,99,62294,1,0,0:0:0:0:
72,275,62437,6,0,P|51:223|65:169,1,113.999996520996
289,192,62723,1,0,0:0:0:0:
260,9,62865,1,0,0:0:0:0:
145,216,63008,2,0,P|165:268|151:322,1,113.999996520996
117,126,63294,1,0,0:0:0:0:
238,329,63437,1,0,0:0:0:0:
208,145,63580,6,0,P|203:90|166:47,1,113.999996520996
145,216,63865,1,0,0:0:0:0:
363,129,64008,1,0,0:0:0:0:
117,126,64151,1,0,0:0:0:0:
335,219,64294,1,0,0:0:0:0:
137,34,64437,1,0,0:0:0:0:
427,199,64580,1,0,0:0:0:0:
116,126,64723,6,0,P|52:211|109:302,1,227.999993041992
271,149,65151,1,0,0:0:0:0:
145,216,65294,1,0,0:0:0:0:
427,199,65437,1,0,0:0:0:0:
116,126,65580,2,0,P|70:158|51:211,1,113.999996520996
267,292,65865,5,0,0:0:0:0:
193,137,66008,1,0,0:0:0:0:
347,246,66151,2,0,P|359:300|338:352,1,113.999996520996
364,150,66437,1,0,0:0:0:0:
230,214,66580,1,0,0:0:0:0:
327,73,66723,1,0,0:0:0:0:
145,208,66865,1,0,0:0:0:0:
400,227,67008,6,0,P|437:196|451:148,1,95
279,144,67294,1,0,0:0:0:0:
412,79,67437,1,0,0:0:0:0:
193,136,67580,2,0,P|234:217|325:217,1,190
498,87,68008,1,0,0:0:0:0:
242,65,68151,6,0,P|197:49|151:60,1,95
399,227,68437,2,0,P|391:180|358:148,1,95
179,284,68723,1,0,0:0:0:0:
323,217,68865,1,0,0:0:0:0:
93,276,69008,1,0,0:0:0:0:
34,45,69151,1,0,0:0:0:0:
360,116,69294,6,0,P|427:201|387:302,1,227.999993041992
255,135,69723,1,0,0:0:0:0:
465,98,69865,2,0,P|495:145|508:201,1,113.999996520996
217,234,70151,2,0,P|172:202|150:150,1,113.999996520996
387,302,70437,5,0,0:0:0:0:
179,333,70580,1,0,0:0:0:0:
323,216,70723,2,0,P|356:171|360:115,1,113.999996520996
135,45,71008,1,0,0:0:0:0:
165,255,71151,1,0,0:0:0:0:
375,225,71294,1,0,0:0:0:0:
345,15,71437,1,0,0:0:0:0:
60,270,71580,6,0,P|82:321|127:355,1,113.999996520996
360,119,71865,2,0,P|415:127|460:161,1,113.999996520996
254,133,72151,2,0,P|296:33|404:21,1,227.999993041992
267,239,72580,1,0,0:0:0:0:
45,166,72723,6,0,L|45:52,1,113.999996520996
