osu file format v14

[General]
AudioFilename: audio.mp3
AudioLeadIn: 0
PreviewTime: 58846
Countdown: 0
SampleSet: Soft
StackLeniency: 0.7
Mode: 0
LetterboxInBreaks: 0
WidescreenStoryboard: 0

[Editor]
DistanceSpacing: 1
BeatDivisor: 4
GridSize: 4
TimelineZoom: 1

[Metadata]
Title:BLOWIN'
TitleUnicode:BLOWIN’
Artist:Hiroyuki Sawano
ArtistUnicode:澤野弘之
Creator:ktgster
Version:Normal
Source:タイヨウのうた
Tags:Orchestra-J Ascendance Taiyou no Uta a song to the sun
BeatmapID:1188203
BeatmapSetID:560165

[Difficulty]
HPDrainRate:3
CircleSize:3
OverallDifficulty:5
ApproachRate:6
SliderMultiplier:1.7
SliderTickRate:1

[Events]
//Background and Video events
0,0,"BG.jpg",0,0
//Break Periods
2,125474,133408
2,185274,194019
//Storyboard Layer 0 (Background)
//Storyboard Layer 1 (Fail)
//Storyboard Layer 2 (Pass)
//Storyboard Layer 3 (Foreground)
//Storyboard Sound Samples

[TimingPoints]
377,612.244897959184,4,2,1,30,1,0
377,-83.3333333333333,4,2,1,30,0,0
59152,-76.9230769230769,4,2,1,40,0,1
85785,-76.9230769230769,4,2,1,30,0,0
86091,-76.9230769230769,4,2,1,50,0,1
105070,-76.9230769230769,4,2,1,40,0,0
105683,-76.9230769230769,4,2,1,60,0,1
125274,-76.9230769230769,4,2,1,70,0,0
135070,-83.3333333333333,4,3,1,30,0,0
144866,-76.9230769230769,4,2,1,50,0,1
163846,-76.9230769230769,4,2,1,40,0,0
164458,-76.9230769230769,4,2,1,60,0,1
184050,-76.9230769230769,4,2,1,70,0,0
185274,612.244897959184,4,2,1,30,1,0
185274,-83.3333333333334,4,2,1,30,0,0
204865,-83.3333333333333,4,2,1,50,0,0
224457,-83.3333333333333,4,2,1,30,0,0
226753,-83.3333333333333,4,2,1,5,0,0

[Colours]
Combo1 : 167,167,84
Combo2 : 206,103,0
Combo3 : 207,207,158
Combo4 : 180,180,180

[HitObjects]
63,105,377,6,0,B|33:159|33:159|81:289,2,152.999995330811,0|0|0,1:2|1:2|1:2,0:0:0:0:
135,32,1601,2,0,P|179:79|350:99,1,203.999993774414,0|0,0:0|0:2,0:0:0:0:
411,96,2519,1,0,0:2:0:0:
485,165,2825,2,0,B|515:219|515:219|467:349,2,152.999995330811,0|0|0,0:2|1:2|1:2,0:0:0:0:
411,96,4049,2,0,P|367:49|196:29,1,203.999993774414,0|0,0:0|1:2,0:0:0:0:
138,51,4967,1,0,0:2:0:0:
82,137,5274,6,0,L|68:291,2,152.999995330811,0|0|0,1:2|1:2|1:2,0:0:0:0:
184,142,6499,2,0,B|244:110|280:174|308:222|384:182,1,203.999993774414,0|0,0:0|0:2,0:0:0:0:
455,135,7417,1,0,0:2:0:0:
460,236,7723,1,0,0:2:0:0:
460,236,8030,2,0,L|446:346,1,101.999996887207,0|0,0:2|0:0,0:0:0:0:
401,359,8489,2,0,P|356:332|233:329,1,152.999995330811,0|0,0:2|0:2,0:0:0:0:
55,349,9560,1,0,0:2:0:0:
96,255,9866,1,0,1:2:0:0:
56,159,10172,6,0,P|45:105|75:45,1,101.999996887207,0|0,0:2|1:2,0:0:0:0:
150,13,10785,1,8,0:2:0:0:
251,7,11091,1,0,0:2:0:0:
289,40,11244,2,0,L|252:292,1,254.999992218018,0|0,1:2|0:2,0:0:0:0:
336,349,12315,1,0,0:2:0:0:
434,321,12621,2,0,P|463:254|424:149,1,152.999995330811,0|0,0:2|1:2,0:0:0:0:
414,138,13234,1,0,0:2:0:0:
313,135,13540,1,0,1:2:0:0:
272,165,13693,2,0,P|166:202|6:126,1,254.999992218018,0|0,0:2|0:2,0:0:0:0:
14,57,14764,1,0,0:2:0:0:
110,22,15070,5,0,1:2:0:0:
110,22,15377,2,0,L|229:34,1,101.999996887207,0|0,0:2|0:0,0:0:0:0:
247,68,15836,1,0,0:2:0:0:
355,176,16295,2,0,P|412:188|501:143,2,152.999995330811,0|0|0,0:2|0:2|0:2,0:0:0:0:
263,131,17519,2,0,P|206:119|117:164,2,152.999995330811,0|0|0,0:2|1:2|1:2,0:0:0:0:
270,233,18744,1,0,0:2:0:0:
270,233,19968,6,0,L|433:249,2,152.999995330811,0|0|0,1:2|1:2|1:2,0:0:0:0:
168,224,21193,1,8,0:2:0:0:
66,214,21499,2,0,P|73:266|106:308,2,101.999996887207,0|0|0,0:2|0:2|0:2,0:0:0:0:
126,131,22417,1,0,0:2:0:0:
221,96,22723,1,0,0:2:0:0:
257,132,22877,2,0,B|309:164|333:132|357:96|417:148,1,152.999995330811,0|0,1:2|1:2,0:0:0:0:
444,228,23642,1,8,0:2:0:0:
242,262,24254,2,0,L|130:240,1,101.999996887207,0|0,1:2|0:2,0:0:0:0:
68,169,24866,6,0,P|36:111|52:18,2,152.999995330811,0|0|0,1:2|1:2|1:2,0:0:0:0:
167,143,26091,1,8,0:2:0:0:
242,211,26397,2,0,L|264:317,2,101.999996887207,0|0|8,0:2|0:2|0:2,0:0:0:0:
314,138,27315,1,0,0:2:0:0:
412,111,27621,1,0,0:2:0:0:
448,147,27775,2,0,B|480:199|448:223|412:247|464:307,1,152.999995330811,0|0,1:2|1:2,0:0:0:0:
379,363,28540,1,8,0:2:0:0:
80,296,29458,1,0,1:2:0:0:
60,195,29764,6,0,B|50:142|50:142|92:46,2,152.999995330811,0|0|0,0:2|0:2|0:2,0:0:0:0:
158,223,30989,1,8,0:2:0:0:
195,317,31295,2,0,P|144:323|87:295,2,101.999996887207,0|0|0,0:2|0:2|0:2,0:0:0:0:
292,287,32213,2,0,B|344:255|368:287|392:323|452:271,2,152.999995330811,0|0|0,0:2|1:2|1:2,0:0:0:0:
217,217,33438,2,0,P|191:149|226:61,1,152.999995330811,8|8,0:2|0:2,0:0:0:0:
254,44,34050,2,0,L|373:39,1,101.999996887207,0|0,0:2|0:2,0:0:0:0:
449,80,34662,6,0,B|488:170|488:170|478:223,2,152.999995330811,0|0|0,1:2|1:2|1:2,0:0:0:0:
365,140,35887,1,8,0:2:0:0:
322,232,36193,2,0,L|342:342,2,101.999996887207,0|0|8,0:2|0:2|0:2,0:0:0:0:
249,159,37111,2,0,B|217:107|249:83|285:59|233:-1,2,152.999995330811,0|0|0,0:2|1:2|1:2,0:0:0:0:
176,231,38336,2,0,L|114:213,2,50.9999984436036,8|0|0,0:2|0:2|0:2,0:0:0:0:
248,303,38948,2,0,L|296:288,2,50.9999984436036,0|0|0,0:2|0:2|0:2,0:0:0:0:
150,333,39560,6,0,B|97:343|97:343|6:303,2,152.999995330811,0|0|0,1:2|1:2|1:2,0:0:0:0:
174,233,40785,1,8,0:2:0:0:
109,154,41091,2,0,P|99:102|111:35,2,101.999996887207,0|0|0,0:2|0:2|0:2,0:0:0:0:
174,233,42009,1,0,0:2:0:0:
267,274,42315,1,0,0:2:0:0:
267,274,42468,2,0,B|319:242|343:274|367:310|427:258,1,152.999995330811,0|0,1:2|1:2,0:0:0:0:
483,197,43234,2,0,P|487:130|361:117,1,203.999993774414,8|0,0:2|1:2,0:0:0:0:
294,166,44152,1,0,0:2:0:0:
260,204,44305,1,0,0:0:0:0:
221,238,44458,6,0,B|168:248|168:248|78:209,2,152.999995330811,0|0|0,1:2|1:2|1:2,0:0:0:0:
294,166,45683,1,8,0:2:0:0:
221,93,45989,2,0,P|210:49|229:-2,2,101.999996887207,0|0|8,0:2|0:2|0:2,0:0:0:0:
148,165,46907,1,0,0:2:0:0:
64,223,47213,1,0,0:2:0:0:
64,223,47366,2,0,B|96:275|64:299|28:323|80:383,1,152.999995330811,0|0,1:2|1:2,0:0:0:0:
169,381,48132,2,0,P|224:340|381:360,1,203.999993774414,8|0,0:2|0:2,0:0:0:0:
453,366,49050,1,0,1:2:0:0:
496,338,49203,1,0,1:0:0:0:
503,287,49356,6,0,L|482:116,2,152.999995330811,0|0|0,0:2|0:2|0:2,0:0:0:0:
420,347,50581,1,8,0:2:0:0:
318,350,50887,1,0,0:2:0:0:
231,297,51193,2,0,P|199:249|195:199,1,101.999996887207,0|0,0:2|0:2,0:0:0:0:
204,104,51805,6,0,P|119:132|99:252,1,203.999993774414,0|0,0:2|0:2,0:0:0:0:
128,329,52723,1,0,1:2:0:0:
164,365,52877,2,0,L|407:355,1,203.999993774414,0|8,0:2|0:2,0:0:0:0:
418,355,53642,2,0,P|463:334|481:276,1,101.999996887207
427,202,54254,6,0,P|418:144|445:34,2,152.999995330811,0|0|0,1:2|1:2|1:2,0:0:0:0:
324,202,55479,2,0,P|333:260|306:370,2,152.999995330811,8|0|8,0:2|0:2|0:2,0:0:0:0:
228,165,56703,2,0,B|206:99|206:99|237:13,2,152.999995330811,0|0|0,0:2|1:2|1:2,0:0:0:0:
144,224,57928,1,8,0:2:0:0:
144,224,58846,5,2,0:2:0:0:
107,316,59152,2,0,B|195:306|195:306|329:342,1,220.999989883423,2|8,1:2|0:2,0:0:0:0:
393,270,60070,1,2,1:2:0:0:
393,170,60377,2,0,B|265:135|265:135|177:145,1,220.999989883423,0|8,0:2|0:2,0:0:0:0:
79,162,61295,1,0,0:2:0:0:
28,247,61601,6,0,P|23:302|41:356,1,110.499994941712,0|0,1:2|0:2,0:0:0:0:
137,374,62213,2,0,L|264:360,1,110.499994941712,8|0,0:2|1:2,0:0:0:0:
317,291,62825,2,0,B|353:251|325:215|289:179|333:131,1,165.749992412568,2|0,0:2|1:2,0:0:0:0:
363,100,63438,1,10,0:2:0:0:
451,54,63744,1,0,0:2:0:0:
502,139,64050,6,0,P|527:240|480:333,1,165.749992412568,0|0,1:2|0:2,0:0:0:0:
486,340,64662,1,10,0:2:0:0:
389,363,64968,1,0,1:2:0:0:
289,363,65274,2,0,L|66:348,1,220.999989883423,0|8,0:2|0:2,0:0:0:0:
19,261,66193,1,0,1:2:0:0:
85,185,66499,6,0,P|115:140|114:63,1,110.499994941712,0|0,1:2|0:2,0:0:0:0:
219,84,67111,2,0,P|223:138|253:184,1,110.499994941712,10|2,1:2|0:2,0:0:0:0:
347,217,67723,2,0,P|432:226|469:127,1,165.749992412568,2|0,1:2|0:2,0:0:0:0:
468,117,68336,1,8,0:2:0:0:
387,58,68642,1,0,0:2:0:0:
288,48,68948,6,0,L|105:60,2,165.749992412568,2|0|2,1:2|0:2|1:2,0:0:0:0:
288,147,70172,2,0,L|471:159,2,165.749992412568,2|0|2,0:2|0:2|0:2,0:0:0:0:
216,217,71397,6,0,P|137:244|52:157,1,165.749992412568,0|0,1:2|0:2,0:0:0:0:
40,165,72009,1,8,0:2:0:0:
77,72,72315,1,0,1:2:0:0:
173,47,72621,2,0,L|383:39,1,165.749992412568,2|0,0:2|1:2,0:0:0:0:
388,37,73234,1,8,0:2:0:0:
465,99,73540,1,0,0:2:0:0:
463,198,73846,6,0,P|439:236|472:353,2,165.749992412568,2|0|0,1:2|0:2|1:2,0:0:0:0:
378,145,75070,2,0,P|317:137|215:190,1,165.749992412568,2|0,0:2|0:2,0:0:0:0:
202,224,75683,1,8,0:2:0:0:
174,319,75989,1,8,1:2:0:0:
82,279,76295,6,0,L|54:103,2,165.749992412568,2|2|10,1:2|0:2|0:2,0:0:0:0:
174,319,77519,1,2,1:2:0:0:
314,178,78132,1,8,0:2:0:0:
314,178,78438,1,8,0:2:0:0:
394,119,78744,6,0,L|422:295,2,165.749992412568,2|2|2,1:2|0:2|1:2,0:0:0:0:
302,79,79968,1,0,0:2:0:0:
209,255,80581,1,8,0:2:0:0:
209,255,80887,1,2,0:2:0:0:
128,196,81193,6,0,L|100:372,2,165.749992412568,2|2|2,1:2|0:2|1:2,0:0:0:0:
66,118,82417,2,0,P|116:154|241:137,1,165.749992412568,0|0,0:2|1:2,0:0:0:0:
256,120,83030,2,0,L|375:145,1,110.499994941712,8|0,0:2|0:2,0:0:0:0:
460,167,83642,6,0,B|482:91|482:91|455:4,2,165.749992412568,2|2|2,1:2|0:2|1:2,0:0:0:0:
413,255,84866,1,8,0:2:0:0:
382,294,85019,1,0,0:2:0:0:
333,302,85172,1,0,0:2:0:0:
234,289,85479,1,8,0:2:0:0:
155,227,85785,1,4,0:2:0:0:
140,128,86091,6,0,B|140:75|140:75|197:16,1,110.499994941712,4|0,1:0|0:2,0:0:0:0:
279,33,86703,1,8,0:2:0:0:
349,103,87009,1,0,1:2:0:0:
368,148,87162,1,0,0:2:0:0:
352,195,87315,2,0,P|344:256|360:309,2,110.499994941712,2|0|8,0:2|0:2|0:2,0:0:0:0:
429,131,88234,1,8,0:2:0:0:
374,47,88540,6,0,L|257:30,1,110.499994941712,2|0,1:2|1:2,0:0:0:0:
264,130,89152,2,0,L|147:113,1,110.499994941712,8|0,0:2|1:2,0:0:0:0:
154,213,89764,2,0,L|37:196,1,110.499994941712,0|0,0:2|0:2,0:0:0:0:
44,296,90377,1,8,0:2:0:0:
114,366,90683,1,0,0:2:0:0:
157,341,90836,1,0,0:2:0:0:
204,326,90989,6,0,P|295:297|422:327,1,220.999989883423,2|8,1:2|0:2,0:0:0:0:
485,252,91907,1,2,1:2:0:0:
414,181,92213,1,2,0:2:0:0:
484,110,92519,2,0,P|497:61|486:-6,2,110.499994941712,0|10|2,0:2|0:2|1:2,0:0:0:0:
414,181,93438,6,0,B|358:225|306:189|246:141|178:221,1,220.999989883423,2|10,1:2|0:2,0:0:0:0:
156,284,94356,1,8,0:2:0:0:
61,255,94662,2,0,P|71:200|116:143,1,110.499994941712,0|2,1:2|0:2,0:0:0:0:
181,97,95274,1,8,0:2:0:0:
181,97,95581,1,10,0:2:0:0:
280,95,95887,6,0,L|410:109,1,110.499994941712,0|0,1:2|0:2,0:0:0:0:
438,115,96346,2,0,P|457:194|421:294,1,165.749992412568,2|0,0:2|1:2,0:0:0:0:
347,321,97111,1,0,0:2:0:0:
248,332,97417,2,0,L|128:320,2,110.499994941712,2|8|0,0:2|0:2|0:2,0:0:0:0:
289,241,98336,6,0,P|312:148|185:111,1,220.999989883423,2|8,1:2|0:2,0:0:0:0:
116,102,99254,1,0,1:2:0:0:
59,184,99560,2,0,L|50:310,1,110.499994941712,2|0,1:2|0:2,0:0:0:0:
121,364,100172,1,10,0:2:0:0:
211,321,100479,1,0,0:2:0:0:
254,297,100632,1,0,0:2:0:0:
301,315,100785,6,0,P|362:334|465:321,2,165.749992412568,0|2|0,1:2|0:2|1:2,0:0:0:0:
252,228,102009,1,0,0:2:0:0:
169,172,102315,2,0,P|153:226|170:287,2,110.499994941712,2|8|8,0:2|0:2|0:2,0:0:0:0:
267,153,103234,6,0,P|223:87|119:84,2,165.749992412568,2|2|8,1:2|0:2|0:2,0:0:0:0:
337,223,104458,2,0,L|454:236,1,110.499994941712,0|8,1:2|0:2,0:0:0:0:
446,334,105070,2,0,L|329:347,1,110.499994941712,8|0,0:2|0:2,0:0:0:0:
236,350,105683,6,0,P|144:338|85:243,2,165.749992412568,2|2|0,1:2|0:2|1:2,0:0:0:0:
307,280,106907,1,0,0:2:0:0:
398,241,107213,2,0,L|508:253,2,110.499994941712,0|8|0,0:2|0:2|0:2,0:0:0:0:
398,141,108132,6,0,P|328:71|217:118,1,220.999989883423,2|8,1:2|0:2,0:0:0:0:
178,196,109050,1,0,1:2:0:0:
182,295,109356,2,0,P|135:315|66:309,2,110.499994941712,2|8|8,0:2|0:2|0:2,0:0:0:0:
264,352,110274,1,0,0:2:0:0:
310,333,110428,1,0,0:2:0:0:
359,337,110581,6,0,P|429:267|382:156,1,220.999989883423,2|8,1:2|0:2,0:0:0:0:
298,196,111499,1,2,1:2:0:0:
216,139,111805,1,0,0:2:0:0:
124,178,112111,2,0,L|104:293,2,110.499994941712,2|8|0,0:2|0:2|1:2,0:0:0:0:
53,107,113030,6,0,P|123:37|234:84,1,220.999989883423,2|8,1:2|0:2,0:0:0:0:
296,145,113948,1,2,0:2:0:0:
317,242,114254,1,2,1:2:0:0:
276,332,114560,1,2,0:2:0:0:
182,364,114866,2,0,P|130:371|74:345,1,110.499994941712,8|0,0:2|0:2,0:0:0:0:
27,263,115479,6,0,L|15:145,1,110.499994941712,2|0,1:2|0:2,0:0:0:0:
50,117,115938,2,0,P|110:124|158:229,1,165.749992412568,2|0,0:2|1:2,0:0:0:0:
147,306,116703,1,2,0:2:0:0:
242,332,117009,1,0,0:2:0:0:
339,313,117315,2,0,P|382:289|422:218,1,110.499994941712,8|0,0:2|0:2,0:0:0:0:
425,140,117928,6,0,L|416:30,1,110.499994941712,2|0,1:2|1:2,0:0:0:0:
316,29,118540,1,8,0:2:0:0:
306,139,118846,1,0,1:2:0:0:
306,139,118999,2,0,P|255:184|130:153,1,165.749992412568,2|8,0:2|0:2,0:0:0:0:
80,124,119764,1,8,0:2:0:0:
9,194,120070,1,0,0:2:0:0:
39,289,120377,6,0,L|266:308,1,220.999989883423,2|8,1:2|0:2,0:0:0:0:
329,237,121295,1,2,1:2:0:0:
274,153,121601,2,0,L|501:134,1,220.999989883423,2|8,0:2|0:2,0:0:0:0:
459,41,122519,1,2,1:2:0:0:
359,49,122825,1,2,1:2:0:0:
256,192,122979,12,2,125274,0:2:0:0:
87,299,134458,5,0,0:2:0:0:
87,299,135070,2,0,B|152:268|152:268|286:322,1,203.999993774414,2|8,0:2|0:2,0:0:0:0:
369,354,135989,1,2,0:2:0:0:
404,317,136142,1,0,0:2:0:0:
411,266,136295,2,0,P|408:216|386:158,1,101.999996887207,0|0,0:2|0:2,0:0:0:0:
323,90,136907,1,8,0:2:0:0:
244,155,137213,1,0,0:2:0:0:
173,81,137519,6,0,L|63:70,2,101.999996887207,4|0|8,0:0|0:2|0:2,0:0:0:0:
244,155,138438,1,8,0:2:0:0:
171,227,138744,2,0,P|163:275|183:332,1,101.999996887207,0|0,0:2|0:2,0:0:0:0:
275,355,139356,1,8,0:2:0:0:
275,355,139662,1,0,0:2:0:0:
375,335,139968,6,0,L|392:171,1,152.999995330811,2|2,0:2|0:2,0:0:0:0:
354,146,140581,1,8,0:2:0:0:
438,89,140887,1,0,0:2:0:0:
348,39,141193,2,0,L|232:55,1,101.999996887207,0|0,0:2|0:2,0:0:0:0:
149,22,141805,1,8,0:2:0:0:
149,22,142111,1,0,0:2:0:0:
171,121,142417,2,0,P|179:180|163:241,1,101.999996887207,10|0,0:2|0:2,0:0:0:0:
100,294,143030,1,0,0:2:0:0:
100,294,143336,1,0,0:2:0:0:
172,366,143642,2,0,L|312:349,1,101.999996887207,8|0,0:2|0:2,0:0:0:0:
464,83,144866,6,0,B|423:45|423:45|320:57,1,110.499994941712,4|0,1:0|0:2,0:0:0:0:
269,63,145479,1,8,0:2:0:0:
329,142,145785,1,0,1:2:0:0:
337,190,145938,1,0,0:2:0:0:
315,234,146091,2,0,P|307:288|328:346,2,110.499994941712,2|0|8,0:2|0:2|0:2,0:0:0:0:
384,163,147009,1,8,0:2:0:0:
319,88,147315,6,0,L|206:69,1,110.499994941712,2|0,1:2|1:2,0:0:0:0:
240,164,147928,2,0,L|127:145,1,110.499994941712,8|0,0:2|1:2,0:0:0:0:
161,240,148540,2,0,L|48:221,1,110.499994941712,0|0,0:2|0:2,0:0:0:0:
8,311,149152,1,8,0:2:0:0:
83,375,149458,1,0,0:2:0:0:
131,383,149611,1,0,0:2:0:0:
174,358,149764,6,0,P|279:329|404:344,1,220.999989883423,2|8,1:2|0:2,0:0:0:0:
468,278,150683,1,2,1:2:0:0:
450,180,150989,2,0,P|400:158|321:152,1,110.499994941712,2|0,0:2|0:2,0:0:0:0:
245,154,151601,1,2,0:0:0:0:
174,224,151907,1,2,0:0:0:0:
184,322,152213,6,0,P|91:280|95:164,1,220.999989883423,2|10,1:2|0:2,0:0:0:0:
158,105,153132,1,8,0:2:0:0:
255,83,153438,2,0,L|376:86,1,110.499994941712,0|2,1:2|0:2,0:0:0:0:
449,139,154050,1,8,0:2:0:0:
468,236,154356,1,10,0:2:0:0:
448,281,154509,1,0,0:2:0:0:
409,312,154662,6,0,L|266:333,1,110.499994941712,0|0,1:2|0:2,0:0:0:0:
250,332,155121,2,0,P|216:271|247:185,1,165.749992412568,2|0,0:2|1:2,0:0:0:0:
338,146,155887,1,0,0:2:0:0:
431,178,156193,1,2,0:2:0:0:
412,80,156499,1,8,0:2:0:0:
319,42,156805,1,0,0:2:0:0:
222,64,157111,6,0,L|201:185,1,110.499994941712,2|0,1:2|1:0,0:0:0:0:
120,228,157723,2,0,L|141:349,1,110.499994941712,8|0,0:2|1:0,0:0:0:0:
230,377,158336,2,0,P|265:328|326:304,1,110.499994941712,2|0,1:2|0:2,0:0:0:0:
408,298,158948,1,10,0:2:0:0:
505,318,159254,1,0,0:2:0:0:
501,268,159407,1,0,0:2:0:0:
473,226,159560,6,0,P|450:173|455:105,1,110.499994941712,0|0,1:2|0:2,0:0:0:0:
463,72,160019,2,0,P|404:57|320:139,1,165.749992412568,2|0,0:2|1:2,0:0:0:0:
301,213,160785,1,0,0:2:0:0:
257,302,161091,2,0,P|220:340|140:360,1,110.499994941712,0|8,0:0|0:2,0:0:0:0:
69,345,161703,1,8,0:2:0:0:
15,261,162009,6,0,L|31:104,1,110.499994941712,2|0,1:2|0:2,0:0:0:0:
61,115,162468,1,2,0:2:0:0:
96,79,162621,1,0,0:2:0:0:
188,41,162928,1,8,0:2:0:0:
286,30,163234,2,0,P|346:36|401:86,1,110.499994941712,0|8,1:2|0:2,0:0:0:0:
452,138,163846,1,8,0:2:0:0:
473,182,163999,1,8,0:2:0:0:
472,231,164152,1,0,0:2:0:0:
428,320,164458,6,0,P|336:317|269:227,2,165.749992412568,2|2|0,1:2|0:2|1:2,0:0:0:0:
463,277,165530,1,0,0:2:0:0:
475,223,165683,1,0,0:2:0:0:
450,115,165989,1,0,0:2:0:0:
352,47,166295,2,0,P|308:36|235:46,1,110.499994941712,8|0,0:2|0:2,0:0:0:0:
158,112,166907,6,0,L|139:350,1,220.999989883423,2|8,1:2|0:2,0:0:0:0:
244,367,167825,1,0,1:2:0:0:
354,354,168132,1,2,0:2:0:0:
433,277,168438,1,8,0:2:0:0:
466,171,168744,2,0,P|460:115|425:64,1,110.499994941712,8|0,0:2|0:2,0:0:0:0:
381,46,169203,1,0,0:2:0:0:
326,39,169356,6,0,L|96:55,1,220.999989883423,2|8,1:2|0:2,0:0:0:0:
27,132,170274,1,2,1:2:0:0:
85,226,170581,1,0,0:2:0:0:
85,226,170887,2,0,P|92:277|63:344,2,110.499994941712,2|8|0,0:2|0:2|1:2,0:0:0:0:
175,163,171805,6,0,P|235:148|344:261,1,220.999989883423,2|8,1:2|0:2,0:0:0:0:
342,356,172723,1,2,0:2:0:0:
452,356,173030,2,0,P|453:276|441:216,1,110.499994941712,2|0,1:2|0:0,0:0:0:0:
427,137,173642,1,8,0:2:0:0:
427,137,173948,1,0,0:2:0:0:
348,58,174254,6,0,B|288:42|288:42|213:51,1,110.499994941712,2|0,1:2|0:2,0:0:0:0:
193,77,174713,2,0,L|175:255,1,165.749992412568,2|0,0:2|1:2,0:0:0:0:
97,320,175479,1,2,0:2:0:0:
203,349,175785,1,0,0:2:0:0:
308,317,176091,1,8,0:2:0:0:
369,225,176397,1,0,0:2:0:0:
377,114,176703,6,0,L|361:3,1,110.499994941712,2|0,1:2|1:2,0:0:0:0:
250,4,177315,1,8,0:2:0:0:
211,107,177621,1,0,1:2:0:0:
211,107,177774,2,0,P|189:164|68:185,1,165.749992412568,2|8,0:2|0:2,0:0:0:0:
41,183,178387,1,0,1:2:0:0:
11,136,178540,1,8,0:2:0:0:
57,35,178846,1,0,0:2:0:0:
166,20,179152,6,0,L|394:24,1,220.999989883423,2|8,1:2|0:2,0:0:0:0:
465,101,180070,1,2,1:2:0:0:
386,179,180377,2,0,L|158:183,1,220.999989883423,2|8,0:2|0:2,0:0:0:0:
86,260,181295,1,2,1:2:0:0:
156,330,181601,1,2,1:2:0:0:
256,192,181754,12,2,184050,0:2:0:0:
81,66,195069,6,0,P|54:136|95:222,2,152.999995330811,0|0|0,0:2|0:2|0:2,0:0:0:0:
163,24,196294,1,0,0:0:0:0:
323,215,197518,6,0,P|350:285|309:371,2,152.999995330811,0|0|0,0:2|0:2|0:2,0:0:0:0:
241,173,198743,1,0,0:0:0:0:
375,42,199967,5,0,0:2:0:0:
447,114,200274,2,0,L|430:298,2,152.999995330811,0|0|0,0:2|0:2|0:2,0:0:0:0:
303,167,201651,1,0,0:2:0:0:
188,65,202110,1,0,0:2:0:0:
188,65,202416,6,0,L|4:82,2,152.999995330811,0|0|0,0:2|0:2|0:2,0:0:0:0:
341,62,203794,2,0,P|362:102|360:191,1,101.999996887207,0|0,0:2|0:2,0:0:0:0:
187,337,204865,6,0,P|95:337|75:237,1,203.999993774414,4|8,1:0|0:2,0:0:0:0:
144,170,205784,1,0,1:2:0:0:
144,170,205937,2,0,P|228:149|347:255,1,254.999992218018,2|8,0:2|0:2,0:0:0:0:
360,352,207008,1,0,0:2:0:0:
461,352,207314,6,0,P|461:253|417:148,1,203.999993774414,2|8,1:2|0:2,0:0:0:0:
347,87,208233,1,0,1:2:0:0:
347,87,208386,2,0,P|309:181|308:282,1,203.999993774414,2|0,0:2|1:2,0:0:0:0:
326,330,209151,1,8,0:2:0:0:
230,364,209457,1,0,0:2:0:0:
129,345,209763,6,0,P|70:315|79:188,1,203.999993774414,2|8,1:2|0:2,0:0:0:0:
149,121,210682,1,0,1:2:0:0:
149,121,210835,2,0,B|218:78|250:121|282:169|363:99,1,203.999993774414,2|0,0:2|0:2,0:0:0:0:
377,80,211600,1,8,0:2:0:0:
434,164,211906,1,0,1:2:0:0:
398,259,212212,5,0,1:2:0:0:
311,312,212518,2,0,P|372:358|458:343,2,152.999995330811,2|2|2,0:2|0:2|1:2,0:0:0:0:
307,210,213743,1,0,0:0:0:0:
205,222,214049,1,8,0:2:0:0:
127,288,214355,1,0,0:2:0:0:
54,215,214661,6,0,B|45:80|45:80|110:44,1,203.999993774414,2|8,1:2|0:2,0:0:0:0:
203,20,215580,1,0,1:2:0:0:
203,20,215733,2,0,P|226:77|406:91,1,254.999992218018,2|8,0:2|0:2,0:0:0:0:
474,32,216804,1,0,0:2:0:0:
494,131,217110,6,0,B|503:266|503:266|438:302,1,203.999993774414,2|8,1:2|0:2,0:0:0:0:
347,335,218029,1,0,1:2:0:0:
347,335,218182,2,0,B|277:377|245:335|213:286|132:356,1,203.999993774414,2|0,0:2|1:2,0:0:0:0:
119,376,218947,1,8,0:2:0:0:
46,304,219253,1,0,0:2:0:0:
46,202,219559,5,0,1:2:0:0:
120,132,219865,2,0,P|178:172|200:255,2,152.999995330811,2|2|2,0:2|0:2|0:2,0:0:0:0:
26,107,221090,1,0,0:2:0:0:
26,107,221243,2,0,P|69:46|170:46,1,152.999995330811,2|0,0:2|1:2,0:0:0:0:
214,106,222008,6,0,L|220:258,2,152.999995330811,0|0|0,1:2|0:2|0:2,0:0:0:0:
298,47,223233,2,0,P|386:52|433:166,1,203.999993774414,0|8,1:2|0:2,0:0:0:0:
413,245,224151,1,0,0:2:0:0:
327,300,224457,6,0,L|128:306,2,152.999995330811
363,336,225529,1,0,0:0:0:0:
