osu file format v14

[General]
AudioFilename: audio.mp3
AudioLeadIn: 0
PreviewTime: 58846
Countdown: 0
SampleSet: Soft
StackLeniency: 0.7
Mode: 0
LetterboxInBreaks: 0
WidescreenStoryboard: 0

[Editor]
DistanceSpacing: 1.1
BeatDivisor: 4
GridSize: 4
TimelineZoom: 1

[Metadata]
Title:BLOWIN'
TitleUnicode:BLOWIN’
Artist:Hiroyuki Sawano
ArtistUnicode:澤野弘之
Creator:ktgster
Version:Easy
Source:タイヨウのうた
Tags:Orchestra-J Ascendance Taiyou no Uta a song to the sun
BeatmapID:1189108
BeatmapSetID:560165

[Difficulty]
HPDrainRate:2
CircleSize:2
OverallDifficulty:3
ApproachRate:3
SliderMultiplier:1.4
SliderTickRate:1

[Events]
//Background and Video events
0,0,"BG.jpg",0,0
//Break Periods
2,125474,133630
2,185274,193629
//Storyboard Layer 0 (Background)
//Storyboard Layer 1 (Fail)
//Storyboard Layer 2 (Pass)
//Storyboard Layer 3 (Foreground)
//Storyboard Sound Samples

[TimingPoints]
377,612.244897959184,4,2,1,30,1,0
377,-83.3333333333333,4,2,1,30,0,0
59152,-83.3333333333333,4,2,1,40,0,1
85785,-83.3333333333333,4,2,1,30,0,0
86091,-83.3333333333333,4,2,1,50,0,1
105070,-83.3333333333333,4,2,1,40,0,0
105683,-83.3333333333333,4,2,1,60,0,1
125274,-83.3333333333333,4,2,1,70,0,0
135070,-83.3333333333333,4,3,1,30,0,0
144866,-83.3333333333333,4,2,1,50,0,1
163846,-83.3333333333333,4,2,1,40,0,0
164458,-83.3333333333333,4,2,1,60,0,1
184050,-83.3333333333333,4,2,1,70,0,0
185274,612.244897959184,4,2,1,30,1,0
185274,-83.3333333333333,4,2,1,30,0,0
204865,-83.3333333333333,4,2,1,50,0,0
224457,-83.3333333333333,4,2,1,30,0,0
226753,-83.3333333333333,4,2,1,5,0,0

[Colours]
Combo1 : 167,167,84
Combo2 : 206,103,0
Combo3 : 207,207,158
Combo4 : 180,180,180

[HitObjects]
87,303,377,6,0,B|54:251|54:251|63:153,2,125.999996154785,0|0|0,1:2|1:2|1:2,0:0:0:0:
168,347,1601,1,0,0:0:0:0:
298,216,2213,1,0,0:2:0:0:
385,185,2519,1,0,0:2:0:0:
450,250,2825,2,0,B|483:198|483:198|474:100,2,125.999996154785,0|0|0,0:2|1:2|1:2,0:0:0:0:
395,325,4050,1,0,0:0:0:0:
232,236,4662,1,0,1:2:0:0:
56,293,5274,6,0,B|23:241|23:241|32:143,2,125.999996154785,0|0|0,1:2|1:2|1:2,0:0:0:0:
119,360,6499,1,0,0:0:0:0:
258,239,7111,1,0,0:2:0:0:
340,196,7417,1,0,0:2:0:0:
419,243,7723,1,0,0:2:0:0:
486,179,8030,2,0,P|504:125|475:36,2,125.999996154785,0|0|0,0:2|0:2|0:2,0:0:0:0:
247,349,10172,6,0,L|65:339,1,167.999994873047,0|8,0:2|0:2,0:0:0:0:
18,269,11091,2,0,P|16:152|129:138,1,251.999992309571,0|0,0:2|0:2,0:0:0:0:
193,202,12315,1,0,0:2:0:0:
258,267,12621,2,0,L|440:257,1,167.999994873047,0|0,0:2|0:2,0:0:0:0:
486,188,13540,2,0,P|488:71|375:57,1,251.999992309571,0|0,1:2|0:2,0:0:0:0:
209,137,15070,5,0,1:2:0:0:
146,205,15377,2,0,P|127:279|163:364,1,167.999994873047,0|0,0:2|1:2,0:0:0:0:
251,375,16295,2,0,L|390:370,2,125.999996154785,0|0|0,0:2|0:2|0:2,0:0:0:0:
185,309,17519,2,0,P|128:282|54:287,2,125.999996154785,0|0|0,0:2|1:2|1:2,0:0:0:0:
257,250,18744,1,0,0:2:0:0:
464,167,19968,6,0,P|484:109|474:15,2,125.999996154785,0|0|0,1:2|1:2|1:2,0:0:0:0:
318,279,21499,2,0,P|302:317|301:375,2,83.9999974365235,0|0|0,0:2|0:2|0:2,0:0:0:0:
252,213,22417,2,0,L|125:222,2,125.999996154785,0|0|0,0:2|1:2|1:2,0:0:0:0:
317,147,23642,1,8,0:2:0:0:
152,63,24254,1,0,1:2:0:0:
30,201,24866,6,0,P|11:265|26:356,2,125.999996154785,0|0|0,1:2|1:2|1:2,0:0:0:0:
176,92,26397,2,0,P|188:55|179:2,2,83.9999974365235,0|0|8,0:2|0:2|0:2,0:0:0:0:
241,157,27315,2,0,L|250:284,2,125.999996154785,0|0|0,0:2|1:2|1:2,0:0:0:0:
306,91,28540,1,8,0:2:0:0:
461,320,29458,5,0,1:2:0:0:
375,354,29764,2,0,L|222:344,2,125.999996154785,0|0|0,0:2|0:2|0:0,0:0:0:0:
362,173,31295,2,0,P|410:144|459:142,2,83.9999974365235,0|0|0,0:2|0:2|0:2,0:0:0:0:
296,238,32213,2,0,L|169:229,2,125.999996154785,0|0|0,0:2|1:2|1:2,0:0:0:0:
337,321,33438,2,0,P|386:336|478:262,1,167.999994873047,8|0,0:2|0:2,0:0:0:0:
492,182,34356,1,0,0:2:0:0:
418,125,34662,6,0,P|399:61|414:-30,2,125.999996154785,0|0|0,1:2|1:2|1:2,0:0:0:0:
299,266,36193,2,0,P|286:309|296:372,2,83.9999974365235,0|0|8,0:2|0:2|0:2,0:0:0:0:
233,200,37111,2,0,L|224:73,2,125.999996154785,0|0|0,0:2|1:2|1:2,0:0:0:0:
167,265,38336,1,8,0:2:0:0:
345,314,38948,1,0,0:2:0:0:
468,176,39560,6,0,L|478:23,2,125.999996154785,0|0|0,1:2|1:2|1:2,0:0:0:0:
402,241,40785,1,8,0:2:0:0:
312,264,41091,2,0,P|310:222|328:185,2,83.9999974365235,0|0|0,0:2|0:2|0:2,0:0:0:0:
288,355,42009,2,0,L|142:345,2,125.999996154785,0|0|0,0:2|1:2|1:2,0:0:0:0:
377,330,43234,1,8,0:2:0:0:
469,170,43846,1,0,1:2:0:0:
326,52,44458,6,0,L|336:205,2,125.999996154785,0|0|0,1:2|1:2|1:2,0:0:0:0:
240,17,45683,1,8,0:2:0:0:
179,86,45989,2,0,P|126:105|76:92,2,83.9999974365235,0|0|8,0:2|0:2|0:2,0:0:0:0:
244,151,46907,2,0,L|234:297,2,125.999996154785,0|0|0,0:2|1:2|1:2,0:0:0:0:
179,86,48132,2,0,P|125:97|99:208,1,167.999994873047,8|0,0:2|0:2,0:0:0:0:
122,281,49050,1,0,1:2:0:0:
193,339,49356,6,0,L|351:343,2,125.999996154785,0|0|0,0:2|0:2|0:2,0:0:0:0:
213,248,50581,2,0,P|231:211|271:187,1,83.9999974365235,8|0,0:2|0:2,0:0:0:0:
358,182,51193,1,0,0:2:0:0:
436,230,51499,1,0,0:2:0:0:
501,164,51805,2,0,P|486:104|364:96,1,167.999994873047,0|0,0:2|0:2,0:0:0:0:
302,97,52723,1,0,1:2:0:0:
245,170,53030,2,0,L|246:340,1,167.999994873047,8|0,0:2|0:2,0:0:0:0:
160,374,53948,1,0,0:2:0:0:
90,314,54254,6,0,B|104:228|104:228|174:202,2,125.999996154785,0|0|0,1:2|1:2|1:2,0:0:0:0:
160,374,55479,1,8,0:2:0:0:
328,298,56091,1,0,0:0:0:0:
391,231,56397,1,8,0:2:0:0:
397,139,56703,2,0,B|383:53|383:53|313:27,2,125.999996154785,0|0|0,0:2|1:2|1:2,0:0:0:0:
305,125,57928,1,8,0:2:0:0:
211,352,59152,6,0,P|109:349|107:196,1,251.999992309571,2|2,1:2|1:2,0:0:0:0:
165,178,60377,2,0,P|267:175|269:22,1,251.999992309571,0|0,0:2|0:2,0:0:0:0:
206,12,61601,1,0,1:2:0:0:
35,83,62213,1,8,0:2:0:0:
6,170,62519,1,0,1:2:0:0:
26,259,62825,2,0,P|92:261|189:203,1,167.999994873047,2|10,0:2|0:2,0:0:0:0:
237,142,63744,1,0,0:2:0:0:
267,54,64050,5,0,1:2:0:0:
445,100,64662,1,10,0:2:0:0:
413,186,64968,1,0,1:2:0:0:
481,247,65274,2,0,P|493:296|329:324,1,251.999992309571,0|0,0:2|1:2,0:0:0:0:
268,293,66499,2,0,L|249:193,1,83.9999974365235,0|0,1:2|0:2,0:0:0:0:
159,210,67111,2,0,L|140:310,1,83.9999974365235,10|2,1:2|0:2,0:0:0:0:
50,292,67723,2,0,P|16:234|47:127,1,167.999994873047,2|8,1:2|0:2,0:0:0:0:
96,69,68642,1,0,0:2:0:0:
185,44,68948,6,0,L|336:28,2,125.999996154785,2|0|2,1:2|0:2|1:2,0:0:0:0:
127,116,70172,2,0,L|-24:100,2,125.999996154785,2|0|2,0:2|0:2|0:2,0:0:0:0:
192,181,71397,2,0,P|205:239|177:348,1,167.999994873047,0|8,1:2|0:2,0:0:0:0:
88,356,72315,1,0,1:2:0:0:
22,290,72621,2,0,P|9:232|37:123,1,167.999994873047,2|8,0:2|0:2,0:0:0:0:
114,82,73540,1,0,0:2:0:0:
179,147,73846,6,0,P|290:194|429:145,1,251.999992309571,2|0,1:2|1:2,0:0:0:0:
490,207,75070,2,0,L|489:396,1,167.999994873047,2|8,0:2|0:2,0:0:0:0:
396,374,75989,1,8,1:2:0:0:
313,332,76295,2,0,P|259:308|172:319,2,125.999996154785,2|2|10,1:2|0:2|0:2,0:0:0:0:
378,266,77519,1,2,1:2:0:0:
210,187,78132,1,8,0:2:0:0:
380,116,78744,6,0,P|434:92|521:103,2,125.999996154785,2|2|2,1:2|0:2|1:2,0:0:0:0:
330,193,79968,1,0,0:2:0:0:
150,146,80581,1,8,0:2:0:0:
67,311,81193,2,0,L|209:299,2,125.999996154785,2|2|2,1:2|0:2|1:2,0:0:0:0:
21,231,82417,1,0,0:2:0:0:
193,163,83030,1,8,0:2:0:0:
357,252,83642,6,0,L|369:394,2,125.999996154785,2|2|2,1:2|0:2|1:2,0:0:0:0:
285,193,84866,1,8,0:2:0:0:
456,121,85479,1,8,0:2:0:0:
483,303,86091,6,0,P|413:357|301:359,1,167.999994873047,4|8,1:0|0:2,0:0:0:0:
248,337,87009,1,0,1:2:0:0:
173,270,87315,2,0,L|157:73,1,167.999994873047,2|8,0:2|0:2,0:0:0:0:
212,26,88234,1,8,0:2:0:0:
302,10,88540,1,2,1:2:0:0:
472,82,89152,1,8,0:2:0:0:
484,266,89764,1,0,0:2:0:0:
331,370,90377,1,8,0:2:0:0:
158,306,90989,6,0,P|135:267|162:135,1,167.999994873047,2|8,1:2|0:2,0:0:0:0:
233,110,91907,1,2,1:2:0:0:
299,173,92213,1,2,0:2:0:0:
354,349,92825,2,0,P|404:362|445:356,1,83.9999974365235,10|2,0:2|1:2,0:0:0:0:
501,293,93438,2,0,P|521:210|492:108,2,167.999994873047,2|10|0,1:2|0:2|1:2,0:0:0:0:
337,207,95274,1,8,0:2:0:0:
247,183,95581,1,10,0:2:0:0:
160,215,95887,6,0,P|142:295|177:400,2,167.999994873047,0|8|0,1:2|0:0|0:2,0:0:0:0:
342,178,97723,2,0,P|356:139|347:86,1,83.9999974365235,8|0,0:2|0:2,0:0:0:0:
427,44,98336,2,0,P|450:122|428:217,1,167.999994873047,2|8,1:2|0:2,0:0:0:0:
275,300,99560,2,0,L|180:305,1,83.9999974365235,2|0,1:2|0:2,0:0:0:0:
124,240,100172,2,0,L|29:235,1,83.9999974365235,10|0,0:2|0:2,0:0:0:0:
36,143,100785,6,0,L|230:136,2,167.999994873047,0|8|0,1:2|0:0|0:2,0:0:0:0:
115,309,102621,2,0,P|154:323|207:314,1,83.9999974365235,8|8,0:2|0:2,0:0:0:0:
282,286,103234,2,0,P|341:267|427:275,2,125.999996154785,2|2|8,1:2|0:2|0:2,0:0:0:0:
267,377,104458,1,0,1:2:0:0:
163,224,105070,1,8,0:2:0:0:
242,56,105683,6,0,P|301:20|401:27,1,167.999994873047,2|8,1:2|0:2,0:0:0:0:
464,88,106601,1,0,1:2:0:0:
485,177,106907,1,0,0:2:0:0:
389,335,107519,2,0,L|277:328,1,83.9999974365235,8|0,0:2|0:2,0:0:0:0:
239,264,108132,2,0,P|275:214|404:206,1,167.999994873047,2|8,1:2|0:2,0:0:0:0:
465,211,109050,1,0,1:2:0:0:
461,118,109356,2,0,L|452:28,1,83.9999974365235,2|8,0:2|0:2,0:0:0:0:
364,8,109968,2,0,L|355:98,1,83.9999974365235,8|0,0:2|0:2,0:0:0:0:
290,157,110581,6,0,P|223:167|130:115,1,167.999994873047,2|8,1:2|0:2,0:0:0:0:
68,60,111499,1,2,1:2:0:0:
18,137,111805,1,0,0:2:0:0:
14,321,112417,2,0,P|56:326|118:317,1,83.9999974365235,8|0,0:2|1:2,0:0:0:0:
180,281,113030,2,0,P|259:264|365:307,1,167.999994873047,2|8,1:2|0:2,0:0:0:0:
423,329,113948,1,2,0:2:0:0:
483,259,114254,2,0,P|495:221|490:158,1,83.9999974365235,2|2,1:2|0:2,0:0:0:0:
416,128,114866,2,0,P|404:90|409:27,1,83.9999974365235,8|0,0:2|0:2,0:0:0:0:
312,34,115479,6,0,P|305:96|342:188,2,125.999996154785,2|2|0,1:2|0:2|1:2,0:0:0:0:
222,10,116703,1,2,0:2:0:0:
77,105,117315,2,0,P|67:142|88:206,1,83.9999974365235,8|0,0:2|0:2,0:0:0:0:
106,273,117928,2,0,P|183:309|269:279,1,167.999994873047,2|8,1:2|0:2,0:0:0:0:
259,194,118846,1,0,1:2:0:0:
259,101,119152,2,0,P|336:65|422:95,1,167.999994873047,0|8,0:0|0:2,0:0:0:0:
477,152,120070,1,0,0:2:0:0:
494,243,120377,6,0,P|417:279|331:249,1,167.999994873047,2|8,1:2|0:2,0:0:0:0:
261,208,121295,1,2,1:2:0:0:
186,153,121601,2,0,P|106:131|32:166,1,167.999994873047,2|8,0:2|0:2,0:0:0:0:
14,257,122519,1,2,1:2:0:0:
256,192,122825,12,2,125274,0:2:0:0:
337,66,135070,6,0,P|368:135|339:225,1,167.999994873047,2|8,0:2|0:2,0:0:0:0:
277,286,135989,1,2,0:2:0:0:
189,315,136295,2,0,L|18:301,1,167.999994873047,0|8,0:2|0:2,0:0:0:0:
8,209,137213,1,0,0:2:0:0:
68,139,137519,2,0,B|156:47|228:135|276:247|396:107,1,335.999989746094,4|0,0:0|0:2,0:0:0:0:
509,15,139356,1,8,0:2:0:0:
484,198,139968,6,0,L|465:379,2,167.999994873047,2|8|0,0:2|0:2|0:2,0:0:0:0:
437,18,141805,1,8,0:2:0:0:
347,40,142111,1,0,0:2:0:0:
314,126,142417,2,0,P|244:144|144:123,1,167.999994873047,10|0,0:2|0:2,0:0:0:0:
6,11,143642,1,8,0:2:0:0:
25,276,144866,6,0,B|135:255|135:255|196:287,1,167.999994873047,4|8,1:0|0:2,0:0:0:0:
343,376,146091,1,2,0:2:0:0:
497,274,146703,1,8,0:2:0:0:
489,181,147009,1,8,0:2:0:0:
430,109,147315,1,2,1:2:0:0:
262,29,147928,1,8,0:2:0:0:
78,45,148540,1,0,0:2:0:0:
14,218,149152,1,8,0:2:0:0:
122,367,149764,6,0,L|298:350,1,167.999994873047,2|8,1:2|0:2,0:0:0:0:
354,285,150683,1,2,1:2:0:0:
288,219,150989,1,2,0:2:0:0:
108,263,151601,2,0,P|98:218|115:161,1,83.9999974365235,2|2,0:0|0:0,0:0:0:0:
151,101,152213,6,0,P|91:60|-10:110,2,167.999994873047,2|10|0,1:2|0:2|1:2,0:0:0:0:
194,280,154050,1,8,0:2:0:0:
258,346,154356,1,10,0:2:0:0:
340,304,154662,6,0,P|395:290|514:299,2,167.999994873047,0|8|0,1:2|0:0|0:2,0:0:0:0:
274,130,156499,1,8,0:2:0:0:
207,194,156805,1,0,0:2:0:0:
185,104,157111,2,0,P|130:90|11:99,2,167.999994873047,2|8|2,1:2|0:2|1:2,0:0:0:0:
315,235,158948,1,10,0:2:0:0:
340,323,159254,1,0,0:2:0:0:
432,317,159560,6,0,P|475:252|436:157,1,167.999994873047,0|8,1:2|0:0,0:0:0:0:
378,112,160479,1,0,1:2:0:0:
301,163,160785,1,0,0:2:0:0:
171,30,161397,2,0,P|163:74|133:114,1,83.9999974365235,8|8,0:2|0:2,0:0:0:0:
79,175,162009,2,0,P|46:235|54:320,2,125.999996154785,2|2|8,1:2|0:2|0:2,0:0:0:0:
170,194,163234,1,0,1:2:0:0:
256,357,163846,1,8,0:2:0:0:
436,318,164458,6,0,P|466:245|426:157,1,167.999994873047,2|8,1:2|0:2,0:0:0:0:
364,105,165377,1,0,1:2:0:0:
275,130,165683,1,0,0:2:0:0:
223,307,166295,1,8,0:2:0:0:
134,332,166601,1,0,0:2:0:0:
62,271,166908,2,0,P|31:194|61:118,1,167.999994873047,2|0,1:2|0:0,0:0:0:0:
130,57,167825,1,0,1:2:0:0:
221,40,168132,2,0,L|309:44,1,83.9999974365235,2|8,0:2|0:2,0:0:0:0:
370,109,168744,2,0,L|458:113,1,83.9999974365235,8|0,0:2|0:2,0:0:0:0:
497,194,169356,6,0,P|472:271|398:305,1,167.999994873047,2|8,1:2|0:2,0:0:0:0:
305,306,170274,1,2,1:2:0:0:
217,275,170581,1,0,0:2:0:0:
41,333,171193,2,0,P|38:282|55:229,1,83.9999974365235,8|0,0:2|1:2,0:0:0:0:
95,172,171805,2,0,P|172:134|268:153,1,167.999994873047,2|8,1:2|0:2,0:0:0:0:
331,190,172723,1,2,0:2:0:0:
381,268,173030,2,0,P|382:324|364:376,1,83.9999974365235,2|0,1:2|0:0,0:0:0:0:
283,355,173642,2,0,P|282:299|300:247,1,83.9999974365235,8|0,0:2|0:2,0:0:0:0:
331,190,174254,6,0,P|393:183|485:220,2,125.999996154785,2|2|0,1:2|0:2|1:2,0:0:0:0:
288,272,175479,1,2,0:2:0:0:
156,142,176091,2,0,L|145:51,1,83.9999974365235,8|0,0:2|0:2,0:0:0:0:
53,58,176703,2,0,P|40:117|63:233,1,167.999994873047,2|8,1:2|0:2,0:0:0:0:
136,269,177621,1,0,1:2:0:0:
225,292,177928,2,0,L|403:282,1,167.999994873047,0|8,0:0|0:2,0:0:0:0:
458,217,178846,1,0,0:2:0:0:
458,124,179152,6,0,P|445:73|321:83,1,167.999994873047,2|8,1:2|0:2,0:0:0:0:
278,121,180070,1,2,1:2:0:0:
212,186,180377,2,0,P|132:189|97:118,1,167.999994873047,2|8,0:2|0:2,0:0:0:0:
97,26,181295,1,2,1:2:0:0:
256,192,181601,12,2,184050,0:2:0:0:
84,214,195069,6,0,B|57:173|57:173|85:58,2,167.999994873047,0|0|0,0:2|0:2|0:0,0:0:0:0:
427,326,197518,2,0,B|455:211|455:211|427:169,2,167.999994873047,0|0|0,0:2|0:2|0:0,0:0:0:0:
84,361,199967,1,0,0:2:0:0:
38,324,200274,2,0,P|20:270|158:148,2,251.999992309571,0|0|0,0:2|0:2|0:2,0:0:0:0:
84,361,202416,5,0,0:2:0:0:
193,317,203029,1,0,0:0:0:0:
227,204,203641,2,0,L|215:64,1,125.999996154785
420,54,204865,6,0,P|445:129|413:220,1,167.999994873047,4|8,1:0|0:2,0:0:0:0:
330,237,205784,1,0,1:2:0:0:
238,219,206090,2,0,P|172:169|140:92,1,167.999994873047,0|8,0:0|0:2,0:0:0:0:
100,9,207008,1,0,0:2:0:0:
47,84,207314,6,0,P|22:159|54:250,1,167.999994873047,2|8,1:2|0:2,0:0:0:0:
121,297,208233,1,0,1:2:0:0:
197,244,208539,2,0,P|254:237|345:312,1,167.999994873047,0|8,0:0|0:2,0:0:0:0:
398,369,209457,1,0,0:2:0:0:
463,303,209763,6,0,L|470:126,1,167.999994873047,2|8,1:2|0:2,0:0:0:0:
404,69,210682,1,0,1:2:0:0:
338,134,210988,2,0,P|287:162|186:122,1,167.999994873047,0|8,0:0|0:2,0:0:0:0:
133,53,211906,1,0,1:2:0:0:
98,138,212212,1,0,1:2:0:0:
15,179,212518,2,0,P|4:240|43:296,2,125.999996154785,2|2|2,0:2|0:2|1:2,0:0:0:0:
190,126,214049,1,8,0:2:0:0:
267,293,214661,6,0,L|467:296,1,167.999994873047,2|8,1:2|0:2,0:0:0:0:
500,229,215580,1,0,1:2:0:0:
455,147,215886,2,0,P|399:102|296:126,1,167.999994873047,0|8,0:0|0:2,0:0:0:0:
256,191,216804,1,0,0:2:0:0:
231,280,217110,6,0,L|31:283,1,167.999994873047,2|8,1:2|0:2,0:0:0:0:
4,216,218029,1,0,1:2:0:0:
43,134,218335,2,0,P|99:89|202:113,1,167.999994873047,0|8,0:0|0:2,0:0:0:0:
246,174,219253,1,0,0:2:0:0:
329,134,219559,1,0,1:2:0:0:
394,199,219865,2,0,P|409:255|387:344,2,125.999996154785,2|2|2,0:2|0:2|0:2,0:0:0:0:
271,59,221396,1,8,0:2:0:0:
88,87,222008,5,0,1:2:0:0:
50,267,222620,1,8,0:2:0:0:
141,282,222927,1,0,0:2:0:0:
187,361,223233,1,0,1:2:0:0:
300,215,223845,1,8,0:2:0:0:
389,376,224457,6,0,P|494:265|453:123,1,293.999991027832,0|0,0:2|0:2,0:0:0:0:
