osu file format v14

[General]
AudioFilename: audio.mp3
AudioLeadIn: 0
PreviewTime: 58846
Countdown: 0
SampleSet: Soft
StackLeniency: 0.7
Mode: 0
LetterboxInBreaks: 0
WidescreenStoryboard: 0

[Editor]
Bookmarks: 170581
DistanceSpacing: 1
BeatDivisor: 16
GridSize: 4
TimelineZoom: 1

[Metadata]
Title:BLOWIN'
TitleUnicode:BLOWIN’
Artist:Hiroyuki Sawano
ArtistUnicode:澤野弘之
Creator:ktgster
Version:Challenge
Source:タイヨウのうた
Tags:Orchestra-J Ascendance Taiyou no Uta a song to the sun
BeatmapID:1184609
BeatmapSetID:560165

[Difficulty]
HPDrainRate:6.5
CircleSize:5
OverallDifficulty:8.5
ApproachRate:9
SliderMultiplier:2.5
SliderTickRate:1

[Events]
//Background and Video events
0,0,"BG.jpg",0,0
//Break Periods
2,125474,133858
//Storyboard Layer 0 (Background)
//Storyboard Layer 1 (Fail)
//Storyboard Layer 2 (Pass)
//Storyboard Layer 3 (Foreground)
//Storyboard Sound Samples

[TimingPoints]
377,612.244897959184,4,2,1,30,1,0
377,-83.3333333333333,4,2,1,30,0,0
19356,-200,4,2,1,30,0,0
19662,-83.3333333333333,4,2,1,30,0,0
58846,-200,4,2,1,30,0,0
59152,-58.8235294117647,4,2,1,40,0,1
85785,-58.8235294117647,4,2,1,30,0,0
86091,-58.8235294117647,4,2,1,50,0,1
105070,-58.8235294117647,4,2,1,40,0,0
105683,-57.1428571428571,4,2,1,60,0,1
125274,-100,4,2,1,70,0,0
135070,-83.3333333333333,4,3,1,30,0,0
144866,-58.8235294117647,4,2,1,50,0,1
163846,-58.8235294117647,4,2,1,40,0,0
164458,-57.1428571428571,4,2,1,60,0,1
184050,-58.8235294117647,4,2,1,70,0,0
185274,612.244897959184,4,2,1,30,1,0
185274,-142.857142857143,4,2,1,30,0,0
204865,-71.4285714285714,4,2,1,50,0,0
224457,-100,4,2,1,30,0,0
226753,-71.4285714285714,4,2,1,5,0,0

[Colours]
Combo1 : 167,167,84
Combo2 : 206,103,0
Combo3 : 207,207,158
Combo4 : 180,180,180

[HitObjects]
36,56,377,6,0,B|92:108|92:108|248:68,1,224.999993133545,0|0,1:2|1:2,0:0:0:0:
299,134,989,2,0,L|283:220,1,74.9999977111817,0|0,0:2|0:2,0:0:0:0:
348,271,1295,1,0,1:2:0:0:
348,271,1448,1,0,0:2:0:0:
173,315,1754,1,0,0:2:0:0:
342,375,2060,1,0,0:2:0:0:
342,375,2213,1,0,0:2:0:0:
342,375,2519,1,0,0:2:0:0:
469,247,2825,6,0,B|505:103|505:103|453:47,1,224.999993133545,0|0,0:2|1:2,0:0:0:0:
389,111,3438,2,0,L|370:185,1,74.9999977111817,0|0,0:2|0:2,0:0:0:0:
286,215,3744,1,0,1:2:0:0:
286,215,3897,1,0,0:2:0:0:
211,51,4203,1,0,0:2:0:0:
156,222,4509,1,0,0:2:0:0:
156,222,4662,1,0,1:2:0:0:
156,222,4968,1,0,0:2:0:0:
283,349,5274,6,0,B|339:297|339:297|495:337,1,224.999993133545,0|0,1:2|1:2,0:0:0:0:
482,243,5887,2,0,L|408:224,1,74.9999977111817,0|0,0:2|0:2,0:0:0:0:
324,206,6193,1,0,1:2:0:0:
324,206,6346,1,0,0:2:0:0:
493,146,6652,1,0,0:2:0:0:
320,94,6958,1,0,0:2:0:0:
320,94,7111,1,0,0:2:0:0:
320,94,7417,1,0,0:2:0:0:
192,221,7723,6,0,L|173:295,1,74.9999977111817,0|0,0:2|0:2,0:0:0:0:
237,357,8030,1,0,0:2:0:0:
237,357,8183,1,0,1:2:0:0:
414,324,8489,1,0,0:2:0:0:
414,324,8642,1,0,1:2:0:0:
414,324,8795,1,0,0:2:0:0:
375,243,8948,1,0,0:2:0:0:
457,254,9101,1,0,0:2:0:0:
318,342,9407,1,0,0:2:0:0:
318,342,9560,1,0,0:2:0:0:
336,162,9866,1,0,1:2:0:0:
418,124,10019,1,0,1:2:0:0:
500,86,10172,5,0,0:2:0:0:
326,37,10479,1,0,1:2:0:0:
262,100,10632,1,0,0:2:0:0:
262,100,10785,2,0,L|252:202,1,74.9999977111817,8|0,0:2|1:2,0:0:0:0:
318,238,11091,1,0,0:2:0:0:
174,262,11244,2,0,L|157:88,2,149.999995422363,0|0|0,1:2|0:2|0:2,0:0:0:0:
110,325,12009,1,0,0:2:0:0:
286,357,12315,1,0,0:2:0:0:
458,305,12621,5,0,0:2:0:0:
289,239,12928,1,0,0:2:0:0:
352,175,13081,1,0,1:2:0:0:
352,175,13234,2,0,L|454:165,1,74.9999977111817,0|0,0:2|0:2,0:0:0:0:
500,219,13540,1,0,1:2:0:0:
507,75,13693,2,0,L|334:58,2,149.999995422363,0|0|0,0:2|0:2|0:2,0:0:0:0:
456,0,14458,1,0,0:2:0:0:
410,176,14764,1,0,0:2:0:0:
410,176,14917,1,0,0:2:0:0:
334,224,15070,6,0,L|324:326,1,74.9999977111817,0|0,1:2|0:2,0:0:0:0:
357,137,15377,1,0,0:2:0:0:
357,137,15530,2,0,B|411:190|411:190|404:265,1,149.999995422363,0|0,1:2|0:2,0:0:0:0:
398,353,15989,1,0,1:2:0:0:
418,67,16295,2,0,B|514:161|514:161|501:294,2,224.999993133545,0|0|0,0:2|0:2|0:2,0:0:0:0:
211,17,17519,5,0,0:2:0:0:
211,17,17672,1,0,0:2:0:0:
40,75,17979,1,0,1:2:0:0:
304,130,18438,1,0,1:2:0:0:
466,53,18744,1,0,0:2:0:0:
466,53,18897,1,0,0:2:0:0:
466,53,19356,6,0,L|460:115,1,62.5,0|0,0:2|0:2,0:0:0:0:
452,202,19815,1,0,0:2:0:0:
332,0,19968,6,0,B|386:53|386:53|379:128,1,149.999995422363,0|0,1:2|0:2,0:0:0:0:
452,202,20428,2,0,L|468:33,1,149.999995422363,0|0,1:2|0:2,0:0:0:0:
299,91,20887,1,0,1:2:0:0:
299,91,21040,1,0,0:2:0:0:
362,289,21193,2,0,L|350:164,1,74.9999977111817,8|0,0:2|0:2,0:0:0:0:
277,260,21499,1,0,0:2:0:0:
448,315,21805,1,0,0:2:0:0:
277,373,22111,1,0,0:2:0:0:
74,276,22417,6,0,L|247:252,1,149.999995422363,0|0,0:2|0:2,0:0:0:0:
262,69,22877,2,0,B|170:51|160:115|149:182|9:131,1,224.999993133545,0|0,1:2|1:2,0:0:0:0:
1,82,23489,1,0,0:2:0:0:
64,18,23642,1,8,0:2:0:0:
367,237,24254,2,0,L|355:362,1,74.9999977111817,0|0,1:2|0:2,0:0:0:0:
423,375,24560,1,0,0:2:0:0:
423,375,24713,1,0,0:2:0:0:
271,165,24866,6,0,L|451:147,1,149.999995422363,0|0,1:2|0:2,0:0:0:0:
186,159,25325,2,0,B|220:93|220:93|295:86,1,149.999995422363,0|0,1:2|0:2,0:0:0:0:
385,78,25785,1,0,1:2:0:0:
385,78,25938,1,0,0:2:0:0:
245,12,26091,1,8,0:2:0:0:
348,183,26397,2,0,B|355:258|355:258|421:291,2,149.999995422363,0|0|8,0:2|0:2|0:2,0:0:0:0:
198,356,27315,6,0,L|222:183,1,149.999995422363,0|0,0:2|0:2,0:0:0:0:
28,115,27775,2,0,B|10:207|74:217|141:228|90:368,1,224.999993133545,0|0,1:2|1:2,0:0:0:0:
38,372,28387,1,0,0:2:0:0:
4,288,28540,1,8,0:2:0:0:
508,288,29458,5,0,1:2:0:0:
474,372,29611,1,0,1:2:0:0:
407,312,29764,2,0,B|373:245|373:245|298:238,1,149.999995422363,0|0,0:2|1:2,0:0:0:0:
444,169,30223,2,0,L|294:156,1,149.999995422363,0|0,0:2|1:2,0:0:0:0:
469,259,30683,1,0,0:0:0:0:
469,259,30836,1,0,1:0:0:0:
383,83,30989,1,8,0:2:0:0:
134,354,31295,2,0,L|121:204,2,149.999995422363,0|0|0,0:2|0:2|0:2,0:0:0:0:
383,83,32213,6,0,B|291:65|281:129|270:196|130:145,2,224.999993133545,0|0|0,0:2|1:2|1:2,0:0:0:0:
447,147,33285,1,0,0:2:0:0:
383,210,33438,1,8,0:2:0:0:
192,19,33897,1,8,0:2:0:0:
192,19,34050,1,0,0:2:0:0:
64,146,34356,1,0,0:2:0:0:
191,273,34662,6,0,B|256:236|256:236|256:112,1,149.999995422363,0|0,1:2|0:2,0:0:0:0:
341,329,35121,2,0,L|341:161,1,149.999995422363,0|0,1:2|0:2,0:0:0:0:
315,93,35581,1,0,1:2:0:0:
315,93,35734,1,0,0:2:0:0:
399,61,35887,1,8,0:2:0:0:
235,349,36193,2,0,L|67:363,2,149.999995422363,0|0|8,0:2|0:2|0:2,0:0:0:0:
512,218,37111,6,0,L|344:204,1,149.999995422363,0|0,0:2|0:2,0:0:0:0:
172,187,37570,2,0,B|264:205|274:141|285:74|425:125,1,224.999993133545,0|0,1:2|1:2,0:0:0:0:
433,46,38183,1,0,0:2:0:0:
348,22,38336,1,8,0:2:0:0:
261,45,38489,1,0,0:2:0:0:
197,108,38642,2,0,P|161:122|109:127,1,74.9999977111817
36,112,38948,1,0,0:2:0:0:
93,43,39101,1,0,0:2:0:0:
157,211,39254,2,0,P|141:241|84:262,1,74.9999977111817,0|0,0:2|0:2,0:0:0:0:
258,362,39560,6,0,L|244:194,1,149.999995422363,0|0,1:2|0:2,0:0:0:0:
151,342,40019,2,0,B|250:285|250:285|376:332,1,224.999993133545,0|0,1:2|1:2,0:0:0:0:
438,355,40632,1,0,0:2:0:0:
500,175,40785,2,0,L|410:190,1,74.9999977111817,8|0,0:2|0:2,0:0:0:0:
449,100,41091,1,0,0:2:0:0:
484,276,41397,1,0,0:2:0:0:
314,218,41703,1,0,0:2:0:0:
500,175,42009,6,0,L|410:190,1,74.9999977111817,0|0,0:2|0:2,0:0:0:0:
362,123,42315,1,0,0:2:0:0:
423,372,42468,2,0,B|405:280|469:270|536:259|485:119,1,224.999993133545,0|0,1:2|1:2,0:0:0:0:
322,206,43234,1,8,0:2:0:0:
163,120,43540,1,0,0:2:0:0:
100,184,43693,1,0,0:2:0:0:
32,128,43846,2,0,B|2:194|2:194|30:294,1,149.999995422363,0|0,1:2|0:2,0:0:0:0:
105,303,44305,1,0,0:2:0:0:
291,181,44458,6,0,L|123:195,1,149.999995422363,0|0,1:2|0:2,0:0:0:0:
252,85,44917,2,0,B|214:189|214:189|271:288,1,224.999993133545,0|0,1:2|1:2,0:0:0:0:
351,329,45530,1,0,0:2:0:0:
414,265,45683,2,0,L|399:175,1,74.9999977111817,8|0,0:2|0:2,0:0:0:0:
489,214,45989,1,0,0:2:0:0:
313,174,46295,1,0,0:2:0:0:
435,41,46601,1,8,0:2:0:0:
351,329,46907,6,0,B|276:349|276:349|210:319,1,149.999995422363,0|0,0:2|0:2,0:0:0:0:
425,222,47366,2,0,L|281:264,1,149.999995422363,0|0,1:2|0:2,0:0:0:0:
197,230,47825,1,0,1:2:0:0:
463,300,48132,2,0,P|503:185|341:196,1,299.999990844727,8|0,0:2|0:2,0:0:0:0:
351,329,49050,1,0,1:2:0:0:
266,359,49203,1,0,1:2:0:0:
187,315,49356,6,0,B|121:285|121:285|46:305,1,149.999995422363,0|0,0:2|1:2,0:0:0:0:
43,215,49815,2,0,L|155:182,1,74.9999977111817,0|0,0:2|0:2,0:0:0:0:
200,221,50121,1,0,1:2:0:0:
182,133,50274,1,0,0:2:0:0:
94,110,50428,1,0,1:2:0:0:
12,148,50581,1,8,0:2:0:0:
281,164,50887,1,0,0:2:0:0:
281,164,51040,1,0,0:2:0:0:
355,113,51193,1,0,0:2:0:0:
503,184,51499,1,0,0:2:0:0:
248,344,51805,6,0,B|183:311|183:311|183:196,1,149.999995422363,0|0,0:2|0:2,0:0:0:0:
255,180,52264,1,0,1:2:0:0:
60,140,52417,2,0,L|82:235,1,74.9999977111817,0|0,0:2|0:2,0:0:0:0:
29,289,52723,1,0,1:2:0:0:
29,289,52877,1,0,0:2:0:0:
255,180,53030,2,0,B|347:162|357:226|368:293|508:242,1,224.999993133545,8|8,0:2|0:2,0:0:0:0:
497,179,53642,2,0,L|481:87,1,74.9999977111817,0|0,0:2|0:2,0:0:0:0:
275,282,53948,2,0,L|259:374,1,74.9999977111817,0|0,0:2|0:2,0:0:0:0:
43,287,54254,6,0,B|34:123|34:123|75:63,2,224.999993133545,0|0|0,1:2|1:2|1:2,0:0:0:0:
469,97,55479,2,0,B|478:261|478:261|437:321,2,224.999993133545,8|0|8,0:2|0:2|0:2,0:0:0:0:
405,33,56550,1,0,0:2:0:0:
315,44,56703,2,0,L|162:68,1,149.999995422363,0|0,0:2|0:2,0:0:0:0:
85,29,57162,1,0,1:2:0:0:
275,219,57621,1,0,1:2:0:0:
364,231,57774,1,0,0:2:0:0:
452,247,57927,1,8,0:2:0:0:
452,247,58846,6,0,L|445:202,1,31.25,2|0,0:2|0:2,0:0:0:0:
425,35,59152,6,0,P|348:77|369:191,1,212.500004053116,2|0,1:2|0:2,0:0:0:0:
452,247,59611,1,0,0:2:0:0:
410,344,59764,2,0,L|304:336,1,106.250002026558,8|0,0:2|0:2,0:0:0:0:
16,279,60070,2,0,L|122:271,1,106.250002026558,2|0,1:2|0:2,0:0:0:0:
366,189,60377,6,0,B|306:137|270:169|222:217|150:137,1,212.500004053116,0|0,0:2|0:2,0:0:0:0:
87,86,60836,1,0,0:2:0:0:
187,49,60989,1,8,0:2:0:0:
288,80,61142,1,0,1:2:0:0:
387,41,61295,1,0,0:2:0:0:
472,104,61448,1,0,0:2:0:0:
458,209,61601,6,0,B|434:264|434:264|269:291,1,212.500004053116,0|0,1:2|0:2,0:0:0:0:
208,213,62060,1,0,0:2:0:0:
33,284,62213,2,0,B|57:339|57:339|222:366,1,212.500004053116,8|0,0:2|1:2,0:0:0:0:
284,289,62672,1,0,0:2:0:0:
109,184,62825,6,0,P|202:189|85:130,1,318.750006079674,2|0,0:2|1:2,0:0:0:0:
31,112,63438,1,10,0:2:0:0:
7,215,63591,1,0,1:2:0:0:
77,294,63744,1,0,0:2:0:0:
181,313,63897,1,8,0:2:0:0:
275,264,64050,6,0,B|326:239|326:239|489:283,1,212.500004053116,0|0,1:2|0:2,0:0:0:0:
401,354,64509,1,0,0:2:0:0:
266,181,64662,2,0,B|317:156|317:156|480:200,1,212.500004053116,10|0,0:2|1:2,0:0:0:0:
401,354,65121,1,0,0:2:0:0:
257,98,65274,6,0,B|308:73|308:73|471:117,1,212.500004053116,0|0,0:2|0:2,0:0:0:0:
365,167,65734,1,0,0:2:0:0:
412,261,65887,1,8,0:2:0:0:
327,325,66040,1,8,0:2:0:0:
230,279,66193,1,0,1:2:0:0:
136,328,66346,1,0,0:2:0:0:
43,275,66499,6,0,L|25:162,1,106.250002026558,0|0,1:2|0:2,0:0:0:0:
266,92,66805,2,0,L|248:205,1,106.250002026558,0|0,0:2|0:2,0:0:0:0:
79,241,67111,2,0,L|61:128,1,106.250002026558,10|0,1:2|0:2,0:0:0:0:
302,58,67417,2,0,L|284:171,1,106.250002026558,2|0,0:2|0:2,0:0:0:0:
400,361,67723,6,2,B|463:265|334:267|392:200|429:131|543:212|488:285|428:283,1,318.750006079674,2|0,1:2|0:2,0:0:0:0:
330,303,68336,1,8,0:2:0:0:
231,263,68489,1,8,0:2:0:0:
199,161,68642,1,0,0:2:0:0:
249,67,68795,1,8,0:2:0:0:
351,38,68948,6,0,B|410:53|410:53|434:249,1,212.500004053116,2|0,1:2|0:2,0:0:0:0:
325,230,69407,2,0,L|310:112,1,106.250002026558,0|8,0:2|0:2,0:0:0:0:
512,130,69713,1,0,0:2:0:0:
403,384,69866,2,0,L|417:266,1,106.250002026558,2|0,1:2|0:2,0:0:0:0:
161,38,70172,6,0,B|102:53|102:53|78:249,1,212.500004053116,2|0,0:2|0:2,0:0:0:0:
187,230,70631,2,0,L|201:112,1,106.250002026558,0|8,0:2|0:2,0:0:0:0:
0,130,70937,1,0,1:2:0:0:
109,384,71090,2,0,L|94:266,1,106.250002026558,2|0,0:2|0:2,0:0:0:0:
236,18,71397,6,0,P|286:95|199:124,1,212.500004053116,0|0,1:2|1:2,0:0:0:0:
93,104,71856,1,0,0:2:0:0:
15,177,72009,2,0,L|6:308,1,106.250002026558,8|0,0:2|0:2,0:0:0:0:
197,367,72315,2,0,L|188:236,1,106.250002026558,0|0,1:2|0:2,0:0:0:0:
284,84,72621,6,2,B|281:48|330:22|369:31|417:107|353:132|341:154|298:155|269:75|198:123,1,318.750006079674,2|0,0:2|1:2,0:0:0:0:
130,205,73234,1,8,0:2:0:0:
146,309,73387,1,8,0:2:0:0:
237,362,73540,1,0,0:2:0:0:
342,348,73693,1,8,0:2:0:0:
470,253,73846,6,0,P|484:166|440:28,1,212.500004053116,2|0,1:2|0:2,0:0:0:0:
228,15,74305,2,0,L|214:135,1,106.250002026558,0|8,0:2|0:2,0:0:0:0:
190,266,74611,1,0,0:2:0:0:
342,348,74764,2,0,L|330:242,1,106.250002026558,0|0,1:2|0:2,0:0:0:0:
98,67,75070,6,0,B|46:127|78:163|126:211|46:283,1,212.500004053116,2|0,0:2|0:2,0:0:0:0:
270,337,75530,2,0,P|269:291|216:218,1,106.250002026558,0|8,0:2|0:2,0:0:0:0:
167,314,75836,1,0,0:2:0:0:
270,337,75989,1,8,1:2:0:0:
375,317,76142,1,0,0:2:0:0:
494,157,76295,6,0,B|458:116|458:116|276:139,1,212.500004053116,2|0,1:2|0:2,0:0:0:0:
18,83,76754,2,0,B|54:42|54:42|236:65,1,212.500004053116,2|0,0:2|0:2,0:0:0:0:
92,300,77213,2,0,P|80:253|114:174,1,106.250002026558,10|0,0:2|0:2,0:0:0:0:
376,316,77519,6,0,B|343:372|343:372|307:144,1,212.500004053116,2|0,1:2|0:2,0:0:0:0:
470,270,77979,1,0,0:2:0:0:
248,384,78132,1,8,0:2:0:0:
231,279,78285,1,8,0:2:0:0:
214,174,78438,1,8,0:2:0:0:
197,69,78591,1,0,0:2:0:0:
18,227,78744,6,0,B|54:268|54:268|236:245,1,212.500004053116,2|0,1:2|0:2,0:0:0:0:
494,301,79203,2,0,B|458:342|458:342|276:319,1,212.500004053116,2|0,0:2|0:2,0:0:0:0:
420,84,79662,2,0,P|432:131|398:210,1,106.250002026558,2|0,1:2|0:2,0:0:0:0:
136,68,79968,6,0,B|169:12|169:12|205:240,1,212.500004053116,0|8,0:2|0:2,0:0:0:0:
42,114,80428,1,0,0:2:0:0:
271,55,80581,1,8,0:2:0:0:
288,160,80734,1,0,1:2:0:0:
86,304,80887,2,0,L|103:199,1,106.250002026558,2|0,0:2|0:2,0:0:0:0:
494,227,81193,6,0,B|458:268|458:268|301:248,1,212.500004053116,2|0,1:2|1:2,0:0:0:0:
18,83,81652,2,0,B|54:42|54:42|236:65,1,212.500004053116,2|0,0:2|0:2,0:0:0:0:
92,300,82111,2,0,P|80:253|114:174,1,106.250002026558,2|0,1:2|0:2,0:0:0:0:
376,68,82417,6,0,B|343:12|343:12|307:240,1,212.500004053116,0|8,0:2|0:2,0:0:0:0:
470,270,82877,1,0,1:2:0:0:
221,365,83030,2,0,L|200:239,1,106.250002026558,8|0,0:2|1:2,0:0:0:0:
408,143,83336,2,0,L|387:269,1,106.250002026558,0|8,0:2|0:2,0:0:0:0:
47,326,83642,6,0,B|27:169|27:169|68:133,1,212.500004053116,2|0,1:2|0:2,0:0:0:0:
443,133,84101,2,0,B|484:169|484:169|465:326,1,212.500004053116,2|8,0:2|0:2,0:0:0:0:
256,128,84560,2,0,L|256:20,1,106.250002026558,2|0,1:2|0:2,0:0:0:0:
256,235,84866,5,8,0:2:0:0:
256,341,85019,1,0,0:2:0:0:
164,288,85172,1,0,0:2:0:0:
348,288,85479,1,8,0:2:0:0:
256,128,85785,1,4,0:2:0:0:
59,27,86091,6,0,B|23:71|23:71|80:289,1,212.500004053116,4|0,1:0|0:2,0:0:0:0:
130,303,86550,1,0,0:2:0:0:
231,334,86703,1,8,0:2:0:0:
336,325,86856,1,0,0:2:0:0:
417,256,87009,1,0,1:2:0:0:
458,158,87162,1,0,0:2:0:0:
440,54,87315,6,0,B|374:31|374:31|223:67,1,212.500004053116,2|0,0:2|0:2,0:0:0:0:
157,136,87774,1,0,0:2:0:0:
241,201,87928,1,8,0:2:0:0:
166,276,88081,1,0,1:2:0:0:
60,262,88234,1,8,0:2:0:0:
8,168,88387,1,0,0:2:0:0:
66,79,88540,6,0,B|89:145|89:145|53:296,1,212.500004053116,2|0,1:2|1:2,0:0:0:0:
332,141,88999,1,0,0:2:0:0:
149,70,89152,2,0,B|172:136|172:136|136:287,1,212.500004053116,8|0,0:2|1:2,0:0:0:0:
332,141,89611,1,0,0:2:0:0:
232,61,89764,6,0,B|255:127|255:127|219:278,1,212.500004053116,0|0,0:2|0:2,0:0:0:0:
332,141,90223,1,0,1:2:0:0:
169,366,90377,2,0,P|226:347|300:362,1,106.250002026558,8|0,0:2|1:2,0:0:0:0:
375,368,90683,1,0,0:2:0:0:
448,291,90836,1,0,0:2:0:0:
355,57,90989,6,0,B|312:119|312:119|352:281,1,212.500004053116,2|0,1:2|0:2,0:0:0:0:
419,176,91448,1,0,0:2:0:0:
222,110,91601,2,0,L|248:214,1,106.250002026558,8|0,0:2|0:2,0:0:0:0:
442,103,91907,2,0,L|467:0,1,106.250002026558,2|0,1:2|0:2,0:0:0:0:
157,57,92213,6,0,B|200:119|200:119|160:281,1,212.500004053116,2|0,0:2|0:2,0:0:0:0:
93,176,92672,1,0,0:2:0:0:
289,110,92825,2,0,L|264:214,1,106.250002026558,10|0,0:2|0:2,0:0:0:0:
70,103,93131,2,0,L|44:0,1,106.250002026558,2|0,1:2|0:2,0:0:0:0:
263,38,93438,6,0,P|344:58|226:153,1,318.750006079674,2|0,1:2|0:2,0:0:0:0:
143,119,94050,1,10,0:2:0:0:
41,150,94203,1,8,0:2:0:0:
8,251,94356,1,8,0:2:0:0:
66,339,94509,1,0,0:2:0:0:
171,353,94662,6,0,L|295:331,1,106.250002026558,0|0,1:2|0:2,0:0:0:0:
375,191,94968,2,0,L|251:169,1,106.250002026558,2|0,0:2|0:2,0:0:0:0:
156,383,95274,2,0,L|280:361,1,106.250002026558,8|8,0:2|0:2,0:0:0:0:
360,221,95580,1,10,0:0:0:0:
256,203,95733,1,0,0:0:0:0:
486,75,95887,6,0,B|455:220|455:220|412:110,1,212.500004053116,0|0,1:2|0:2,0:0:0:0:
244,38,96346,2,0,P|349:114|226:158,1,318.750006079674,2|0,0:2|1:2,0:0:0:0:
129,114,96958,1,0,0:2:0:0:
36,166,97111,6,0,P|25:113|62:30,1,106.250002026558,0|0,0:2|0:2,0:0:0:0:
230,295,97417,2,0,B|201:347|201:347|19:344,1,212.500004053116,2|8,0:2|0:2,0:0:0:0:
12,243,97877,1,0,1:2:0:0:
64,150,98030,1,0,0:2:0:0:
165,120,98183,1,0,0:2:0:0:
255,176,98336,6,0,B|286:321|286:321|329:211,1,212.500004053116,2|0,1:2|1:2,0:0:0:0:
348,162,98795,1,0,0:2:0:0:
165,120,98948,2,0,B|135:170|135:170|175:350,1,212.500004053116,8|0,0:2|1:2,0:0:0:0:
348,162,99407,1,0,0:2:0:0:
120,42,99560,6,0,L|8:59,1,106.250002026558,2|0,1:2|0:2,0:0:0:0:
348,162,99866,2,0,L|460:179,1,106.250002026558,0|0,0:2|1:2,0:0:0:0:
175,65,100172,2,0,L|63:82,1,106.250002026558,10|8,0:2|0:2,0:0:0:0:
293,185,100479,1,0,0:2:0:0:
398,200,100632,1,0,0:2:0:0:
211,334,100785,6,0,B|150:323|150:323|102:140,1,212.500004053116,0|0,1:2|0:2,0:0:0:0:
269,18,101244,2,0,B|358:86|203:112|261:179|298:248|412:167|357:94|297:96,1,318.750006079674,2|0,0:2|1:2,0:0:0:0:
198,86,101856,1,0,0:2:0:0:
405,228,102009,6,0,P|429:188|425:103,1,106.250002026558,0|0,0:2|0:2,0:0:0:0:
88,35,102315,2,0,L|105:139,1,106.250002026558,2|0,0:2|0:2,0:0:0:0:
308,266,102621,1,8,0:2:0:0:
202,253,102774,1,8,0:2:0:0:
105,299,102928,1,8,0:2:0:0:
37,380,103081,1,0,0:2:0:0:
0,206,103234,6,0,B|152:198|152:198|69:161,1,212.500004053116,2|0,1:2|0:2,0:0:0:0:
180,364,103693,2,0,L|53:370,1,106.250002026558,2|8,0:2|0:2,0:0:0:0:
241,177,103999,1,0,0:2:0:0:
42,288,104152,2,0,L|168:281,1,106.250002026558,8|0,0:2|0:2,0:0:0:0:
254,288,104458,5,0,1:2:0:0:
299,191,104611,1,0,0:2:0:0:
261,91,104764,1,8,0:2:0:0:
157,65,104917,1,0,0:2:0:0:
68,123,105070,1,8,0:2:0:0:
161,224,105223,1,8,0:2:0:0:
297,249,105377,1,0,0:2:0:0:
425,197,105530,1,0,0:2:0:0:
470,62,105683,6,0,B|429:7|429:7|218:31,1,218.750002086163,2|0,1:2|0:2,0:0:0:0:
19,218,106142,1,2,0:0:0:0:
19,218,106295,2,0,B|169:232|169:232|210:177,1,218.750002086163,8|0,0:2|1:2,0:0:0:0:
91,112,106754,1,0,0:2:0:0:
294,225,106907,6,0,B|347:130|347:130|292:35,1,218.750002086163,0|0,0:2|0:2,0:0:0:0:
183,18,107366,1,0,0:2:0:0:
102,91,107519,1,8,0:2:0:0:
84,198,107672,1,0,1:2:0:0:
131,296,107825,1,0,0:2:0:0:
230,343,107979,1,0,0:2:0:0:
338,357,108132,6,0,B|445:335|445:335|486:210,1,218.750002086163,2|2,1:2|1:2,0:0:0:0:
242,110,108591,1,0,0:2:0:0:
242,110,108744,2,0,B|349:132|349:132|390:257,1,218.750002086163,8|0,0:2|1:2,0:0:0:0:
260,225,109203,1,0,0:2:0:0:
373,346,109356,6,0,L|515:317,1,109.375001043081,2|0,0:2|0:2,0:0:0:0:
140,251,109662,2,0,L|33:230,1,109.375001043081,8|0,0:2|1:2,0:0:0:0:
5,124,109968,1,8,0:2:0:0:
91,55,110121,1,0,1:2:0:0:
201,49,110274,1,0,0:2:0:0:
291,113,110428,1,0,0:2:0:0:
326,323,110581,6,0,P|417:348|452:224,1,218.750002086163,2|0,1:2|0:2,0:0:0:0:
414,155,111040,1,0,0:2:0:0:
186,322,111193,2,0,P|87:344|45:252,1,218.750002086163,8|2,0:2|1:2,0:0:0:0:
252,236,111652,1,0,0:2:0:0:
128,35,111805,6,0,B|92:101|92:101|135:239,1,218.750002086163,0|2,0:2|0:2,0:0:0:0:
354,156,112264,1,0,0:2:0:0:
354,156,112417,2,0,L|366:26,1,109.375001043081,8|0,0:2|0:2,0:0:0:0:
494,257,112723,2,0,L|482:127,1,109.375001043081,0|0,1:2|0:2,0:0:0:0:
82,35,113030,6,0,P|34:94|88:228,1,218.750002086163,2|0,1:2|0:2,0:0:0:0:
276,148,113489,1,0,0:2:0:0:
254,357,113642,2,0,L|119:364,1,109.375001043081,8|8,0:2|0:2,0:0:0:0:
402,250,113948,2,0,L|537:257,1,109.375001043081,2|0,0:2|0:2,0:0:0:0:
181,12,114254,6,0,L|188:147,1,109.375001043081,2|0,1:2|0:2,0:0:0:0:
331,372,114560,2,0,L|338:237,1,109.375001043081,2|0,0:2|0:2,0:0:0:0:
121,269,114866,1,8,0:2:0:0:
227,246,115019,1,8,0:2:0:0:
276,148,115172,1,0,0:2:0:0:
382,125,115325,1,0,1:2:0:0:
465,373,115479,6,0,B|402:351|402:351|379:156,1,218.750002086163,2|0,1:2|0:2,0:0:0:0:
498,263,115938,2,0,L|484:155,1,109.375001043081,2|8,0:2|0:2,0:0:0:0:
395,91,116244,1,0,0:2:0:0:
294,246,116397,2,0,L|308:354,1,109.375001043081,0|0,1:2|0:2,0:0:0:0:
83,355,116703,6,0,B|43:291|43:291|43:124,1,218.750002086163,2|0,0:2|0:2,0:0:0:0:
43,38,117162,1,0,0:2:0:0:
154,307,117315,2,0,B|126:263|126:263|126:150,1,109.375001043081,8|0,0:2|1:2,0:0:0:0:
126,96,117621,1,0,0:2:0:0:
126,96,117774,1,0,0:2:0:0:
372,35,117928,6,0,P|417:113|359:244,1,218.750002086163,2|0,1:2|1:2,0:0:0:0:
282,280,118387,1,0,0:2:0:0:
101,111,118540,2,0,B|167:97|167:97|315:131,1,218.750002086163,8|0,0:2|1:2,0:0:0:0:
454,352,118999,6,0,P|499:309|341:260,1,328.125003129244,2|8,0:2|0:2,0:0:0:0:
283,332,119611,1,0,1:2:0:0:
173,327,119764,1,8,0:2:0:0:
122,230,119917,1,8,0:2:0:0:
171,132,120070,1,0,0:2:0:0:
278,111,120223,1,0,0:2:0:0:
372,167,120377,6,0,B|524:203|524:203|486:82,1,218.750002086163,2|0,1:2|0:2,0:0:0:0:
469,39,120836,1,0,0:2:0:0:
320,240,120989,2,0,L|444:269,1,109.375001043081,8|0,0:2|0:2,0:0:0:0:
295,65,121295,2,0,L|419:94,1,109.375001043081,2|0,1:2|0:2,0:0:0:0:
140,167,121601,6,0,B|-12:203|-12:203|26:82,1,218.750002086163,2|0,0:2|0:2,0:0:0:0:
43,39,122060,1,0,0:2:0:0:
192,240,122213,2,0,L|68:269,1,109.375001043081,8|0,0:2|0:2,0:0:0:0:
217,65,122519,1,2,1:2:0:0:
110,89,122672,1,0,0:0:0:0:
122,353,122825,6,0,B|210:271|261:353|295:388|329:353|409:333|413:257|371:202|306:181|260:216|240:243,1,437.500004172325,2|8,1:2|0:2,0:0:0:0:
152,220,123591,1,8,0:2:0:0:
84,133,123744,1,0,0:2:0:0:
124,31,123897,1,0,0:2:0:0:
378,20,124050,6,0,P|404:100|382:253,1,218.750002086163,2|0,1:2|0:2,0:0:0:0:
330,323,124509,1,0,0:2:0:0:
227,361,124662,1,8,0:2:0:0:
118,347,124815,1,8,0:2:0:0:
37,272,124968,1,2,0:2:0:0:
6,166,125121,1,0,0:2:0:0:
35,60,125274,5,2,0:2:0:0:
82,57,134458,5,0,0:2:0:0:
82,57,135070,2,0,B|48:95|48:95|85:214,1,149.999995422363,2|0,0:2|0:2,0:0:0:0:
157,230,135530,1,0,0:2:0:0:
220,166,135683,2,0,L|250:70,1,74.9999977111817,8|0,0:2|0:2,0:0:0:0:
178,30,135989,1,2,0:2:0:0:
178,30,136142,1,0,0:2:0:0:
356,9,136295,5,0,0:2:0:0:
400,87,136499,1,8,0:2:0:0:
400,87,136601,2,0,B|416:136|416:136|390:259,2,149.999995422363,0|8|0,0:2|0:2|0:2,0:0:0:0:
312,109,137366,1,0,0:2:0:0:
145,178,137519,6,0,B|128:272|128:272|164:334,1,149.999995422363,4|0,0:0|0:2,0:0:0:0:
238,354,137979,1,0,0:2:0:0:
325,334,138132,1,8,0:2:0:0:
375,259,138285,1,0,0:2:0:0:
399,172,138438,1,8,0:2:0:0:
230,109,138744,5,0,0:2:0:0:
206,22,138948,1,8,0:2:0:0:
206,22,139050,1,0,0:2:0:0:
44,101,139356,2,0,L|42:199,1,74.9999977111817,8|0,0:2|0:2,0:0:0:0:
34,265,139662,1,0,0:2:0:0:
188,357,139968,6,0,B|250:329|250:329|252:204,1,149.999995422363,2|0,0:2|0:2,0:0:0:0:
339,227,140428,2,0,L|339:302,1,74.9999977111817,2|8,0:2|0:2,0:0:0:0:
161,272,140887,1,0,0:2:0:0:
97,208,141040,1,0,0:2:0:0:
160,144,141193,5,0,0:2:0:0:
226,83,141397,1,8,0:2:0:0:
226,83,141499,1,0,0:2:0:0:
395,131,141805,1,8,0:2:0:0:
234,212,142111,1,0,0:2:0:0:
495,279,142417,6,0,L|305:234,1,149.999995422363,10|0,0:2|0:2,0:0:0:0:
173,204,143030,1,0,0:2:0:0:
121,278,143234,1,8,0:2:0:0:
121,278,143336,1,0,0:2:0:0:
296,319,143642,1,8,0:2:0:0:
372,272,143795,1,0,0:2:0:0:
453,309,143948,1,0,0:2:0:0:
50,141,144866,6,0,B|197:133|197:133|258:36,1,212.500004053116,4|0,1:0|0:2,0:0:0:0:
326,30,145325,1,0,0:2:0:0:
421,77,145479,1,8,0:2:0:0:
468,171,145632,1,0,0:2:0:0:
458,276,145785,1,0,1:2:0:0:
382,350,145938,1,0,0:2:0:0:
265,365,146091,6,0,B|209:330|209:330|201:183,1,212.500004053116,2|0,0:2|0:2,0:0:0:0:
126,108,146550,1,0,0:2:0:0:
50,183,146703,1,8,0:2:0:0:
90,281,146856,1,0,1:2:0:0:
38,374,147009,2,0,P|93:386|158:359,1,106.250002026558,8|0,0:2|0:2,0:0:0:0:
143,226,147315,6,0,B|137:158|137:158|192:105|192:105|186:37,1,212.500004053116,2|0,1:2|1:2,0:0:0:0:
400,231,147774,1,0,0:2:0:0:
233,245,147928,2,0,B|227:177|227:177|282:124|282:124|276:56,1,212.500004053116,8|0,0:2|1:2,0:0:0:0:
400,231,148387,1,0,0:2:0:0:
323,264,148540,6,0,B|317:196|317:196|372:143|372:143|366:75,1,212.500004053116,0|0,0:2|0:2,0:0:0:0:
400,231,148999,1,0,1:2:0:0:
104,308,149152,1,8,0:2:0:0:
198,329,149305,1,0,1:2:0:0:
292,351,149458,1,0,0:2:0:0:
386,372,149611,1,0,0:2:0:0:
504,192,149764,6,0,B|469:136|469:136|322:128,1,212.500004053116,2|0,1:2|0:2,0:0:0:0:
247,52,150223,1,0,0:2:0:0:
196,287,150377,2,0,L|304:282,1,106.250002026558,8|0,0:2|0:2,0:0:0:0:
461,30,150683,2,0,L|353:25,1,106.250002026558,2|0,1:2|0:2,0:0:0:0:
8,192,150989,6,0,B|43:136|43:136|190:128,1,212.500004053116,2|0,0:2|0:2,0:0:0:0:
265,52,151448,1,0,0:2:0:0:
316,287,151602,2,0,L|208:282,1,106.250002026558,2|0,0:0|0:0,0:0:0:0:
51,30,151908,2,0,L|159:25,1,106.250002026558,2|0,0:0|0:0,0:0:0:0:
369,164,152213,6,0,P|288:144|406:49,1,318.750006079674,2|0,1:2|0:2,0:0:0:0:
464,114,152825,1,10,0:2:0:0:
476,220,152979,1,8,0:2:0:0:
428,314,153132,1,8,0:2:0:0:
334,364,153285,1,0,0:2:0:0:
228,376,153438,6,0,L|103:364,1,106.250002026558,0|0,1:2|0:2,0:0:0:0:
314,179,153744,2,0,L|420:169,1,106.250002026558,2|0,0:2|0:2,0:0:0:0:
193,350,154050,2,0,L|68:338,1,106.250002026558,8|8,0:2|0:2,0:0:0:0:
279,153,154356,1,10,0:0:0:0:
384,141,154509,1,0,0:0:0:0:
114,40,154662,6,0,B|60:75|60:75|103:252,1,212.500004053116,0|0,1:2|0:2,0:0:0:0:
248,357,155121,2,0,B|321:300|301:234|200:211|219:107|317:102|343:181|277:187,1,318.750006079674,2|0,0:2|1:2,0:0:0:0:
172,172,155734,1,0,0:2:0:0:
370,106,155887,6,0,P|390:151|345:235,1,106.250002026558,0|0,0:2|0:2,0:0:0:0:
94,125,156193,2,0,L|106:11,1,106.250002026558,2|0,0:2|0:0,0:0:0:0:
259,251,156499,1,8,0:2:0:0:
248,357,156652,1,0,1:2:0:0:
178,185,156805,2,0,P|215:156|288:151,1,106.250002026558,0|0,0:2|0:2,0:0:0:0:
466,252,157111,6,0,P|424:344|326:323,1,212.500004053116,2|0,1:2|1:0,0:0:0:0:
362,229,157570,1,0,0:2:0:0:
183,326,157723,2,0,P|87:343|47:247,1,212.500004053116,8|0,0:2|1:0,0:0:0:0:
150,229,158183,1,0,0:2:0:0:
362,229,158336,6,0,L|484:248,1,106.250002026558,2|0,1:2|0:2,0:0:0:0:
150,147,158642,2,0,L|28:166,1,106.250002026558,0|0,0:2|1:2,0:0:0:0:
197,348,158948,1,10,0:2:0:0:
214,244,159101,1,8,0:2:0:0:
298,140,159254,1,0,0:2:0:0:
281,35,159407,1,0,0:2:0:0:
72,34,159560,6,0,B|29:73|29:73|62:263,1,212.500004053116,0|0,1:2|0:2,0:0:0:0:
213,357,160019,2,0,B|302:289|147:263|205:196|242:127|356:208|301:281|241:279,1,318.750006079674,2|0,0:2|1:2,0:0:0:0:
142,292,160632,1,0,0:0:0:0:
149,132,160785,6,0,B|302:141|302:141|239:40,1,212.500004053116,0|0,0:2|0:0,0:0:0:0:
201,9,161244,1,0,0:2:0:0:
100,44,161397,1,8,0:2:0:0:
37,129,161550,1,8,0:2:0:0:
42,235,161703,1,8,0:2:0:0:
99,324,161856,1,0,0:2:0:0:
200,354,162009,6,0,B|297:327|297:327|444:343,1,212.500004053116,2|0,1:2|0:2,0:0:0:0:
483,263,162468,1,2,0:2:0:0:
446,163,162621,1,0,0:2:0:0:
362,97,162774,1,0,0:2:0:0:
256,76,162928,1,8,0:2:0:0:
150,97,163081,1,0,0:2:0:0:
66,163,163234,5,0,1:2:0:0:
164,202,163387,1,0,0:2:0:0:
269,188,163540,1,8,0:2:0:0:
350,120,163693,1,0,0:2:0:0:
386,20,163846,1,8,0:2:0:0:
469,116,163999,1,8,0:2:0:0:
469,243,164152,1,0,0:2:0:0:
398,348,164305,1,0,0:2:0:0:
274,377,164458,6,0,B|203:347|203:347|162:135,1,218.750002086163,2|0,1:2|0:2,0:0:0:0:
405,24,164917,1,2,0:2:0:0:
405,24,165070,2,0,B|334:54|334:54|293:266,1,218.750002086163,8|0,0:2|1:2,0:0:0:0:
489,240,165530,1,0,0:2:0:0:
330,383,165683,6,0,B|300:312|300:312|88:271,1,218.750002086163,0|0,0:2|0:2,0:0:0:0:
68,226,166142,1,0,0:2:0:0:
66,116,166295,1,8,0:2:0:0:
132,29,166448,1,0,1:2:0:0:
238,6,166601,1,0,0:2:0:0:
340,43,166754,1,0,0:2:0:0:
387,141,166907,6,0,B|413:280|413:280|484:310,1,218.750002086163,2|2,1:2|1:2,0:0:0:0:
480,200,167366,1,0,0:2:0:0:
232,193,167519,2,0,B|258:332|258:332|329:362,1,218.750002086163,8|0,0:2|1:2,0:0:0:0:
325,252,167978,1,0,0:2:0:0:
129,332,168132,6,0,L|15:323,1,109.375001043081,2|0,0:2|0:2,0:0:0:0:
325,252,168438,2,0,L|439:243,1,109.375001043081,8|0,0:2|1:2,0:0:0:0:
151,140,168744,1,8,0:2:0:0:
113,242,168897,1,0,1:2:0:0:
301,52,169050,1,0,0:2:0:0:
339,154,169203,1,0,0:2:0:0:
460,351,169356,6,0,B|307:344|307:344|254:249,1,218.750002086163,2|0,1:2|0:2,0:0:0:0:
236,184,169815,1,0,0:2:0:0:
485,262,169968,2,0,L|366:257,1,109.375001043081,8|0,0:2|0:0,0:0:0:0:
87,363,170274,2,0,L|206:358,1,109.375001043081,2|0,1:2|0:2,0:0:0:0:
460,33,170581,6,0,B|307:40|307:40|254:135,1,218.750002086163,0|2,0:2|0:2,0:0:0:0:
236,200,171040,1,0,0:2:0:0:
485,122,171193,2,0,L|366:127,1,109.375001043081,8|0,0:2|0:2,0:0:0:0:
87,21,171499,2,0,L|206:26,1,109.375001043081,0|0,1:2|0:2,0:0:0:0:
94,327,171805,6,0,B|36:295|36:295|29:142,1,218.750002086163,2|0,1:2|0:2,0:0:0:0:
107,64,172264,1,0,0:2:0:0:
211,32,172417,1,8,0:2:0:0:
317,57,172570,1,8,0:2:0:0:
385,142,172723,1,2,0:2:0:0:
397,251,172877,1,0,0:2:0:0:
356,352,173030,6,0,B|199:355|199:355|117:250,1,218.750002086163,2|0,1:2|0:0,0:0:0:0:
107,211,173489,1,0,0:2:0:0:
140,106,173642,1,8,0:2:0:0:
224,36,173795,1,8,0:2:0:0:
332,25,173948,1,0,0:2:0:0:
424,82,174101,1,0,1:2:0:0:
479,175,174254,6,0,P|484:269|348:252,1,218.750002086163,2|0,1:2|0:2,0:0:0:0:
315,95,174713,2,0,L|424:82,1,109.375001043081,2|8,0:2|0:2,0:0:0:0:
508,12,175019,1,0,0:2:0:0:
351,200,175172,2,0,L|242:186,1,109.375001043081,0|0,1:2|0:2,0:0:0:0:
18,329,175479,6,0,B|80:316|80:316|159:362|159:362|272:340,1,218.750002086163,2|0,0:2|0:2,0:0:0:0:
299,273,175938,1,0,0:2:0:0:
54,206,176091,1,8,0:2:0:0:
162,222,176244,1,0,1:2:0:0:
267,192,176397,1,0,0:2:0:0:
333,105,176550,1,0,0:2:0:0:
370,2,176703,6,0,B|443:40|443:40|470:198,1,218.750002086163,2|0,1:2|1:2,0:0:0:0:
483,282,177162,1,0,0:2:0:0:
295,367,177315,2,0,B|307:304|307:304|261:225|261:225|283:112,1,218.750002086163,8|0,0:2|1:2,0:0:0:0:
58,32,177774,6,0,P|13:75|171:124,1,328.125003129244,2|8,0:2|0:2,0:0:0:0:
239,59,178387,1,0,1:2:0:0:
346,36,178540,1,8,0:2:0:0:
439,92,178693,1,8,0:2:0:0:
490,188,178846,1,0,0:2:0:0:
487,297,178999,1,0,0:2:0:0:
394,355,179152,6,0,L|172:339,1,218.750002086163,2|0,1:2|0:2,0:0:0:0:
98,261,179611,1,0,0:2:0:0:
88,152,179764,1,8,0:2:0:0:
153,64,179917,1,0,0:2:0:0:
258,33,180070,1,2,1:2:0:0:
358,77,180223,1,0,0:2:0:0:
409,174,180377,6,0,L|187:158,1,218.750002086163,2|0,0:2|0:2,0:0:0:0:
81,154,180836,1,0,0:2:0:0:
131,250,180989,1,8,0:2:0:0:
222,309,181142,1,0,0:2:0:0:
331,313,181295,1,2,1:2:0:0:
432,271,181448,1,0,0:2:0:0:
492,179,181601,6,0,B|404:97|353:179|319:214|285:179|205:159|201:83|243:28|308:7|354:42|374:69,2,437.500004172325,2|8|2,1:2|0:2|1:2,0:0:0:0:
432,271,182979,1,0,0:0:0:0:
331,313,183132,1,0,0:2:0:0:
222,309,183285,1,0,0:2:0:0:
131,250,183438,1,8,0:2:0:0:
81,154,183591,1,8,0:2:0:0:
107,47,183744,1,4,0:1:0:0:
208,4,183897,1,0,0:2:0:0:
193,109,184050,5,2,0:2:0:0:
193,109,185274,6,0,B|218:148|218:148|175:260,1,131.249995994568,0|0,0:2|0:2,0:0:0:0:
109,267,185886,1,0,0:2:0:0:
263,348,186192,1,0,0:2:0:0:
339,306,186345,2,0,B|416:277|499:311|499:311|448:242|492:168,1,306.249990653992,0|0,0:2|0:2,0:0:0:0:
363,53,187722,6,0,B|324:28|324:28|212:71,1,131.249995994568,0|0,0:2|0:2,0:0:0:0:
205,137,188334,1,0,0:2:0:0:
35,94,188640,1,0,0:2:0:0:
77,170,188793,2,0,B|106:247|72:330|72:330|141:279|215:323,1,306.249990653992,0|0,0:2|0:2,0:0:0:0:
329,193,190171,6,0,L|346:33,1,131.249995994568,0|0,0:2|0:2,0:0:0:0:
268,15,190784,1,0,0:2:0:0:
486,91,191090,1,0,0:2:0:0:
444,167,191243,2,0,B|415:244|449:327|449:327|380:276|306:320,1,306.249990653992,0|0,0:2|0:2,0:0:0:0:
145,355,192620,6,0,L|85:346,2,43.749998664856,0|0|0,0:2|0:2|0:2,0:0:0:0:
210,241,193386,2,0,P|226:193|212:117,1,120.312496328354,0|0,0:2|0:2,0:0:0:0:
56,57,195069,6,0,B|107:70|107:70|201:41,1,131.249995994568,0|0,0:2|0:2,0:0:0:0:
267,25,195682,2,0,L|248:145,1,87.499997329712,0|0,0:2|0:2,0:0:0:0:
319,176,196141,1,0,0:2:0:0:
319,176,196447,1,0,0:2:0:0:
149,217,196753,1,0,0:2:0:0:
149,217,196906,1,0,0:2:0:0:
316,268,197212,1,0,0:2:0:0:
475,338,197518,6,0,B|424:325|424:325|330:354,1,131.249995994568,0|0,0:2|0:2,0:0:0:0:
264,370,198131,2,0,L|283:250,1,87.499997329712,0|0,0:2|0:2,0:0:0:0:
212,219,198590,1,0,0:2:0:0:
212,219,198896,1,0,0:2:0:0:
382,178,199202,1,0,0:2:0:0:
382,178,199355,1,0,0:2:0:0:
215,129,199661,1,0,0:2:0:0:
381,76,199967,5,0,0:2:0:0:
381,76,200274,2,0,L|513:61,2,131.249995994568,0|0|0,0:2|0:2|0:2,0:0:0:0:
288,168,201651,1,0,0:2:0:0:
349,284,202110,1,0,0:2:0:0:
291,350,202416,5,0,0:2:0:0:
291,350,202569,1,0,0:2:0:0:
210,315,202876,1,0,0:2:0:0:
122,321,203182,1,0,0:2:0:0:
122,321,203335,1,0,0:2:0:0:
39,281,203641,1,0,0:2:0:0:
39,281,203794,1,0,0:2:0:0:
39,281,203947,1,0,0:2:0:0:
39,281,204100,1,0,0:2:0:0:
39,281,204865,6,0,B|89:237|89:237|101:86,1,174.999994659424,4|0,1:0|0:2,0:0:0:0:
35,66,205325,1,0,0:2:0:0:
179,256,205478,2,0,L|184:168,1,87.499997329712,8|0,0:2|0:2,0:0:0:0:
246,106,205784,1,0,1:2:0:0:
122,27,205937,2,0,B|175:39|175:39|295:18,2,174.999994659424,2|0|0,0:2|0:2|0:2,0:0:0:0:
55,83,206702,1,8,0:2:0:0:
56,170,206855,1,0,1:2:0:0:
110,238,207008,1,0,0:2:0:0:
193,263,207161,1,0,0:2:0:0:
273,228,207314,6,0,B|381:236|381:236|425:286,1,174.999994659424,2|0,1:2|1:2,0:0:0:0:
482,353,207774,1,0,0:2:0:0:
298,149,207927,2,0,L|385:154,1,87.499997329712,8|0,0:2|0:2,0:0:0:0:
461,198,208233,1,0,1:2:0:0:
313,45,208386,2,0,B|366:57|366:57|486:36,2,174.999994659424,2|0|0,0:2|0:2|1:2,0:0:0:0:
227,24,209151,1,8,0:2:0:0:
142,46,209304,1,0,1:2:0:0:
98,121,209457,1,0,0:2:0:0:
107,207,209610,1,0,0:2:0:0:
179,255,209763,6,0,B|267:233|267:233|306:133,1,174.999994659424,2|0,1:2|0:2,0:0:0:0:
327,72,210222,1,0,0:2:0:0:
342,292,210376,2,0,L|372:210,1,87.499997329712,8|0,0:2|0:2,0:0:0:0:
455,182,210682,1,0,1:2:0:0:
170,83,210835,2,0,B|158:136|158:136|179:256,2,174.999994659424,2|0|0,0:2|0:2|0:2,0:0:0:0:
236,26,211600,1,8,0:2:0:0:
323,17,211753,1,8,0:2:0:0:
400,56,211906,1,0,1:2:0:0:
439,133,212059,1,0,0:2:0:0:
459,217,212212,6,0,L|451:322,1,87.499997329712,0|0,1:2|0:2,0:0:0:0:
289,357,212518,2,0,B|293:305|293:305|250:249|250:249|260:133,1,174.999994659424,2|8,0:2|0:2,0:0:0:0:
317,134,212978,1,2,0:2:0:0:
174,384,213131,2,0,L|182:279,1,87.499997329712,8|0,0:2|0:2,0:0:0:0:
118,234,213437,1,2,1:2:0:0:
395,359,213590,2,0,B|407:306|407:306|386:186,1,174.999994659424,0|0,0:2|0:2,0:0:0:0:
317,134,214049,1,8,0:2:0:0:
229,132,214202,1,8,0:2:0:0:
149,168,214355,1,0,0:2:0:0:
99,240,214508,1,0,0:2:0:0:
83,326,214661,6,0,B|134:330|134:330|190:287|190:287|306:297,1,174.999994659424,2|0,1:2|0:2,0:0:0:0:
304,353,215120,1,0,0:2:0:0:
364,178,215274,2,0,L|259:186,1,87.499997329712,8|0,0:2|0:2,0:0:0:0:
200,142,215580,1,0,1:2:0:0:
454,288,215733,2,0,B|466:235|466:235|445:115,2,174.999994659424,2|0|0,0:2|0:2|0:2,0:0:0:0:
381,336,216498,1,8,0:2:0:0:
293,329,216651,1,0,1:2:0:0:
220,279,216804,1,0,0:2:0:0:
181,200,216957,1,0,0:2:0:0:
390,19,217110,6,0,B|394:70|394:70|351:126|351:126|361:242,1,174.999994659424,2|0,1:2|1:2,0:0:0:0:
417,240,217569,1,0,0:2:0:0:
242,300,217723,2,0,L|250:195,1,87.499997329712,8|0,0:2|0:2,0:0:0:0:
206,136,218029,1,0,1:2:0:0:
364,376,218182,2,0,B|311:364|311:364|191:385,2,174.999994659424,2|0|0,0:2|0:2|1:2,0:0:0:0:
427,316,218947,1,8,0:2:0:0:
426,228,219100,1,8,0:2:0:0:
370,160,219253,1,0,0:2:0:0:
291,121,219406,1,0,1:2:0:0:
171,224,219559,6,0,L|164:311,1,87.499997329712,0|0,1:2|0:2,0:0:0:0:
210,94,219865,2,0,B|206:145|206:145|249:201|249:201|239:317,1,174.999994659424,2|8,0:2|0:2,0:0:0:0:
98,155,220325,2,0,L|91:242,1,87.499997329712,2|0,0:2|1:2,0:0:0:0:
324,237,220631,1,0,0:2:0:0:
171,224,220784,2,0,L|164:311,1,87.499997329712,2|0,0:2|0:2,0:0:0:0:
324,237,221090,1,0,0:2:0:0:
25,86,221243,2,0,L|18:173,1,87.499997329712,2|8,0:2|0:2,0:0:0:0:
244,254,221549,1,0,0:2:0:0:
250,166,221702,1,0,1:2:0:0:
256,78,221855,1,0,0:2:0:0:
432,28,222008,6,0,B|399:67|399:67|441:218,1,174.999994659424,0|0,1:2|0:2,0:0:0:0:
409,288,222467,1,0,0:2:0:0:
323,348,222620,1,8,0:2:0:0:
217,350,222774,1,8,0:2:0:0:
117,315,222927,1,0,0:2:0:0:
44,238,223080,1,0,0:2:0:0:
26,134,223233,5,0,1:2:0:0:
113,142,223386,1,0,0:2:0:0:
200,149,223539,1,0,0:2:0:0:
286,158,223692,1,0,0:2:0:0:
373,166,223845,1,8,0:2:0:0:
298,239,223998,1,8,0:2:0:0:
223,313,224151,1,0,0:2:0:0:
137,373,224304,1,0,0:2:0:0:
128,269,224457,6,0,P|81:229|73:316,1,187.5,0|0,0:2|0:2,0:0:0:0:
199,232,225069,2,0,P|168:180|82:148,1,125,0|0,0:2|0:2,0:0:0:0:
30,148,225529,1,0,0:2:0:0:
