osu file format v14

[General]
AudioFilename: audio.mp3
AudioLeadIn: 0
PreviewTime: 65229
Countdown: 0
SampleSet: Soft
StackLeniency: 0.7
Mode: 3
LetterboxInBreaks: 0
SpecialStyle: 0
WidescreenStoryboard: 0

[Editor]
Bookmarks: 18865,66138,98865,127956
DistanceSpacing: 0.8
BeatDivisor: 4
GridSize: 8
TimelineZoom: 2.35

[Metadata]
Title:46:-ri9 (Part II)
TitleUnicode:46:-ri9 (Part II)
Artist:Hiroyuki Sawano
ArtistUnicode:Hiroyuki Sawano
Creator:IceDynamix
Version:where the true nature lives in the glowing night
Source:Xenoblade Chronicles X
Tags:sylvalum night theme sv
BeatmapID:2069767
BeatmapSetID:989437

[Difficulty]
HPDrainRate:8
CircleSize:4
OverallDifficulty:8
ApproachRate:5
SliderMultiplier:1.4
SliderTickRate:1

[Events]
//Background and Video events
0,0,"sylvalum.jpg",0,0
//Break Periods
//Storyboard Layer 0 (Background)
//Storyboard Layer 1 (Fail)
//Storyboard Layer 2 (Pass)
//Storyboard Layer 3 (Foreground)
//Storyboard Sound Samples

[TimingPoints]
684,454.545454545455,4,1,0,5,1,0
684,-1000,4,2,0,5,0,0
737.470588,-950.874931,4,2,0,5,0,0
826.588235,-846.223104,4,2,0,5,0,0
862.235294,-792.083022,4,2,0,5,0,0
897.882353,-732.043851,4,2,0,5,0,0
933.529412,-668.38868,4,2,0,5,0,0
951.352941,-636.045716,4,2,0,5,0,0
969.176471,-603.805225,4,2,0,5,0,0
987,-571.973106,4,2,0,5,0,0
1004.823529,-540.819419,4,2,0,5,0,0
1022.647059,-510.572207,4,2,0,5,0,0
1040.470588,-481.41492,4,2,0,5,0,0
1058.294118,-453.486835,4,2,0,5,0,0
1076.117647,-426.885721,4,2,0,5,0,0
1093.941176,-401.672032,4,2,0,5,0,0
1111.764706,-377.873931,4,2,0,5,0,0
1129.588235,-355.492631,4,2,0,5,0,0
1147.411765,-334.507631,4,2,0,5,0,0
1165.235294,-314.881585,4,2,0,5,0,0
1183.058824,-296.564633,4,2,0,5,0,0
1200.882353,-279.498133,4,2,0,5,0,0
1218.705882,-263.617771,4,2,0,5,0,0
1236.529412,-248.856089,4,2,0,5,0,0
1254.352941,-235.144484,4,2,0,5,0,0
1272.176471,-222.414742,4,2,0,5,0,0
1290,-210.600183,4,2,0,5,0,0
1307.823529,-199.636486,4,2,0,5,0,0
1325.647059,-189.462247,4,2,0,5,0,0
1343.470588,-180.019331,4,2,0,5,0,0
1361.294118,-171.253071,4,2,0,5,0,0
1379.117647,-163.112333,4,2,0,5,0,0
1396.941176,-155.549501,4,2,0,5,0,0
1414.764706,-148.520392,4,2,0,5,0,0
1432.588235,-141.984121,4,2,0,5,0,0
1450.411765,-135.902949,4,2,0,5,0,0
1468.235294,-130.242098,4,2,0,5,0,0
1486.058824,-124.969568,4,2,0,5,0,0
1503.882353,-120.055945,4,2,0,5,0,0
1521.705882,-115.474215,4,2,0,5,0,0
1539.529412,-111.199583,4,2,0,5,0,0
1557.352941,-107.209297,4,2,0,5,0,0
1575.176471,-103.482485,4,2,0,5,0,0
1593,-100,4,2,0,5,0,0
1649,-133.333333333333,4,2,0,5,0,0
1706,-200,4,2,0,5,0,0
1763,-400,4,2,0,5,0,0
1820,-333.333333333333,4,2,0,5,0,0
4320,-500,4,2,0,5,0,0
4434,-1000,4,2,0,5,0,0
4547,-1000,4,2,0,5,0,0
4569.529412,-668.38868,4,2,0,5,0,0
4587.352941,-636.045716,4,2,0,5,0,0
4605.176471,-603.805225,4,2,0,5,0,0
4623,-571.973106,4,2,0,5,0,0
4640.823529,-540.819419,4,2,0,5,0,0
4658.647059,-510.572207,4,2,0,5,0,0
4676.470588,-481.41492,4,2,0,5,0,0
4694.294118,-453.486835,4,2,0,5,0,0
4712.117647,-426.885721,4,2,0,5,0,0
4729.941176,-401.672032,4,2,0,5,0,0
4747.764706,-377.873931,4,2,0,5,0,0
4765.588235,-355.492631,4,2,0,5,0,0
4783.411765,-334.507631,4,2,0,5,0,0
4801.235294,-314.881585,4,2,0,5,0,0
4819.058824,-296.564633,4,2,0,5,0,0
4836.882353,-279.498133,4,2,0,5,0,0
4854.705882,-263.617771,4,2,0,5,0,0
4872.529412,-248.856089,4,2,0,5,0,0
4890.352941,-235.144484,4,2,0,5,0,0
4908.176471,-222.414742,4,2,0,5,0,0
4926,-210.600183,4,2,0,5,0,0
4943.823529,-199.636486,4,2,0,5,0,0
4961.647059,-189.462247,4,2,0,5,0,0
4979.470588,-180.019331,4,2,0,5,0,0
4997.294118,-171.253071,4,2,0,5,0,0
5015.117647,-163.112333,4,2,0,5,0,0
5032.941176,-155.549501,4,2,0,5,0,0
5050.764706,-148.520392,4,2,0,5,0,0
5068.588235,-141.984121,4,2,0,5,0,0
5086.411765,-135.902949,4,2,0,5,0,0
5104.235294,-130.242098,4,2,0,5,0,0
5122.058824,-124.969568,4,2,0,5,0,0
5139.882353,-120.055945,4,2,0,5,0,0
5157.705882,-115.474215,4,2,0,5,0,0
5175.529412,-111.199583,4,2,0,5,0,0
5193.352941,-107.209297,4,2,0,5,0,0
5211.176471,-103.482485,4,2,0,5,0,0
5229,-100,4,2,0,5,0,0
5285,-133.333333,4,2,0,5,0,0
5342,-200,4,2,0,5,0,0
5399,-400,4,2,0,5,0,0
5456,-1000,4,2,0,5,0,0
7047,-1000,4,2,0,5,0,0
7100.470588,-950.874931,4,2,0,5,0,0
7189.588235,-846.223104,4,2,0,5,0,0
7225.235294,-792.083022,4,2,0,5,0,0
7260.882353,-732.043851,4,2,0,5,0,0
7296.529412,-668.38868,4,2,0,5,0,0
7314.352941,-636.045716,4,2,0,5,0,0
7332.176471,-603.805225,4,2,0,5,0,0
7350,-571.973106,4,2,0,5,0,0
7367.823529,-540.819419,4,2,0,5,0,0
7385.647059,-510.572207,4,2,0,5,0,0
7403.470588,-481.41492,4,2,0,5,0,0
7421.294118,-453.486835,4,2,0,5,0,0
7439.117647,-426.885721,4,2,0,5,0,0
7456.941176,-401.672032,4,2,0,5,0,0
7474.764706,-377.873931,4,2,0,5,0,0
7492.588235,-355.492631,4,2,0,5,0,0
7510.411765,-334.507631,4,2,0,5,0,0
7528.235294,-314.881585,4,2,0,5,0,0
7546.058824,-296.564633,4,2,0,5,0,0
7563.882353,-279.498133,4,2,0,5,0,0
7581.705882,-263.617771,4,2,0,5,0,0
7599.529412,-248.856089,4,2,0,5,0,0
7617.352941,-235.144484,4,2,0,5,0,0
7635.176471,-222.414742,4,2,0,5,0,0
7653,-210.600183,4,2,0,5,0,0
7670.823529,-199.636486,4,2,0,5,0,0
7688.647059,-189.462247,4,2,0,5,0,0
7706.470588,-180.019331,4,2,0,5,0,0
7724.294118,-171.253071,4,2,0,5,0,0
7742.117647,-163.112333,4,2,0,5,0,0
7759.941176,-155.549501,4,2,0,5,0,0
7777.764706,-148.520392,4,2,0,5,0,0
7795.588235,-141.984121,4,2,0,5,0,0
7956,-200,4,2,0,5,0,0
11146.921569,-198.058252,4,2,0,5,0,0
11155.843137,-196.153846,4,2,0,5,0,0
11164.764706,-194.285714,4,2,0,5,0,0
11173.686275,-192.45283,4,2,0,5,0,0
11182.607843,-190.654206,4,2,0,5,0,0
11191.529412,-188.888889,4,2,0,5,0,0
11200.45098,-187.155963,4,2,0,5,0,0
11209.372549,-185.454545,4,2,0,5,0,0
11218.294118,-183.783784,4,2,0,5,0,0
11227.215686,-182.142857,4,2,0,5,0,0
11236.137255,-180.530973,4,2,0,5,0,0
11245.058824,-178.947368,4,2,0,5,0,0
11253.980392,-177.391304,4,2,0,5,0,0
11262.901961,-175.862069,4,2,0,5,0,0
11271.823529,-174.358974,4,2,0,5,0,0
11280.745098,-172.881356,4,2,0,5,0,0
11289.666667,-171.428571,4,2,0,5,0,0
11298.588235,-170,4,2,0,5,0,0
11307.509804,-168.595041,4,2,0,5,0,0
11316.431373,-167.213115,4,2,0,5,0,0
11325.352941,-165.853659,4,2,0,5,0,0
11334.27451,-164.516129,4,2,0,5,0,0
11343.196078,-163.2,4,2,0,5,0,0
11352.117647,-161.904762,4,2,0,5,0,0
11361.039216,-160.629921,4,2,0,5,0,0
11369.960784,-159.375,4,2,0,5,0,0
11378.882353,-158.139535,4,2,0,5,0,0
11387.803922,-156.923077,4,2,0,5,0,0
11396.72549,-155.725191,4,2,0,5,0,0
11405.647059,-154.545455,4,2,0,5,0,0
11414.568627,-153.383459,4,2,0,5,0,0
11423.490196,-152.238806,4,2,0,5,0,0
11432.411765,-151.111111,4,2,0,5,0,0
11441.333333,-150,4,2,0,5,0,0
11450.254902,-148.905109,4,2,0,5,0,0
11459.176471,-147.826087,4,2,0,5,0,0
11468.098039,-146.76259,4,2,0,5,0,0
11477.019608,-145.714286,4,2,0,5,0,0
11485.941176,-144.680851,4,2,0,5,0,0
11494.862745,-143.661972,4,2,0,5,0,0
11503.784314,-142.657343,4,2,0,5,0,0
11512.705882,-141.666667,4,2,0,5,0,0
11521.627451,-140.689655,4,2,0,5,0,0
11530.54902,-139.726027,4,2,0,5,0,0
11539.470588,-138.77551,4,2,0,5,0,0
11548.392157,-137.837838,4,2,0,5,0,0
11557.313725,-136.912752,4,2,0,5,0,0
11566.235294,-136,4,2,0,5,0,0
11575.156863,-135.099338,4,2,0,5,0,0
11584.078431,-134.210526,4,2,0,5,0,0
11593,-1000,4,2,0,5,0,0
12502,-333.333333333333,4,2,0,5,0,0
18411,-333.333333,4,2,0,5,0,0
18419.901961,-331.770353,4,2,0,5,0,0
18428.803922,-330.171041,4,2,0,5,0,0
18437.705882,-328.486442,4,2,0,5,0,0
18446.607843,-326.670116,4,2,0,5,0,0
18455.509804,-324.678576,4,2,0,5,0,0
18464.411765,-322.471829,4,2,0,5,0,0
18473.313725,-320.013966,4,2,0,5,0,0
18482.215686,-317.27377,4,2,0,5,0,0
18491.117647,-314.225314,4,2,0,5,0,0
18500.019608,-310.848486,4,2,0,5,0,0
18508.921569,-307.129428,4,2,0,5,0,0
18517.823529,-303.060835,4,2,0,5,0,0
18526.72549,-298.642085,4,2,0,5,0,0
18535.627451,-293.879191,4,2,0,5,0,0
18544.529412,-288.784554,4,2,0,5,0,0
18553.431373,-283.376538,4,2,0,5,0,0
18562.333333,-277.678853,4,2,0,5,0,0
18571.235294,-271.719811,4,2,0,5,0,0
18580.137255,-265.531459,4,2,0,5,0,0
18589.039216,-259.148649,4,2,0,5,0,0
18597.941176,-252.608074,4,2,0,5,0,0
18606.843137,-245.947329,4,2,0,5,0,0
18615.745098,-239.204017,4,2,0,5,0,0
18624.647059,-232.414945,4,2,0,5,0,0
18633.54902,-225.615423,4,2,0,5,0,0
18642.45098,-218.838684,4,2,0,5,0,0
18651.352941,-212.11544,4,2,0,5,0,0
18660.254902,-205.473556,4,2,0,5,0,0
18669.156863,-198.93785,4,2,0,5,0,0
18678.058824,-192.529999,4,2,0,5,0,0
18686.960784,-186.268541,4,2,0,5,0,0
18695.862745,-180.168954,4,2,0,5,0,0
18704.764706,-174.243798,4,2,0,5,0,0
18713.666667,-168.502903,4,2,0,5,0,0
18722.568627,-162.953585,4,2,0,5,0,0
18731.470588,-157.600885,4,2,0,5,0,0
18740.372549,-152.447819,4,2,0,5,0,0
18749.27451,-147.495618,4,2,0,5,0,0
18758.176471,-142.74397,4,2,0,5,0,0
18767.078431,-138.191244,4,2,0,5,0,0
18775.980392,-133.834708,4,2,0,5,0,0
18784.882353,-129.670714,4,2,0,5,0,0
18793.784314,-125.694878,4,2,0,5,0,0
18802.686275,-121.902236,4,2,0,5,0,0
18811.588235,-118.28738,4,2,0,5,0,0
18820.490196,-114.844579,4,2,0,5,0,0
18829.392157,-111.567883,4,2,0,5,0,0
18838.294118,-108.45121,4,2,0,5,0,0
18847.196078,-105.488419,4,2,0,5,0,0
18856.098039,-66.6666666666667,4,2,0,5,0,0
18865,-100,4,2,0,5,0,0
18899.961538,-108.93484,4,2,0,5,0,0
18934.923077,-119.412056,4,2,0,5,0,0
18969.884615,-131.60939,4,2,0,5,0,0
19004.846154,-145.654625,4,2,0,5,0,0
19039.807692,-161.55625,4,2,0,5,0,0
19074.769231,-179.095416,4,2,0,5,0,0
19109.730769,-197.68067,4,2,0,5,0,0
19144.692308,-216.197655,4,2,0,5,0,0
19179.653846,-232.940671,4,2,0,5,0,0
19214.615385,-245.764224,4,2,0,5,0,0
19249.576923,-252.558841,4,2,0,5,0,0
19284.538462,-251.956584,4,2,0,5,0,0
19319.5,-243.902439,4,2,0,5,0,0
19354.461538,-229.697437,4,2,0,5,0,0
19389.423077,-211.474428,4,2,0,5,0,0
19424.384615,-191.468668,4,2,0,5,0,0
19459.346154,-171.485402,4,2,0,5,0,0
19494.307692,-152.707333,4,2,0,5,0,0
19529.269231,-135.752334,4,2,0,5,0,0
19564.230769,-120.832436,4,2,0,5,0,0
19599.192308,-107.913075,4,2,0,5,0,0
19634.153846,-96.832656,4,2,0,5,0,0
19669.115385,-87.379012,4,2,0,5,0,0
19704.076923,-79.33276,4,2,0,5,0,0
19739.038462,-66.6666666666667,4,2,0,5,0,0
19774,-181.818181818181,4,2,0,5,0,0
21593,-133.333333,4,2,0,5,0,0
21627.961538,-137.777101,4,2,0,5,0,0
21662.923077,-142.370355,4,2,0,5,0,0
21697.884615,-146.948113,4,2,0,5,0,0
21732.846154,-151.307352,4,2,0,5,0,0
21767.807692,-155.21147,4,2,0,5,0,0
21802.769231,-158.402554,4,2,0,5,0,0
21837.730769,-160.622354,4,2,0,5,0,0
21872.692308,-161.640632,4,2,0,5,0,0
21907.653846,-161.28649,4,2,0,5,0,0
21942.615385,-159.475799,4,2,0,5,0,0
21977.576923,-156.227227,4,2,0,5,0,0
22012.538462,-151.661771,4,2,0,5,0,0
22047.5,-145.985401,4,2,0,5,0,0
22082.461538,-139.459462,4,2,0,5,0,0
22117.423077,-132.366544,4,2,0,5,0,0
22152.384615,-124.979485,4,2,0,5,0,0
22187.346154,-117.538652,4,2,0,5,0,0
22222.307692,-110.239257,4,2,0,5,0,0
22257.269231,-103.227704,4,2,0,5,0,0
22292.230769,-96.60444,4,2,0,5,0,0
22327.192308,-90.43057,4,2,0,5,0,0
22362.153846,-84.735911,4,2,0,5,0,0
22397.115385,-79.526949,4,2,0,5,0,0
22432.076923,-74.793823,4,2,0,5,0,0
22467.038462,-70.516008,4,2,0,5,0,0
22502,-133.333333333333,4,2,0,5,0,0
25229,-133.333333,4,2,0,5,0,0
25263.961538,-137.777101,4,2,0,5,0,0
25298.923077,-142.370355,4,2,0,5,0,0
25333.884615,-146.948113,4,2,0,5,0,0
25368.846154,-151.307352,4,2,0,5,0,0
25403.807692,-155.21147,4,2,0,5,0,0
25438.769231,-158.402554,4,2,0,5,0,0
25473.730769,-160.622354,4,2,0,5,0,0
25508.692308,-161.640632,4,2,0,5,0,0
25543.653846,-161.28649,4,2,0,5,0,0
25578.615385,-159.475799,4,2,0,5,0,0
25613.576923,-156.227227,4,2,0,5,0,0
25648.538462,-151.661771,4,2,0,5,0,0
25683.5,-145.985401,4,2,0,5,0,0
25718.461538,-139.459462,4,2,0,5,0,0
25753.423077,-132.366544,4,2,0,5,0,0
25788.384615,-124.979485,4,2,0,5,0,0
25823.346154,-117.538652,4,2,0,5,0,0
25858.307692,-110.239257,4,2,0,5,0,0
25893.269231,-103.227704,4,2,0,5,0,0
25928.230769,-96.60444,4,2,0,5,0,0
25963.192308,-90.43057,4,2,0,5,0,0
25998.153846,-84.735911,4,2,0,5,0,0
26033.115385,-79.526949,4,2,0,5,0,0
26068.076923,-74.793823,4,2,0,5,0,0
26103.038462,-70.516008,4,2,0,5,0,0
26138,-133.333333333333,4,2,0,5,0,0
26820,-83.3333333333333,4,2,0,5,0,0
27047,-133.333333333333,4,2,0,5,0,0
29320,-105.263157894737,4,2,0,5,0,0
29547,-86.9565217391306,4,2,0,5,0,0
29774,-133.333333333333,4,2,0,5,0,0
32502,-133.333333,4,2,0,5,0,0
32536.961538,-139.252937,4,2,0,5,0,0
32571.923077,-145.558543,4,2,0,5,0,0
32606.884615,-152.106202,4,2,0,5,0,0
32641.846154,-158.695601,4,2,0,5,0,0
32676.807692,-165.065329,4,2,0,5,0,0
32711.769231,-170.896612,4,2,0,5,0,0
32746.730769,-175.829681,4,2,0,5,0,0
32781.692308,-179.49523,4,2,0,5,0,0
32816.653846,-181.559389,4,2,0,5,0,0
32851.615385,-181.774782,4,2,0,5,0,0
32886.576923,-180.025161,4,2,0,5,0,0
32921.538462,-176.34997,4,2,0,5,0,0
32956.5,-170.940171,4,2,0,5,0,0
32991.461538,-164.106081,4,2,0,5,0,0
33026.423077,-156.227227,4,2,0,5,0,0
33061.384615,-147.698621,4,2,0,5,0,0
33096.346154,-138.886047,4,2,0,5,0,0
33131.307692,-130.097153,4,2,0,5,0,0
33166.269231,-121.568967,4,2,0,5,0,0
33201.230769,-113.468359,4,2,0,5,0,0
33236.192308,-105.900536,4,2,0,5,0,0
33271.153846,-98.921125,4,2,0,5,0,0
33306.115385,-92.548691,4,2,0,5,0,0
33341.076923,-86.775921,4,2,0,5,0,0
33376.038462,-81.57871,4,2,0,5,0,0
33411,-133.333333333333,4,2,0,5,0,0
34093,-83.3333333333333,4,2,0,5,0,0
34320,-133.333333333333,4,2,0,5,0,0
36593,-105.263157894737,4,2,0,5,0,0
36820,-80,4,2,0,5,0,0
37047,-133.333333333333,4,2,0,5,0,0
37729,-83.3333333333333,4,2,0,5,0,0
37956,-133.333333333333,4,2,0,5,0,0
39774,-133.333333,4,2,0,5,0,0
39809,-139.252937,4,2,0,5,0,0
39844,-145.558543,4,2,0,5,0,0
39879,-152.106202,4,2,0,5,0,0
39914,-158.695601,4,2,0,5,0,0
39949,-165.065329,4,2,0,5,0,0
39984,-170.896612,4,2,0,5,0,0
40019,-175.829681,4,2,0,5,0,0
40054,-179.49523,4,2,0,5,0,0
40089,-181.559389,4,2,0,5,0,0
40124,-181.774782,4,2,0,5,0,0
40159,-180.025161,4,2,0,5,0,0
40194,-176.34997,4,2,0,5,0,0
40229,-170.940171,4,2,0,5,0,0
40264,-164.106081,4,2,0,5,0,0
40299,-156.227227,4,2,0,5,0,0
40334,-147.698621,4,2,0,5,0,0
40369,-138.886047,4,2,0,5,0,0
40404,-130.097153,4,2,0,5,0,0
40439,-121.568967,4,2,0,5,0,0
40474,-113.468359,4,2,0,5,0,0
40509,-105.900536,4,2,0,5,0,0
40544,-98.921125,4,2,0,5,0,0
40579,-92.548691,4,2,0,5,0,0
40614,-86.775921,4,2,0,5,0,0
40649,-81.57871,4,2,0,5,0,0
40684,-133.333333333333,4,2,0,5,0,0
41365,-76.9230769230769,4,2,0,5,0,0
41593,-133.333333333333,4,2,0,5,0,0
43865,-105.263157894737,4,2,0,5,0,0
44093,-86.9565217391306,4,2,0,5,0,0
44320,-133.333333333333,4,2,0,5,0,0
45002,-76.9230769230769,4,2,0,5,0,0
45229,-133.333333333333,4,2,0,5,0,0
47047,-133.333333,4,2,0,5,0,0
47081.961538,-139.252937,4,2,0,5,0,0
47116.923077,-145.558543,4,2,0,5,0,0
47151.884615,-152.106202,4,2,0,5,0,0
47186.846154,-158.695601,4,2,0,5,0,0
47221.807692,-165.065329,4,2,0,5,0,0
47256.769231,-170.896612,4,2,0,5,0,0
47291.730769,-175.829681,4,2,0,5,0,0
47326.692308,-179.49523,4,2,0,5,0,0
47361.653846,-181.559389,4,2,0,5,0,0
47396.615385,-181.774782,4,2,0,5,0,0
47431.576923,-180.025161,4,2,0,5,0,0
47466.538462,-176.34997,4,2,0,5,0,0
47501.5,-170.940171,4,2,0,5,0,0
47536.461538,-164.106081,4,2,0,5,0,0
47571.423077,-156.227227,4,2,0,5,0,0
47606.384615,-147.698621,4,2,0,5,0,0
47641.346154,-138.886047,4,2,0,5,0,0
47676.307692,-130.097153,4,2,0,5,0,0
47711.269231,-121.568967,4,2,0,5,0,0
47746.230769,-113.468359,4,2,0,5,0,0
47781.192308,-105.900536,4,2,0,5,0,0
47816.153846,-98.921125,4,2,0,5,0,0
47851.115385,-92.548691,4,2,0,5,0,0
47886.076923,-86.775921,4,2,0,5,0,0
47921.038462,-81.57871,4,2,0,5,0,0
47956,-250.0000008125,4,2,0,5,0,0
54774,-200.00000052,4,2,0,5,0,0
54888,-166.666667027778,4,2,0,5,0,0
55002,-142.857143122449,4,2,0,5,0,0
55115,-125.000000203125,4,2,0,5,0,0
55229,-250.0000008125,4,2,0,5,0,0
58865,-285.714285714286,4,2,0,5,0,0
59774,-333.333334777778,4,2,0,5,0,0
60684,-400,4,2,0,5,0,0
65229,-400,4,2,0,5,0,0
65263.961538,-335.483871,4,2,0,5,0,0
65298.923077,-288.888889,4,2,0,5,0,0
65333.884615,-253.658537,4,2,0,5,0,0
65368.846154,-226.086957,4,2,0,5,0,0
65403.807692,-203.921569,4,2,0,5,0,0
65438.769231,-185.714286,4,2,0,5,0,0
65473.730769,-170.491803,4,2,0,5,0,0
65508.692308,-157.575758,4,2,0,5,0,0
65543.653846,-146.478873,4,2,0,5,0,0
65578.615385,-136.842105,4,2,0,5,0,0
65613.576923,-128.395062,4,2,0,5,0,0
65648.538462,-120.930233,4,2,0,5,0,0
65683.5,-114.285714,4,2,0,5,0,0
65718.461538,-108.333333,4,2,0,5,0,0
65753.423077,-102.970297,4,2,0,5,0,0
65788.384615,-98.113208,4,2,0,5,0,0
65823.346154,-93.693694,4,2,0,5,0,0
65858.307692,-89.655172,4,2,0,5,0,0
65893.269231,-85.950413,4,2,0,5,0,0
65928.230769,-82.539683,4,2,0,5,0,0
65963.192308,-79.389313,4,2,0,5,0,0
65998.153846,-76.470588,4,2,0,5,0,0
66033.115385,-73.758865,4,2,0,5,0,0
66068.076923,-71.232877,4,2,0,5,0,0
66103.038462,-50,4,2,0,5,0,0
66138,-25,4,2,0,5,0,0
66166,-133.333333333333,4,2,0,5,0,1
66593,-105.263157894737,4,2,0,5,0,1
66649,-100,4,2,0,5,0,1
66706,-95.2380952380952,4,2,0,5,0,1
66763,-90.9090909090909,4,2,0,5,0,1
66820,-86.9565217391304,4,2,0,5,0,1
66877,-83.3333333333333,4,2,0,5,0,1
66934,-80,4,2,0,5,0,1
66990,-86.9565217391304,4,2,0,5,0,1
67047,-100,4,2,0,5,0,1
67161,-125,4,2,0,5,0,1
67274,-166.666666666667,4,2,0,5,0,1
67388,-181.818181818181,4,2,0,5,0,1
67502,-250.000000000001,4,2,0,5,0,1
67956,-181.818181818181,4,2,0,5,0,1
68070,-153.846153846153,4,2,0,5,0,1
68184,-133.333333333334,4,2,0,5,0,1
68297,-117.64705882353,4,2,0,5,0,1
68411,-90.9090909090909,4,2,0,5,0,1
68638,-83.3333333333333,4,2,0,5,0,1
68865,-33.3333333333333,4,2,0,5,0,1
68894,-133.333333333333,4,2,0,5,0,1
68979,-117.647058823529,4,2,0,5,0,1
69093,-105.263157894737,4,2,0,5,0,1
69206,-100,4,2,0,5,0,1
69320,-90.9090909090909,4,2,0,5,0,1
69547,-79.9999999999999,4,2,0,5,0,1
69774,-133.333333333333,4,2,0,5,0,1
70229,-100,4,2,0,5,0,1
70456,-79.9999999999999,4,2,0,5,0,1
70684,-133.333333333333,4,2,0,5,0,1
71138,-117.647058823529,4,2,0,5,0,1
71365,-105.263157894737,4,2,0,5,0,1
71593,-95.2380952380954,4,2,0,5,0,1
72047,-117.64705882353,4,2,0,5,0,1
72502,-400,4,2,0,5,0,1
72536.961538,-335.483871,4,2,0,5,0,1
72571.923077,-288.888889,4,2,0,5,0,1
72606.884615,-253.658537,4,2,0,5,0,1
72641.846154,-226.086957,4,2,0,5,0,1
72676.807692,-203.921569,4,2,0,5,0,1
72711.769231,-185.714286,4,2,0,5,0,1
72746.730769,-170.491803,4,2,0,5,0,1
72781.692308,-157.575758,4,2,0,5,0,1
72816.653846,-146.478873,4,2,0,5,0,1
72851.615385,-136.842105,4,2,0,5,0,1
72886.576923,-128.395062,4,2,0,5,0,1
72921.538462,-120.930233,4,2,0,5,0,1
72956.5,-114.285714,4,2,0,5,0,1
72991.461538,-108.333333,4,2,0,5,0,1
73026.423077,-102.970297,4,2,0,5,0,1
73061.384615,-98.113208,4,2,0,5,0,1
73096.346154,-93.693694,4,2,0,5,0,1
73131.307692,-89.655172,4,2,0,5,0,1
73166.269231,-85.950413,4,2,0,5,0,1
73201.230769,-82.539683,4,2,0,5,0,1
73236.192308,-79.389313,4,2,0,5,0,1
73271.153846,-76.470588,4,2,0,5,0,1
73306.115385,-73.758865,4,2,0,5,0,1
73341.076923,-71.232877,4,2,0,5,0,1
73376.038462,-51.2315269909971,4,2,0,5,0,1
73411,-25,4,2,0,5,0,1
73439,-133.333333333333,4,2,0,5,0,1
73865,-105.263158,4,2,0,5,0,1
73921,-100,4,2,0,5,0,1
73978,-95.238095,4,2,0,5,0,1
74035,-90.909091,4,2,0,5,0,1
74092,-86.956522,4,2,0,5,0,1
74149,-83.333333,4,2,0,5,0,1
74206,-80,4,2,0,5,0,1
74262,-86.956522,4,2,0,5,0,1
74319,-100,4,2,0,5,0,1
74433,-125,4,2,0,5,0,1
74546,-166.666667,4,2,0,5,0,1
74660,-181.818182,4,2,0,5,0,1
74774,-250,4,2,0,5,0,1
75228,-181.818182,4,2,0,5,0,1
75342,-153.846154,4,2,0,5,0,1
75456,-133.333333,4,2,0,5,0,1
75569,-117.647059,4,2,0,5,0,1
75683,-90.909091,4,2,0,5,0,1
75910,-83.333333,4,2,0,5,0,1
76137,-33.333333,4,2,0,5,0,1
76166,-133.333333,4,2,0,5,0,1
76251,-117.647059,4,2,0,5,0,1
76365,-105.263158,4,2,0,5,0,1
76478,-100,4,2,0,5,0,1
76592,-90.909091,4,2,0,5,0,1
76819,-80,4,2,0,5,0,1
77046,-133.333333,4,2,0,5,0,1
77502,-100,4,2,0,5,0,1
77729,-80,4,2,0,5,0,1
77957,-133.333333,4,2,0,5,0,1
78411,-117.647059,4,2,0,5,0,1
78638,-105.263158,4,2,0,5,0,1
78866,-95.238095,4,2,0,5,0,1
79320,-117.647059,4,2,0,5,0,1
79774,-400,4,2,0,5,0,1
79808.961538,-335.483871,4,2,0,5,0,1
79843.923077,-288.888889,4,2,0,5,0,1
79878.884615,-253.658537,4,2,0,5,0,1
79913.846154,-226.086957,4,2,0,5,0,1
79948.807692,-203.921569,4,2,0,5,0,1
79983.769231,-185.714286,4,2,0,5,0,1
80018.730769,-170.491803,4,2,0,5,0,1
80053.692308,-157.575758,4,2,0,5,0,1
80088.653846,-146.478873,4,2,0,5,0,1
80123.615385,-136.842105,4,2,0,5,0,1
80158.576923,-128.395062,4,2,0,5,0,1
80193.538462,-120.930233,4,2,0,5,0,1
80228.5,-114.285714,4,2,0,5,0,1
80263.461538,-108.333333,4,2,0,5,0,1
80298.423077,-102.970297,4,2,0,5,0,1
80333.384615,-98.113208,4,2,0,5,0,1
80368.346154,-93.693694,4,2,0,5,0,1
80403.307692,-89.655172,4,2,0,5,0,1
80438.269231,-85.950413,4,2,0,5,0,1
80473.230769,-82.539683,4,2,0,5,0,1
80508.192308,-79.389313,4,2,0,5,0,1
80543.153846,-76.470588,4,2,0,5,0,1
80578.115385,-73.758865,4,2,0,5,0,1
80613.076923,-71.232877,4,2,0,5,0,1
80648.038462,-50,4,2,0,5,0,1
80683,-25,4,2,0,5,0,1
80711,-133.333333,4,2,0,5,0,1
81138,-105.263158,4,2,0,5,0,1
81194,-100,4,2,0,5,0,1
81251,-95.238095,4,2,0,5,0,1
81308,-90.909091,4,2,0,5,0,1
81365,-86.956522,4,2,0,5,0,1
81422,-83.333333,4,2,0,5,0,1
81479,-80,4,2,0,5,0,1
81535,-86.956522,4,2,0,5,0,1
81592,-100,4,2,0,5,0,1
81706,-125,4,2,0,5,0,1
81819,-166.666667,4,2,0,5,0,1
81933,-181.818182,4,2,0,5,0,1
82047,-250,4,2,0,5,0,1
82501,-181.818182,4,2,0,5,0,1
82615,-153.846154,4,2,0,5,0,1
82729,-133.333333,4,2,0,5,0,1
82842,-117.647059,4,2,0,5,0,1
82956,-90.909091,4,2,0,5,0,1
83183,-83.333333,4,2,0,5,0,1
83410,-33.333333,4,2,0,5,0,1
83439,-133.333333,4,2,0,5,0,1
83524,-117.647059,4,2,0,5,0,1
83638,-105.263158,4,2,0,5,0,1
83751,-100,4,2,0,5,0,1
83865,-90.909091,4,2,0,5,0,1
84092,-80,4,2,0,5,0,1
84319,-133.333333,4,2,0,5,0,1
84774,-100,4,2,0,5,0,1
85001,-80,4,2,0,5,0,1
85229,-133.333333,4,2,0,5,0,1
85683,-117.647059,4,2,0,5,0,1
85910,-105.263158,4,2,0,5,0,1
86138,-95.238095,4,2,0,5,0,1
86592,-117.647059,4,2,0,5,0,1
87047,-400,4,2,0,5,0,1
87081.961538,-335.483871,4,2,0,5,0,1
87116.923077,-288.888889,4,2,0,5,0,1
87151.884615,-253.658537,4,2,0,5,0,1
87186.846154,-226.086957,4,2,0,5,0,1
87221.807692,-203.921569,4,2,0,5,0,1
87256.769231,-185.714286,4,2,0,5,0,1
87291.730769,-170.491803,4,2,0,5,0,1
87326.692308,-157.575758,4,2,0,5,0,1
87361.653846,-146.478873,4,2,0,5,0,1
87396.615385,-136.842105,4,2,0,5,0,1
87431.576923,-128.395062,4,2,0,5,0,1
87466.538462,-120.930233,4,2,0,5,0,1
87501.5,-114.285714,4,2,0,5,0,1
87536.461538,-108.333333,4,2,0,5,0,1
87571.423077,-102.970297,4,2,0,5,0,1
87606.384615,-98.113208,4,2,0,5,0,1
87641.346154,-93.693694,4,2,0,5,0,1
87676.307692,-89.655172,4,2,0,5,0,1
87711.269231,-85.950413,4,2,0,5,0,1
87746.230769,-82.539683,4,2,0,5,0,1
87781.192308,-79.389313,4,2,0,5,0,1
87816.153846,-76.470588,4,2,0,5,0,1
87851.115385,-73.758865,4,2,0,5,0,1
87886.076923,-71.232877,4,2,0,5,0,1
87921.038462,-50,4,2,0,5,0,1
87956,-25,4,2,0,5,0,1
87984,-133.333333,4,2,0,5,0,1
88411,-105.263158,4,2,0,5,0,1
88467,-100,4,2,0,5,0,1
88524,-95.238095,4,2,0,5,0,1
88581,-90.909091,4,2,0,5,0,1
88638,-86.956522,4,2,0,5,0,1
88695,-83.333333,4,2,0,5,0,1
88752,-80,4,2,0,5,0,1
88808,-86.956522,4,2,0,5,0,1
88865,-100,4,2,0,5,0,1
88979,-125,4,2,0,5,0,1
89092,-166.666667,4,2,0,5,0,1
89206,-181.818182,4,2,0,5,0,1
89320,-250,4,2,0,5,0,1
89774,-181.818182,4,2,0,5,0,1
89888,-153.846154,4,2,0,5,0,1
90002,-133.333333,4,2,0,5,0,1
90115,-117.647059,4,2,0,5,0,1
90229,-90.909091,4,2,0,5,0,1
90456,-83.333333,4,2,0,5,0,1
90683,-33.333333,4,2,0,5,0,1
90712,-133.333333,4,2,0,5,0,1
90797,-117.647059,4,2,0,5,0,1
90911,-105.263158,4,2,0,5,0,1
91024,-100,4,2,0,5,0,1
91138,-90.909091,4,2,0,5,0,1
91365,-80,4,2,0,5,0,1
91592,-133.333333,4,2,0,5,0,1
92047,-100,4,2,0,5,0,1
92274,-80,4,2,0,5,0,1
92502,-133.333333,4,2,0,5,0,1
92956,-105.263158036011,4,2,0,5,0,1
93183,-86.9565218109641,4,2,0,5,0,1
93411,-133.333333333333,4,2,0,5,0,1
93865,-153.846154147929,4,2,0,5,0,1
94320,-181.818182239669,4,2,0,5,0,1
94774,-333.333333333333,4,2,0,5,0,0
97956,-400,4,2,0,5,0,0
97990.961538,-335.483871,4,2,0,5,0,0
98025.923077,-288.888889,4,2,0,5,0,0
98060.884615,-253.658537,4,2,0,5,0,0
98095.846154,-226.086957,4,2,0,5,0,0
98130.807692,-203.921569,4,2,0,5,0,0
98165.769231,-185.714286,4,2,0,5,0,0
98200.730769,-170.491803,4,2,0,5,0,0
98235.692308,-157.575758,4,2,0,5,0,0
98270.653846,-146.478873,4,2,0,5,0,0
98305.615385,-136.842105,4,2,0,5,0,0
98340.576923,-128.395062,4,2,0,5,0,0
98375.538462,-120.930233,4,2,0,5,0,0
98410.5,-114.285714,4,2,0,5,0,0
98445.461538,-108.333333,4,2,0,5,0,0
98480.423077,-102.970297,4,2,0,5,0,0
98515.384615,-98.113208,4,2,0,5,0,0
98550.346154,-93.693694,4,2,0,5,0,0
98585.307692,-89.655172,4,2,0,5,0,0
98620.269231,-85.950413,4,2,0,5,0,0
98655.230769,-82.539683,4,2,0,5,0,0
98690.192308,-79.389313,4,2,0,5,0,0
98725.153846,-76.470588,4,2,0,5,0,0
98760.115385,-73.758865,4,2,0,5,0,0
98795.076923,-71.232877,4,2,0,5,0,0
98830.038462,-50,4,2,0,5,0,0
98865,-20,4,2,0,5,0,0
98893,-133.333333,4,2,0,5,0,1
99320,-105.263158,4,2,0,5,0,1
99376,-100,4,2,0,5,0,1
99433,-95.238095,4,2,0,5,0,1
99490,-90.909091,4,2,0,5,0,1
99547,-86.956522,4,2,0,5,0,1
99604,-83.333333,4,2,0,5,0,1
99661,-80,4,2,0,5,0,1
99717,-68.9655174054697,4,2,0,5,0,1
99774,-100,4,2,0,5,0,1
99888,-125,4,2,0,5,0,1
100001,-166.666667,4,2,0,5,0,1
100115,-181.818182,4,2,0,5,0,1
100229,-250,4,2,0,5,0,1
100683,-181.818182,4,2,0,5,0,1
100797,-153.846154,4,2,0,5,0,1
100911,-133.333333,4,2,0,5,0,1
101024,-117.647059,4,2,0,5,0,1
101138,-83.3333334097222,4,2,0,5,0,1
101365,-71.4285711836735,4,2,0,5,0,1
101592,-25,4,2,0,5,0,1
101621,-133.333333,4,2,0,5,0,1
101706,-117.647059,4,2,0,5,0,1
101820,-105.263158,4,2,0,5,0,1
101933,-100,4,2,0,5,0,1
102047,-83.3333334097222,4,2,0,5,0,1
102274,-68.9655172413793,4,2,0,5,0,1
102501,-133.333333,4,2,0,5,0,1
102956,-100,4,2,0,5,0,1
103183,-74.0740740740741,4,2,0,5,0,1
103411,-133.333333,4,2,0,5,0,1
103865,-117.647059,4,2,0,5,0,1
104092,-105.263158,4,2,0,5,0,1
104320,-95.238095,4,2,0,5,0,1
104774,-117.647059,4,2,0,5,0,1
105229,-400,4,2,0,5,0,1
105263.961538,-335.483871,4,2,0,5,0,1
105298.923077,-288.888889,4,2,0,5,0,1
105333.884615,-253.658537,4,2,0,5,0,1
105368.846154,-226.086957,4,2,0,5,0,1
105403.807692,-203.921569,4,2,0,5,0,1
105438.769231,-185.714286,4,2,0,5,0,1
105473.730769,-170.491803,4,2,0,5,0,1
105508.692308,-157.575758,4,2,0,5,0,1
105543.653846,-146.478873,4,2,0,5,0,1
105578.615385,-136.842105,4,2,0,5,0,1
105613.576923,-128.395062,4,2,0,5,0,1
105648.538462,-120.930233,4,2,0,5,0,1
105683.5,-114.285714,4,2,0,5,0,1
105718.461538,-108.333333,4,2,0,5,0,1
105753.423077,-102.970297,4,2,0,5,0,1
105788.384615,-98.113208,4,2,0,5,0,1
105823.346154,-93.693694,4,2,0,5,0,1
105858.307692,-89.655172,4,2,0,5,0,1
105893.269231,-85.950413,4,2,0,5,0,1
105928.230769,-82.539683,4,2,0,5,0,1
105963.192308,-79.389313,4,2,0,5,0,1
105998.153846,-76.470588,4,2,0,5,0,1
106033.115385,-73.758865,4,2,0,5,0,1
106068.076923,-71.232877,4,2,0,5,0,1
106103.038462,-51.231527,4,2,0,5,0,1
106138,-20,4,2,0,5,0,1
106166,-133.333333,4,2,0,5,0,1
106592,-105.263158,4,2,0,5,0,1
106648,-100,4,2,0,5,0,1
106705,-95.238095,4,2,0,5,0,1
106762,-90.909091,4,2,0,5,0,1
106819,-86.956522,4,2,0,5,0,1
106876,-83.333333,4,2,0,5,0,1
106933,-80,4,2,0,5,0,1
106989,-68.9655174054697,4,2,0,5,0,1
107046,-100,4,2,0,5,0,1
107160,-125,4,2,0,5,0,1
107273,-166.666667,4,2,0,5,0,1
107387,-181.818182,4,2,0,5,0,1
107501,-250,4,2,0,5,0,1
107955,-181.818182,4,2,0,5,0,1
108069,-153.846154,4,2,0,5,0,1
108183,-133.333333,4,2,0,5,0,1
108296,-117.647059,4,2,0,5,0,1
108410,-90.909091,4,2,0,5,0,1
108637,-76.9230766390532,4,2,0,5,0,1
108864,-25,4,2,0,5,0,1
108893,-133.333333,4,2,0,5,0,1
108978,-117.647059,4,2,0,5,0,1
109092,-105.263158,4,2,0,5,0,1
109205,-100,4,2,0,5,0,1
109319,-83.3333334097222,4,2,0,5,0,1
109546,-68.9655172413793,4,2,0,5,0,1
109773,-133.333333,4,2,0,5,0,1
110229,-100,4,2,0,5,0,1
110456,-74.0740740740741,4,2,0,5,0,1
110684,-133.333333,4,2,0,5,0,1
111138,-117.647059,4,2,0,5,0,1
111365,-105.263158,4,2,0,5,0,1
111593,-95.238095,4,2,0,5,0,1
112047,-117.647059,4,2,0,5,0,1
112501,-400,4,2,0,5,0,1
112535.961538,-335.483871,4,2,0,5,0,1
112570.923077,-288.888889,4,2,0,5,0,1
112605.884615,-253.658537,4,2,0,5,0,1
112640.846154,-226.086957,4,2,0,5,0,1
112675.807692,-203.921569,4,2,0,5,0,1
112710.769231,-185.714286,4,2,0,5,0,1
112745.730769,-170.491803,4,2,0,5,0,1
112780.692308,-157.575758,4,2,0,5,0,1
112815.653846,-146.478873,4,2,0,5,0,1
112850.615385,-136.842105,4,2,0,5,0,1
112885.576923,-128.395062,4,2,0,5,0,1
112920.538462,-120.930233,4,2,0,5,0,1
112955.5,-114.285714,4,2,0,5,0,1
112990.461538,-108.333333,4,2,0,5,0,1
113025.423077,-102.970297,4,2,0,5,0,1
113060.384615,-98.113208,4,2,0,5,0,1
113095.346154,-93.693694,4,2,0,5,0,1
113130.307692,-89.655172,4,2,0,5,0,1
113165.269231,-85.950413,4,2,0,5,0,1
113200.230769,-82.539683,4,2,0,5,0,1
113235.192308,-79.389313,4,2,0,5,0,1
113270.153846,-76.470588,4,2,0,5,0,1
113305.115385,-73.758865,4,2,0,5,0,1
113340.076923,-71.232877,4,2,0,5,0,1
113375.038462,-50,4,2,0,5,0,1
113410,-25,4,2,0,5,0,1
113438,-133.333333,4,2,0,5,0,1
113865,-105.263158,4,2,0,5,0,1
113921,-100,4,2,0,5,0,1
113978,-95.238095,4,2,0,5,0,1
114035,-90.909091,4,2,0,5,0,1
114092,-86.956522,4,2,0,5,0,1
114149,-83.333333,4,2,0,5,0,1
114206,-80,4,2,0,5,0,1
114262,-68.9655174054697,4,2,0,5,0,1
114319,-100,4,2,0,5,0,1
114433,-125,4,2,0,5,0,1
114546,-166.666667,4,2,0,5,0,1
114660,-181.818182,4,2,0,5,0,1
114774,-250,4,2,0,5,0,1
115228,-181.818182,4,2,0,5,0,1
115342,-153.846154,4,2,0,5,0,1
115456,-133.333333,4,2,0,5,0,1
115569,-117.647059,4,2,0,5,0,1
115683,-90.909091,4,2,0,5,0,1
115910,-76.9230766390532,4,2,0,5,0,1
116137,-25,4,2,0,5,0,1
116166,-133.333333,4,2,0,5,0,1
116251,-117.647059,4,2,0,5,0,1
116365,-105.263158,4,2,0,5,0,1
116478,-100,4,2,0,5,0,1
116592,-83.3333334097222,4,2,0,5,0,1
116819,-68.9655172413793,4,2,0,5,0,1
117046,-133.333333,4,2,0,5,0,1
117501,-100,4,2,0,5,0,1
117728,-74.0740740740741,4,2,0,5,0,1
117956,-133.333333,4,2,0,5,0,1
118410,-117.647059,4,2,0,5,0,1
118637,-105.263158,4,2,0,5,0,1
118865,-95.238095,4,2,0,5,0,1
119319,-117.647059,4,2,0,5,0,1
119774,-400,4,2,0,5,0,1
119808.961538,-335.483871,4,2,0,5,0,1
119843.923077,-288.888889,4,2,0,5,0,1
119878.884615,-253.658537,4,2,0,5,0,1
119913.846154,-226.086957,4,2,0,5,0,1
119948.807692,-203.921569,4,2,0,5,0,1
119983.769231,-185.714286,4,2,0,5,0,1
120018.730769,-170.491803,4,2,0,5,0,1
120053.692308,-157.575758,4,2,0,5,0,1
120088.653846,-146.478873,4,2,0,5,0,1
120123.615385,-136.842105,4,2,0,5,0,1
120158.576923,-128.395062,4,2,0,5,0,1
120193.538462,-120.930233,4,2,0,5,0,1
120228.5,-114.285714,4,2,0,5,0,1
120263.461538,-108.333333,4,2,0,5,0,1
120298.423077,-102.970297,4,2,0,5,0,1
120333.384615,-98.113208,4,2,0,5,0,1
120368.346154,-93.693694,4,2,0,5,0,1
120403.307692,-89.655172,4,2,0,5,0,1
120438.269231,-85.950413,4,2,0,5,0,1
120473.230769,-82.539683,4,2,0,5,0,1
120508.192308,-79.389313,4,2,0,5,0,1
120543.153846,-76.470588,4,2,0,5,0,1
120578.115385,-73.758865,4,2,0,5,0,1
120613.076923,-71.232877,4,2,0,5,0,1
120648.038462,-50,4,2,0,5,0,1
120683,-25,4,2,0,5,0,1
120711,-133.333333,4,2,0,5,0,1
121138,-105.263158,4,2,0,5,0,1
121194,-100,4,2,0,5,0,1
121251,-95.238095,4,2,0,5,0,1
121308,-90.909091,4,2,0,5,0,1
121365,-86.956522,4,2,0,5,0,1
121422,-83.333333,4,2,0,5,0,1
121479,-80,4,2,0,5,0,1
121535,-68.9655174054697,4,2,0,5,0,1
121592,-100,4,2,0,5,0,1
121706,-125,4,2,0,5,0,1
121819,-166.666667,4,2,0,5,0,1
121933,-181.818182,4,2,0,5,0,1
122047,-250,4,2,0,5,0,1
122501,-181.818182,4,2,0,5,0,1
122615,-153.846154,4,2,0,5,0,1
122729,-133.333333,4,2,0,5,0,1
122842,-117.647059,4,2,0,5,0,1
122956,-90.909091,4,2,0,5,0,1
123183,-83.333333,4,2,0,5,0,1
123410,-25,4,2,0,5,0,1
123439,-133.333333,4,2,0,5,0,1
123524,-117.647059,4,2,0,5,0,1
123638,-105.263158,4,2,0,5,0,1
123751,-100,4,2,0,5,0,1
123865,-83.3333334097222,4,2,0,5,0,1
124092,-64.5161290322581,4,2,0,5,0,1
124319,-133.333333,4,2,0,5,0,1
124774,-100,4,2,0,5,0,1
125001,-68.9655172413793,4,2,0,5,0,1
125229,-133.333333,4,2,0,5,0,1
125683,-105.263158,4,2,0,5,0,1
125910,-86.956522,4,2,0,5,0,1
126138,-133.333333,4,2,0,5,0,1
126592,-153.846154,4,2,0,5,0,1
127047,-181.818182,4,2,0,5,0,1
127501,-333.333333,4,2,0,5,0,1
127615,-166.666666583333,4,2,0,5,0,1
127729,-111.111111074074,4,2,0,5,0,1
127843,-83.3333333124999,4,2,0,5,0,1
127956,-66.6666666533333,4,2,0,5,0,0

[HitObjects]
64,192,684,5,0,0:0:0:0:
64,192,1593,1,0,0:0:0:0:
64,192,4093,1,0,0:0:0:0:
64,192,4320,1,0,0:0:0:0:
64,192,5229,1,0,0:0:0:0:
448,192,7956,1,0,0:0:0:0:
192,192,8070,1,0,0:0:0:0:
320,192,8184,1,0,0:0:0:0:
64,192,8297,1,0,0:0:0:0:
448,192,8411,1,0,0:0:0:0:
192,192,8524,1,0,0:0:0:0:
320,192,8638,1,0,0:0:0:0:
64,192,8752,1,0,0:0:0:0:
448,192,8865,1,0,0:0:0:0:
320,192,8979,1,0,0:0:0:0:
192,192,9093,1,0,0:0:0:0:
64,192,9206,1,0,0:0:0:0:
448,192,9320,1,0,0:0:0:0:
320,192,9434,1,0,0:0:0:0:
192,192,9547,1,0,0:0:0:0:
64,192,9661,1,0,0:0:0:0:
320,192,9774,1,0,0:0:0:0:
192,192,9888,1,0,0:0:0:0:
448,192,10002,1,0,0:0:0:0:
64,192,10115,1,0,0:0:0:0:
320,192,10229,1,0,0:0:0:0:
192,192,10343,1,0,0:0:0:0:
448,192,10456,1,0,0:0:0:0:
64,192,10570,1,0,0:0:0:0:
192,192,10684,1,0,0:0:0:0:
320,192,10797,1,0,0:0:0:0:
64,192,10911,1,0,0:0:0:0:
448,192,11024,1,0,0:0:0:0:
192,192,11138,1,0,0:0:0:0:
320,192,11252,1,0,0:0:0:0:
64,192,11365,1,0,0:0:0:0:
448,192,11479,1,0,0:0:0:0:
64,192,11593,1,0,0:0:0:0:
64,192,12502,1,0,0:0:0:0:
192,192,15229,1,0,0:0:0:0:
64,192,15343,1,0,0:0:0:0:
320,192,15456,1,0,0:0:0:0:
192,192,15570,1,0,0:0:0:0:
448,192,15684,1,0,0:0:0:0:
320,192,15797,1,0,0:0:0:0:
192,192,15911,1,0,0:0:0:0:
64,192,16024,1,0,0:0:0:0:
192,192,16138,1,0,0:0:0:0:
64,192,16252,1,0,0:0:0:0:
320,192,16365,1,0,0:0:0:0:
192,192,16479,1,0,0:0:0:0:
448,192,16593,1,0,0:0:0:0:
320,192,16706,1,0,0:0:0:0:
192,192,16820,1,0,0:0:0:0:
64,192,16934,1,0,0:0:0:0:
320,192,17047,1,0,0:0:0:0:
192,192,17161,1,0,0:0:0:0:
320,192,17274,1,0,0:0:0:0:
192,192,17388,1,0,0:0:0:0:
320,192,17502,1,0,0:0:0:0:
192,192,17615,1,0,0:0:0:0:
320,192,17729,1,0,0:0:0:0:
192,192,17843,1,0,0:0:0:0:
320,192,17956,1,0,0:0:0:0:
192,192,18070,1,0,0:0:0:0:
320,192,18184,1,0,0:0:0:0:
192,192,18297,1,0,0:0:0:0:
320,192,18411,1,0,0:0:0:0:
192,192,18524,1,0,0:0:0:0:
64,192,18638,1,0,0:0:0:0:
448,192,18638,1,0,0:0:0:0:
64,192,18865,1,0,0:0:0:0:
448,192,18865,1,0,0:0:0:0:
320,192,18865,1,0,0:0:0:0:
320,192,19547,1,0,0:0:0:0:
448,192,19774,1,0,0:0:0:0:
192,192,19774,1,0,0:0:0:0:
64,192,19774,1,0,0:0:0:0:
192,192,20456,1,0,0:0:0:0:
64,192,20684,1,0,0:0:0:0:
192,192,21365,1,0,0:0:0:0:
448,192,21593,1,0,0:0:0:0:
320,192,21593,1,0,0:0:0:0:
192,192,21820,1,0,0:0:0:0:
64,192,22047,1,0,0:0:0:0:
448,192,22274,1,0,0:0:0:0:
320,192,22274,1,0,0:0:0:0:
320,192,22502,1,0,0:0:0:0:
192,192,22502,1,0,0:0:0:0:
64,192,22502,1,0,0:0:0:0:
64,192,23184,1,0,0:0:0:0:
448,192,23411,1,0,0:0:0:0:
192,192,23411,1,0,0:0:0:0:
320,192,23411,1,0,0:0:0:0:
320,192,24093,1,0,0:0:0:0:
448,192,24320,1,0,0:0:0:0:
192,192,25002,1,0,0:0:0:0:
64,192,25229,1,0,0:0:0:0:
448,192,25229,1,0,0:0:0:0:
448,192,25684,1,0,0:0:0:0:
320,192,25684,1,0,0:0:0:0:
320,192,25911,1,0,0:0:0:0:
192,192,25911,1,0,0:0:0:0:
64,192,26138,1,0,0:0:0:0:
448,192,26138,1,0,0:0:0:0:
192,192,26820,1,0,0:0:0:0:
448,192,27047,1,0,0:0:0:0:
320,192,27047,1,0,0:0:0:0:
192,192,27047,1,0,0:0:0:0:
64,192,27047,1,0,0:0:0:0:
64,192,27729,1,0,0:0:0:0:
192,192,27956,1,0,0:0:0:0:
192,192,28638,1,0,0:0:0:0:
320,192,28865,1,0,0:0:0:0:
64,192,28865,1,0,0:0:0:0:
448,192,29093,1,0,0:0:0:0:
320,192,29320,1,0,0:0:0:0:
192,192,29547,1,0,0:0:0:0:
64,192,29547,1,0,0:0:0:0:
448,192,29774,1,0,0:0:0:0:
320,192,29774,1,0,0:0:0:0:
192,192,30456,1,0,0:0:0:0:
448,192,30684,1,0,0:0:0:0:
320,192,30684,1,0,0:0:0:0:
64,192,31365,1,0,0:0:0:0:
192,192,31593,1,0,0:0:0:0:
448,192,32274,1,0,0:0:0:0:
320,192,32502,1,0,0:0:0:0:
448,192,32956,1,0,0:0:0:0:
64,192,32956,1,0,0:0:0:0:
192,192,33184,1,0,0:0:0:0:
320,192,33184,1,0,0:0:0:0:
64,192,33411,1,0,0:0:0:0:
448,192,33411,1,0,0:0:0:0:
320,192,34093,1,0,0:0:0:0:
448,192,34320,1,0,0:0:0:0:
320,192,34320,1,0,0:0:0:0:
192,192,34320,1,0,0:0:0:0:
64,192,34320,1,0,0:0:0:0:
192,192,35002,1,0,0:0:0:0:
64,192,35229,1,0,0:0:0:0:
320,192,35911,1,0,0:0:0:0:
192,192,36138,1,0,0:0:0:0:
448,192,36138,1,0,0:0:0:0:
64,192,36365,1,0,0:0:0:0:
192,192,36593,1,0,0:0:0:0:
320,192,36820,1,0,0:0:0:0:
448,192,36820,1,0,0:0:0:0:
192,192,37047,1,0,0:0:0:0:
64,192,37047,1,0,0:0:0:0:
448,192,37729,1,0,0:0:0:0:
64,192,37956,1,0,0:0:0:0:
192,192,37956,1,0,0:0:0:0:
448,192,37956,1,0,0:0:0:0:
320,192,37956,1,0,0:0:0:0:
192,192,38638,1,0,0:0:0:0:
448,192,38865,1,0,0:0:0:0:
448,192,39547,1,0,0:0:0:0:
320,192,39774,1,0,0:0:0:0:
192,192,39774,1,0,0:0:0:0:
64,192,40229,1,0,0:0:0:0:
320,192,40229,1,0,0:0:0:0:
192,192,40456,1,0,0:0:0:0:
448,192,40456,1,0,0:0:0:0:
320,192,40684,1,0,0:0:0:0:
192,192,40684,1,0,0:0:0:0:
64,192,40684,1,0,0:0:0:0:
64,192,41365,1,0,0:0:0:0:
64,192,41593,1,0,0:0:0:0:
192,192,41593,1,0,0:0:0:0:
320,192,41593,1,0,0:0:0:0:
448,192,41593,1,0,0:0:0:0:
192,192,42274,1,0,0:0:0:0:
448,192,42502,1,0,0:0:0:0:
320,192,43184,1,0,0:0:0:0:
64,192,43411,1,0,0:0:0:0:
192,192,43411,1,0,0:0:0:0:
192,192,44093,1,0,0:0:0:0:
320,192,44093,1,0,0:0:0:0:
64,192,44320,1,0,0:0:0:0:
448,192,44320,1,0,0:0:0:0:
448,192,45002,1,0,0:0:0:0:
448,192,45229,1,0,0:0:0:0:
320,192,45229,1,0,0:0:0:0:
64,192,45229,1,0,0:0:0:0:
192,192,45229,1,0,0:0:0:0:
64,192,45911,1,0,0:0:0:0:
320,192,46138,1,0,0:0:0:0:
192,192,46820,1,0,0:0:0:0:
448,192,47047,1,0,0:0:0:0:
320,192,47047,1,0,0:0:0:0:
320,192,47502,1,0,0:0:0:0:
64,192,47502,1,0,0:0:0:0:
192,192,47729,1,0,0:0:0:0:
448,192,47729,1,0,0:0:0:0:
320,192,47956,1,0,0:0:0:0:
64,192,47956,1,0,0:0:0:0:
192,192,47956,1,0,0:0:0:0:
64,192,48411,1,0,0:0:0:0:
320,192,48865,1,0,0:0:0:0:
192,192,49320,1,0,0:0:0:0:
448,192,49774,1,0,0:0:0:0:
192,192,50684,1,0,0:0:0:0:
192,192,51593,1,0,0:0:0:0:
448,192,52502,1,0,0:0:0:0:
320,192,53411,1,0,0:0:0:0:
192,192,53865,1,0,0:0:0:0:
192,192,54320,1,0,0:0:0:0:
64,192,54774,1,0,0:0:0:0:
448,192,55229,1,0,0:0:0:0:
320,192,55229,1,0,0:0:0:0:
64,192,55684,1,0,0:0:0:0:
320,192,56138,1,0,0:0:0:0:
192,192,56593,1,0,0:0:0:0:
448,192,57047,1,0,0:0:0:0:
64,192,57956,1,0,0:0:0:0:
192,192,58865,1,0,0:0:0:0:
320,192,58865,1,0,0:0:0:0:
320,192,59774,1,0,0:0:0:0:
448,192,60684,1,0,0:0:0:0:
320,192,63411,1,0,0:0:0:0:
192,192,63524,1,0,0:0:0:0:
320,192,63638,1,0,0:0:0:0:
64,192,63752,1,0,0:0:0:0:
448,192,63865,1,0,0:0:0:0:
192,192,63979,1,0,0:0:0:0:
320,192,64206,1,0,0:0:0:0:
192,192,64434,1,0,0:0:0:0:
320,192,64547,1,0,0:0:0:0:
192,192,64661,1,0,0:0:0:0:
320,192,64774,1,0,0:0:0:0:
192,192,65002,1,0,0:0:0:0:
320,192,65115,1,0,0:0:0:0:
448,192,66138,1,0,0:0:0:0:
192,192,66138,1,0,0:0:0:0:
64,192,66138,1,0,0:0:0:0:
320,192,66138,1,0,0:0:0:0:
64,192,66593,1,0,0:0:0:0:
320,192,66820,1,0,0:0:0:0:
192,192,66820,1,0,0:0:0:0:
64,192,67047,1,0,0:0:0:0:
320,192,67047,1,0,0:0:0:0:
192,192,67047,1,0,0:0:0:0:
448,192,67076,1,0,0:0:0:0:
192,192,67274,1,0,0:0:0:0:
320,192,67502,1,0,0:0:0:0:
64,192,67729,1,0,0:0:0:0:
64,192,67956,1,0,0:0:0:0:
320,192,68411,1,0,0:0:0:0:
192,192,68411,1,0,0:0:0:0:
448,192,68865,1,0,0:0:0:0:
192,192,68865,1,0,0:0:0:0:
320,192,68865,1,0,0:0:0:0:
448,192,69320,1,0,0:0:0:0:
320,192,69547,1,0,0:0:0:0:
192,192,69547,1,0,0:0:0:0:
64,192,69774,1,0,0:0:0:0:
192,192,69774,1,0,0:0:0:0:
448,192,69774,1,0,0:0:0:0:
448,192,70229,1,0,0:0:0:0:
64,192,70456,1,0,0:0:0:0:
320,192,70456,1,0,0:0:0:0:
192,192,70684,1,0,0:0:0:0:
320,192,70684,1,0,0:0:0:0:
448,192,70684,1,0,0:0:0:0:
64,192,70712,1,0,0:0:0:0:
448,192,70911,1,0,0:0:0:0:
192,192,71138,1,0,0:0:0:0:
64,192,71365,1,0,0:0:0:0:
320,192,71365,1,0,0:0:0:0:
448,192,71593,1,0,0:0:0:0:
320,192,71593,1,0,0:0:0:0:
64,192,72047,1,0,0:0:0:0:
320,192,72502,1,0,0:0:0:0:
192,192,72502,1,0,0:0:0:0:
64,192,72956,1,0,0:0:0:0:
64,192,73184,1,0,0:0:0:0:
448,192,73411,1,0,0:0:0:0:
192,192,73411,1,0,0:0:0:0:
64,192,73411,1,0,0:0:0:0:
192,192,73865,1,0,0:0:0:0:
320,192,74093,1,0,0:0:0:0:
448,192,74320,1,0,0:0:0:0:
64,192,74320,1,0,0:0:0:0:
320,192,74320,1,0,0:0:0:0:
192,192,74348,1,0,0:0:0:0:
448,192,74774,1,0,0:0:0:0:
64,192,75229,1,0,0:0:0:0:
448,192,75229,1,0,0:0:0:0:
320,192,75684,1,0,0:0:0:0:
64,192,76138,1,0,0:0:0:0:
192,192,76138,1,0,0:0:0:0:
192,192,76593,1,0,0:0:0:0:
448,192,76820,1,0,0:0:0:0:
64,192,76820,1,0,0:0:0:0:
320,192,77047,1,0,0:0:0:0:
64,192,77047,1,0,0:0:0:0:
448,192,77047,1,0,0:0:0:0:
320,192,77502,1,0,0:0:0:0:
192,192,77729,1,0,0:0:0:0:
64,192,77729,1,0,0:0:0:0:
448,192,77956,1,0,0:0:0:0:
64,192,77956,1,0,0:0:0:0:
320,192,77956,1,0,0:0:0:0:
192,192,77985,1,0,0:0:0:0:
448,192,78411,1,0,0:0:0:0:
192,192,78865,1,0,0:0:0:0:
192,192,79547,1,0,0:0:0:0:
448,192,79774,1,0,0:0:0:0:
320,192,79774,1,0,0:0:0:0:
448,192,80229,1,0,0:0:0:0:
320,192,80229,1,0,0:0:0:0:
448,192,80456,1,0,0:0:0:0:
320,192,80456,1,0,0:0:0:0:
448,192,80684,1,0,0:0:0:0:
320,192,80684,1,0,0:0:0:0:
192,192,80684,1,0,0:0:0:0:
64,192,80684,1,0,0:0:0:0:
64,192,81138,1,0,0:0:0:0:
192,192,81365,1,0,0:0:0:0:
320,192,81365,1,0,0:0:0:0:
448,192,81593,1,0,0:0:0:0:
192,192,81593,1,0,0:0:0:0:
64,192,81593,1,0,0:0:0:0:
320,192,81621,1,0,0:0:0:0:
64,192,81820,1,0,0:0:0:0:
64,192,82047,1,0,0:0:0:0:
64,192,82502,1,0,0:0:0:0:
192,192,82502,1,0,0:0:0:0:
192,192,82956,1,0,0:0:0:0:
448,192,82956,1,0,0:0:0:0:
320,192,83184,1,0,0:0:0:0:
320,192,83411,1,0,0:0:0:0:
64,192,83411,1,0,0:0:0:0:
192,192,83638,1,0,0:0:0:0:
320,192,83865,1,0,0:0:0:0:
192,192,84093,1,0,0:0:0:0:
64,192,84093,1,0,0:0:0:0:
64,192,84320,1,0,0:0:0:0:
320,192,84320,1,0,0:0:0:0:
448,192,84320,1,0,0:0:0:0:
192,192,84774,1,0,0:0:0:0:
320,192,85002,1,0,0:0:0:0:
320,192,85229,1,0,0:0:0:0:
448,192,85229,1,0,0:0:0:0:
64,192,85229,1,0,0:0:0:0:
192,192,85257,1,0,0:0:0:0:
64,192,85456,1,0,0:0:0:0:
64,192,85684,1,0,0:0:0:0:
320,192,86138,1,0,0:0:0:0:
448,192,86593,1,0,0:0:0:0:
320,192,87047,1,0,0:0:0:0:
448,192,87047,1,0,0:0:0:0:
192,192,87274,1,0,0:0:0:0:
64,192,87502,1,0,0:0:0:0:
448,192,87729,1,0,0:0:0:0:
320,192,87729,1,0,0:0:0:0:
320,192,87956,1,0,0:0:0:0:
192,192,87956,1,0,0:0:0:0:
64,192,87956,1,0,0:0:0:0:
64,192,88411,1,0,0:0:0:0:
192,192,88638,1,0,0:0:0:0:
192,192,88865,1,0,0:0:0:0:
64,192,88865,1,0,0:0:0:0:
448,192,88865,1,0,0:0:0:0:
320,192,88894,1,0,0:0:0:0:
64,192,89093,1,0,0:0:0:0:
64,192,89320,1,0,0:0:0:0:
448,192,89774,1,0,0:0:0:0:
320,192,89774,1,0,0:0:0:0:
192,192,90229,1,0,0:0:0:0:
320,192,90456,1,0,0:0:0:0:
320,192,90684,1,0,0:0:0:0:
192,192,90684,1,0,0:0:0:0:
64,192,90911,1,0,0:0:0:0:
320,192,91138,1,0,0:0:0:0:
192,192,91365,1,0,0:0:0:0:
64,192,91365,1,0,0:0:0:0:
64,192,91593,1,0,0:0:0:0:
320,192,91593,1,0,0:0:0:0:
448,192,91593,1,0,0:0:0:0:
64,192,92047,1,0,0:0:0:0:
192,192,92274,1,0,0:0:0:0:
320,192,92502,1,0,0:0:0:0:
448,192,92502,1,0,0:0:0:0:
64,192,92502,1,0,0:0:0:0:
192,192,92530,1,0,0:0:0:0:
64,192,92729,1,0,0:0:0:0:
320,192,92956,1,0,0:0:0:0:
192,192,93184,1,0,0:0:0:0:
320,192,93411,1,0,0:0:0:0:
320,192,93865,1,0,0:0:0:0:
448,192,94320,1,0,0:0:0:0:
64,192,94320,1,0,0:0:0:0:
448,192,94774,128,0,97047:0:0:0:0:
64,192,95911,1,0,0:0:0:0:
320,192,96138,1,0,0:0:0:0:
64,192,96365,1,0,0:0:0:0:
320,192,96593,1,0,0:0:0:0:
64,192,96820,1,0,0:0:0:0:
320,192,97047,1,0,0:0:0:0:
64,192,97274,1,0,0:0:0:0:
192,192,98638,1,0,0:0:0:0:
448,192,98865,1,0,0:0:0:0:
320,192,98865,1,0,0:0:0:0:
192,192,98865,1,0,0:0:0:0:
64,192,98865,1,0,0:0:0:0:
64,192,99093,1,0,0:0:0:0:
320,192,99093,1,0,0:0:0:0:
192,192,99320,1,0,0:0:0:0:
448,192,99320,1,0,0:0:0:0:
320,192,99547,1,0,0:0:0:0:
192,192,99547,1,0,0:0:0:0:
448,192,99774,1,0,0:0:0:0:
320,192,99774,1,0,0:0:0:0:
64,192,99774,1,0,0:0:0:0:
192,192,99803,1,0,0:0:0:0:
320,192,100456,1,0,0:0:0:0:
192,192,100456,1,0,0:0:0:0:
192,192,100684,1,0,0:0:0:0:
64,192,100684,1,0,0:0:0:0:
320,192,101138,1,0,0:0:0:0:
192,192,101138,1,0,0:0:0:0:
320,192,101365,1,0,0:0:0:0:
448,192,101365,1,0,0:0:0:0:
64,192,101593,1,0,0:0:0:0:
192,192,101593,1,0,0:0:0:0:
448,192,101593,1,0,0:0:0:0:
192,192,101820,1,0,0:0:0:0:
320,192,101820,1,0,0:0:0:0:
64,192,102047,1,0,0:0:0:0:
448,192,102047,1,0,0:0:0:0:
192,192,102274,1,0,0:0:0:0:
320,192,102274,1,0,0:0:0:0:
448,192,102274,1,0,0:0:0:0:
320,192,102502,1,0,0:0:0:0:
192,192,102502,1,0,0:0:0:0:
64,192,102502,1,0,0:0:0:0:
448,192,102502,1,0,0:0:0:0:
192,192,102729,1,0,0:0:0:0:
64,192,102729,1,0,0:0:0:0:
192,192,102956,1,0,0:0:0:0:
64,192,102956,1,0,0:0:0:0:
448,192,103184,1,0,0:0:0:0:
320,192,103184,1,0,0:0:0:0:
320,192,103411,1,0,0:0:0:0:
192,192,103411,1,0,0:0:0:0:
448,192,103411,1,0,0:0:0:0:
64,192,103439,1,0,0:0:0:0:
192,192,104093,1,0,0:0:0:0:
64,192,104093,1,0,0:0:0:0:
192,192,104320,1,0,0:0:0:0:
320,192,104320,1,0,0:0:0:0:
64,192,105002,1,0,0:0:0:0:
192,192,105002,1,0,0:0:0:0:
192,192,105229,1,0,0:0:0:0:
320,192,105229,1,0,0:0:0:0:
448,192,105456,1,0,0:0:0:0:
192,192,105456,1,0,0:0:0:0:
64,192,105684,1,0,0:0:0:0:
320,192,105684,1,0,0:0:0:0:
320,192,105911,1,0,0:0:0:0:
192,192,105911,1,0,0:0:0:0:
448,192,106024,1,0,0:0:0:0:
64,192,106024,1,0,0:0:0:0:
64,192,106138,1,0,0:0:0:0:
320,192,106138,1,0,0:0:0:0:
192,192,106138,1,0,0:0:0:0:
448,192,106138,1,0,0:0:0:0:
192,192,106365,1,0,0:0:0:0:
448,192,106365,1,0,0:0:0:0:
448,192,106593,1,0,0:0:0:0:
320,192,106593,1,0,0:0:0:0:
320,192,106820,1,0,0:0:0:0:
192,192,106820,1,0,0:0:0:0:
192,192,107047,1,0,0:0:0:0:
64,192,107047,1,0,0:0:0:0:
448,192,107047,1,0,0:0:0:0:
320,192,107076,1,0,0:0:0:0:
64,192,107729,1,0,0:0:0:0:
320,192,107729,1,0,0:0:0:0:
192,192,107956,1,0,0:0:0:0:
448,192,107956,1,0,0:0:0:0:
64,192,108411,1,0,0:0:0:0:
192,192,108411,1,0,0:0:0:0:
192,192,108638,1,0,0:0:0:0:
320,192,108638,1,0,0:0:0:0:
448,192,108865,1,0,0:0:0:0:
192,192,108865,1,0,0:0:0:0:
64,192,109093,1,0,0:0:0:0:
320,192,109093,1,0,0:0:0:0:
448,192,109320,1,0,0:0:0:0:
320,192,109320,1,0,0:0:0:0:
320,192,109547,1,0,0:0:0:0:
192,192,109547,1,0,0:0:0:0:
448,192,109547,1,0,0:0:0:0:
320,192,109774,1,0,0:0:0:0:
192,192,109774,1,0,0:0:0:0:
64,192,109774,1,0,0:0:0:0:
448,192,109774,1,0,0:0:0:0:
192,192,110002,1,0,0:0:0:0:
64,192,110002,1,0,0:0:0:0:
192,192,110229,1,0,0:0:0:0:
64,192,110229,1,0,0:0:0:0:
64,192,110684,1,0,0:0:0:0:
448,192,110684,1,0,0:0:0:0:
192,192,110684,1,0,0:0:0:0:
320,192,110712,1,0,0:0:0:0:
320,192,111138,1,0,0:0:0:0:
192,192,111138,1,0,0:0:0:0:
192,192,111365,1,0,0:0:0:0:
64,192,111365,1,0,0:0:0:0:
448,192,111593,1,0,0:0:0:0:
192,192,111593,1,0,0:0:0:0:
448,192,112502,1,0,0:0:0:0:
320,192,112502,1,0,0:0:0:0:
64,192,112956,1,0,0:0:0:0:
320,192,112956,1,0,0:0:0:0:
448,192,113184,1,0,0:0:0:0:
192,192,113184,1,0,0:0:0:0:
320,192,113297,1,0,0:0:0:0:
64,192,113297,1,0,0:0:0:0:
448,192,113411,1,0,0:0:0:0:
320,192,113411,1,0,0:0:0:0:
192,192,113411,1,0,0:0:0:0:
64,192,113411,1,0,0:0:0:0:
192,192,113638,1,0,0:0:0:0:
64,192,113638,1,0,0:0:0:0:
320,192,113865,1,0,0:0:0:0:
192,192,113865,1,0,0:0:0:0:
320,192,114093,1,0,0:0:0:0:
448,192,114093,1,0,0:0:0:0:
192,192,114320,1,0,0:0:0:0:
64,192,114320,1,0,0:0:0:0:
448,192,114320,1,0,0:0:0:0:
64,192,115002,1,0,0:0:0:0:
192,192,115002,1,0,0:0:0:0:
192,192,115229,1,0,0:0:0:0:
320,192,115229,1,0,0:0:0:0:
320,192,115684,1,0,0:0:0:0:
64,192,115684,1,0,0:0:0:0:
448,192,115911,1,0,0:0:0:0:
192,192,115911,1,0,0:0:0:0:
320,192,116138,1,0,0:0:0:0:
192,192,116138,1,0,0:0:0:0:
448,192,116138,1,0,0:0:0:0:
320,192,116365,1,0,0:0:0:0:
192,192,116365,1,0,0:0:0:0:
320,192,116593,1,0,0:0:0:0:
448,192,116593,1,0,0:0:0:0:
64,192,116820,1,0,0:0:0:0:
192,192,116820,1,0,0:0:0:0:
320,192,116820,1,0,0:0:0:0:
192,192,117047,1,0,0:0:0:0:
64,192,117047,1,0,0:0:0:0:
448,192,117047,1,0,0:0:0:0:
320,192,117047,1,0,0:0:0:0:
192,192,117274,1,0,0:0:0:0:
320,192,117274,1,0,0:0:0:0:
192,192,117502,1,0,0:0:0:0:
64,192,117502,1,0,0:0:0:0:
448,192,117729,1,0,0:0:0:0:
320,192,117729,1,0,0:0:0:0:
448,192,117956,1,0,0:0:0:0:
64,192,117956,1,0,0:0:0:0:
192,192,117956,1,0,0:0:0:0:
320,192,117985,1,0,0:0:0:0:
192,192,118638,1,0,0:0:0:0:
448,192,118638,1,0,0:0:0:0:
320,192,118865,1,0,0:0:0:0:
64,192,118865,1,0,0:0:0:0:
192,192,119320,1,0,0:0:0:0:
448,192,119320,1,0,0:0:0:0:
320,192,119774,1,0,0:0:0:0:
192,192,119774,1,0,0:0:0:0:
192,192,120002,1,0,0:0:0:0:
64,192,120002,1,0,0:0:0:0:
192,192,120229,1,0,0:0:0:0:
320,192,120229,1,0,0:0:0:0:
448,192,120456,1,0,0:0:0:0:
64,192,120456,1,0,0:0:0:0:
192,192,120570,1,0,0:0:0:0:
320,192,120570,1,0,0:0:0:0:
448,192,120684,1,0,0:0:0:0:
320,192,120684,1,0,0:0:0:0:
64,192,120684,1,0,0:0:0:0:
192,192,120684,1,0,0:0:0:0:
320,192,120911,1,0,0:0:0:0:
192,192,120911,1,0,0:0:0:0:
192,192,121138,1,0,0:0:0:0:
64,192,121138,1,0,0:0:0:0:
448,192,121365,1,0,0:0:0:0:
320,192,121365,1,0,0:0:0:0:
320,192,121593,1,0,0:0:0:0:
64,192,121593,1,0,0:0:0:0:
448,192,121593,1,0,0:0:0:0:
192,192,121621,1,0,0:0:0:0:
64,192,122274,1,0,0:0:0:0:
192,192,122274,1,0,0:0:0:0:
448,192,122502,1,0,0:0:0:0:
320,192,122502,1,0,0:0:0:0:
192,192,122956,1,0,0:0:0:0:
64,192,122956,1,0,0:0:0:0:
320,192,123184,1,0,0:0:0:0:
192,192,123184,1,0,0:0:0:0:
320,192,123411,1,0,0:0:0:0:
192,192,123411,1,0,0:0:0:0:
448,192,123411,1,0,0:0:0:0:
192,192,123638,1,0,0:0:0:0:
64,192,123638,1,0,0:0:0:0:
192,192,123865,1,0,0:0:0:0:
64,192,123865,1,0,0:0:0:0:
192,192,124093,1,0,0:0:0:0:
320,192,124093,1,0,0:0:0:0:
448,192,124093,1,0,0:0:0:0:
448,192,124320,1,0,0:0:0:0:
320,192,124320,1,0,0:0:0:0:
64,192,124320,1,0,0:0:0:0:
192,192,124320,1,0,0:0:0:0:
448,192,124547,1,0,0:0:0:0:
320,192,124547,1,0,0:0:0:0:
320,192,124774,1,0,0:0:0:0:
192,192,124774,1,0,0:0:0:0:
192,192,125002,1,0,0:0:0:0:
64,192,125002,1,0,0:0:0:0:
192,192,125229,1,0,0:0:0:0:
320,192,125229,1,0,0:0:0:0:
448,192,125229,1,0,0:0:0:0:
64,192,125257,1,0,0:0:0:0:
320,192,125911,1,0,0:0:0:0:
192,192,125911,1,0,0:0:0:0:
448,192,126138,1,0,0:0:0:0:
64,192,126138,1,0,0:0:0:0:
320,192,126593,1,0,0:0:0:0:
64,192,126820,1,0,0:0:0:0:
320,192,127047,1,0,0:0:0:0:
448,192,127047,1,0,0:0:0:0:
192,192,127502,1,0,0:0:0:0:
64,192,127502,1,0,0:0:0:0:
448,192,127729,1,0,0:0:0:0:
64,192,127729,1,0,0:0:0:0:
320,192,127843,1,0,0:0:0:0:
192,192,127843,1,0,0:0:0:0:
320,192,127956,1,0,0:0:0:0:
192,192,127956,1,0,0:0:0:0:
64,192,127956,1,0,0:0:0:0:
448,192,127956,1,0,0:0:0:0:
