osu file format v14

[General]
AudioFilename: audio.mp3
AudioLeadIn: 0
PreviewTime: -1
Countdown: 0
SampleSet: None
StackLeniency: 0.7
Mode: 0
LetterboxInBreaks: 0
WidescreenStoryboard: 0

[Editor]
DistanceSpacing: 0.9
BeatDivisor: 4
GridSize: 8
TimelineZoom: 1.9

[Metadata]
Title:Moete Hero (Tv Size.)
TitleUnicode:Moete Hero (Tv Size.)
Artist:Hiroyuki Okita
ArtistUnicode:Hiroyuki Okita
Creator:fatalmb14
Version:oliver e benji
Source:
Tags:
BeatmapID:3692972
BeatmapSetID:1801159

[Difficulty]
HPDrainRate:6
CircleSize:4
OverallDifficulty:7.5
ApproachRate:9.3
SliderMultiplier:1.4
SliderTickRate:1

[Events]
//Background and Video events
0,0,"92365619_p0_master1200.jpg",0,0
//Break Periods
//Storyboard Layer 0 (Background)
//Storyboard Layer 1 (Fail)
//Storyboard Layer 2 (Pass)
//Storyboard Layer 3 (Foreground)
//Storyboard Layer 4 (Overlay)
//Storyboard Sound Samples

[TimingPoints]
278,384.615384615385,4,1,0,100,1,0
750,-66.6666666666667,4,1,0,100,0,0
3288,384.615384615385,4,1,0,100,1,0
3952,-66.6666666666667,4,1,0,100,0,0
16076,384.615384615385,4,1,0,100,1,0
16461,-66.6666666666667,4,1,0,100,0,0

[HitObjects]
199,157,1047,6,0,P|229:180|280:188,14,52.5000020027161
278,68,2585,2,0,P|293:95|291:111,10,26.2500010013581
158,349,3288,5,0,0:0:0:0:
85,99,3480,1,0,0:0:0:0:
324,200,3672,1,0,0:0:0:0:
111,237,3864,1,0,0:0:0:0:
111,237,4057,2,0,L|151:130,1,105.000004005432
320,120,4441,2,0,P|288:189|260:208,1,105.000004005432
361,306,4826,2,0,L|469:276,1,105.000004005432
305,126,5211,5,0,0:0:0:0:
289,278,5403,1,0,0:0:0:0:
150,153,5595,2,0,L|38:117,1,105.000004005432
252,43,5980,2,0,P|298:75|313:140,1,105.000004005432
132,246,6364,5,0,0:0:0:0:
173,83,6557,1,0,0:0:0:0:
245,230,6749,2,0,L|218:349,1,105.000004005432
64,186,7134,2,0,B|184:153|138:220|253:196,1,157.500006008148
215,201,7518,5,0,0:0:0:0:
133,40,7711,1,0,0:0:0:0:
68,264,7903,1,0,0:0:0:0:
182,127,8095,1,0,0:0:0:0:
204,282,8288,2,0,P|111:350|107:349,1,105.000004005432
108,115,8672,5,0,0:0:0:0:
306,173,8864,1,0,0:0:0:0:
117,277,9057,1,0,0:0:0:0:
297,317,9249,1,0,0:0:0:0:
239,172,9441,2,0,P|217:101|248:61,1,105.000004005432
415,173,9826,2,0,L|385:296,1,105.000004005432
199,199,10211,2,0,P|261:129|302:118,1,105.000004005432
78,57,10595,2,0,L|74:179,1,105.000004005432
165,315,10980,2,0,L|172:198,1,105.000004005432
278,38,11364,5,0,0:0:0:0:
361,262,11557,1,0,0:0:0:0:
181,154,11749,2,0,L|122:51,1,105.000004005432
64,269,12134,2,0,P|124:318|170:321,1,105.000004005432
171,138,12518,2,0,L|213:31,1,105.000004005432
447,162,12903,5,0,0:0:0:0:
226,216,13095,1,0,0:0:0:0:
226,216,13191,1,0,0:0:0:0:
226,216,13288,1,0,0:0:0:0:
286,23,13480,1,0,0:0:0:0:
368,228,13672,2,0,P|380:285|361:344,1,105.000004005432
165,250,14057,2,0,L|275:209,1,105.000004005432
157,73,14441,2,0,L|101:162,1,105.000004005432
154,345,14826,5,0,0:0:0:0:
154,345,15018,1,0,0:0:0:0:
217,180,15211,2,0,P|261:236|256:265,1,105.000004005432
60,199,15595,2,0,L|140:108,1,105.000004005432
331,103,16461,2,0,P|339:209|337:216,1,105.000004005432
211,316,16845,2,0,L|229:199,1,105.000004005432
287,86,17230,5,0,0:0:0:0:
74,145,17422,1,0,0:0:0:0:
229,299,17614,2,0,L|213:184,1,105.000004005432
277,42,17999,2,0,L|404:77,1,105.000004005432
462,294,18383,5,0,0:0:0:0:
280,98,18576,1,0,0:0:0:0:
451,178,18768,1,0,0:0:0:0:
269,274,18960,1,0,0:0:0:0:
416,66,19152,5,0,0:0:0:0:
416,66,19345,2,0,L|374:189,1,105.000004005432
216,278,19729,2,0,L|240:171,1,105.000004005432
354,45,20114,5,0,0:0:0:0:
354,45,20306,2,0,P|398:127|406:155,1,105.000004005432
355,360,20691,2,0,L|271:265,1,105.000004005432
303,77,21076,2,0,L|431:71,1,105.000004005432
261,216,21460,2,0,L|148:217,1,105.000004005432
184,17,21845,5,0,0:0:0:0:
206,197,22037,1,0,0:0:0:0:
48,76,22229,1,0,0:0:0:0:
307,80,22422,1,0,0:0:0:0:
132,228,22614,2,0,L|149:98,1,105.000004005432
274,216,22999,2,0,L|389:210,1,105.000004005432
293,22,23383,5,0,0:0:0:0:
251,178,23576,1,0,0:0:0:0:
104,61,23768,2,0,P|160:124|211:133,1,105.000004005432
112,255,24152,2,0,L|-8:267,1,105.000004005432
182,150,24537,2,0,L|321:158,1,105.000004005432
424,316,24922,5,0,0:0:0:0:
286,156,25114,1,0,0:0:0:0:
507,191,25306,1,0,0:0:0:0:
357,245,25499,1,0,0:0:0:0:
357,245,25691,2,0,L|389:123,1,105.000004005432
182,97,26076,2,0,L|253:204,1,105.000004005432
226,346,26460,2,0,P|109:342|105:338,1,105.000004005432
88,182,26845,2,0,L|208:200,1,105.000004005432
340,293,27229,5,0,0:0:0:0:
269,67,27422,1,0,0:0:0:0:
222,228,27614,1,0,0:0:0:0:
435,152,27806,1,0,0:0:0:0:
435,152,27999,5,0,0:0:0:0:
160,79,28191,1,0,0:0:0:0:
160,79,28383,2,0,L|164:216,1,105.000004005432
285,307,28768,2,0,L|393:254,1,105.000004005432
277,110,29152,2,0,L|215:208,1,105.000004005432
104,344,29633,6,0,L|108:247,1,52.5000020027161
154,68,29922,2,0,P|242:97|259:112,1,105.000004005432
199,321,30306,2,0,L|184:203,1,105.000004005432
339,253,30691,2,0,L|462:235,1,105.000004005432
318,55,31076,2,0,P|254:114|240:140,1,105.000004005432
220,292,31460,2,0,L|354:278,1,105.000004005432
226,98,31845,5,0,0:0:0:0:
152,286,32037,1,0,0:0:0:0:
288,229,32229,2,0,L|391:184,1,105.000004005432
161,76,32614,2,0,L|150:201,1,105.000004005432
152,331,32999,5,0,0:0:0:0:
152,331,33191,1,0,0:0:0:0:
341,105,33383,1,0,0:0:0:0:
334,340,33576,1,0,0:0:0:0:
200,185,33768,2,0,L|102:110,1,105.000004005432
306,55,34152,2,0,L|355:167,1,105.000004005432
442,360,34537,5,0,0:0:0:0:
232,265,34729,1,0,0:0:0:0:
377,182,34922,2,0,L|488:169,1,105.000004005432
375,29,35306,2,0,L|266:108,1,105.000004005432
162,256,35691,2,0,L|159:145,1,105.000004005432
299,199,36076,2,0,P|379:226|425:253,1,105.000004005432
269,364,36460,5,0,0:0:0:0:
399,235,36652,1,0,0:0:0:0:
399,235,36845,2,0,L|310:154,1,105.000004005432
233,306,37229,2,0,L|120:308,1,105.000004005432
161,139,37614,2,0,P|234:107|281:115,1,105.000004005432
386,285,37999,5,0,0:0:0:0:
203,149,38191,1,0,0:0:0:0:
440,125,38383,1,0,0:0:0:0:
283,244,38576,1,0,0:0:0:0:
283,244,38768,2,0,L|309:102,1,105.000004005432
90,108,39152,5,0,0:0:0:0:
78,301,39345,1,0,0:0:0:0:
78,301,39537,2,0,L|76:185,1,105.000004005432
261,64,40306,2,0,P|339:80|372:105,1,105.000004005432
322,292,40691,2,0,L|389:172,1,105.000004005432
221,59,41076,5,0,0:0:0:0:
194,247,41268,1,0,0:0:0:0:
339,158,41460,2,0,L|471:229,1,105.000004005432
260,309,41845,2,0,L|221:198,1,105.000004005432
239,48,42229,2,0,P|292:47|352:78,1,105.000004005432
362,221,42614,2,0,L|249:219,1,105.000004005432
84,134,42999,5,0,0:0:0:0:
222,34,43191,1,0,0:0:0:0:
170,262,43383,1,0,0:0:0:0:
193,110,43576,1,0,0:0:0:0:
193,110,43768,2,0,L|286:225,1,105.000004005432
384,331,44152,2,0,L|486:278,1,105.000004005432
341,145,44537,2,0,L|310:256,1,105.000004005432
208,381,44922,5,0,0:0:0:0:
144,199,45114,1,0,0:0:0:0:
137,168,45210,1,0,0:0:0:0:
139,136,45306,1,0,0:0:0:0:
148,106,45402,1,0,0:0:0:0:
165,80,45498,1,0,0:0:0:0:
188,59,45594,1,0,0:0:0:0:
218,47,45691,6,0,L|340:46,1,105.000004005432
356,209,46076,2,0,L|249:277,1,105.000004005432
125,213,46460,2,0,L|183:111,1,105.000004005432
303,295,46845,5,0,0:0:0:0:
259,73,47037,1,0,0:0:0:0:
124,251,47229,1,0,0:0:0:0:
346,165,47422,1,0,0:0:0:0:
346,165,47614,2,0,L|208:125,1,105.000004005432
42,202,47999,2,0,P|61:290|79:315,1,105.000004005432
269,239,48383,2,0,L|178:175,1,105.000004005432
54,60,48768,5,0,0:0:0:0:
54,60,48864,1,0,0:0:0:0:
54,60,48960,1,0,0:0:0:0:
54,60,49056,1,0,0:0:0:0:
54,60,49152,2,0,L|162:84,1,105.000004005432
299,205,49537,2,0,L|192:261,1,105.000004005432
106,104,49922,1,0,0:0:0:0:
106,104,50114,1,0,0:0:0:0:
281,138,50306,1,0,0:0:0:0:
281,138,50499,1,0,0:0:0:0:
147,252,50691,6,0,L|58:323,1,105.000004005432
89,153,51076,2,0,L|182:78,1,105.000004005432
285,210,51460,2,0,P|309:299|332:311,1,105.000004005432
455,98,51845,1,0,0:0:0:0:
