osu file format v14

[General]
AudioFilename: audio.mp3
AudioLeadIn: 0
PreviewTime: 179
Countdown: 0
SampleSet: Normal
StackLeniency: 0.6
Mode: 0
LetterboxInBreaks: 0
WidescreenStoryboard: 0

[Editor]
DistanceSpacing: 0.3
BeatDivisor: 4
GridSize: 4
TimelineZoom: 0.8000001

[Metadata]
Title:Butsutekkai
TitleUnicode:仏鉄塊
Artist:Hiroshi Iuchi
ArtistUnicode:井内ひろし
Creator:non-one
Version:No Refuge
Source:斑鳩 IKARUGA
Tags:icebolt taru shmup boss theme original soundtrack ost
BeatmapID:1253093
BeatmapSetID:592207

[Difficulty]
HPDrainRate:6.5
CircleSize:5
OverallDifficulty:8.8
ApproachRate:9.2
SliderMultiplier:1.6
SliderTickRate:1

[Events]
//Background and Video events
0,0,"IKARUGAAH.png",0,0
//Break Periods
//Storyboard Layer 0 (Background)
//Storyboard Layer 1 (Fail)
//Storyboard Layer 2 (Pass)
//Storyboard Layer 3 (Foreground)
//Storyboard Sound Samples

[TimingPoints]
179,346.820809248555,4,1,0,60,1,0
11624,-133.333333333333,4,2,0,30,0,0
15785,-117.647058823529,4,2,0,35,0,0
16132,-105.263157894737,4,2,0,40,0,0
16479,-95.2380952380952,4,2,0,45,0,0
17173,-133.333333333333,4,2,0,30,0,0
21335,-133.333333333333,4,2,0,40,0,0
21681,-133.333333333333,4,2,0,50,0,0
22028,-133.333333333333,4,2,0,60,0,0
22375,-100,4,1,0,60,0,1
27924,-100,4,1,0,60,0,0
29311,-100,4,1,1,50,0,0
51508,-100,4,1,0,60,0,0
58444,-100,4,1,0,55,0,0
59832,-100,4,1,0,50,0,0
61219,-100,4,1,0,45,0,0
62606,-133.333333333333,4,1,0,40,0,0
63994,-133.333333333333,4,1,0,35,0,0
65381,-133.333333333333,4,1,0,30,0,0
66768,-133.333333333333,4,1,0,25,0,0
68155,-200,4,2,0,20,0,0

[Colours]
Combo1 : 225,0,0
Combo2 : 232,184,38
Combo3 : 213,255,255
Combo4 : 228,148,58

[HitObjects]
361,287,179,5,4,0:0:0:0:
9,363,525,2,0,L|69:351,1,40
21,287,699,2,0,L|81:275,1,40
377,184,872,5,4,0:0:0:0:
25,260,1219,2,0,L|97:244,1,40
37,184,1392,2,0,L|97:172,1,40
393,81,1566,5,4,0:0:0:0:
41,157,1913,2,0,L|113:141,1,40
53,81,2086,2,0,L|113:69,1,40
339,19,2259,5,4,0:2:0:0:
132,302,2432,1,2,0:2:0:0:
163,0,2606,1,4,0:2:0:0:
307,321,2779,1,2,0:2:0:0:
91,56,2953,5,4,0:0:0:0:
55,316,3300,2,0,P|51:340|55:368,1,40
119,384,3473,2,0,P|123:360|119:328,1,40
183,44,3647,5,4,0:0:0:0:
147,304,3993,2,0,P|143:328|147:360,1,40
211,372,4167,2,0,P|215:348|211:316,1,40
275,32,4340,5,4,0:0:0:0:
239,292,4687,2,0,P|235:316|239:344,1,40
303,360,4860,2,0,P|307:336|303:304,1,40
369,39,5034,5,4,0:2:0:0:
114,59,5206,1,2,0:2:0:0:
369,271,5381,1,4,0:2:0:0:
114,251,5553,1,2,0:2:0:0:
424,140,5728,5,4,0:0:0:0:
0,64,6074,2,0,L|43:72,1,40
113,86,6248,2,0,L|156:94,1,40
448,224,6421,5,4,0:0:0:0:
24,148,6768,2,0,L|67:156,1,40
137,170,6941,2,0,L|180:178,1,40
472,308,7115,5,4,0:0:0:0:
48,232,7461,2,0,L|91:240,1,40
161,254,7635,2,0,L|204:262,1,40
392,364,7809,5,4,0:2:0:0:
185,181,7982,1,2,0:2:0:0:
442,207,8156,1,4,0:2:0:0:
134,336,8330,1,2,0:2:0:0:
430,296,8502,5,4,0:0:0:0:
406,80,8849,2,0,P|410:60|406:28,1,40
478,0,9022,2,0,P|474:20|478:52,1,40
326,316,9196,5,4,0:0:0:0:
302,100,9543,2,0,P|306:80|302:48,1,40
374,20,9716,2,0,P|370:40|374:72,1,40
222,336,9890,5,4,0:0:0:0:
198,120,10237,2,0,P|202:100|198:68,1,40
270,40,10410,2,0,P|266:60|270:92,1,40
140,332,10583,5,4,0:2:0:0:
348,112,10757,1,2,0:2:0:0:
111,150,10930,1,4,0:2:0:0:
377,294,11103,1,2,0:2:0:0:
456,24,11277,5,6,2:0:0:0:
456,100,11624,5,0,0:0:0:0:
388,60,11797,1,0,0:0:0:0:
387,66,11884,1,0,0:0:0:0:
386,71,11970,1,2,0:0:0:0:
385,77,12057,1,0,0:0:0:0:
384,83,12144,1,0,0:0:0:0:
383,89,12231,1,0,0:0:0:0:
382,94,12317,1,0,0:0:0:0:
312,80,12491,1,0,0:0:0:0:
311,86,12578,1,0,0:0:0:0:
310,91,12664,1,2,0:0:0:0:
312,164,13011,5,0,0:0:0:0:
244,124,13184,1,0,0:0:0:0:
243,130,13271,1,0,0:0:0:0:
242,135,13357,1,0,0:0:0:0:
241,141,13444,1,0,0:0:0:0:
240,147,13531,1,0,0:0:0:0:
239,153,13618,1,0,0:0:0:0:
238,158,13704,1,2,0:0:0:0:
168,144,13878,1,2,0:0:0:0:
167,150,13965,1,0,0:0:0:0:
166,155,14051,1,2,0:0:0:0:
172,224,14398,5,0,0:0:0:0:
104,184,14571,1,0,0:0:0:0:
103,190,14658,1,0,0:0:0:0:
102,195,14744,1,2,0:0:0:0:
101,201,14831,1,0,0:0:0:0:
100,207,14918,1,0,0:0:0:0:
99,213,15005,1,0,0:0:0:0:
98,218,15091,1,0,0:0:0:0:
28,204,15265,1,0,0:0:0:0:
27,210,15352,1,0,0:0:0:0:
27,216,15439,6,0,L|35:268,3,30.0000011444092,2|0|0|0,0:0|0:0|0:0|0:0,0:0:0:0:
87,108,15785,6,0,L|95:167,3,34.0000006484985,4|0|0|0,0:0|0:0|0:0|0:0,0:0:0:0:
219,52,16132,6,0,L|227:117,3,37.9999989852906,6|0|0|0,0:0|0:0|0:0|0:0,0:0:0:0:
399,108,16479,6,0,L|406:173,1,41.9999987182618,4|0,0:0|0:0,0:0:0:0:
492,82,16652,2,0,L|485:17,1,41.9999987182618
456,360,16826,5,6,0:0:0:0:
456,284,17173,5,0,0:0:0:0:
372,252,17346,1,0,0:0:0:0:
373,258,17433,1,0,0:0:0:0:
374,263,17519,1,2,0:0:0:0:
375,269,17606,1,0,0:0:0:0:
376,275,17693,1,0,0:0:0:0:
377,281,17780,1,0,0:0:0:0:
378,286,17866,1,0,0:0:0:0:
300,272,18040,1,0,0:0:0:0:
301,278,18127,1,0,0:0:0:0:
302,283,18213,1,2,0:0:0:0:
316,204,18560,5,0,0:0:0:0:
232,172,18733,1,0,0:0:0:0:
233,178,18820,1,0,0:0:0:0:
234,183,18906,1,0,0:0:0:0:
235,189,18993,1,0,0:0:0:0:
236,195,19080,1,0,0:0:0:0:
237,201,19167,1,0,0:0:0:0:
238,206,19254,1,2,0:0:0:0:
160,192,19427,1,2,0:0:0:0:
161,198,19514,1,0,0:0:0:0:
162,203,19600,1,2,0:0:0:0:
176,124,19947,5,0,0:0:0:0:
92,92,20120,1,0,0:0:0:0:
93,98,20207,1,0,0:0:0:0:
94,103,20293,1,0,0:0:0:0:
95,109,20380,1,0,0:0:0:0:
96,115,20467,1,0,0:0:0:0:
97,121,20554,1,0,0:0:0:0:
98,126,20640,1,2,0:0:0:0:
20,112,20814,1,2,0:0:0:0:
21,118,20901,1,0,0:0:0:0:
21,124,20988,5,2,0:0:0:0:
22,134,21074,1,0,0:0:0:0:
23,144,21161,1,0,0:0:0:0:
24,154,21248,1,0,0:0:0:0:
49,178,21335,5,4,0:0:0:0:
55,190,21421,1,0,0:0:0:0:
61,203,21508,1,0,0:0:0:0:
67,216,21595,1,0,0:0:0:0:
128,230,21681,5,4,0:0:0:0:
150,245,21768,1,0,0:0:0:0:
172,259,21855,1,0,0:0:0:0:
194,274,21942,1,0,0:0:0:0:
204,348,22028,5,4,0:0:0:0:
244,327,22115,1,0,0:0:0:0:
265,287,22202,1,0,0:0:0:0:
263,242,22288,1,0,0:0:0:0:
289,175,22375,5,6,0:0:0:0:
382,13,22548,1,0,0:0:0:0:
387,11,22606,1,0,0:0:0:0:
392,9,22664,1,0,0:0:0:0:
397,7,22722,1,0,0:0:0:0:
195,14,22895,1,0,0:0:0:0:
205,238,23069,5,6,0:0:0:0:
298,76,23242,1,0,0:0:0:0:
303,74,23300,1,0,0:0:0:0:
308,72,23358,1,0,0:0:0:0:
313,70,23416,1,0,0:0:0:0:
111,77,23589,1,0,0:0:0:0:
125,301,23762,5,6,0:0:0:0:
218,139,23935,1,0,0:0:0:0:
223,137,23993,1,0,0:0:0:0:
228,135,24051,1,0,0:0:0:0:
233,133,24109,1,0,0:0:0:0:
31,140,24282,1,0,0:0:0:0:
226,287,24456,5,2,0:0:0:0:
272,206,24629,1,0,0:0:0:0:
277,204,24687,1,0,0:0:0:0:
282,202,24745,1,0,0:0:0:0:
287,200,24803,1,2,0:0:0:0:
179,206,24976,1,0,0:0:0:0:
144,364,25150,5,6,0:0:0:0:
61,217,25323,1,0,0:0:0:0:
66,215,25381,1,0,0:0:0:0:
71,213,25439,1,0,0:0:0:0:
76,211,25497,1,0,0:0:0:0:
191,88,25670,1,0,0:0:0:0:
252,333,25843,5,6,0:0:0:0:
169,186,26016,1,0,0:0:0:0:
174,184,26074,1,0,0:0:0:0:
179,182,26132,1,0,0:0:0:0:
184,180,26190,1,0,0:0:0:0:
299,57,26363,1,0,0:0:0:0:
360,302,26537,5,6,0:0:0:0:
277,155,26710,1,0,0:0:0:0:
282,153,26768,1,0,0:0:0:0:
287,151,26826,1,0,0:0:0:0:
292,149,26884,1,0,0:0:0:0:
407,26,27057,1,0,0:0:0:0:
489,252,27231,5,2,0:0:0:0:
439,181,27404,1,0,0:0:0:0:
444,179,27462,1,0,0:0:0:0:
449,177,27520,1,0,0:0:0:0:
454,175,27578,1,2,0:0:0:0:
512,113,27751,1,0,0:0:0:0:
216,23,27924,5,6,0:0:0:0:
216,23,28618,1,6,0:0:0:0:
216,152,28965,1,6,0:0:0:0:
216,180,29051,1,0,0:0:0:0:
216,208,29138,1,0,0:0:0:0:
216,236,29225,1,0,0:0:0:0:
216,264,29311,5,10,0:2:0:0:
388,264,29485,1,0,0:2:0:0:
416,264,29572,1,0,0:2:0:0:
444,264,29658,1,0,0:2:0:0:
228,280,29832,5,8,0:2:0:0:
400,280,30005,1,0,0:2:0:0:
428,280,30092,1,0,0:2:0:0:
456,280,30179,1,0,0:2:0:0:
240,296,30352,5,8,0:2:0:0:
274,68,30525,1,0,0:2:0:0:
409,178,30699,5,10,0:2:0:0:
237,178,30873,1,0,0:2:0:0:
209,178,30959,1,0,0:2:0:0:
181,178,31046,1,0,0:2:0:0:
397,162,31219,5,8,0:2:0:0:
225,162,31393,1,0,0:2:0:0:
197,162,31479,1,0,0:2:0:0:
169,162,31566,1,0,0:2:0:0:
385,146,31739,5,8,0:2:0:0:
161,230,31913,1,0,0:2:0:0:
282,338,32086,5,10,0:2:0:0:
282,166,32260,1,0,0:2:0:0:
282,138,32346,1,0,0:2:0:0:
282,110,32433,1,0,0:2:0:0:
298,326,32606,5,10,0:2:0:0:
298,154,32780,1,0,0:2:0:0:
298,126,32866,1,0,0:2:0:0:
298,98,32953,1,0,0:2:0:0:
314,314,33126,5,8,0:2:0:0:
93,252,33299,1,2,0:2:0:0:
220,94,33473,5,8,0:2:0:0:
220,266,33647,1,0,0:2:0:0:
220,294,33733,1,0,0:2:0:0:
220,322,33820,1,0,0:2:0:0:
204,106,33993,5,10,0:2:0:0:
204,278,34167,1,0,0:2:0:0:
204,306,34253,1,0,0:2:0:0:
204,334,34340,1,0,0:2:0:0:
188,118,34514,5,14,0:2:0:0:
512,136,34687,1,6,0:2:0:0:
220,206,34861,5,14,0:2:0:0:
341,84,35035,1,0,0:2:0:0:
361,64,35122,1,0,0:2:0:0:
381,44,35208,1,0,0:2:0:0:
239,208,35382,5,8,0:2:0:0:
361,87,35555,1,0,0:2:0:0:
381,67,35642,1,0,0:2:0:0:
401,47,35729,1,0,0:2:0:0:
259,211,35902,5,10,0:2:0:0:
122,26,36075,1,2,0:2:0:0:
278,97,36248,5,10,0:2:0:0:
157,219,36422,1,0,0:2:0:0:
137,239,36509,1,0,0:2:0:0:
117,259,36595,1,0,0:2:0:0:
259,95,36769,5,8,0:2:0:0:
137,216,36942,1,0,0:2:0:0:
117,236,37029,1,0,0:2:0:0:
97,256,37116,1,0,0:2:0:0:
239,92,37289,5,8,0:2:0:0:
207,289,37462,1,0,0:2:0:0:
146,81,37635,5,10,0:2:0:0:
268,202,37809,1,0,0:2:0:0:
288,222,37896,1,0,0:2:0:0:
308,242,37982,1,0,0:2:0:0:
144,100,38156,5,8,0:2:0:0:
265,222,38329,1,0,0:2:0:0:
285,242,38416,1,0,0:2:0:0:
305,262,38503,1,0,0:2:0:0:
141,120,38676,5,8,0:2:0:0:
0,229,38849,1,0,0:2:0:0:
175,255,39022,5,10,0:2:0:0:
53,134,39196,1,0,0:2:0:0:
33,114,39283,1,0,0:2:0:0:
13,94,39369,1,0,0:2:0:0:
177,236,39543,5,8,0:2:0:0:
56,114,39716,1,2,0:2:0:0:
36,94,39803,1,0,0:2:0:0:
16,74,39890,1,0,0:2:0:0:
180,216,40063,5,12,0:2:0:0:
512,105,40236,1,4,0:2:0:0:
344,118,40410,5,10,0:2:0:0:
344,310,40583,1,0,0:2:0:0:
344,338,40670,1,0,0:2:0:0:
344,366,40757,1,0,0:2:0:0:
324,130,40930,5,10,0:2:0:0:
324,322,41103,1,0,0:2:0:0:
324,350,41190,1,0,0:2:0:0:
324,378,41277,1,0,0:2:0:0:
300,142,41451,5,8,0:2:0:0:
88,161,41624,1,0,0:2:0:0:
272,262,41798,5,8,0:2:0:0:
272,70,41970,1,0,0:2:0:0:
272,42,42057,1,0,0:2:0:0:
272,14,42144,1,0,0:2:0:0:
252,250,42318,5,8,0:2:0:0:
252,58,42490,1,0,0:2:0:0:
252,30,42577,1,0,0:2:0:0:
252,2,42664,1,0,0:2:0:0:
228,238,42838,5,10,0:2:0:0:
92,59,43011,1,2,0:2:0:0:
260,126,43185,5,10,0:2:0:0:
68,126,43357,1,0,0:2:0:0:
40,126,43444,1,0,0:2:0:0:
12,126,43531,1,0,0:2:0:0:
248,146,43705,5,10,0:2:0:0:
56,146,43877,1,2,0:2:0:0:
28,146,43964,1,0,0:2:0:0:
0,146,44051,1,0,0:2:0:0:
236,170,44225,5,8,0:2:0:0:
198,383,44398,1,0,0:2:0:0:
116,198,44572,5,8,0:2:0:0:
308,198,44744,1,0,0:2:0:0:
336,198,44831,1,0,0:2:0:0:
364,198,44918,1,0,0:2:0:0:
128,218,45091,5,8,0:2:0:0:
320,218,45264,1,0,0:2:0:0:
348,218,45351,1,0,0:2:0:0:
376,218,45438,1,0,0:2:0:0:
140,242,45611,5,14,0:2:0:0:
429,384,45785,1,6,0:2:0:0:
205,178,45959,5,14,0:2:0:0:
84,300,46133,1,0,0:2:0:0:
64,320,46220,1,0,0:2:0:0:
44,340,46306,1,0,0:2:0:0:
186,176,46480,5,8,0:2:0:0:
64,297,46653,1,0,0:2:0:0:
44,317,46740,1,0,0:2:0:0:
24,337,46827,1,0,0:2:0:0:
166,173,47000,5,8,0:2:0:0:
303,358,47173,1,0,0:2:0:0:
147,287,47346,5,10,0:2:0:0:
268,165,47520,1,0,0:2:0:0:
288,145,47607,1,0,0:2:0:0:
308,125,47693,1,0,0:2:0:0:
166,289,47867,5,8,0:2:0:0:
288,168,48040,1,0,0:2:0:0:
308,148,48127,1,0,0:2:0:0:
328,128,48214,1,0,0:2:0:0:
186,292,48387,5,10,0:2:0:0:
218,95,48560,1,0,0:2:0:0:
279,303,48733,5,10,0:2:0:0:
157,182,48907,1,0,0:2:0:0:
137,162,48994,1,0,0:2:0:0:
117,142,49080,1,0,0:2:0:0:
281,284,49254,5,8,0:2:0:0:
160,162,49427,1,2,0:2:0:0:
140,142,49514,1,0,0:2:0:0:
120,122,49601,1,0,0:2:0:0:
284,264,49774,5,8,0:2:0:0:
437,155,49947,1,0,0:2:0:0:
250,129,50120,5,10,0:2:0:0:
372,250,50294,1,0,0:2:0:0:
392,270,50381,1,0,0:2:0:0:
412,290,50467,1,0,0:2:0:0:
248,148,50641,5,8,0:2:0:0:
369,270,50814,1,2,0:2:0:0:
389,290,50901,1,0,0:2:0:0:
409,310,50988,1,0,0:2:0:0:
245,168,51161,5,12,0:2:0:0:
469,98,51335,1,4,0:2:0:0:
76,344,51508,5,4,0:0:0:0:
52,96,51855,2,0,L|48:48,1,40
112,24,52029,2,0,L|116:72,1,40
180,352,52202,5,4,0:0:0:0:
156,104,52549,2,0,L|152:56,1,40
216,32,52723,2,0,L|220:80,1,40
284,360,52894,5,4,0:0:0:0:
260,112,53242,2,0,L|256:64,1,40
320,40,53415,2,0,L|324:88,1,40
396,336,53589,5,4,0:2:0:0:
116,336,53762,1,2,0:2:0:0:
432,220,53936,1,4,0:2:0:0:
80,220,54109,1,2,0:2:0:0:
408,104,54283,5,4,0:0:0:0:
44,124,54630,2,0,P|64:127|88:124,1,40
72,60,54803,2,0,P|91:58|111:61,1,40
436,196,54976,5,4,0:0:0:0:
72,216,55323,2,0,P|92:219|116:216,1,40
100,152,55496,2,0,P|119:150|139:153,1,40
464,288,55670,5,4,0:0:0:0:
100,308,56017,2,0,P|120:311|144:308,1,40
128,244,56190,2,0,P|147:242|167:245,1,40
400,364,56363,5,4,0:2:0:0:
193,81,56537,1,2,0:2:0:0:
224,383,56710,1,4,0:2:0:0:
368,62,56884,1,2,0:2:0:0:
58,102,57057,5,4,0:0:0:0:
433,148,57404,2,0,L|384:142,1,40
402,211,57577,2,0,L|353:205,1,40
89,174,57751,5,4,0:0:0:0:
464,220,58098,2,0,L|415:214,1,40
433,283,58271,2,0,L|384:277,1,40
120,246,58444,5,4,0:0:0:0:
495,292,58791,2,0,L|446:286,1,40
464,355,58964,2,0,L|415:349,1,40
104,356,59138,5,4,0:2:0:0:
164,88,59311,1,2,0:2:0:0:
408,356,59485,1,4,0:2:0:0:
348,88,59658,1,2,0:2:0:0:
106,340,59832,5,4,0:0:0:0:
80,39,60179,2,0,P|76:63|80:91,1,40
92,143,60352,2,0,P|95:163|94:183,1,40
217,358,60525,5,4,0:0:0:0:
191,57,60872,2,0,P|187:81|191:109,1,40
203,161,61045,2,0,P|206:181|205:201,1,40
328,376,61219,5,4,0:0:0:0:
302,75,61566,2,0,P|298:99|302:127,1,40
314,179,61739,2,0,P|317:199|316:219,1,40
402,368,61913,5,4,0:2:0:0:
254,120,62087,1,2,0:2:0:0:
452,170,62260,1,4,0:2:0:0:
205,318,62433,1,2,0:2:0:0:
386,108,62606,5,4,0:0:0:0:
403,300,62953,2,0,L|399:260,1,30.0000011444092
339,288,63126,2,0,L|335:248,1,30.0000011444092
313,87,63300,5,4,0:0:0:0:
330,279,63647,2,0,L|326:239,1,30.0000011444092
266,267,63820,2,0,L|262:227,1,30.0000011444092
240,66,63993,5,4,0:0:0:0:
257,258,64340,2,0,L|253:218,1,30.0000011444092
193,246,64513,2,0,L|189:206,1,30.0000011444092
193,18,64687,5,4,0:2:0:0:
219,156,64861,1,2,0:2:0:0:
80,183,65034,1,4,0:2:0:0:
54,45,65207,1,2,0:2:0:0:
137,100,65381,5,4,0:0:0:0:
256,192,65468,12,6,68155,0:0:0:0:
