osu file format v14

[General]
AudioFilename: audio.mp3
AudioLeadIn: 0
PreviewTime: 179
Countdown: 0
SampleSet: None
StackLeniency: 0.6
Mode: 0
LetterboxInBreaks: 0
WidescreenStoryboard: 1

[Editor]
DistanceSpacing: 1.7
BeatDivisor: 4
GridSize: 4
TimelineZoom: 2.699999

[Metadata]
Title:Butsutekkai
TitleUnicode:仏鉄塊
Artist:Hiroshi Iuchi
ArtistUnicode:井内ひろし
Creator:non-one
Version:Icebolt's Insane
Source:斑鳩 IKARUGA
Tags:icebolt taru shmup boss theme original soundtrack ost
BeatmapID:1406426
BeatmapSetID:592207

[Difficulty]
HPDrainRate:6
CircleSize:4.5
OverallDifficulty:7.2
ApproachRate:8.5
SliderMultiplier:1.4
SliderTickRate:1

[Events]
//Background and Video events
0,0,"IKARUGAAH.png",0,0
//Break Periods
//Storyboard Layer 0 (Background)
//Storyboard Layer 1 (Fail)
//Storyboard Layer 2 (Pass)
//Storyboard Layer 3 (Foreground)
//Storyboard Sound Samples

[TimingPoints]
179,346.820809248555,4,1,0,60,1,0
11624,-117.647058823529,4,2,0,30,0,0
15785,-83.3333333333333,4,2,0,40,0,0
16132,-71.4285714285714,4,2,0,50,0,0
16479,-62.5,4,2,0,60,0,0
17173,-117.647058823529,4,2,0,30,0,0
21335,-100,4,2,0,40,0,0
21681,-86.9565217391305,4,2,0,50,0,0
22028,-76.9230769230769,4,2,0,60,0,0
22375,-100,4,1,0,60,0,1
27924,-100,4,1,0,60,0,0
29311,-100,4,1,1,50,0,0
51508,-100,4,1,0,60,0,0
58444,-100,4,1,0,55,0,0
59832,-100,4,1,0,50,0,0
61219,-100,4,1,0,45,0,0
62606,-133.333333333333,4,1,0,40,0,0
63994,-133.333333333333,4,1,0,35,0,0
65381,-133.333333333333,4,1,0,30,0,0
66768,-133.333333333333,4,1,0,25,0,0
68155,-200,4,2,0,20,0,0

[Colours]
Combo1 : 225,0,0
Combo2 : 232,184,38
Combo3 : 213,255,255
Combo4 : 228,148,58

[HitObjects]
55,161,179,6,0,L|59:256,1,70,4|0,0:0|0:0,0:0:0:0:
150,280,525,1,0,0:0:0:0:
150,262,611,1,0,0:0:0:0:
151,245,698,1,0,0:0:0:0:
152,227,785,1,0,0:0:0:0:
153,210,872,6,0,L|155:140,1,70,4|0,0:0|0:0,0:0:0:0:
260,127,1219,1,0,0:0:0:0:
261,144,1305,1,0,0:0:0:0:
261,162,1392,1,0,0:0:0:0:
262,179,1479,1,0,0:0:0:0:
263,197,1566,6,0,L|265:266,1,70,4|0,0:0|0:0,0:0:0:0:
360,312,1913,2,0,L|421:314,3,35
352,233,2259,5,4,0:2:0:0:
493,238,2433,1,2,0:2:0:0:
265,266,2606,1,4,0:2:0:0:
420,182,2780,1,2,0:2:0:0:
178,299,2953,6,0,L|109:297,1,70,4|0,0:0|0:0,0:0:0:0:
48,209,3300,1,0,0:0:0:0:
66,209,3386,1,0,0:0:0:0:
83,208,3473,1,0,0:0:0:0:
101,207,3560,1,0,0:0:0:0:
118,206,3647,6,0,L|188:204,1,70,4|0,0:0|0:0,0:0:0:0:
247,117,3994,1,0,0:0:0:0:
229,117,4080,1,0,0:0:0:0:
212,116,4167,1,0,0:0:0:0:
194,115,4254,1,0,0:0:0:0:
177,114,4341,6,0,L|107:112,1,70,4|0,0:0|0:0,0:0:0:0:
35,35,4687,2,0,L|-26:37,3,35
131,32,5034,5,4,0:2:0:0:
118,206,5208,1,2,0:2:0:0:
231,29,5381,1,4,0:2:0:0:
218,225,5555,1,2,0:2:0:0:
328,35,5728,6,0,L|398:37,1,70,4|0,0:0|0:0,0:0:0:0:
466,116,6074,1,0,0:0:0:0:
448,116,6160,1,0,0:0:0:0:
431,117,6247,1,0,0:0:0:0:
413,118,6334,1,0,0:0:0:0:
396,119,6421,6,0,L|326:121,1,70,4|0,0:0|0:0,0:0:0:0:
327,226,6768,1,0,0:0:0:0:
345,226,6854,1,0,0:0:0:0:
362,227,6941,1,0,0:0:0:0:
380,228,7028,1,0,0:0:0:0:
397,229,7115,6,0,L|467:231,1,70,4|0,0:0|0:0,0:0:0:0:
420,325,7462,2,0,L|359:323,3,35
501,328,7809,5,4,0:2:0:0:
308,319,7983,1,2,0:2:0:0:
466,230,8155,1,4,0:2:0:0:
273,221,8329,1,2,0:2:0:0:
431,132,8502,6,0,L|501:134,1,70,4|0,0:0|0:0,0:0:0:0:
458,37,8849,1,0,0:0:0:0:
440,37,8935,1,0,0:0:0:0:
423,38,9022,1,0,0:0:0:0:
405,39,9109,1,0,0:0:0:0:
388,40,9196,6,0,L|318:42,1,70,4|0,0:0|0:0,0:0:0:0:
253,125,9543,1,0,0:0:0:0:
271,125,9629,1,0,0:0:0:0:
288,126,9716,1,0,0:0:0:0:
306,127,9803,1,0,0:0:0:0:
323,128,9890,6,0,L|393:130,1,70,4|0,0:0|0:0,0:0:0:0:
338,219,10236,2,0,L|277:221,3,35
423,216,10583,5,4,0:2:0:0:
415,371,10757,1,2,0:2:0:0:
401,136,10930,1,4,0:2:0:0:
343,313,11104,1,2,0:2:0:0:
461,82,11277,5,6,0:2:0:0:
461,82,11624,5,0,0:0:0:0:
425,161,11797,2,0,L|426:215,6,29.7500005674362,0|0|2|0|0|0|0,0:0|0:0|0:0|0:0|0:0|0:0|0:0,0:0:0:0:
343,190,12491,1,0,0:0:0:0:
343,190,12577,1,0,0:0:0:0:
343,190,12664,1,2,0:0:0:0:
204,157,13011,5,0,0:0:0:0:
263,216,13184,2,0,L|261:270,6,29.7500005674362,0|0|0|0|0|0|2,0:0|0:0|0:0|0:0|0:0|0:0|0:0,0:0:0:0:
343,190,13878,1,2,0:0:0:0:
343,190,13964,1,0,0:0:0:0:
343,190,14051,1,2,0:0:0:0:
204,157,14398,5,0,0:0:0:0:
145,216,14572,2,0,L|146:270,6,29.7500005674362,0|0|2|0|0|0|0,0:0|0:0|0:0|0:0|0:0|0:0|0:0,0:0:0:0:
65,190,15265,1,0,0:0:0:0:
65,190,15351,1,0,0:0:0:0:
65,190,15439,6,0,L|64:160,3,29.7500005674362,2|0|0|0,0:0|0:0|0:0|0:0,0:0:0:0:
145,216,15785,6,0,L|146:266,3,41.9999987182618,4|0|0|0,0:0|0:0|0:0|0:0,0:0:0:0:
225,271,16132,6,0,L|226:331,3,48.9999985046387,6|0|0|0,0:0|0:0|0:0|0:0,0:0:0:0:
305,326,16479,6,0,L|306:383,1,56,4|0,0:0|0:0,0:0:0:0:
224,193,16652,2,0,L|225:135,1,56
380,190,16826,5,6,0:0:0:0:
380,190,17173,5,0,0:0:0:0:
439,249,17346,2,0,L|493:248,6,29.7500005674362,0|0|2|0|0|0|0,0:0|0:0|0:0|0:0|0:0|0:0|0:0,0:0:0:0:
413,329,18040,1,0,0:0:0:0:
413,329,18126,1,0,0:0:0:0:
413,329,18213,1,2,0:0:0:0:
380,190,18560,5,0,0:0:0:0:
321,131,18733,2,0,L|267:132,6,29.7500005674362,0|0|0|0|0|0|2,0:0|0:0|0:0|0:0|0:0|0:0|0:0,0:0:0:0:
347,51,19427,1,2,0:0:0:0:
347,51,19513,1,0,0:0:0:0:
347,51,19600,1,2,0:0:0:0:
380,190,19947,5,0,0:0:0:0:
321,249,20120,2,0,L|322:303,6,29.7500005674362,0|0|0|0|0|0|2,0:0|0:0|0:0|0:0|0:0|0:0|0:0,0:0:0:0:
241,223,20814,1,2,0:0:0:0:
241,223,20900,1,0,0:0:0:0:
241,223,20988,6,0,L|240:193,3,29.7500005674362,2|0|0|0,0:0|0:0|0:0|0:0,0:0:0:0:
158,247,21335,6,0,L|158:281,3,35,4|0|0|0,0:0|0:0|0:0|0:0,0:0:0:0:
52,182,21681,6,0,L|53:223,3,40.2500007677078,4|0|0|0,0:0|0:0|0:0|0:0,0:0:0:0:
86,324,22028,5,4,0:0:0:0:
118,355,22114,1,0,0:0:0:0:
161,367,22201,1,0,0:0:0:0:
204,354,22288,1,0,0:0:0:0:
239,319,22375,5,6,0:0:0:0:
236,102,22548,1,0,0:0:0:0:
236,102,22722,2,0,L|236:4,1,70
147,262,23069,5,6,0:0:0:0:
333,150,23242,1,0,0:0:0:0:
333,150,23416,2,0,L|417:100,1,70
142,151,23762,5,6,0:0:0:0:
331,256,23935,1,0,0:0:0:0:
331,256,24109,2,0,L|415:305,1,70
236,102,24456,5,2,0:0:0:0:
142,151,24629,2,0,L|142:178,3,23.3333333333333,0|0|0|2,0:0|0:0|0:0|0:0,0:0:0:0:
45,105,24976,1,0,0:0:0:0:
236,32,25150,5,6,0:0:0:0:
239,249,25323,1,0,0:0:0:0:
239,249,25497,2,0,L|239:347,1,70
328,89,25844,5,6,0:0:0:0:
142,201,26017,1,0,0:0:0:0:
142,201,26191,2,0,L|58:251,1,70
333,200,26537,5,6,0:0:0:0:
144,95,26710,1,0,0:0:0:0:
144,95,26884,2,0,L|60:46,1,70
239,249,27231,5,2,0:0:0:0:
333,200,27404,2,0,L|333:173,3,23.3333333333333,0|0|0|2,0:0|0:0|0:0|0:0,0:0:0:0:
430,246,27751,1,0,0:0:0:0:
239,144,27924,5,6,0:0:0:0:
239,144,28618,1,6,0:0:0:0:
239,144,28965,1,6,0:0:0:0:
257,115,29051,1,0,0:0:0:0:
285,95,29138,1,0,0:0:0:0:
320,89,29225,1,0,0:0:0:0:
354,94,29311,6,0,P|409:126|505:94,1,140,10|0,0:2|0:2,0:2:0:0:
477,219,29832,2,0,P|409:205|349:238,1,140,10|0,0:2|0:2,0:2:0:0:
428,308,30352,1,10,0:2:0:0:
428,308,30525,1,0,0:2:0:0:
328,343,30699,6,0,L|182:338,1,140,10|0,0:2|0:2,0:2:0:0:
117,260,31219,2,0,L|256:256,1,140,10|0,0:2|0:2,0:2:0:0:
325,176,31739,1,10,0:2:0:0:
325,176,31912,1,0,0:2:0:0:
234,126,32086,6,0,P|226:199|259:258,1,140,10|0,0:2|0:2,0:2:0:0:
382,252,32606,2,0,P|413:190|404:122,1,140,10|0,0:2|0:2,0:2:0:0:
324,53,33126,1,10,0:2:0:0:
324,53,33299,1,0,0:2:0:0:
234,126,33473,6,0,P|172:157|104:148,1,140,10|0,0:2|0:2,0:2:0:0:
58,244,33994,2,0,P|126:235|187:266,1,140,10|0,0:2|0:2,0:2:0:0:
64,336,34514,5,14,0:2:0:0:
50,146,34687,1,4,0:2:0:0:
64,336,34861,6,0,L|203:340,1,140,14|0,0:2|0:2,0:2:0:0:
320,252,35381,2,0,L|181:248,1,140,10|0,0:2|0:2,0:2:0:0:
162,163,35901,1,10,0:2:0:0:
162,163,36074,1,0,0:2:0:0:
231,83,36248,6,0,P|262:144|253:212,1,140,10|0,0:2|0:2,0:2:0:0:
231,342,36768,2,0,P|222:273|253:212,1,140,10|0,0:2|0:2,0:2:0:0:
320,293,37288,1,10,0:2:0:0:
320,293,37462,1,0,0:2:0:0:
231,342,37635,6,0,L|92:346,1,140,10|0,0:2|0:2,0:2:0:0:
47,250,38155,2,0,L|186:254,1,140,10|0,0:2|0:2,0:2:0:0:
265,182,38676,1,10,0:2:0:0:
265,182,38850,1,0,0:2:0:0:
178,123,39022,6,0,P|161:190|186:254,1,140,10|0,0:2|0:2,0:2:0:0:
336,250,39543,2,0,P|361:186|345:119,1,140,10|0,0:2|0:2,0:2:0:0:
177,122,40063,5,14,0:2:0:0:
345,119,40236,1,4,0:2:0:0:
177,122,40410,6,0,L|38:126,1,140,10|0,0:2|0:2,0:2:0:0:
64,238,40930,2,0,L|203:242,1,140,10|0,0:2|0:2,0:2:0:0:
336,250,41450,1,10,0:2:0:0:
336,250,41624,1,0,0:2:0:0:
393,166,41797,6,0,P|326:149|262:175,1,140,10|0,0:2|0:2,0:2:0:0:
336,250,42317,2,0,P|403:266|468:242,1,140,10|0,0:2|0:2,0:2:0:0:
393,166,42837,1,10,0:2:0:0:
393,166,43011,1,0,0:2:0:0:
262,174,43184,6,0,L|258:313,1,140,10|0,0:2|0:2,0:2:0:0:
165,239,43705,2,0,L|161:100,1,140,10|0,0:2|0:2,0:2:0:0:
266,61,44225,1,10,0:2:0:0:
266,61,44398,1,0,0:2:0:0:
356,138,44572,6,0,P|422:154|487:129,1,140,10|0,0:2|0:2,0:2:0:0:
455,243,45092,2,0,P|388:226|323:251,1,140,10|0,0:2|0:2,0:2:0:0:
463,336,45612,5,14,0:2:0:0:
487,128,45785,1,4,0:2:0:0:
463,336,45959,6,0,L|324:332,1,140,14|0,0:2|0:2,0:2:0:0:
183,254,46479,2,0,L|322:250,1,140,10|0,0:2|0:2,0:2:0:0:
444,250,46999,1,10,0:2:0:0:
444,250,47173,1,0,0:2:0:0:
364,161,47346,6,0,L|225:157,1,140,10|0,0:2|0:2,0:2:0:0:
155,59,47866,2,0,L|294:63,1,140,10|0,0:2|0:2,0:2:0:0:
409,70,48387,1,10,0:2:0:0:
409,70,48560,1,0,0:2:0:0:
489,157,48733,6,0,P|471:223|495:288,1,140,10|0,0:2|0:2,0:2:0:0:
370,292,49254,2,0,P|387:225|363:160,1,140,10|0,0:2|0:2,0:2:0:0:
266,230,49774,1,10,0:2:0:0:
266,230,49947,1,0,0:2:0:0:
162,170,50121,6,0,L|166:309,1,140,10|0,0:2|0:2,0:2:0:0:
51,342,50641,2,0,L|55:203,1,140,10|0,0:2|0:2,0:2:0:0:
61,24,51161,5,14,0:2:0:0:
254,51,51335,1,4,0:2:0:0:
61,24,51508,6,0,L|57:119,1,70,4|0,0:0|0:0,0:0:0:0:
151,175,51855,1,0,0:0:0:0:
151,157,51941,1,0,0:0:0:0:
152,140,52028,1,0,0:0:0:0:
153,122,52115,1,0,0:0:0:0:
154,105,52202,6,0,L|156:35,1,70,4|0,0:0|0:0,0:0:0:0:
252,135,52548,1,0,0:0:0:0:
252,153,52634,1,0,0:0:0:0:
251,170,52721,1,0,0:0:0:0:
250,188,52808,1,0,0:0:0:0:
249,205,52895,6,0,L|247:275,1,70,4|0,0:0|0:0,0:0:0:0:
349,189,53242,2,0,L|350:131,3,35
352,80,53589,5,4,2:0:0:0:
498,87,53762,1,2,0:2:0:0:
252,135,53936,1,4,2:0:0:0:
434,143,54109,1,2,0:2:0:0:
152,190,54283,6,0,L|148:285,1,70,4|0,0:0|0:0,0:0:0:0:
253,361,54629,1,0,0:0:0:0:
253,343,54715,1,0,0:0:0:0:
252,326,54802,1,0,0:0:0:0:
251,308,54889,1,0,0:0:0:0:
250,291,54976,6,0,L|248:221,1,70,4|0,0:0|0:0,0:0:0:0:
349,189,55323,1,0,0:0:0:0:
349,207,55409,1,0,0:0:0:0:
348,224,55496,1,0,0:0:0:0:
347,242,55583,1,0,0:0:0:0:
346,259,55670,6,0,L|344:329,1,70,4|0,0:0|0:0,0:0:0:0:
431,227,56017,2,0,L|432:161,3,35
435,122,56363,5,4,0:2:0:0:
504,266,56537,1,2,0:2:0:0:
344,116,56710,1,4,0:2:0:0:
433,303,56884,1,2,0:2:0:0:
253,110,57057,6,0,L|255:40,1,70,4|0,0:0|0:0,0:0:0:0:
148,65,57404,1,0,0:0:0:0:
148,83,57490,1,0,0:0:0:0:
149,100,57577,1,0,0:0:0:0:
150,118,57664,1,0,0:0:0:0:
151,135,57751,6,0,L|153:205,1,70,4|0,0:0|0:0,0:0:0:0:
248,249,58098,1,0,0:0:0:0:
248,231,58184,1,0,0:0:0:0:
249,214,58271,1,0,0:0:0:0:
250,196,58358,1,0,0:0:0:0:
251,179,58444,6,0,L|253:109,1,70,4|0,0:0|0:0,0:0:0:0:
353,136,58791,2,0,L|351:185,3,35
350,243,59138,5,4,0:2:0:0:
475,180,59311,1,2,0:2:0:0:
423,286,59485,1,4,0:2:0:0:
430,110,59658,1,2,0:2:0:0:
508,275,59832,6,0,L|506:345,1,70,4|0,0:0|0:0,0:0:0:0:
420,348,60179,1,0,0:0:0:0:
420,332,60265,1,0,0:0:0:0:
421,317,60352,1,0,0:0:0:0:
422,301,60439,1,0,0:0:0:0:
423,286,60526,6,0,L|425:211,1,70,4|0,0:0|0:0,0:0:0:0:
331,226,60872,1,0,0:0:0:0:
331,242,60958,1,0,0:0:0:0:
330,258,61045,1,0,0:0:0:0:
330,274,61132,1,0,0:0:0:0:
329,289,61219,6,0,L|327:365,1,70,4|0,0:0|0:0,0:0:0:0:
244,300,61566,2,0,L|245:235,3,35
246,185,61913,5,4,0:2:0:0:
148,148,62086,1,2,0:2:0:0:
329,115,62259,1,4,0:2:0:0:
231,78,62432,1,2,0:2:0:0:
399,42,62606,6,0,L|469:44,1,52.5000020027161,4|0,0:0|0:0,0:0:0:0:
445,120,62953,1,0,0:0:0:0:
428,120,63039,1,0,0:0:0:0:
413,119,63126,1,0,0:0:0:0:
397,118,63213,1,0,0:0:0:0:
382,117,63300,6,0,L|319:115,1,52.5000020027161,4|0,0:0|0:0,0:0:0:0:
253,185,63647,1,0,0:0:0:0:
269,185,63733,1,0,0:0:0:0:
284,186,63820,1,0,0:0:0:0:
300,187,63907,1,0,0:0:0:0:
316,188,63994,6,0,L|378:189,1,52.5000020027161,4|0,0:0|0:0,0:0:0:0:
454,208,64340,2,0,L|496:209,3,26.2500010013581
392,268,64687,5,4,0:2:0:0:
368,189,64861,1,2,0:2:0:0:
335,328,65034,1,4,0:2:0:0:
311,249,65207,1,2,0:2:0:0:
415,347,65381,5,4,0:0:0:0:
256,192,65468,12,6,68155,0:0:0:0:
