osu file format v14

[General]
AudioFilename: audio.mp3
AudioLeadIn: 0
PreviewTime: 179
Countdown: 0
SampleSet: Normal
StackLeniency: 0.8
Mode: 0
LetterboxInBreaks: 0
WidescreenStoryboard: 1

[Editor]
DistanceSpacing: 1
BeatDivisor: 4
GridSize: 4
TimelineZoom: 1

[Metadata]
Title:Butsutekkai
TitleUnicode:仏鉄塊
Artist:Hiroshi Iuchi
ArtistUnicode:井内ひろし
Creator:non-one
Version:Icebolt's Advanced
Source:斑鳩 IKARUGA
Tags:icebolt taru shmup boss theme original soundtrack ost
BeatmapID:1371351
BeatmapSetID:592207

[Difficulty]
HPDrainRate:4.5
CircleSize:4
OverallDifficulty:5
ApproachRate:6
SliderMultiplier:0.9
SliderTickRate:1

[Events]
//Background and Video events
0,0,"IKARUGAAH.png",0,0
//Break Periods
//Storyboard Layer 0 (Background)
//Storyboard Layer 1 (Fail)
//Storyboard Layer 2 (Pass)
//Storyboard Layer 3 (Foreground)
//Storyboard Sound Samples

[TimingPoints]
179,346.820809248555,4,1,0,60,1,0
11277,-117.647058823529,4,2,0,60,0,0
11624,-117.647058823529,4,2,0,30,0,0
15785,-117.647058823529,4,2,0,35,0,0
16132,-117.647058823529,4,2,0,40,0,0
16479,-117.647058823529,4,2,0,45,0,0
17173,-117.647058823529,4,2,0,30,0,0
21335,-117.647058823529,4,2,0,40,0,0
21681,-117.647058823529,4,2,0,50,0,0
22028,-117.647058823529,4,2,0,60,0,0
22375,-100,4,1,0,60,0,1
27924,-100,4,1,0,60,0,0
29311,-100,4,1,1,50,0,0
51508,-100,4,1,0,60,0,0
58444,-100,4,1,0,55,0,0
59832,-100,4,1,0,50,0,0
61219,-100,4,1,0,45,0,0
62606,-117.647058823529,4,1,0,40,0,0
63994,-117.647058823529,4,1,0,35,0,0
65381,-117.647058823529,4,1,0,30,0,0
66768,-117.647058823529,4,1,0,25,0,0
68155,-200,4,2,0,20,0,0

[Colours]
Combo1 : 225,0,0
Combo2 : 232,184,38
Combo3 : 213,255,255
Combo4 : 228,148,58

[HitObjects]
98,298,179,6,0,P|140:307|202:291,1,90,4|0,0:0|0:0,0:0:0:0:
233,222,872,2,0,L|227:113,1,90,4|0,0:0|0:0,0:0:0:0:
138,128,1566,2,0,L|142:217,1,90,4|0,0:0|0:0,0:0:0:0:
185,298,2259,1,4,0:2:0:0:
185,298,2433,2,0,L|188:359,2,45,2|4|2,0:2|0:2|0:2,0:0:0:0:
212,261,2953,6,0,P|255:252|299:261,1,90,4|0,0:0|0:0,0:0:0:0:
354,333,3647,2,0,P|342:289|347:245,1,90,4|0,0:0|0:0,0:0:0:0:
401,173,4340,2,0,L|311:168,1,90,4|0,0:0|0:0,0:0:0:0:
227,133,5034,1,4,0:2:0:0:
227,133,5207,2,0,L|167:130,2,45,2|4|2,0:2|0:2|0:2,0:0:0:0:
223,178,5728,6,0,L|218:279,1,90,4|0,0:0|0:0,0:0:0:0:
147,323,6421,2,0,P|104:334|60:324,1,90,4|0,0:0|0:0,0:0:0:0:
13,246,7115,2,0,P|55:234|99:244,1,90,4|0,0:0|0:0,0:0:0:0:
176,194,7809,1,4,0:2:0:0:
176,194,7982,2,0,L|220:196,2,45,2|4|2,0:2|0:2|0:2,0:0:0:0:
148,158,8502,6,0,L|153:57,1,90,4|0,0:0|0:0,0:0:0:0:
240,89,9196,2,0,P|282:100|329:93,1,90,4|0,0:0|0:0,0:0:0:0:
416,77,9889,2,0,L|411:166,1,90,4|0,0:0|0:0,0:0:0:0:
353,236,10583,1,4,0:2:0:0:
353,236,10757,2,0,L|350:280,2,45,2|4|2,0:2|0:2|0:2,0:0:0:0:
336,201,11277,6,0,L|167:190,1,153.000002918243,6|2,0:0|0:0,0:0:0:0:
303,285,12664,2,0,P|406:254|396:137,1,229.500004377365,2|2,0:0|0:0,0:0:0:0:
336,201,14051,2,0,L|325:353,1,153.000002918243,2|2,0:0|0:0,0:0:0:0:
227,233,15439,5,2,0:0:0:0:
336,201,15785,1,4,0:0:0:0:
246,129,16132,1,6,0:0:0:0:
355,97,16478,1,4,0:0:0:0:
355,97,16652,1,0,0:0:0:0:
355,97,16826,6,0,P|418:124|490:74,1,153.000002918243,6|2,0:0|0:0,0:0:0:0:
353,5,18213,2,0,L|124:21,1,229.500004377365,2|2,0:0|0:0,0:0:0:0:
57,96,19600,2,0,P|17:199|52:310,1,229.500004377365,2|2,0:0|0:0,0:0:0:0:
150,355,20988,5,2,2:0:0:0:
261,329,21334,1,4,2:0:0:0:
373,303,21681,1,4,2:0:0:0:
482,279,22028,1,4,2:0:0:0:
350,190,22375,5,6,0:0:0:0:
198,199,22722,2,0,L|140:203,1,45
120,271,23069,5,6,0:0:0:0:
273,281,23416,2,0,L|331:285,1,45
356,350,23762,5,6,0:0:0:0:
203,360,24109,2,0,L|145:364,1,45
81,367,24456,5,2,0:0:0:0:
37,220,24803,1,2,0:0:0:0:
81,73,25150,5,6,0:0:0:0:
233,85,25496,2,0,L|277:88,1,45
316,154,25843,5,6,0:0:0:0:
164,166,26189,2,0,L|119:169,1,45
81,236,26537,5,6,0:0:0:0:
233,248,26883,2,0,L|277:251,1,45
354,255,27231,5,2,0:0:0:0:
385,105,27577,1,2,0:0:0:0:
492,213,27924,5,6,0:0:0:0:
128,242,28618,1,6,0:0:0:0:
233,248,28965,2,0,L|266:250,3,22.5,6|0|0|0,0:0|0:0|0:0|0:0,0:0:0:0:
288,267,29311,6,0,L|395:274,1,90,10|0,0:2|0:2,0:2:0:0:
422,277,29832,1,10,0:2:0:0:
455,146,30352,2,0,P|451:123|455:101,1,45,10|0,0:2|0:2,0:2:0:0:
495,83,30699,6,0,L|488:183,1,90,10|0,0:2|0:2,0:2:0:0:
487,217,31219,1,10,0:2:0:0:
359,173,31739,2,0,P|336:176|314:173,1,45,10|0,0:2|0:2,0:2:0:0:
285,138,32086,6,0,L|195:131,1,90,10|0,0:2|0:2,0:2:0:0:
150,128,32606,1,10,0:2:0:0:
125,260,33126,2,0,P|147:263|169:259,1,45,10|0,0:2|0:2,0:2:0:0:
213,251,33473,6,0,L|302:257,1,90,10|0,0:2|0:2,0:2:0:0:
347,261,33994,1,10,0:2:0:0:
465,196,34514,1,14,0:2:0:0:
462,151,34687,1,4,0:2:0:0:
459,105,34861,6,0,L|370:111,1,90,14|0,0:2|0:2,0:2:0:0:
324,115,35381,1,10,0:2:0:0:
189,124,35901,2,0,P|184:146|187:168,1,45,10|0,0:2|0:2,0:2:0:0:
232,173,36248,6,0,L|238:84,1,90,10|0,0:2|0:2,0:2:0:0:
241,38,36768,1,10,0:2:0:0:
113,81,37288,2,0,P|90:84|68:79,1,45,10|0,0:2|0:2,0:2:0:0:
31,53,37635,6,0,L|37:142,1,90,10|0,0:2|0:2,0:2:0:0:
41,187,38155,1,10,0:2:0:0:
132,286,38676,2,0,L|185:289,1,45,10|0,0:2|0:2,0:2:0:0:
210,259,39022,6,0,L|299:265,1,90,10|0,0:2|0:2,0:2:0:0:
344,270,39543,1,10,0:2:0:0:
301,142,40063,1,14,0:2:0:0:
256,139,40236,1,4,0:2:0:0:
210,136,40410,6,0,L|121:130,1,90,10|0,0:2|0:2,0:2:0:0:
75,126,40930,1,10,0:2:0:0:
159,230,41450,2,0,P|182:229|211:238,1,45,10|0,0:2|0:2,0:2:0:0:
243,253,41797,6,0,L|332:259,1,90,10|0,0:2|0:2,0:2:0:0:
377,264,42317,1,10,0:2:0:0:
388,129,42837,2,0,L|334:125,1,45,10|0,0:2|0:2,0:2:0:0:
301,142,43184,6,0,L|212:136,1,90,10|0,0:2|0:2,0:2:0:0:
167,131,43704,1,10,0:2:0:0:
37,171,44225,2,0,L|40:224,1,45,10|0,0:2|0:2,0:2:0:0:
78,239,44572,6,0,L|167:245,1,90,10|0,0:2|0:2,0:2:0:0:
212,250,45092,1,10,0:2:0:0:
346,262,45612,1,14,0:2:0:0:
349,217,45785,1,4,0:2:0:0:
353,172,45959,6,0,L|359:83,1,90,14|0,0:2|0:2,0:2:0:0:
364,38,46479,1,10,0:2:0:0:
234,76,46999,2,0,L|231:129,1,45,10|0,0:2|0:2,0:2:0:0:
207,159,47346,6,0,L|201:248,1,90,10|0,0:2|0:2,0:2:0:0:
196,293,47866,1,10,0:2:0:0:
327,260,48387,2,0,L|329:215,1,45,10|0,0:2|0:2,0:2:0:0:
347,173,48733,6,0,L|353:84,1,90,10|0,0:2|0:2,0:2:0:0:
358,39,49253,1,10,0:2:0:0:
444,142,49774,2,0,L|441:186,1,45,10|0,0:2|0:2,0:2:0:0:
415,224,50121,6,0,L|409:313,1,90,10|0,0:2|0:2,0:2:0:0:
404,358,50641,1,10,0:2:0:0:
270,341,51161,1,14,0:2:0:0:
273,296,51334,1,4,0:2:0:0:
277,251,51508,6,0,L|283:162,1,90,4|0,0:0|0:0,0:0:0:0:
203,119,52202,2,0,L|197:208,1,90,4|0,0:0|0:0,0:0:0:0:
112,238,52895,2,0,L|118:149,1,90,4|0,0:0|0:0,0:0:0:0:
53,84,53589,1,4,0:2:0:0:
53,84,53762,2,0,L|56:24,2,45,2|4|2,0:2|0:2|0:2,0:0:0:0:
22,117,54283,6,0,L|16:206,1,90,4|0,0:0|0:0,0:0:0:0:
8,296,54976,2,0,P|49:288|104:299,1,90,4|0,0:0|0:0,0:0:0:0:
179,330,55670,2,0,P|220:338|275:327,1,90,4|0,0:0|0:0,0:0:0:0:
328,264,56363,1,4,0:2:0:0:
328,264,56537,2,0,L|324:204,2,45,2|4|2,0:2|0:2|0:2,0:0:0:0:
353,301,57057,6,0,L|442:307,1,90,4|0,0:0|0:0,0:0:0:0:
492,231,57751,2,0,L|403:225,1,90,4|0,0:0|0:0,0:0:0:0:
366,142,58444,2,0,L|455:148,1,90,4|0,0:0|0:0,0:0:0:0:
503,71,59138,1,4,0:2:0:0:
503,71,59311,2,0,L|501:27,2,45,2|4|2,0:2|0:2|0:2,0:0:0:0:
457,65,59832,6,0,L|368:59,1,90,4|0,0:0|0:0,0:0:0:0:
287,101,60525,2,0,L|198:107,1,90,4|0,0:0|0:0,0:0:0:0:
131,44,61219,2,0,L|42:38,1,90,4|0,0:0|0:0,0:0:0:0:
1,118,61913,1,4,0:2:0:0:
1,118,62086,2,0,L|3:163,2,45,2|4|2,0:2|0:2|0:2,0:0:0:0:
39,122,62606,6,0,L|115:126,1,76.5000014591217,4|0,0:0|0:0,0:0:0:0:
180,165,63300,2,0,L|256:169,1,76.5000014591217,4|0,0:0|0:0,0:0:0:0:
321,208,63994,2,0,L|397:212,1,76.5000014591217,4|0,0:0|0:0,0:0:0:0:
469,186,64687,1,4,0:2:0:0:
469,186,64861,2,0,L|472:142,2,38.2500007295609,2|4|2,0:2|0:2|0:2,0:0:0:0:
491,217,65381,5,4,0:0:0:0:
256,192,65468,12,6,68155,0:0:0:0:
