osu file format v14

[General]
AudioFilename: audio.mp3
AudioLeadIn: 0
PreviewTime: 179
Countdown: 0
SampleSet: Normal
StackLeniency: 0.3
Mode: 0
LetterboxInBreaks: 0
WidescreenStoryboard: 1

[Editor]
DistanceSpacing: 0.27
BeatDivisor: 4
GridSize: 8
TimelineZoom: 1

[Metadata]
Title:Butsutekkai
TitleUnicode:仏鉄塊
Artist:Hiroshi Iuchi
ArtistUnicode:井内ひろし
Creator:non-one
Version:taru's Extra
Source:斑鳩 IKARUGA
Tags:icebolt taru shmup boss theme original soundtrack ost
BeatmapID:1258366
BeatmapSetID:592207

[Difficulty]
HPDrainRate:6.3
CircleSize:4.7
OverallDifficulty:8.5
ApproachRate:9
SliderMultiplier:2.3
SliderTickRate:1

[Events]
//Background and Video events
0,0,"IKARUGAAH.png",0,0
//Break Periods
//Storyboard Layer 0 (Background)
//Storyboard Layer 1 (Fail)
//Storyboard Layer 2 (Pass)
//Storyboard Layer 3 (Foreground)
//Storyboard Sound Samples

[TimingPoints]
179,346.820809248555,4,1,0,60,1,0
11624,-200,4,1,0,30,0,0
15439,-200,4,1,0,30,0,0
15785,-133.333333333333,4,1,0,35,0,0
16132,-100,4,1,0,40,0,0
16479,-80,4,1,0,45,0,0
17173,-200,4,1,0,30,0,0
21335,-133.333333333333,4,1,0,40,0,0
21681,-133.333333333333,4,1,0,50,0,0
22028,-133.333333333333,4,1,0,60,0,0
22375,-80,4,1,0,60,0,1
27924,-100,4,1,0,60,0,0
29311,-66.6666666666667,4,1,1,50,0,0
51508,-100,4,1,0,60,0,0
58444,-100,4,1,0,55,0,0
59832,-114.942528735632,4,1,0,50,0,0
61219,-114.942528735632,4,1,0,45,0,0
62606,-133.333333333333,4,1,0,40,0,0
63994,-133.333333333333,4,1,0,35,0,0
65381,-133.333333333333,4,1,0,30,0,0
66768,-133.333333333333,4,1,0,25,0,0
68155,-133.333333333333,4,1,0,20,0,0

[Colours]
Combo1 : 225,0,0
Combo2 : 232,184,38
Combo3 : 213,255,255
Combo4 : 228,148,58

[HitObjects]
438,275,179,5,6,0:2:0:0:
447,192,525,2,0,L|389:185,1,57.5,0|0,0:2|0:2,0:2:0:0:
443,233,699,2,0,L|385:226,1,57.5,0|0,0:2|0:2,0:2:0:0:
76,207,872,5,6,0:2:0:0:
67,124,1219,2,0,L|125:117,1,57.5,0|0,0:2|0:2,0:2:0:0:
71,165,1392,2,0,L|129:158,1,57.5,0|0,0:2|0:2,0:2:0:0:
452,151,1566,5,6,0:2:0:0:
461,68,1912,2,0,L|403:61,1,57.5,0|0,0:2|0:2,0:2:0:0:
457,109,2086,2,0,L|399:102,1,57.5,0|0,0:2|0:2,0:2:0:0:
187,34,2259,5,4,0:2:0:0:
146,301,2433,1,2,0:2:0:0:
350,54,2606,1,4,0:2:0:0:
347,322,2780,1,2,0:2:0:0:
187,34,2953,5,6,0:2:0:0:
104,26,3300,2,0,P|98:61|109:99,1,57.5,0|0,0:2|0:2,0:2:0:0:
146,31,3473,2,0,P|141:63|153:101,1,57.5,0|0,0:2|0:2,0:2:0:0:
258,354,3647,5,6,0:2:0:0:
175,362,3994,2,0,P|169:326|180:289,1,57.5,0|0,0:2|0:2,0:2:0:0:
217,357,4167,2,0,P|212:324|224:287,1,57.5,0|0,0:2|0:2,0:2:0:0:
313,46,4340,5,6,0:2:0:0:
230,38,4687,2,0,P|224:73|235:111,1,57.5,0|0,0:2|0:2,0:2:0:0:
272,43,4860,2,0,P|267:75|279:113,1,57.5,0|0,0:2|0:2,0:2:0:0:
372,320,5034,5,4,0:2:0:0:
138,85,5207,1,2,0:2:0:0:
417,138,5381,1,4,0:2:0:0:
115,269,5554,1,2,0:2:0:0:
417,138,5728,5,6,0:2:0:0:
426,221,6074,2,0,L|368:228,1,57.5,0|0,0:2|0:2,0:2:0:0:
422,180,6248,2,0,L|364:187,1,57.5,0|0,0:2|0:2,0:2:0:0:
67,199,6421,5,6,0:2:0:0:
58,282,6768,2,0,L|115:288,1,57.5,0|0,0:2|0:2,0:2:0:0:
62,241,6941,2,0,L|120:248,1,57.5,0|0,0:2|0:2,0:2:0:0:
429,260,7115,5,6,0:2:0:0:
438,343,7461,2,0,L|380:350,1,57.5,0|0,0:2|0:2,0:2:0:0:
434,302,7635,2,0,L|376:309,1,57.5,0|0,0:2|0:2,0:2:0:0:
96,355,7809,5,4,0:2:0:0:
66,92,7982,1,2,0:2:0:0:
285,332,8155,1,4,0:2:0:0:
256,72,8329,1,2,0:2:0:0:
96,355,8502,5,6,0:2:0:0:
182,348,8849,2,0,P|177:319|182:291,1,57.5,0|0,0:2|0:2,0:2:0:0:
139,352,9022,2,0,P|133:323|137:295,1,57.5,0|0,0:2|0:2,0:2:0:0:
174,20,9196,5,6,0:2:0:0:
260,27,9543,2,0,P|255:55|260:83,1,57.5,0|0,0:2|0:2,0:2:0:0:
217,23,9716,2,0,P|211:51|215:79,1,57.5,0|0,0:2|0:2,0:2:0:0:
224,343,9889,5,6,0:2:0:0:
310,336,10236,2,0,P|305:307|310:279,1,57.5,0|0,0:2|0:2,0:2:0:0:
267,340,10409,2,0,P|261:311|265:283,1,57.5,0|0,0:2|0:2,0:2:0:0:
302,31,10583,5,4,0:2:0:0:
384,307,10757,1,2,0:2:0:0:
175,172,10930,1,4,0:2:0:0:
454,60,11103,1,2,0:2:0:0:
175,172,11277,5,6,2:2:0:0:
40,226,11624,5,0,2:2:0:0:
175,172,11797,2,0,L|193:171,1,14.375,0|0,2:2|2:2,2:2:0:0:
177,180,11884,2,0,L|195:179,1,14.375,0|0,2:2|2:2,2:2:0:0:
179,188,11971,1,2,2:2:0:0:
181,196,12057,1,0,2:2:0:0:
182,203,12144,1,0,2:2:0:0:
184,211,12231,1,0,2:2:0:0:
185,219,12317,1,0,2:2:0:0:
108,203,12491,1,0,2:2:0:0:
110,211,12577,1,0,2:2:0:0:
112,218,12664,5,2,2:2:0:0:
187,227,13011,1,0,2:2:0:0:
41,233,13184,2,0,L|24:239,1,14.375,0|0,2:2|2:2,2:2:0:0:
43,241,13271,2,0,L|26:247,1,14.375,0|0,2:2|2:2,2:2:0:0:
44,249,13358,1,0,2:2:0:0:
46,257,13444,1,0,2:2:0:0:
48,265,13531,1,0,2:2:0:0:
49,272,13618,1,0,2:2:0:0:
51,280,13704,1,2,2:2:0:0:
115,234,13878,1,2,2:2:0:0:
117,242,13964,1,0,2:2:0:0:
119,250,14051,5,2,2:2:0:0:
53,288,14398,1,0,2:2:0:0:
189,235,14571,2,0,L|207:234,1,14.375,0|0,2:2|2:2,2:2:0:0:
190,243,14658,2,0,L|208:242,1,14.375,0|0,2:2|2:2,2:2:0:0:
192,250,14745,1,2,2:2:0:0:
194,258,14831,1,0,2:2:0:0:
195,266,14918,1,0,2:2:0:0:
197,274,15005,1,0,2:2:0:0:
199,282,15091,1,0,2:2:0:0:
122,265,15265,1,0,2:2:0:0:
123,273,15351,1,0,2:2:0:0:
124,280,15439,6,0,L|132:315,3,28.75,2|0|0|0,2:2|2:2|2:2|2:2,2:2:0:0:
199,282,15785,6,0,L|208:324,3,43.1250016450883,4|0|0|0,2:2|2:2|2:2|2:2,2:2:0:0:
283,262,16132,6,0,L|296:319,3,57.5,6|0|0|0,2:2|2:2|2:2|2:2,2:2:0:0:
361,218,16479,6,0,L|378:288,1,71.875,4|0,2:2|2:2,2:2:0:0:
429,160,16652,2,0,L|446:230,1,71.875,0|0,2:2|2:2,2:2:0:0:
472,344,16826,5,6,2:2:0:0:
246,276,17173,5,0,2:2:0:0:
385,317,17346,2,0,L|403:316,1,14.375,0|0,2:2|2:2,2:2:0:0:
386,309,17433,2,0,L|404:308,1,14.375,0|0,2:2|2:2,2:2:0:0:
387,301,17520,1,2,2:2:0:0:
388,293,17606,1,0,2:2:0:0:
389,285,17693,1,0,2:2:0:0:
390,277,17780,1,0,2:2:0:0:
391,269,17866,1,0,2:2:0:0:
315,292,18040,1,0,2:2:0:0:
316,284,18126,1,0,2:2:0:0:
317,276,18213,5,2,2:2:0:0:
392,261,18560,1,0,2:2:0:0:
246,268,18733,2,0,L|228:262,1,14.375,0|0,2:2|2:2,2:2:0:0:
247,260,18820,2,0,L|229:254,1,14.375,0|0,2:2|2:2,2:2:0:0:
248,252,18907,1,0,2:2:0:0:
249,244,18993,1,0,2:2:0:0:
250,236,19080,1,0,2:2:0:0:
251,228,19167,1,0,2:2:0:0:
252,220,19254,1,2,2:2:0:0:
319,261,19427,1,2,2:2:0:0:
320,253,19513,1,0,2:2:0:0:
321,245,19600,5,2,2:2:0:0:
253,212,19947,1,0,2:2:0:0:
393,254,20120,2,0,L|411:253,1,14.375,0|0,2:2|2:2,2:2:0:0:
394,246,20207,2,0,L|412:245,1,14.375,0|0,2:2|2:2,2:2:0:0:
395,238,20294,1,0,2:2:0:0:
396,230,20380,1,0,2:2:0:0:
397,222,20467,1,0,2:2:0:0:
398,214,20554,1,0,2:2:0:0:
399,206,20640,1,2,2:2:0:0:
323,229,20814,1,2,2:2:0:0:
324,221,20900,1,0,2:2:0:0:
325,212,20988,5,2,2:2:0:0:
326,203,21074,1,0,2:2:0:0:
327,194,21161,1,0,2:2:0:0:
328,185,21248,1,0,2:2:0:0:
300,172,21335,5,4,2:2:0:0:
298,193,21421,1,0,2:2:0:0:
296,214,21508,1,0,2:2:0:0:
294,235,21595,1,0,2:2:0:0:
313,273,21681,5,6,2:2:0:0:
340,291,21768,1,0,2:2:0:0:
367,310,21855,1,0,2:2:0:0:
394,330,21942,1,0,2:2:0:0:
437,322,22028,5,4,2:2:0:0:
440,281,22115,1,0,2:2:0:0:
444,242,22202,1,0,2:2:0:0:
448,203,22288,1,0,2:2:0:0:
482,226,22375,5,6,0:2:0:0:
293,109,22548,2,0,L|235:115,2,47.9166666666667
290,148,22722,1,0,0:2:0:0:
414,38,22895,1,0,0:2:0:0:
477,291,23069,5,6,0:2:0:0:
288,165,23242,2,0,L|230:171,2,47.9166666666667
285,201,23416,1,0,0:2:0:0:
447,73,23589,1,0,0:2:0:0:
473,355,23762,5,6,0:2:0:0:
283,219,23936,2,0,L|225:225,2,47.9166666666667
280,255,24110,1,0,0:2:0:0:
478,108,24282,1,0,0:2:0:0:
473,228,24456,5,2,0:2:0:0:
356,257,24629,1,0,0:2:0:0:
357,245,24687,1,0,0:2:0:0:
358,233,24745,1,0,0:2:0:0:
359,221,24803,1,2,0:2:0:0:
212,212,24976,1,0,0:0:0:0:
10,192,25150,5,6,0:2:0:0:
197,76,25323,2,0,L|268:81,2,47.9166666666667
200,112,25497,1,0,0:2:0:0:
80,3,25670,1,0,0:2:0:0:
16,258,25844,5,6,0:2:0:0:
202,131,26017,2,0,L|273:136,2,47.9166666666667
205,167,26191,1,0,0:2:0:0:
47,38,26364,1,0,0:2:0:0:
21,322,26537,5,6,0:2:0:0:
207,185,26710,2,0,L|278:190,2,47.9166666666667
210,221,26884,1,0,0:2:0:0:
16,73,27057,1,0,0:2:0:0:
20,193,27231,5,2,0:2:0:0:
136,223,27404,1,0,0:2:0:0:
135,211,27462,1,0,0:2:0:0:
134,199,27520,1,0,0:2:0:0:
133,187,27578,1,2,0:2:0:0:
122,64,27751,1,0,0:2:0:0:
437,41,27924,5,6,0:2:0:0:
437,41,28618,5,6,0:2:0:0:
437,41,28965,1,6,0:2:0:0:
440,63,29051,1,0,0:2:0:0:
443,85,29138,1,0,0:2:0:0:
446,107,29225,1,0,0:2:0:0:
449,129,29311,5,10,0:2:0:0:
467,298,29484,1,0,0:2:0:0:
444,299,29572,1,0,0:2:0:0:
421,296,29658,1,0,0:2:0:0:
449,129,29832,5,8,0:2:0:0:
396,290,30005,1,0,0:2:0:0:
375,282,30091,1,0,0:2:0:0:
355,270,30178,1,0,0:2:0:0:
489,327,30352,6,0,P|405:329|311:273,1,172.500006580353,8|0,0:2|0:2,0:2:0:0:
89,67,30699,5,10,0:2:0:0:
71,236,30872,1,0,0:2:0:0:
94,236,30958,1,0,0:2:0:0:
117,234,31045,1,0,0:2:0:0:
89,67,31220,5,8,0:2:0:0:
142,228,31393,1,0,0:2:0:0:
163,220,31479,1,0,0:2:0:0:
183,208,31566,1,0,0:2:0:0:
49,265,31740,6,0,P|133:267|227:211,1,172.500006580353,8|0,0:2|0:2,0:2:0:0:
330,0,32086,5,10,0:2:0:0:
374,162,32259,1,0,0:2:0:0:
379,139,32346,1,0,0:2:0:0:
384,116,32433,1,0,0:2:0:0:
476,109,32606,5,10,0:2:0:0:
358,231,32779,1,0,0:2:0:0:
363,208,32866,1,0,0:2:0:0:
368,185,32953,1,0,0:2:0:0:
355,80,33126,6,0,L|313:269,1,172.500006580353,8|2,0:2|0:2,0:2:0:0:
288,384,33473,5,8,0:2:0:0:
251,222,33646,1,0,0:2:0:0:
246,245,33733,1,0,0:2:0:0:
241,268,33820,1,0,0:2:0:0:
147,275,33993,5,10,0:2:0:0:
267,153,34166,1,0,0:2:0:0:
262,176,34253,1,0,0:2:0:0:
257,199,34340,1,0,0:2:0:0:
55,169,34514,5,14,0:2:0:0:
416,242,34687,1,6,0:2:0:0:
117,374,34861,5,14,0:2:0:0:
62,239,35034,1,0,0:2:0:0:
85,233,35120,1,0,0:2:0:0:
103,218,35207,1,0,0:2:0:0:
117,374,35381,5,8,0:2:0:0:
117,201,35554,1,0,0:2:0:0:
125,178,35640,1,0,0:2:0:0:
122,155,35727,1,0,0:2:0:0:
67,273,35901,6,0,P|153:209|152:127,1,172.500006580353,10|2,0:2|0:2,0:2:0:0:
232,0,36248,5,10,0:2:0:0:
231,136,36421,1,0,0:2:0:0:
254,142,36507,1,0,0:2:0:0:
272,157,36594,1,0,0:2:0:0:
232,0,36768,5,8,0:2:0:0:
286,174,36941,1,0,0:2:0:0:
294,197,37027,1,0,0:2:0:0:
291,220,37114,1,0,0:2:0:0:
236,102,37288,6,0,P|322:166|321:248,1,172.500006580353,8|0,0:2|0:2,0:2:0:0:
346,384,37635,5,10,0:2:0:0:
409,217,37809,1,0,0:2:0:0:
415,239,37895,1,0,0:2:0:0:
422,261,37982,1,0,0:2:0:0:
371,320,38155,5,8,0:2:0:0:
388,150,38329,1,0,0:2:0:0:
394,172,38415,1,0,0:2:0:0:
401,194,38502,1,0,0:2:0:0:
464,277,38676,6,0,L|408:94,1,172.500006580353,8|0,0:2|0:2,0:2:0:0:
382,0,39022,5,10,0:2:0:0:
321,166,39196,1,0,0:2:0:0:
315,144,39282,1,0,0:2:0:0:
308,122,39369,1,0,0:2:0:0:
359,64,39543,5,8,0:2:0:0:
342,233,39716,1,2,0:2:0:0:
336,211,39802,1,0,0:2:0:0:
329,191,39889,1,0,0:2:0:0:
277,26,40063,5,12,0:2:0:0:
204,340,40236,1,4,0:2:0:0:
8,254,40410,5,10,0:2:0:0:
175,245,40583,1,0,0:2:0:0:
198,244,40670,1,0,0:2:0:0:
221,243,40757,1,0,0:2:0:0:
76,286,40930,5,10,0:2:0:0:
244,244,41103,1,0,0:2:0:0:
267,248,41190,1,0,0:2:0:0:
288,252,41277,1,0,0:2:0:0:
144,217,41450,6,0,B|234:211|234:211|337:231,1,172.500006580353,8|0,0:2|0:2,0:2:0:0:
493,353,41797,5,8,0:2:0:0:
350,279,41970,1,0,0:2:0:0:
331,269,42057,1,0,0:2:0:0:
310,259,42144,1,0,0:2:0:0:
414,364,42317,5,8,0:2:0:0:
288,253,42490,1,0,0:2:0:0:
266,248,42577,1,0,0:2:0:0:
244,244,42664,1,0,0:2:0:0:
388,262,42837,6,0,B|309:224|309:224|190:205,1,172.500006580353,10|2,0:2|0:2,0:2:0:0:
15,150,43184,5,10,0:2:0:0:
156,56,43357,1,0,0:2:0:0:
168,76,43444,1,0,0:2:0:0:
176,97,43530,1,0,0:2:0:0:
15,150,43705,5,10,0:2:0:0:
182,122,43878,1,2,0:2:0:0:
185,145,43965,1,0,0:2:0:0:
184,168,44051,1,0,0:2:0:0:
175,28,44225,6,0,P|213:103|212:189,1,172.500006580353,8|0,0:2|0:2,0:2:0:0:
153,357,44572,5,8,0:2:0:0:
320,384,44745,1,0,0:2:0:0:
322,361,44831,1,0,0:2:0:0:
320,337,44918,1,0,0:2:0:0:
153,357,45093,5,8,0:2:0:0:
316,312,45266,1,0,0:2:0:0:
309,291,45352,1,0,0:2:0:0:
298,270,45439,1,0,0:2:0:0:
61,250,45612,5,14,0:2:0:0:
347,124,45785,1,6,0:2:0:0:
490,336,45959,5,14,0:2:0:0:
415,192,46132,1,0,0:2:0:0:
412,168,46219,1,0,0:2:0:0:
411,144,46306,1,0,0:2:0:0:
449,282,46479,5,8,0:2:0:0:
413,121,46652,1,0,0:2:0:0:
416,97,46739,1,0,0:2:0:0:
421,74,46826,1,0,0:2:0:0:
384,217,46999,6,0,B|371:162|376:88|396:47,1,172.500006580353,8|0,0:2|0:2,0:2:0:0:
99,110,47346,5,10,0:2:0:0:
261,102,47519,1,0,0:2:0:0:
283,93,47606,1,0,0:2:0:0:
304,82,47693,1,0,0:2:0:0:
166,118,47866,5,8,0:2:0:0:
323,69,48039,1,0,0:2:0:0:
342,54,48126,1,0,0:2:0:0:
360,38,48213,1,0,0:2:0:0:
255,142,48386,6,0,B|312:127|370:88|405:34,1,172.500006580353,10|0,0:2|0:2,0:2:0:0:
510,304,48733,5,10,0:2:0:0:
341,285,48907,1,0,0:2:0:0:
364,280,48994,1,0,0:2:0:0:
387,275,49080,1,0,0:2:0:0:
178,380,49254,5,8,0:2:0:0:
318,291,49427,1,2,0:2:0:0:
295,297,49513,1,0,0:2:0:0:
272,302,49600,1,0,0:2:0:0:
407,235,49774,6,0,B|213:278|214:278,1,172.500006580353,8|0,0:2|0:2,0:2:0:0:
1,268,50121,5,10,0:2:0:0:
169,288,50295,1,0,0:2:0:0:
146,293,50382,1,0,0:2:0:0:
123,298,50468,1,0,0:2:0:0:
333,192,50641,5,8,0:2:0:0:
192,283,50815,1,2,0:2:0:0:
215,277,50901,1,0,0:2:0:0:
238,272,50988,1,0,0:2:0:0:
393,286,51161,5,12,0:2:0:0:
53,361,51335,1,4,0:2:0:0:
76,120,51508,5,6,0:2:0:0:
67,203,51855,2,0,L|124:210,1,57.5,0|0,0:2|0:2,0:2:0:0:
71,162,52028,2,0,L|129:169,1,57.5,0|0,0:2|0:2,0:2:0:0:
441,187,52202,5,6,0:2:0:0:
450,270,52548,2,0,L|392:277,1,57.5,0|0,0:2|0:2,0:2:0:0:
446,229,52722,2,0,L|388:236,1,57.5,0|0,0:2|0:2,0:2:0:0:
63,243,52895,5,6,0:2:0:0:
54,326,53242,2,0,L|111:333,1,57.5,0|0,0:2|0:2,0:2:0:0:
58,285,53415,2,0,L|116:292,1,57.5,0|0,0:2|0:2,0:2:0:0:
368,349,53589,5,4,0:2:0:0:
334,64,53762,1,2,0:2:0:0:
168,357,53936,1,4,0:2:0:0:
147,98,54109,1,2,0:2:0:0:
368,349,54283,5,6,0:2:0:0:
457,342,54629,2,0,P|442:292|452:256,1,57.5,0|0,0:2|0:2,0:2:0:0:
413,345,54802,2,0,P|398:295|408:259,1,57.5,0|0,0:2|0:2,0:2:0:0:
293,27,54976,5,6,0:2:0:0:
382,34,55323,2,0,P|367:82|377:118,1,57.5,0|0,0:2|0:2,0:2:0:0:
338,31,55496,2,0,P|323:79|331:115,1,57.5,0|0,0:2|0:2,0:2:0:0:
236,359,55670,5,6,0:2:0:0:
325,352,56017,2,0,P|310:302|320:266,1,57.5,0|0,0:2|0:2,0:2:0:0:
281,355,56190,2,0,P|266:305|276:269,1,57.5,0|0,0:2|0:2,0:2:0:0:
253,54,56363,5,4,0:2:0:0:
369,349,56537,1,2,0:2:0:0:
433,81,56710,1,4,0:2:0:0:
153,191,56883,1,2,0:2:0:0:
433,81,57057,5,6,0:2:0:0:
442,164,57404,2,0,L|385:171,1,57.5,0|0,0:2|0:2,0:2:0:0:
438,123,57577,2,0,L|380:130,1,57.5,0|0,0:2|0:2,0:2:0:0:
73,121,57751,5,6,0:2:0:0:
64,204,58097,2,0,L|122:211,1,57.5,0|0,0:2|0:2,0:2:0:0:
68,163,58271,2,0,L|126:170,1,57.5,0|0,0:2|0:2,0:2:0:0:
448,207,58444,5,6,0:2:0:0:
457,290,58791,2,0,L|399:297,1,57.5,0|0,0:2|0:2,0:2:0:0:
453,249,58964,2,0,L|395:256,1,57.5,0|0,0:2|0:2,0:2:0:0:
153,336,59138,5,4,0:2:0:0:
129,77,59311,1,2,0:2:0:0:
334,315,59485,1,4,0:2:0:0:
318,58,59658,1,2,0:2:0:0:
153,336,59832,5,6,0:2:0:0:
69,347,60179,2,0,P|64:312|73:276,1,50.0250004198265,0|0,0:2|0:2,0:2:0:0:
111,342,60352,2,0,P|107:310|119:275,1,50.0250004198265,0|0,0:2|0:2,0:2:0:0:
217,75,60525,5,6,0:2:0:0:
133,64,60872,2,0,P|128:100|137:135,1,50.0250004198265,0|0,0:2|0:2,0:2:0:0:
175,69,61045,2,0,P|171:102|183:136,1,50.0250004198265,0|0,0:2|0:2,0:2:0:0:
279,319,61219,5,6,0:2:0:0:
195,330,61566,2,0,P|190:295|199:259,1,50.0250004198265,0|0,0:2|0:2,0:2:0:0:
237,325,61739,2,0,P|233:293|245:258,1,50.0250004198265,0|0,0:2|0:2,0:2:0:0:
407,79,61913,5,4,0:2:0:0:
174,188,62086,1,2,0:2:0:0:
381,242,62259,1,4,0:2:0:0:
233,32,62433,1,2,0:2:0:0:
381,242,62606,5,6,0:2:0:0:
372,328,62953,2,0,L|328:320,1,43.1250016450883,0|0,0:2|0:2,0:2:0:0:
377,286,63126,2,0,L|333:278,1,43.1250016450883,0|0,0:2|0:2,0:2:0:0:
132,168,63300,5,6,0:2:0:0:
141,254,63647,2,0,L|185:246,1,43.1250016450883,0|0,0:2|0:2,0:2:0:0:
136,212,63820,2,0,L|180:204,1,43.1250016450883,0|0,0:2|0:2,0:2:0:0:
393,115,63994,5,6,0:2:0:0:
384,201,64341,2,0,L|340:193,1,43.1250016450883,0|0,0:2|0:2,0:2:0:0:
389,159,64514,2,0,L|345:151,1,43.1250016450883,0|0,0:2|0:2,0:2:0:0:
135,71,64687,5,4,0:2:0:0:
88,225,64861,1,2,0:2:0:0:
264,101,65034,1,4,0:2:0:0:
237,265,65207,1,2,0:2:0:0:
135,71,65381,5,6,0:2:0:0:
51,59,65728,2,0,P|46:94|56:129,1,43.1250016450883,0|0,0:2|0:2,0:2:0:0:
93,64,65901,2,0,P|89:96|99:130,1,43.1250016450883,0|0,0:2|0:2,0:2:0:0:
195,246,66074,5,6,0:2:0:0:
111,257,66421,2,0,P|106:221|115:184,1,43.1250016450883,0|0,0:2|0:2,0:2:0:0:
153,252,66594,2,0,P|149:219|157:185,1,43.1250016450883,0|0,0:2|0:2,0:2:0:0:
261,87,66768,5,6,0:2:0:0:
177,76,67115,2,0,P|172:111|181:146,1,43.1250016450883,0|0,0:2|0:2,0:2:0:0:
219,81,67288,2,0,P|215:113|224:147,1,43.1250016450883,0|0,0:2|0:2,0:2:0:0:
286,222,67462,5,4,0:2:0:0:
425,122,67636,1,2,0:2:0:0:
388,242,67809,1,4,0:2:0:0:
303,93,67982,1,2,0:2:0:0:
388,242,68155,5,6,0:2:0:0:
