osu file format v14

[General]
AudioFilename: audio.mp3
AudioLeadIn: 0
PreviewTime: 179
Countdown: 0
SampleSet: Normal
StackLeniency: 0.7
Mode: 0
LetterboxInBreaks: 0
WidescreenStoryboard: 1

[Editor]
DistanceSpacing: 1.3
BeatDivisor: 2
GridSize: 4
TimelineZoom: 1

[Metadata]
Title:Butsutekkai
TitleUnicode:仏鉄塊
Artist:Hiroshi Iuchi
ArtistUnicode:井内ひろし
Creator:non-one
Version:Normal
Source:斑鳩 IKARUGA
Tags:icebolt taru shmup boss theme original soundtrack ost
BeatmapID:1253219
BeatmapSetID:592207

[Difficulty]
HPDrainRate:4
CircleSize:3.8
OverallDifficulty:4
ApproachRate:5
SliderMultiplier:0.7
SliderTickRate:1

[Events]
//Background and Video events
0,0,"IKARUGAAH.png",0,0
//Break Periods
//Storyboard Layer 0 (Background)
//Storyboard Layer 1 (Fail)
//Storyboard Layer 2 (Pass)
//Storyboard Layer 3 (Foreground)
//Storyboard Sound Samples

[TimingPoints]
179,346.820809248555,4,1,0,60,1,0
11277,-117.647058823529,4,2,0,60,0,0
11624,-117.647058823529,4,2,0,30,0,0
15785,-117.647058823529,4,2,0,35,0,0
16132,-117.647058823529,4,2,0,40,0,0
16479,-117.647058823529,4,2,0,45,0,0
17173,-117.647058823529,4,2,0,30,0,0
21335,-117.647058823529,4,2,0,40,0,0
21681,-117.647058823529,4,2,0,50,0,0
22028,-117.647058823529,4,2,0,60,0,0
22375,-100,4,1,0,60,0,1
27924,-100,4,1,0,60,0,0
29311,-100,4,1,1,50,0,0
51508,-100,4,1,0,60,0,0
58444,-100,4,1,0,55,0,0
59832,-100,4,1,0,50,0,0
61219,-100,4,1,0,45,0,0
62606,-111.111111111111,4,1,0,40,0,0
63994,-111.111111111111,4,1,0,35,0,0
65381,-111.111111111111,4,1,0,30,0,0
66768,-111.111111111111,4,1,0,25,0,0
68155,-200,4,2,0,20,0,0

[Colours]
Combo1 : 225,0,0
Combo2 : 232,184,38
Combo3 : 213,255,255
Combo4 : 228,148,58

[HitObjects]
212,240,179,6,0,L|356:256,1,140,4|4,0:0|0:0,0:0:0:0:
460,128,1566,2,0,L|316:144,1,140,4|4,0:0|0:2,0:0:0:0:
244,108,2606,1,4,0:2:0:0:
172,64,2953,6,0,L|140:208,1,140,4|4,0:0|0:0,0:0:0:0:
232,344,4340,2,0,L|264:200,1,140,4|4,0:0|0:2,0:0:0:0:
343,230,5381,1,4,0:2:0:0:
424,248,5728,6,0,L|392:104,1,140,4|4,0:0|0:0,0:0:0:0:
256,16,7115,2,0,L|225:152,1,140,4|4,0:0|0:2,0:0:0:0:
255,230,8155,1,4,0:2:0:0:
292,304,8502,6,0,L|149:344,1,140,4|4,0:0|0:0,0:0:0:0:
64,201,9889,2,0,L|207:161,1,140,4|4,0:0|0:2,0:0:0:0:
280,185,10930,1,4,0:2:0:0:
362,197,11277,6,0,P|359:138|335:84,1,119.000002269745,6|2,0:0|0:0,0:0:0:0:
177,84,12664,2,0,P|149:160|178:260,1,178.500003404617,2|2,0:0|0:0,0:0:0:0:
236,316,14051,6,0,P|291:330|363:296,1,119.000002269745,2|2,0:0|0:0,0:0:0:0:
461,146,15439,2,0,P|423:125|390:119,1,59.5000011348725,2|4,0:0|0:0,0:0:0:0:
306,116,16132,2,0,P|273:126|247:143,1,59.5000011348725,6|4,0:0|0:0,0:0:0:0:
166,208,16826,6,0,P|147:156|162:90,1,119.000002269745,6|2,0:0|0:0,0:0:0:0:
312,132,18213,2,0,P|344:209|312:295,1,178.500003404617,2|2,0:0|0:0,0:0:0:0:
199,294,19600,2,0,P|167:213|200:132,1,178.500003404617,2|2,0:0|0:0,0:0:0:0:
268,76,20988,5,2,0:0:0:0:
357,85,21334,1,4,0:0:0:0:
433,133,21681,1,4,0:0:0:0:
479,209,22028,1,4,0:0:0:0:
498,297,22375,6,0,L|354:333,1,140,6|6,0:0|0:0,0:0:0:0:
158,380,23762,1,6,0:0:0:0:
89,181,24456,2,0,L|67:114,1,70,2|2,0:0|0:0,0:0:0:0:
33,14,25150,6,0,L|168:47,1,140,6|6,0:0|0:0,0:0:0:0:
371,101,26537,1,6,0:0:0:0:
298,298,27231,2,0,L|367:304,1,70,2|2,0:0|0:0,0:0:0:0:
472,314,27924,6,0,L|451:175,1,140,6|6,0:0|0:0,0:0:0:0:
388,109,28965,1,6,0:0:0:0:
305,71,29311,6,0,P|225:55|201:59,1,105,10|10,0:2|0:2,0:2:0:0:
73,101,30352,1,10,0:2:0:0:
45,188,30699,2,0,P|125:204|149:200,1,105,10|10,0:2|0:2,0:2:0:0:
274,150,31739,1,10,0:2:0:0:
335,82,32086,6,0,P|394:101|433:137,1,105,10|10,0:2|0:2,0:2:0:0:
506,239,33126,1,10,0:2:0:0:
508,330,33473,2,0,P|428:346|404:342,1,105,10|10,0:2|0:2,0:2:0:0:
272,311,34514,2,0,L|225:299,1,35,14|4,0:2|0:2,0:2:0:0:
194,289,34861,6,0,P|178:225|186:185,1,105,14|10,0:2|0:2,0:2:0:0:
310,127,35901,1,10,0:2:0:0:
399,107,36248,2,0,P|415:171|407:211,1,105,10|10,0:2|0:2,0:2:0:0:
343,328,37288,1,10,0:2:0:0:
258,363,37635,6,0,P|198:380|142:371,1,105,10|10,0:2|0:2,0:2:0:0:
67,271,38676,1,10,0:2:0:0:
56,181,39022,2,0,P|116:164|172:173,1,105,10|10,0:2|0:2,0:2:0:0:
287,210,40063,2,0,L|326:220,1,35,14|4,0:2|0:2,0:2:0:0:
365,229,40410,6,0,P|378:176|362:120,1,105,10|10,0:2|0:2,0:2:0:0:
246,62,41450,1,10,0:2:0:0:
160,92,41797,2,0,P|147:145|163:201,1,105,10|10,0:2|0:2,0:2:0:0:
264,280,42837,1,10,0:2:0:0:
355,282,43184,6,0,P|408:237|425:195,1,105,10|10,0:2|0:2,0:2:0:0:
478,86,44225,1,10,0:2:0:0:
504,0,44572,2,0,P|440:8|400:40,1,105,10|10,0:2|0:2,0:2:0:0:
328,114,45612,2,0,L|317:152,1,35,14|4,0:2|0:2,0:2:0:0:
303,190,45959,6,0,P|243:217|190:218,1,105,14|10,0:2|0:2,0:2:0:0:
70,194,46999,1,10,0:2:0:0:
97,107,47346,2,0,P|157:80|210:79,1,105,10|10,0:2|0:2,0:2:0:0:
320,114,48387,1,10,0:2:0:0:
384,50,48733,6,0,P|406:96|401:158,1,105,10|10,0:2|0:2,0:2:0:0:
358,277,49774,1,10,0:2:0:0:
326,362,50121,2,0,P|286:328|267:269,1,105,10|10,0:2|0:2,0:2:0:0:
243,145,51161,2,0,L|236:109,1,35,14|4,0:2|0:2,0:2:0:0:
230,65,51508,6,0,L|90:37,2,140,4|4|4,0:0|0:0|0:0,0:0:0:0:
408,99,53589,1,4,0:2:0:0:
343,155,53936,1,4,0:2:0:0:
278,211,54283,6,0,L|254:59,2,140,4|4|4,0:0|0:0|0:0,0:0:0:0:
100,251,56363,1,4,0:2:0:0:
80,163,56710,1,4,0:2:0:0:
60,75,57057,6,0,L|212:51,1,140,4|4,0:0|0:0,0:0:0:0:
349,156,58444,2,2,L|197:132,1,140,4|4,0:0|0:2,0:0:0:0:
159,210,59485,1,4,0:2:0:0:
108,285,59832,6,0,L|260:309,1,140,4|4,0:0|0:0,0:0:0:0:
418,248,61219,2,2,L|266:224,1,140,4|4,0:0|0:2,0:0:0:0:
227,152,62259,1,4,0:2:0:0:
157,95,62606,6,0,L|135:220,1,125.999996154785,4|4,0:0|0:0,0:0:0:0:
0,312,63994,2,0,L|22:187,1,125.999996154785,4|4,0:0|0:2,0:0:0:0:
38,107,65034,1,4,0:2:0:0:
53,26,65381,5,4,0:0:0:0:
256,192,65554,12,6,68155,0:0:0:0:
