osu file format v14

[General]
AudioFilename: audio.mp3
AudioLeadIn: 0
PreviewTime: 179
Countdown: 0
SampleSet: Normal
StackLeniency: 0.8
Mode: 0
LetterboxInBreaks: 0
WidescreenStoryboard: 1

[Editor]
DistanceSpacing: 2.7
BeatDivisor: 4
GridSize: 4
TimelineZoom: 1

[Metadata]
Title:Butsutekkai
TitleUnicode:仏鉄塊
Artist:Hiroshi Iuchi
ArtistUnicode:井内ひろし
Creator:non-one
Version:Hard
Source:斑鳩 IKARUGA
Tags:icebolt taru shmup boss theme original soundtrack ost
BeatmapID:1266345
BeatmapSetID:592207

[Difficulty]
HPDrainRate:5
CircleSize:4.2
OverallDifficulty:6
ApproachRate:7
SliderMultiplier:0.9
SliderTickRate:1

[Events]
//Background and Video events
0,0,"IKARUGAAH.png",0,0
//Break Periods
//Storyboard Layer 0 (Background)
//Storyboard Layer 1 (Fail)
//Storyboard Layer 2 (Pass)
//Storyboard Layer 3 (Foreground)
//Storyboard Sound Samples

[TimingPoints]
179,346.820809248555,4,1,0,60,1,0
11277,-117.647058823529,4,2,0,60,0,0
11624,-117.647058823529,4,2,0,30,0,0
15785,-117.647058823529,4,2,0,35,0,0
16132,-117.647058823529,4,2,0,40,0,0
16479,-117.647058823529,4,2,0,45,0,0
17173,-117.647058823529,4,2,0,30,0,0
21335,-117.647058823529,4,2,0,40,0,0
21681,-117.647058823529,4,2,0,50,0,0
22028,-117.647058823529,4,2,0,60,0,0
22375,-100,4,1,0,60,0,1
27924,-100,4,1,0,60,0,0
29311,-100,4,1,1,50,0,0
51508,-100,4,1,0,60,0,0
58444,-100,4,1,0,55,0,0
59832,-100,4,1,0,50,0,0
61219,-100,4,1,0,45,0,0
62606,-117.647058823529,4,1,0,40,0,0
63994,-117.647058823529,4,1,0,35,0,0
65381,-117.647058823529,4,1,0,30,0,0
66768,-117.647058823529,4,1,0,25,0,0
68155,-200,4,2,0,20,0,0

[Colours]
Combo1 : 225,0,0
Combo2 : 232,184,38
Combo3 : 213,255,255
Combo4 : 228,148,58

[HitObjects]
40,252,179,6,0,P|84:260|128:252,1,90,4|0,0:0|0:0,0:0:0:0:
151,164,699,1,0,0:0:0:0:
175,77,872,2,0,P|219:69|263:77,1,90,4|0,0:0|0:0,0:0:0:0:
286,165,1392,1,0,0:0:0:0:
310,252,1566,2,0,P|354:260|398:252,1,90,4|0,0:0|0:0,0:0:0:0:
421,164,2086,1,0,0:0:0:0:
398,76,2259,5,4,0:2:0:0:
398,76,2432,1,2,0:2:0:0:
309,13,2606,1,4,0:2:0:0:
309,13,2779,1,2,0:2:0:0:
201,22,2953,6,0,L|108:32,1,90,4|0,0:0|0:0,0:0:0:0:
79,116,3473,1,0,0:0:0:0:
168,105,3647,2,0,L|257:94,1,90,4|0,0:0|0:0,0:0:0:0:
309,168,4167,1,0,0:0:0:0:
224,178,4340,2,0,L|131:188,1,90,4|0,0:0|0:0,0:0:0:0:
102,272,4860,1,0,0:0:0:0:
191,261,5035,5,4,0:2:0:0:
191,261,5208,1,2,0:2:0:0:
289,305,5381,1,4,0:2:0:0:
289,305,5555,1,2,0:2:0:0:
392,274,5728,6,0,P|408:233|401:181,1,90,4|0,0:0|0:0,0:0:0:0:
356,111,6248,1,0,0:0:0:0:
269,86,6421,2,0,P|225:92|183:124,1,90,4|0,0:0|0:0,0:0:0:0:
145,198,6941,1,0,0:0:0:0:
167,286,7115,2,0,P|194:320|243:340,1,90,4|0,0:0|0:0,0:0:0:0:
326,337,7635,1,0,0:0:0:0:
392,274,7809,5,4,0:2:0:0:
392,274,7982,1,2,0:2:0:0:
288,242,8155,1,4,0:2:0:0:
288,242,8329,1,2,0:2:0:0:
181,261,8502,6,0,L|90:275,1,90,4|0,0:0|0:0,0:0:0:0:
2,289,9022,1,0,0:0:0:0:
33,204,9196,2,0,L|18:113,1,90,4|0,0:0|0:0,0:0:0:0:
5,25,9716,1,0,0:0:0:0:
89,56,9889,2,0,L|179:41,1,90,4|0,0:0|0:0,0:0:0:0:
268,28,10409,1,0,0:0:0:0:
237,112,10583,5,4,0:2:0:0:
237,112,10757,1,2,0:2:0:0:
343,129,10930,1,4,0:2:0:0:
343,129,11103,1,2,0:2:0:0:
412,46,11277,6,0,P|448:103|435:185,1,153.000002918243,6|2,0:0|0:0,0:0:0:0:
343,315,12664,2,0,P|292:347|177:249,1,229.500004377365,2|2,0:0|0:0,0:0:0:0:
180,218,13878,1,2,0:0:0:0:
184,180,14051,6,0,P|183:116|115:66,1,153.000002918243,2|2,0:0|0:0,0:0:0:0:
37,289,15439,5,2,0:0:0:0:
161,232,15785,1,4,0:0:0:0:
54,160,16132,1,6,0:0:0:0:
178,103,16479,1,4,0:0:0:0:
171,67,16652,1,0,0:0:0:0:
166,30,16826,6,0,P|239:51|328:22,1,153.000002918243,6|2,0:0|0:0,0:0:0:0:
492,12,18213,2,0,P|515:60|421:197,1,229.500004377365,2|2,0:0|0:0,0:0:0:0:
393,201,19427,1,2,0:0:0:0:
354,201,19600,6,0,P|291:229|346:356,1,229.500004377365,2|2,0:0|0:0,0:0:0:0:
371,358,20815,1,2,0:0:0:0:
408,354,20988,5,2,0:0:0:0:
481,232,21335,1,4,0:0:0:0:
345,276,21681,1,4,0:0:0:0:
319,124,22028,1,4,0:0:0:0:
234,274,22375,5,6,0:0:0:0:
139,258,22548,1,0,0:0:0:0:
44,243,22722,2,0,L|30:200,1,45
0,110,23069,5,6,0:0:0:0:
95,125,23242,1,0,0:0:0:0:
190,140,23415,2,0,L|203:182,1,45
234,274,23762,5,6,0:0:0:0:
139,258,23935,1,0,0:0:0:0:
44,243,24109,2,0,L|30:200,1,45
0,110,24456,5,2,0:0:0:0:
222,146,24803,1,2,0:0:0:0:
444,183,25150,5,6,0:0:0:0:
429,277,25323,1,0,0:0:0:0:
414,372,25497,2,0,L|381:342,1,45
309,281,25844,5,6,0:0:0:0:
325,186,26017,1,0,0:0:0:0:
340,91,26191,2,0,L|293:111,1,45
211,146,26537,5,6,0:0:0:0:
196,240,26710,1,0,0:0:0:0:
181,335,26884,2,0,L|142:300,1,45
76,244,27231,5,2,0:0:0:0:
290,178,27577,1,2,0:0:0:0:
505,112,27924,5,6,0:0:0:0:
168,76,28618,1,6,0:0:0:0:
256,192,28965,1,6,0:0:0:0:
256,192,29051,1,0,0:0:0:0:
256,192,29138,1,0,0:0:0:0:
256,192,29225,1,0,0:0:0:0:
256,192,29311,6,0,P|203:222|138:214,1,90,10|0,0:2|0:2,0:2:0:0:
75,235,29832,2,0,P|81:190|106:153,1,90,10|0,0:2|0:2,0:2:0:0:
192,104,30352,1,10,0:2:0:0:
280,82,30525,1,0,0:2:0:0:
370,93,30699,6,0,P|425:106|457:133,1,90,10|0,0:2|0:2,0:2:0:0:
378,192,31219,2,0,P|354:229|347:273,1,90,10|0,0:2|0:2,0:2:0:0:
370,380,31739,1,10,0:2:0:0:
457,353,31913,1,0,0:2:0:0:
502,275,32086,6,0,P|509:223|488:170,1,90,10|0,0:2|0:2,0:2:0:0:
480,90,32606,2,0,P|428:103|385:91,1,90,10|0,0:2|0:2,0:2:0:0:
301,59,33126,1,10,0:2:0:0:
215,31,33300,1,0,0:2:0:0:
126,45,33473,6,0,P|82:56|25:119,1,90,10|0,0:2|0:2,0:2:0:0:
125,142,33994,2,0,P|147:178|153:224,1,90,10|0,0:2|0:2,0:2:0:0:
137,345,34514,1,14,0:2:0:0:
228,264,34687,1,4,0:2:0:0:
258,382,34861,6,0,L|352:348,1,90,14|0,0:2|0:2,0:2:0:0:
419,288,35381,2,0,L|344:238,1,90,14|0,0:2|0:2,0:2:0:0:
261,180,35901,1,10,0:2:0:0:
186,131,36074,1,0,0:2:0:0:
110,82,36248,6,0,L|76:169,1,90,10|0,0:2|0:2,0:2:0:0:
140,243,36768,2,0,L|178:152,1,90,10|0,0:2|0:2,0:2:0:0:
211,67,37288,1,10,0:2:0:0:
297,41,37461,1,0,0:2:0:0:
384,16,37635,6,0,L|392:109,1,90,10|0,0:2|0:2,0:2:0:0:
395,206,38155,2,0,L|298:181,1,90,10|0,0:2|0:2,0:2:0:0:
210,161,38676,1,10,0:2:0:0:
240,246,38849,1,0,0:2:0:0:
264,332,39022,6,0,L|361:357,1,90,10|0,0:2|0:2,0:2:0:0:
444,317,39543,2,0,L|479:205,1,90,10|0,0:2|0:2,0:2:0:0:
504,113,40063,1,14,0:2:0:0:
398,56,40236,1,4,0:2:0:0:
380,176,40410,6,0,P|335:189|267:169,1,90,10|0,0:2|0:2,0:2:0:0:
209,130,40930,2,0,P|164:117|96:137,1,90,10|0,0:2|0:2,0:2:0:0:
34,170,41450,1,10,0:2:0:0:
0,253,41624,1,0,0:2:0:0:
37,336,41797,6,0,P|89:323|147:330,1,90,10|0,0:2|0:2,0:2:0:0:
207,384,42317,2,0,P|223:337|218:276,1,90,10|0,0:2|0:2,0:2:0:0:
206,198,42837,1,10,0:2:0:0:
225,111,43011,1,0,0:2:0:0:
285,43,43184,6,0,P|308:95|358:126,1,90,10|0,0:2|0:2,0:2:0:0:
383,28,43705,2,0,P|427:16|470:24,1,90,10|0,0:2|0:2,0:2:0:0:
430,114,44225,1,10,0:2:0:0:
457,200,44398,1,0,0:2:0:0:
440,289,44572,6,0,P|415:329|374:357,1,90,10|0,0:2|0:2,0:2:0:0:
282,360,45092,2,0,P|239:336|215:303,1,90,10|0,0:2|0:2,0:2:0:0:
324,246,45612,1,14,0:2:0:0:
281,133,45785,1,4,0:2:0:0:
190,213,45959,6,0,L|87:191,1,90,14|0,0:2|0:2,0:2:0:0:
5,171,46479,2,0,L|52:88,1,90,10|0,0:2|0:2,0:2:0:0:
102,8,46999,1,10,0:2:0:0:
152,83,47173,1,0,0:2:0:0:
202,158,47346,6,0,L|299:146,1,90,10|0,0:2|0:2,0:2:0:0:
390,137,47866,2,0,L|362:245,1,90,10|0,0:2|0:2,0:2:0:0:
339,320,48387,1,10,0:2:0:0:
260,276,48560,1,0,0:2:0:0:
180,232,48733,6,0,L|150:329,1,90,10|0,0:2|0:2,0:2:0:0:
55,328,49254,2,0,L|86:230,1,90,10|0,0:2|0:2,0:2:0:0:
110,146,49774,1,10,0:2:0:0:
198,166,49947,1,0,0:2:0:0:
286,186,50121,6,0,L|373:156,1,90,10|0,0:2|0:2,0:2:0:0:
393,59,50641,2,0,L|308:88,1,90,10|0,0:2|0:2,0:2:0:0:
289,208,51161,1,14,0:2:0:0:
198,126,51335,1,4,0:2:0:0:
211,9,51508,6,0,P|162:13|122:35,1,90,4|0,0:0|0:0,0:0:0:0:
66,98,52028,1,0,0:0:0:0:
157,101,52202,2,0,P|206:105|246:127,1,90,4|0,0:0|0:0,0:0:0:0:
302,190,52722,1,0,0:0:0:0:
211,193,52895,2,0,P|162:197|122:219,1,90,4|0,0:0|0:0,0:0:0:0:
66,282,53415,1,0,0:0:0:0:
157,285,53589,5,4,0:2:0:0:
157,285,53762,1,2,0:2:0:0:
256,329,53936,1,4,0:2:0:0:
256,329,54109,1,2,0:2:0:0:
360,296,54283,6,0,L|456:266,1,90,4|0,0:0|0:0,0:0:0:0:
390,198,54803,1,0,0:0:0:0:
335,128,54976,2,0,L|240:157,1,90,4|0,0:0|0:0,0:0:0:0:
241,244,55496,1,0,0:0:0:0:
234,334,55670,2,0,L|139:363,1,90,4|0,0:0|0:0,0:0:0:0:
92,290,56190,1,0,0:0:0:0:
99,200,56363,5,4,0:2:0:0:
99,200,56537,1,2,0:2:0:0:
178,125,56710,1,4,0:2:0:0:
178,125,56884,1,2,0:2:0:0:
285,140,57057,6,0,P|331:148|376:140,1,90,4|0,0:0|0:0,0:0:0:0:
460,114,57577,1,0,0:0:0:0:
427,197,57751,2,0,P|419:243|427:288,1,90,4|0,0:0|0:0,0:0:0:0:
460,368,58271,1,0,0:0:0:0:
374,341,58444,2,0,P|330:334|285:342,1,90,4|0,0:0|0:0,0:0:0:0:
200,367,58965,1,0,0:0:0:0:
234,284,59138,5,4,0:2:0:0:
234,284,59311,1,2,0:2:0:0:
174,194,59485,1,4,0:2:0:0:
174,194,59658,1,2,0:2:0:0:
236,107,59832,6,0,L|286:20,1,90,4|0,0:0|0:0,0:0:0:0:
360,10,60352,1,0,0:0:0:0:
441,34,60525,2,0,L|492:123,1,90,4|0,0:0|0:0,0:0:0:0:
465,191,61046,1,0,0:0:0:0:
401,248,61219,2,0,L|303:248,1,90,4|0,0:0|0:0,0:0:0:0:
252,191,61739,1,0,0:0:0:0:
232,107,61913,5,4,0:2:0:0:
232,107,62086,1,2,0:2:0:0:
325,67,62259,1,4,0:2:0:0:
325,67,62432,1,2,0:2:0:0:
404,122,62606,6,0,P|411:159|404:196,1,76.5000014591217,4|0,0:0|0:0,0:0:0:0:
358,263,63126,1,0,0:0:0:0:
285,297,63300,2,0,P|248:303|211:297,1,76.5000014591217,4|0,0:0|0:0,0:0:0:0:
144,251,63820,1,0,0:0:0:0:
110,178,63994,2,0,P|104:140|110:103,1,76.5000014591217,4|0,0:0|0:0,0:0:0:0:
156,37,64514,1,0,0:0:0:0:
229,3,64687,5,4,0:2:0:0:
229,3,64861,1,2,0:2:0:0:
294,72,65034,1,4,0:2:0:0:
294,72,65207,1,2,0:2:0:0:
389,53,65381,5,4,0:0:0:0:
256,192,65554,12,6,68155,0:0:0:0:
