osu file format v14

[General]
AudioFilename: audio.mp3
AudioLeadIn: 0
PreviewTime:71812
Countdown: 0
SampleSet: Soft
StackLeniency: 0.2
Mode: 0
LetterboxInBreaks: 0
WidescreenStoryboard: 1

[Editor]
DistanceSpacing: 0.3
BeatDivisor: 4
GridSize: 4
TimelineZoom: 2.44

[Metadata]
Title:promise
TitleUnicode:promise
Artist:Hirose Kohmi
ArtistUnicode:広瀬香美
Creator:Luscent
Version:Yokes' Expert
Source:
Tags:get down geddan kawashiro nitori cut short ver japanese pop jpop 404 aimnotfound enon kalibe black man fixxis firika evilelvis v2 elvis jounzan natteke desu dailycare morinaga yokespai yokes
BeatmapID:2294389
BeatmapSetID:1094694

[Difficulty]
HPDrainRate:5.5
CircleSize:4
OverallDifficulty:9
ApproachRate:9
SliderMultiplier:2.8
SliderTickRate:0.5

[Events]
//Background and Video events
0,0,"bg.jpg"
//Break Periods
//Storyboard Layer 0 (Background)
//Storyboard Layer 1 (Fail)
//Storyboard Layer 2 (Pass)
//Storyboard Layer 3 (Foreground)
//Storyboard Layer 4 (Overlay)
//Storyboard Sound Samples

[TimingPoints]
10954,483.960734652395,4,2,1,50,1,0
10954,-125,4,2,1,50,0,0
14341,-166.666666666667,4,2,1,50,0,0
14825,-125,4,2,1,50,0,0
16761,-166.666666666667,4,2,1,50,0,0
18213,-125,4,2,1,50,0,0
18697,-166.666666666667,4,2,1,50,0,0
19665,-125,4,2,1,50,0,0
20633,-166.666666666667,4,2,1,50,0,0
21601,-125,4,2,1,50,0,0
22569,-100,4,2,1,50,0,0
24504,-83.3333333333333,4,2,1,50,0,0
26440,-100,4,3,1,70,0,0
41685,-100,4,2,1,50,0,0
70965,-125,4,2,1,50,0,0
71449,-125,4,2,1,50,0,0
71812,-125,4,2,1,5,0,0
71933,-166.666666666667,4,2,1,70,0,0
72900,-83.3333333333333,4,2,1,70,0,1
86935,-83.3333333333333,4,2,1,70,0,0
87903,-71.4285714285714,4,2,1,70,0,0
88387,-83.3333333333333,4,2,1,70,0,1
102422,-83.3333333333333,4,2,1,70,0,0
103874,-83.3333333333333,4,2,1,70,0,1
118393,-83.3333333333333,4,2,1,70,0,0
119119,-83.3333333333333,4,2,1,70,0,1
119361,-83.3333333333333,4,2,1,70,0,0
119482,-83.3333333333333,4,2,1,50,0,0

[Colours]
Combo1 : 17,254,176
Combo2 : 173,255,95
Combo3 : 255,88,100
Combo4 : 255,94,55

[HitObjects]
4,355,10954,6,0,P|113:365|233:366,2,224,2|2|2,3:0|3:2|3:2,0:0:0:0:
18,216,12405,1,2,3:2:0:0:
25,219,12647,2,0,L|27:286,1,56,0|0,3:0|0:0,0:0:0:0:
119,57,12889,6,0,P|107:149|121:284,1,224,2|2,3:0|0:0,0:0:0:0:
42,23,13615,1,0,3:0:0:0:
7,98,13736,1,0,3:2:0:0:
13,101,13797,1,0,3:2:0:0:
19,104,13857,2,0,P|104:115|193:99,1,168,2|0,3:0|0:0,0:0:0:0:
255,51,14341,6,0,L|253:9,2,41.9999987182618,2|0|0,0:0|0:0|0:0,0:0:0:0:
364,262,14825,6,0,P|347:130|343:16,2,224,2|2|2,3:0|3:2|3:2,0:0:0:0:
443,0,16277,1,2,0:0:0:0:
432,72,16398,1,2,0:0:0:0:
473,139,16519,1,2,3:0:0:0:
487,216,16640,1,2,3:2:0:0:
458,295,16761,6,0,B|399:339|333:314|363:306|272:295|217:350,1,251.999992309571,2|0,3:0|0:0,0:0:0:0:
139,348,17729,6,0,L|233:353,1,83.9999974365235,2|0,3:2|0:0,0:0:0:0:
196,272,18092,1,0,3:0:0:0:
136,354,18213,6,0,L|11:360,1,112,2|0,3:2|0:0,0:0:0:0:
129,196,18697,6,0,B|135:223|116:245|119:235|106:259|114:277,2,83.9999974365235,2|0|2,1:2|0:0|0:0,0:0:0:0:
34,279,19302,1,0,3:0:0:0:
17,204,19423,1,0,3:0:0:0:
65,132,19544,1,0,3:0:0:0:
20,45,19665,6,0,P|51:45|81:50,1,56,0|0,1:0|0:0,0:0:0:0:
181,3,19907,2,0,P|209:2|237:0,1,56,8|0,1:2|0:0,0:0:0:0:
14,48,20149,6,0,P|45:48|75:43,1,56,0|0,1:0|0:0,0:0:0:0:
199,88,20391,2,0,P|227:89|255:93,1,56,8|0,1:2|0:0,0:0:0:0:
410,83,20633,6,0,B|437:77|459:96|449:93|473:106|491:98,2,83.9999974365235,2|0|2,1:2|0:0|0:0,0:0:0:0:
341,34,21238,1,0,3:0:0:0:
335,113,21359,1,0,3:0:0:0:
394,178,21480,1,0,3:0:0:0:
409,265,21601,6,0,P|409:300|402:338,1,56,0|0,1:0|0:0,0:0:0:0:
500,180,21843,2,0,P|500:215|507:253,1,56,8|0,1:2|0:0,0:0:0:0:
500,329,22085,6,0,P|500:364|507:402,1,56,0|0,1:0|0:0,0:0:0:0:
494,177,22327,2,0,P|494:204|491:232,1,56,8|0,1:2|0:0,0:0:0:0:
300,355,22569,6,0,P|301:301|305:270,1,70,0|0,1:0|0:0,0:0:0:0:
358,190,22811,2,0,P|358:155|355:120,1,70,8|0,0:0|0:0,0:0:0:0:
297,349,23053,6,0,P|296:295|292:264,1,70,0|0,1:0|0:0,0:0:0:0:
255,165,23294,2,0,P|254:130|257:95,1,70,8|0,0:0|0:0,0:0:0:0:
138,378,23536,6,0,P|173:379|208:382,1,70,0|0,1:0|0:0,0:0:0:0:
6,313,23778,2,0,P|64:310|92:310,1,70,8|0,0:0|0:0,0:0:0:0:
158,240,24020,6,0,P|193:239|228:237,1,70,0|0,1:0|0:0,0:0:0:0:
0,310,24262,2,0,P|58:313|86:313,1,70,8|0,0:0|0:0,0:0:0:0:
81,70,24504,6,0,B|51:118|67:170|74:150|89:188|74:232,1,167.999994873047,4|8,1:3|0:0,0:0:0:0:
46,129,24867,1,2,0:0:0:0:
149,125,24988,1,2,0:0:0:0:
0,199,25109,1,8,0:0:0:0:
155,128,25351,5,2,0:0:0:0:
12,31,25472,1,8,0:0:0:0:
87,67,25593,1,8,0:0:0:0:
244,95,25714,1,8,0:0:0:0:
161,131,25835,1,8,0:0:0:0:
192,9,25956,6,0,P|256:8|371:18,1,167.999994873047,8|2,0:0|0:0,0:0:0:0:
425,121,26319,1,8,0:0:0:0:
450,13,26440,6,0,P|438:73|450:154,1,140,12|0,1:2|0:2,0:2:0:0:
503,341,26803,1,2,0:2:0:0:
474,234,26924,2,0,P|486:294|474:375,1,140,8|0,0:2|0:2,0:2:0:0:
318,343,27408,6,0,L|390:350,1,70,2|0,1:2|0:2,0:2:0:0:
229,377,27650,2,0,L|157:384,1,70,2|0,1:2|0:2,0:2:0:0:
390,343,27892,1,8,0:2:0:0:
396,340,28134,2,0,L|324:347,1,70,2|0,0:2|0:2,0:2:0:0:
74,384,28376,6,0,P|111:364|196:297,1,140,0|0,1:0|0:2,0:2:0:0:
76,171,28739,1,2,0:2:0:0:
27,313,28860,2,0,P|24:266|26:227,1,70,8|0,0:2|0:2,0:2:0:0:
158,187,29102,2,0,P|160:152|160:117,1,70,2|0,1:2|0:2,0:2:0:0:
33,310,29344,2,0,P|36:263|34:224,1,70,2|0,1:2|0:2,0:2:0:0:
70,168,29586,1,2,0:2:0:0:
33,17,29707,1,0,0:2:0:0:
76,85,29828,1,8,0:2:0:0:
82,88,30070,5,2,1:2:0:0:
238,75,30191,1,8,0:2:0:0:
157,44,30312,6,0,P|230:56|323:55,1,140,2|0,1:2|0:2,0:2:0:0:
379,29,30675,1,2,0:2:0:0:
301,145,30796,2,0,P|291:186|288:220,1,70,8|0,0:2|0:2,0:2:0:0:
394,103,31038,2,0,P|389:68|381:34,1,70,0|0,1:2|0:2,0:2:0:0:
304,151,31280,2,0,P|312:184|316:219,1,70,2|0,1:2|0:2,0:2:0:0:
479,155,31522,1,2,0:2:0:0:
388,106,31643,1,0,0:2:0:0:
490,253,31764,1,8,0:2:0:0:
493,259,32006,5,2,0:2:0:0:
351,291,32127,1,8,0:2:0:0:
433,326,32248,6,0,P|358:310|291:317,1,140,2|0,1:2|0:2,0:2:0:0:
188,384,32611,1,2,0:2:0:0:
271,376,32732,2,0,P|276:337|273:291,1,70,8|0,0:2|0:2,0:2:0:0:
82,217,32974,1,2,0:2:0:0:
109,296,33095,1,0,0:2:0:0:
192,288,33216,2,0,P|197:249|194:203,1,70,2|0,1:2|0:2,0:2:0:0:
29,79,33458,1,2,0:2:0:0:
16,161,33579,1,0,0:2:0:0:
94,132,33700,5,8,1:2:0:0:
10,164,33821,1,0,1:2:0:0:
172,103,33942,5,8,1:2:0:0:
23,82,34063,1,8,1:2:0:0:
236,156,34184,6,0,P|255:90|219:32,1,140,6|0,1:2|0:2,0:2:0:0:
117,39,34547,1,2,0:2:0:0:
264,63,34668,2,0,P|306:66|405:58,1,140,8|0,0:2|0:2,0:2:0:0:
465,163,35152,6,0,L|458:232,1,70,2|0,1:2|0:2,0:2:0:0:
490,82,35394,2,0,L|482:1,1,70,2|0,1:2|0:2,0:2:0:0:
455,238,35635,1,8,0:2:0:0:
452,244,35877,2,0,L|458:313,1,70,2|0,0:2|0:2,0:2:0:0:
512,384,36119,6,0,P|443:370|365:370,1,140,2|0,1:2|0:2,0:2:0:0:
190,380,36482,1,2,0:2:0:0:
294,335,36603,2,0,P|225:349|147:349,1,140,8|2,1:2|1:2,1:2:0:0:
17,308,36966,1,2,0:2:0:0:
15,384,37087,2,0,P|20:339|20:314,1,70,2|0,1:2|0:2,0:2:0:0:
103,275,37329,1,2,0:2:0:0:
14,302,37450,1,0,0:2:0:0:
158,355,37571,1,8,0:2:0:0:
164,358,37813,5,2,0:2:0:0:
20,305,37934,1,8,0:2:0:0:
237,310,38055,6,0,P|228:241|226:170,1,140,2|0,1:2|0:2,0:2:0:0:
383,97,38418,1,2,0:2:0:0:
314,150,38539,2,0,P|313:202|315:223,1,70,8|0,0:2|0:2,0:2:0:0:
139,227,38781,2,0,P|141:262|139:297,1,70,2|0,1:2|0:2,0:2:0:0:
317,144,39023,2,0,P|318:178|316:213,1,70,2|0,1:2|0:2,0:2:0:0:
136,303,39265,1,2,0:2:0:0:
125,210,39386,1,0,0:2:0:0:
232,143,39507,1,8,0:2:0:0:
235,137,39749,5,2,1:2:0:0:
139,297,39870,1,8,0:2:0:0:
15,190,39991,6,0,P|99:183|174:185,1,140,12|0,0:2|0:2,0:2:0:0:
233,229,40354,1,2,1:2:0:0:
0,84,40475,6,0,P|52:89|94:91,1,70,8|0,0:2|0:2,0:2:0:0:
218,57,40717,1,2,1:2:0:0:
75,93,40838,1,8,0:2:0:0:
81,96,41201,5,2,0:2:0:0:
224,60,41443,1,12,0:2:0:0:
415,59,41685,6,0,P|367:61|286:115,2,140,2|0|2,3:2|0:0|0:3,0:0:0:0:
337,260,42411,1,8,0:0:0:0:
334,254,42653,2,0,L|330:184,1,70,2|0,3:3|3:2,0:0:0:0:
455,135,42895,5,2,0:0:0:0:
452,141,43137,2,0,P|441:216|443:296,1,140,2|8,3:0|3:2,0:0:0:0:
444,286,43621,1,2,3:0:0:0:
505,344,43742,1,0,1:0:0:0:
377,335,43863,5,2,0:0:0:0:
215,349,44105,1,2,3:0:0:0:
307,290,44347,2,0,P|214:330|146:326,1,140,8|2,0:0|0:3,0:0:0:0:
110,283,44710,1,2,0:0:0:0:
35,370,44831,5,2,3:2:0:0:
113,277,45073,1,2,3:3:0:0:
20,177,45315,1,8,0:2:0:0:
120,51,45557,5,2,0:3:0:0:
137,134,45678,1,8,0:0:0:0:
26,174,45799,2,0,P|102:156|175:155,1,140,2|2,3:2|0:3,0:0:0:0:
233,268,46283,6,0,L|238:187,1,70,8|0,0:0|0:0,0:0:0:0:
323,85,46525,1,2,3:0:0:0:
326,172,46646,1,0,3:0:0:0:
243,195,46767,2,0,P|245:151|230:53,2,140,2|2|8,0:0|0:3|0:0,0:0:0:0:
326,79,47493,5,2,3:3:0:0:
329,166,47614,1,8,3:2:0:0:
381,274,47735,2,0,B|337:219|369:139|373:166|453:99|389:15,2,280,2|8|2,0:0|0:0|0:0,0:0:0:0:
433,59,48944,5,2,3:0:0:0:
436,65,49186,2,0,L|442:149,1,70,8|0,0:0|0:0,0:0:0:0:
465,281,49428,5,2,3:0:0:0:
486,204,49549,1,0,1:0:0:0:
512,360,49670,2,0,P|456:294|389:275,1,140,2|2,0:0|0:3,0:0:0:0:
279,330,50154,6,0,P|366:311|416:262,1,140,8|2,0:0|0:3,0:0:0:0:
195,306,50517,1,2,0:0:0:0:
273,327,50638,2,0,P|185:345|135:394,2,140,2|2|8,3:2|3:0|3:2,0:0:0:0:
64,359,51364,5,2,0:3:0:0:
142,380,51485,1,8,0:0:0:0:
58,362,51606,2,0,P|49:292|50:219,1,140,2|2,0:0|0:3,0:0:0:0:
156,193,52090,2,0,P|165:123|164:50,1,140,8|2,0:0|0:3,0:0:0:0:
248,365,52574,2,0,P|257:295|256:222,1,140,2|2,0:0|0:3,0:0:0:0:
150,196,53058,2,0,P|141:126|142:53,1,140,8|2,0:0|0:3,0:0:0:0:
221,26,53421,1,8,0:0:0:0:
66,14,53542,5,2,3:2:0:0:
60,17,53784,2,0,L|56:100,1,70,2|0,3:3|0:0,0:0:0:0:
68,218,54026,1,8,0:0:0:0:
119,148,54268,5,2,3:3:0:0:
71,224,54389,1,0,3:0:0:0:
122,154,54510,2,0,P|178:147|262:148,2,140,2|2|8,0:0|0:3|0:0,0:0:0:0:
349,76,55236,5,2,3:3:0:0:
390,155,55357,1,0,3:0:0:0:
345,81,55478,2,0,P|289:69|206:62,2,140,2|2|8,0:0|0:3|0:0,0:0:0:0:
342,87,56204,5,2,3:2:0:0:
387,161,56325,1,8,3:2:0:0:
339,93,56446,5,2,3:2:0:0:
436,18,56567,2,0,P|426:53|425:86,1,70,8|0,0:0|0:0,0:0:0:0:
481,242,56809,5,2,0:0:0:0:
384,167,56930,2,0,P|393:202|394:235,1,70,12|0,0:0|0:0,0:0:0:0:
361,337,57172,5,8,0:0:0:0:
446,310,57293,1,2,0:0:0:0:
440,313,57353,1,2,0:0:0:0:
434,316,57414,2,0,B|390:333|353:320|367:314|331:302|298:310,1,140,2|2,0:0|3:3,0:0:0:0:
154,342,57898,5,8,0:0:0:0:
157,348,58140,2,0,L|228:357,1,70,2|0,3:3|0:0,0:0:0:0:
76,367,58382,6,0,L|67:296,1,70,2|0,3:2|0:0,0:0:0:0:
157,193,58624,1,2,3:3:0:0:
143,266,58745,2,0,L|152:195,1,70,2|8,3:2|0:0,0:0:0:0:
58,105,58987,1,0,3:2:0:0:
72,178,59108,1,2,3:3:0:0:
63,108,59229,1,0,3:2:0:0:
0,62,59350,6,2,P|69:86|157:80,1,140,2|2,1:2|0:3,0:0:0:0:
225,120,59834,5,8,0:0:0:0:
217,48,59955,2,0,L|220:125,1,70,2|2,0:0|0:3,0:0:0:0:
366,43,60317,6,0,P|331:33|298:25,1,70,2|0,3:2|0:0,0:0:0:0:
299,113,60559,1,2,3:3:0:0:
439,88,60680,2,0,P|472:78|506:70,1,70,2|8,3:2|0:0,0:0:0:0:
510,162,60922,1,0,3:0:0:0:
370,137,61043,2,0,P|336:127|302:119,2,70,2|0|2,3:3|0:0|0:0,0:0:0:0:
483,243,61527,5,2,0:3:0:0:
477,246,61769,2,0,B|468:287|478:328|484:304|496:347|485:384,1,140,8|2,0:0|0:3,0:0:0:0:
393,220,62253,2,0,P|367:269|277:197,2,210,2|0|2,0:0|0:0|0:3,0:0:0:0:
264,259,63100,1,0,3:0:0:0:
399,372,63221,6,0,P|348:363|323:362,1,70,2|0,3:2|0:0,0:0:0:0:
258,262,63463,1,2,0:3:0:0:
323,359,63584,2,0,P|272:368|247:369,1,70,2|8,3:2|0:0,0:0:0:0:
252,265,63826,1,0,3:0:0:0:
247,371,63947,2,0,P|196:362|171:361,1,70,2|0,3:3|0:0,0:0:0:0:
11,272,64189,5,2,0:0:0:0:
85,375,64310,2,0,P|100:335|104:236,1,140,8|0,0:0|0:0,0:0:0:0:
17,269,64673,2,0,P|21:234|23:199,1,70,8|0,0:0|0:0,0:0:0:0:
14,33,64915,1,8,0:0:0:0:
0,109,65036,1,2,0:0:0:0:
6,112,65097,1,2,0:0:0:0:
12,115,65157,6,0,P|85:123|180:100,2,140,6|0|8,0:0|0:0|0:0,0:0:0:0:
211,46,65883,1,0,3:0:0:0:
153,105,66004,1,0,3:0:0:0:
278,95,66125,2,0,L|274:179,2,70,2|0|0,0:0|0:0|0:0,0:0:0:0:
372,56,66609,6,0,P|361:146|361:200,1,140,8|0,0:0|0:0,0:0:0:0:
512,71,66972,1,0,3:0:0:0:
479,0,67093,2,0,P|490:72|489:159,2,140,2|0|8,0:0|0:0|0:0,0:0:0:0:
363,201,67698,1,0,3:0:0:0:
446,209,67819,2,0,P|441:287|446:353,2,140,0|2|0,0:0|0:0|0:0,0:0:0:0:
357,326,68424,1,0,3:0:0:0:
451,351,68545,2,0,B|416:360|381:355|378:344|345:340|311:350,1,140,8|0,0:0|0:0,0:0:0:0:
144,320,68908,1,0,3:0:0:0:
234,384,69029,6,0,P|228:338|227:302,1,70,0|0,1:0|0:0,0:0:0:0:
300,267,69271,2,0,P|306:221|307:185,1,70,0|0,1:0|0:0,0:0:0:0:
231,378,69513,2,0,P|237:332|238:296,1,70,8|0,0:0|0:0,0:0:0:0:
183,244,69755,2,0,P|177:198|176:162,1,70,0|8,1:0|0:0,0:0:0:0:
306,264,69997,6,0,P|300:218|299:182,1,70,0|0,1:0|0:0,0:0:0:0:
372,147,70239,2,0,P|378:101|379:65,1,70,0|0,1:0|0:0,0:0:0:0:
303,258,70481,1,8,0:0:0:0:
309,188,70602,1,0,3:0:0:0:
255,124,70723,1,0,1:0:0:0:
248,54,70844,1,8,0:0:0:0:
321,14,70965,2,0,P|327:69|332:125,1,112,4|2,0:3|0:0,0:0:0:0:
239,294,71449,6,0,P|238:210|249:127,1,168,12|0,0:0|0:0,0:0:0:0:
245,25,71933,6,0,P|256:108|255:192,1,168,8|8,0:0|0:0,0:0:0:0:
253,198,72900,6,0,P|187:198|82:191,1,167.999994873047,12|0,1:2|3:0,0:0:0:0:
39,120,73263,1,2,3:2:0:0:
55,271,73384,2,0,P|58:325|58:364,1,83.9999974365235,8|0,0:0|0:0,0:0:0:0:
36,114,73626,2,0,P|33:60|33:21,1,83.9999974365235,2|0,1:2|0:0,0:0:0:0:
285,105,73868,6,0,B|242:112|195:100|215:98|178:85|114:90,1,167.999994873047,0|2,1:2|0:2,0:0:0:0:
0,192,74231,1,2,3:2:0:0:
159,61,74352,2,0,P|211:66|252:66,1,83.9999974365235,8|0,0:0|0:0,0:0:0:0:
436,39,74594,2,0,L|322:45,1,83.9999974365235,2|0,1:2|0:0,0:0:0:0:
468,271,74836,6,0,B|453:223|471:168|484:200|499:152|487:110,2,167.999994873047,2|2|8,1:2|0:2|0:0,0:0:0:0:
251,157,75441,1,2,3:2:0:0:
410,137,75562,2,0,P|365:130|323:127,1,83.9999974365235,2|0,1:2|0:0,0:0:0:0:
337,335,75804,2,0,B|384:320|439:338|407:351|455:366|498:354,2,167.999994873047,2|2|8,1:2|0:2|0:0,0:0:0:0:
180,384,76409,1,2,3:2:0:0:
264,378,76530,5,2,3:2:0:0:
109,339,76651,1,8,3:2:0:0:
17,384,76772,6,0,P|27:324|23:212,1,167.999994873047,2|2,1:2|0:2,0:0:0:0:
57,42,77135,1,2,3:2:0:0:
96,166,77256,2,0,P|86:106|90:-6,1,167.999994873047,8|2,0:0|0:0,0:0:0:0:
302,101,77619,1,8,3:2:0:0:
178,140,77740,2,0,P|238:130|350:134,1,167.999994873047,2|2,1:2|0:0,0:0:0:0:
397,201,78103,1,2,3:2:0:0:
466,75,78224,2,0,L|470:158,1,83.9999974365235,8|0,0:0|0:0,0:0:0:0:
410,284,78466,5,2,3:2:0:0:
473,164,78587,1,8,0:0:0:0:
487,330,78708,6,0,P|451:307|415:286,1,83.9999974365235,2|0,1:2|0:0,0:0:0:0:
304,367,78950,2,0,P|345:369|387:368,1,83.9999974365235,2|0,1:2|0:0,0:0:0:0:
391,198,79192,6,0,P|351:184|310:174,1,83.9999974365235,8|0,0:0|0:0,0:0:0:0:
223,280,79434,1,2,1:2:0:0:
304,260,79555,1,8,0:0:0:0:
264,95,79676,6,0,P|222:92|180:93,1,83.9999974365235,2|0,1:2|0:0,0:0:0:0:
123,218,79918,2,0,P|160:199|196:177,1,83.9999974365235,2|0,1:2|0:0,0:0:0:0:
114,28,80160,6,0,P|72:36|32:47,1,83.9999974365235,8|0,0:0|0:0,0:0:0:0:
10,183,80402,1,2,1:2:0:0:
71,125,80523,1,8,0:0:0:0:
81,307,80644,6,0,B|70:256|83:210|94:231|103:187|86:137,2,167.999994873047,6|0|8,1:2|0:0|0:0,0:0:0:0:
0,384,81249,1,2,0:0:0:0:
87,310,81370,1,2,0:0:0:0:
242,360,81491,1,8,0:0:0:0:
187,272,81612,6,0,P|196:233|205:173,1,83.9999974365235,2|0,1:2|0:0,0:0:0:0:
298,165,81854,2,0,P|298:125|306:64,1,83.9999974365235,2|0,1:2|0:0,0:0:0:0:
184,266,82096,6,0,P|194:228|217:171,1,83.9999974365235,8|0,0:0|0:0,0:0:0:0:
153,119,82338,1,2,1:2:0:0:
190,43,82459,1,8,0:0:0:0:
400,52,82580,6,0,B|348:50|294:35|294:35|296:65|281:93,2,167.999994873047,6|0|8,1:2|0:0|0:0,0:0:0:0:
512,0,83185,1,2,0:0:0:0:
406,49,83306,1,2,0:0:0:0:
490,149,83427,1,8,0:0:0:0:
300,123,83548,6,0,P|296:190|298:223,1,83.9999974365235,2|0,1:2|0:0,0:0:0:0:
392,255,83790,2,0,P|395:296|395:338,1,83.9999974365235,2|0,1:2|0:0,0:0:0:0:
490,149,84032,2,0,P|494:216|492:249,1,83.9999974365235,8|0,0:0|0:0,0:0:0:0:
386,258,84274,1,2,1:2:0:0:
382,341,84395,1,8,0:0:0:0:
486,235,84516,6,0,P|444:241|402:242,1,83.9999974365235,2|0,1:2|0:0,0:0:0:0:
302,209,84758,2,0,P|260:202|218:201,1,83.9999974365235,2|0,1:2|0:0,0:0:0:0:
492,238,84999,5,8,0:0:0:0:
408,230,85120,1,2,1:2:0:0:
271,288,85241,2,0,P|229:294|187:295,1,83.9999974365235,2|8,1:2|0:0,0:0:0:0:
305,203,85483,6,0,P|263:209|221:210,1,83.9999974365235,2|0,1:2|0:0,0:0:0:0:
121,177,85725,2,0,P|79:170|37:169,1,83.9999974365235,2|0,1:2|0:0,0:0:0:0:
359,132,85966,5,8,0:0:0:0:
275,124,86087,1,2,1:2:0:0:
115,167,86209,2,0,P|73:173|31:174,1,83.9999974365235,2|8,1:2|0:0,0:0:0:0:
131,350,86451,6,0,P|124:293|118:149,1,167.999994873047,6|0,1:2|0:0,0:0:0:0:
179,124,86814,1,2,1:2:0:0:
32,175,86935,2,0,P|38:137|44:-7,1,167.999994873047,8|0,0:0|0:0,0:0:0:0:
67,98,87298,1,2,1:2:0:0:
185,121,87419,1,2,1:2:0:0:
309,42,87540,5,8,0:0:0:0:
138,53,87661,1,8,0:0:0:0:
144,56,87903,6,0,B|191:87|259:80|234:65|289:59|335:74,1,195.999994018555,8|0,1:2|0:0,0:0:0:0:
352,157,88266,1,2,1:2:0:0:
415,0,88387,6,0,P|423:83|445:164,1,167.999994873047,6|0,1:2|0:0,0:0:0:0:
508,221,88750,1,2,3:2:0:0:
434,340,88871,2,0,B|424:355|410:371|410:371|417:287|439:206,1,167.999994873047,8|0,0:0|1:2,0:0:0:0:
512,377,89234,1,2,3:2:0:0:
323,370,89355,5,2,1:2:0:0:
428,337,89476,1,0,3:0:0:0:
197,333,89597,2,2,B|244:336|287:306|264:301|312:281|365:294,2,167.999994873047,2|8|2,0:0|0:0|3:2,0:0:0:0:
35,290,90202,1,2,3:2:0:0:
112,384,90323,6,0,P|115:323|109:211,1,167.999994873047,2|0,1:2|0:0,0:0:0:0:
61,46,90686,1,2,3:2:0:0:
27,206,90807,2,0,P|26:165|26:123,1,83.9999974365235,8|0,0:0|0:0,0:0:0:0:
144,31,91049,5,2,1:2:0:0:
55,43,91170,1,8,0:0:0:0:
272,139,91291,2,0,B|227:123|199:83|221:89|192:44|149:32,2,167.999994873047,2|2|8,1:2|0:0|0:0,0:0:0:0:
379,72,91896,1,2,3:2:0:0:
300,44,92017,1,2,3:2:0:0:
351,167,92138,1,8,0:0:0:0:
470,11,92259,6,0,P|465:52|462:94,1,83.9999974365235,2|0,0:0|0:0,0:0:0:0:
426,219,92501,1,2,0:0:0:0:
373,69,92622,1,2,1:2:0:0:
345,164,92743,6,0,P|349:205|352:247,1,83.9999974365235,8|0,0:0|0:0,0:0:0:0:
312,322,92985,1,2,0:2:0:0:
432,222,93106,1,8,0:0:0:0:
468,346,93227,6,0,B|486:349|500:358|500:358|439:375|370:383,1,167.999994873047,2|0,0:0|0:0,0:0:0:0:
224,290,93590,1,2,0:0:0:0:
306,325,93711,1,8,0:0:0:0:
238,373,93832,1,2,0:2:0:0:
108,305,93953,1,2,0:2:0:0:
229,207,94074,1,8,0:0:0:0:
24,273,94195,6,0,P|24:335|19:363,1,83.9999974365235,2|0,1:2|0:0,0:0:0:0:
88,139,94437,2,0,P|88:201|93:229,1,83.9999974365235,2|0,1:2|0:0,0:0:0:0:
176,190,94679,6,0,P|176:252|171:280,1,83.9999974365235,8|0,0:0|0:0,0:0:0:0:
241,57,94921,1,2,1:2:0:0:
244,140,95042,1,8,0:0:0:0:
265,263,95163,6,0,P|265:325|260:353,1,83.9999974365235,2|0,1:2|0:0,0:0:0:0:
329,129,95405,2,0,P|329:191|334:219,1,83.9999974365235,2|0,1:2|0:0,0:0:0:0:
417,180,95647,6,0,P|417:242|412:270,1,83.9999974365235,8|0,0:0|0:0,0:0:0:0:
482,47,95889,1,2,1:2:0:0:
485,130,96010,1,8,0:0:0:0:
463,341,96131,6,0,B|423:365|370:353|393:345|341:329|300:339,2,167.999994873047,6|0|8,1:2|0:0|0:0,0:0:0:0:
413,263,96736,1,2,0:0:0:0:
325,315,96857,1,2,0:0:0:0:
182,279,96978,1,8,0:0:0:0:
48,357,97099,6,0,P|56:315|58:273,1,83.9999974365235,2|0,1:2|0:0,0:0:0:0:
125,209,97340,2,0,P|117:167|115:125,1,83.9999974365235,2|0,1:2|0:0,0:0:0:0:
188,368,97582,6,0,P|180:326|178:284,1,83.9999974365235,8|0,0:0|0:0,0:0:0:0:
122,215,97824,1,2,1:2:0:0:
131,131,97945,1,8,0:0:0:0:
17,46,98066,6,0,B|57:69|113:59|85:47|148:38|189:68,2,167.999994873047,6|0|8,1:2|0:0|0:0,0:0:0:0:
35,139,98671,1,2,0:0:0:0:
138,29,98792,1,2,0:0:0:0:
203,177,98913,1,8,0:0:0:0:
329,16,99034,6,0,P|326:69|332:108,1,83.9999974365235,2|0,1:2|0:0,0:0:0:0:
418,170,99276,2,0,P|421:223|415:262,1,83.9999974365235,2|0,1:2|0:0,0:0:0:0:
326,10,99518,6,0,P|329:63|323:102,1,83.9999974365235,8|0,0:0|0:0,0:0:0:0:
205,183,99760,1,2,1:2:0:0:
207,266,99881,1,8,0:0:0:0:
56,345,100002,6,0,P|109:348|145:356,1,83.9999974365235,2|0,1:2|0:0,0:0:0:0:
213,269,100244,2,0,P|266:266|302:258,1,83.9999974365235,2|0,1:2|0:0,0:0:0:0:
37,216,100486,5,8,0:0:0:0:
120,206,100607,1,2,1:2:0:0:
219,272,100728,2,8,P|272:275|308:283,1,83.9999974365235,2|8,1:2|0:0,0:0:0:0:
386,355,100970,6,0,P|389:302|397:266,1,83.9999974365235,2|0,1:2|0:0,0:0:0:0:
310,198,101212,2,0,P|307:145|299:109,1,83.9999974365235,2|0,1:2|0:0,0:0:0:0:
392,358,101454,5,8,0:0:0:0:
382,274,101575,1,2,1:2:0:0:
448,176,101696,2,0,P|451:123|459:87,1,83.9999974365235,2|8,1:2|0:0,0:0:0:0:
499,0,101938,6,0,P|430:9|325:8,1,167.999994873047,6|0,1:2|0:0,0:0:0:0:
174,35,102301,1,2,0:0:0:0:
325,5,102422,1,8,0:0:0:0:
256,52,102543,2,0,P|257:98|262:143,1,83.9999974365235,2|0,1:2|0:0,0:0:0:0:
331,184,102785,1,2,0:0:0:0:
178,146,102906,5,2,1:2:0:0:
216,304,103027,2,0,P|219:260|216:216,1,83.9999974365235,8|2,0:0|0:0,0:0:0:0:
118,87,103269,1,2,0:0:0:0:
80,245,103390,5,8,0:0:0:0:
79,161,103511,1,8,0:0:0:0:
0,0,103632,5,8,0:0:0:0:
5,123,103753,1,8,0:0:0:0:
10,290,103874,6,0,P|80:271|174:263,1,167.999994873047,6|0,1:2|0:0,0:0:0:0:
310,344,104237,1,2,3:2:0:0:
146,365,104358,2,0,P|206:343|237:339,1,83.9999974365235,8|0,0:0|0:0,0:0:0:0:
388,379,104600,1,2,1:2:0:0:
304,341,104721,1,8,0:0:0:0:
476,366,104842,6,0,P|473:280|457:197,1,167.999994873047,2|0,1:2|0:0,0:0:0:0:
495,17,105205,1,2,3:2:0:0:
413,126,105326,2,0,P|412:85|416:43,1,83.9999974365235,8|0,0:0|0:0,0:0:0:0:
502,234,105568,2,0,P|501:275|505:317,1,83.9999974365235,2|0,1:2|0:0,0:0:0:0:
332,173,105810,6,0,B|320:130|321:87|330:105|325:50|297:6,2,167.999994873047,2|0|8,1:2|0:0|0:0,0:0:0:0:
399,225,106415,1,2,3:2:0:0:
340,55,106536,1,2,3:2:0:0:
216,26,106657,1,8,0:0:0:0:
137,54,106778,6,0,B|111:93|106:148|115:130|116:173|104:216,1,167.999994873047,2|0,1:2|0:0,0:0:0:0:
23,92,107141,2,0,P|42:55|55:15,2,83.9999974365235,2|8|0,3:2|0:0|0:0,0:0:0:0:
110,219,107504,5,2,1:2:0:0:
17,95,107625,1,8,0:0:0:0:
11,310,107746,6,0,P|81:303|179:305,1,167.999994873047,2|2,1:2|0:0,0:0:0:0:
374,367,108109,1,2,3:2:0:0:
259,336,108230,2,0,P|329:343|427:341,1,167.999994873047,8|2,0:0|0:0,0:0:0:0:
482,257,108593,1,8,3:2:0:0:
393,251,108714,6,0,P|448:252|493:257,1,83.9999974365235,2|0,0:0|0:0,0:0:0:0:
380,169,108956,1,2,0:0:0:0:
312,248,109077,1,2,3:2:0:0:
488,260,109198,5,8,0:0:0:0:
446,117,109319,1,2,0:0:0:0:
469,18,109440,5,2,0:0:0:0:
383,175,109560,1,8,0:0:0:0:
306,0,109681,6,0,P|354:0|408:5,1,83.9999974365235,2|0,1:2|0:0,0:0:0:0:
377,178,109923,2,0,P|329:178|275:173,1,83.9999974365235,2|0,1:2|0:0,0:0:0:0:
141,29,110165,6,0,P|189:29|243:34,1,83.9999974365235,8|0,0:0|0:0,0:0:0:0:
217,137,110407,1,2,1:2:0:0:
133,134,110528,1,8,0:0:0:0:
43,135,110649,6,0,P|84:131|126:130,1,83.9999974365235,2|0,1:2|0:0,0:0:0:0:
127,306,110891,2,0,P|85:309|43:310,1,83.9999974365235,2|0,1:2|0:0,0:0:0:0:
205,161,111133,6,0,P|246:157|288:156,1,83.9999974365235,8|0,0:0|0:0,0:0:0:0:
290,261,111375,1,2,1:2:0:0:
206,265,111496,1,8,0:0:0:0:
379,312,111617,6,0,B|408:256|377:187|369:218|356:168|384:124,2,167.999994873047,6|0|8,1:2|0:0|0:0,0:0:0:0:
304,341,112222,1,2,0:0:0:0:
385,315,112343,1,2,0:0:0:0:
445,173,112464,1,8,0:0:0:0:
475,372,112585,6,0,P|471:330|469:288,1,83.9999974365235,2|0,1:2|0:0,0:0:0:0:
451,170,112827,2,0,P|454:128|456:86,1,83.9999974365235,2|0,1:2|0:0,0:0:0:0:
385,315,113069,6,0,P|388:273|390:231,1,83.9999974365235,8|0,0:0|0:0,0:0:0:0:
445,173,113311,1,2,1:2:0:0:
439,89,113432,1,8,0:0:0:0:
246,89,113553,6,0,B|303:88|351:95|351:95|351:57|369:34,2,167.999994873047,6|0|8,1:2|0:0|0:0,0:0:0:0:
217,169,114158,1,2,0:0:0:0:
354,101,114279,1,2,0:0:0:0:
254,244,114400,1,8,0:0:0:0:
157,44,114521,6,0,P|151:98|143:131,1,83.9999974365235,2|0,1:2|0:0,0:0:0:0:
90,249,114763,2,0,P|96:303|104:336,1,83.9999974365235,2|0,0:0|0:0,0:0:0:0:
151,41,115005,6,0,P|157:95|165:128,1,83.9999974365235,8|0,1:2|0:0,0:0:0:0:
259,248,115247,1,2,1:2:0:0:
244,332,115368,1,8,0:0:0:0:
10,382,115489,6,0,P|6:340|6:298,1,83.9999974365235,2|0,1:2|0:0,0:0:0:0:
66,164,115731,2,0,P|69:122|69:80,1,83.9999974365235,2|0,1:2|0:0,0:0:0:0:
138,350,115973,5,8,0:0:0:0:
141,266,116094,1,2,1:2:0:0:
60,161,116215,2,0,P|56:119|56:77,1,83.9999974365235,2|8,1:2|0:0,0:0:0:0:
210,45,116457,6,0,P|209:86|206:128,1,83.9999974365235,2|0,1:2|0:0,0:0:0:0:
147,263,116699,2,0,P|147:304|150:346,1,83.9999974365235,2|0,1:2|0:0,0:0:0:0:
213,39,116941,5,8,0:0:0:0:
216,122,117062,1,2,1:2:0:0:
282,232,117183,2,0,P|281:273|278:315,1,83.9999974365235,2|8,1:2|0:0,0:0:0:0:
407,363,117425,6,0,B|361:369|314:353|337:351|285:340|240:358,1,167.999994873047,6|0,1:2|0:0,0:0:0:0:
342,165,117788,1,2,3:2:0:0:
378,278,117909,2,0,P|377:195|380:104,1,167.999994873047,8|0,0:0|0:0,0:0:0:0:
421,36,118272,1,2,1:2:0:0:
462,137,118393,5,2,1:2:0:0:
336,168,118514,1,8,1:2:0:0:
204,103,118635,1,2,1:2:0:0:
72,137,118877,5,2,1:2:0:0:
198,106,118998,1,2,1:2:0:0:
330,171,119119,1,8,1:2:0:0:
390,328,119240,1,8,1:2:0:0:
393,334,119300,1,2,1:2:0:0:
396,340,119361,1,12,1:2:0:0:
256,192,119482,12,0,123233,0:0:0:0:
