osu file format v14

[General]
AudioFilename: audio.mp3
AudioLeadIn: 0
PreviewTime:71812
Countdown: 0
SampleSet: Soft
StackLeniency: 0.3
Mode: 0
LetterboxInBreaks: 0
WidescreenStoryboard: 1

[Editor]
DistanceSpacing: 1
BeatDivisor: 2
GridSize: 4
TimelineZoom: 1.940001

[Metadata]
Title:promise
TitleUnicode:promise
Artist:Hirose Kohmi
ArtistUnicode:広瀬香美
Creator:Luscent
Version:Normal
Source:
Tags:get down geddan kawashiro nitori cut short ver japanese pop jpop 404 aimnotfound enon kalibe black man fixxis firika evilelvis v2 elvis jounzan natteke desu dailycare morinaga yokespai yokes
BeatmapID:2289263
BeatmapSetID:1094694

[Difficulty]
HPDrainRate:5
CircleSize:3.5
OverallDifficulty:5
ApproachRate:6
SliderMultiplier:1.6
SliderTickRate:1

[Events]
//Background and Video events
0,0,"bg.jpg"
//Break Periods
2,30512,37005
//Storyboard Layer 0 (Background)
//Storyboard Layer 1 (Fail)
//Storyboard Layer 2 (Pass)
//Storyboard Layer 3 (Foreground)
//Storyboard Layer 4 (Overlay)
//Storyboard Sound Samples

[TimingPoints]
10954,483.960734652395,4,2,5,45,1,0
10954,-100,4,2,5,45,0,0
25472,-100,4,2,3,45,0,0
26440,-100,4,2,3,60,0,0
40838,-100,4,2,1,60,0,0
41685,-100,4,2,1,45,0,0
57414,-100,4,2,1,55,0,0
70965,-100,4,2,1,65,0,0
72900,-100,4,2,3,70,0,1
86451,-100,4,2,3,70,0,0
88387,-100,4,2,3,70,0,1
101938,-100,4,2,3,70,0,0
103874,-100,4,2,3,70,0,1
119361,-100,4,2,3,70,0,0
119603,-100,4,2,3,50,0,0
123232,-100,4,2,3,30,0,0

[Colours]
Combo1 : 17,254,176
Combo2 : 173,255,95
Combo3 : 255,88,100
Combo4 : 255,94,55

[HitObjects]
120,239,10954,6,0,P|178:292|279:261,1,160,2|0,0:0|1:0,0:0:0:0:
293,213,11679,1,0,0:0:0:0:
274,135,11921,2,0,P|274:83|276:45,1,80
337,3,12405,2,0,P|389:3|427:5,1,80,0|2,1:0|0:0,0:0:0:0:
491,35,12889,6,0,B|494:123|408:82|413:219,1,160,2|0,0:0|1:0,0:0:0:0:
342,195,13615,1,2,0:0:0:0:
342,195,13857,2,0,B|339:283|425:242|420:379,1,160,2|0,0:0|1:0,0:0:0:0:
232,313,14825,6,0,P|145:338|66:293,1,160,2|0,0:0|1:0,0:0:0:0:
61,234,15551,1,0,0:0:0:0:
132,198,15793,2,0,P|136:143|126:99,1,80
53,102,16277,2,0,P|49:47|59:3,1,80,2|2,1:2|0:2,0:0:0:0:
132,33,16761,6,0,B|251:17|222:140|361:99,1,240,2|0,0:0|0:0,0:0:0:0:
414,55,17729,1,2,0:0:0:0:
473,203,18213,1,2,0:0:0:0:
387,338,18697,6,0,B|322:355|293:285|194:314,1,160,2|0,0:0|1:0,0:0:0:0:
156,320,19423,1,2,0:0:0:0:
156,320,19665,2,0,P|155:264|160:217,1,80,2|2,0:0|0:0,0:0:0:0:
236,226,20149,2,0,P|237:170|232:123,1,80,0|2,1:0|0:0,0:0:0:0:
154,71,20633,6,0,B|219:88|248:18|347:47,1,160,2|0,0:0|1:0,0:0:0:0:
384,15,21359,1,2,0:0:0:0:
384,15,21601,2,0,P|386:64|381:97,1,80,2|2,0:0|0:0,0:0:0:0:
319,145,22085,2,0,P|375:143|416:144,1,80,0|2,1:0|0:0,0:0:0:0:
480,199,22569,6,0,P|471:261|430:283,1,80,4|4,0:3|0:3,0:0:0:0:
387,304,23053,2,0,L|306:287,1,80,2|2,1:2|0:3,0:0:0:0:
228,287,23536,2,0,L|149:303,1,80,4|4,0:3|0:3,0:0:0:0:
76,271,24020,2,0,P|54:238|56:199,1,80,2|8,1:2|0:3,0:0:0:0:
101,132,24504,5,2,0:0:0:0:
222,28,24988,1,0,0:0:0:0:
342,133,25472,1,0,1:2:0:0:
221,237,25956,1,8,1:2:0:0:
101,132,26440,1,4,0:0:0:0:
256,192,26682,12,2,30312,0:0:0:0:
256,192,38055,12,8,40838,0:0:0:0:
428,262,41685,6,0,B|344:242|354:312|261:288,1,160,6|2,1:2|0:0,0:0:0:0:
211,337,42411,1,10,0:0:0:0:
211,337,42653,2,0,P|199:285|214:241,1,80,2|2,0:0|0:2,0:0:0:0:
210,179,43137,2,0,L|101:201,1,80,2|8,0:0|0:0,0:0:0:0:
51,195,43621,6,0,B|29:108|96:118|77:20,1,160,2|2,0:0|0:0,0:0:0:0:
151,5,44347,1,10,0:0:0:0:
151,5,44589,2,0,P|199:3|250:7,1,80,2|2,0:0|0:0,0:0:0:0:
261,78,45073,2,0,P|300:79|340:77,1,80,2|8,0:0|0:0,0:0:0:0:
421,80,45557,6,0,L|416:19,2,40,2|10|2,0:0|0:0|0:0,0:0:0:0:
483,130,46041,2,0,L|469:275,1,80,0|8,0:0|0:0,0:0:0:0:
420,268,46525,2,0,L|423:307,2,40,2|2|2,0:0|0:0|0:0,0:0:0:0:
341,252,47009,2,0,L|244:265,1,80,0|8,0:0|0:0,0:0:0:0:
193,301,47493,1,0,0:0:0:0:
193,301,47735,6,0,P|181:243|262:185,1,160,2|8,0:0|0:0,0:0:0:0:
332,181,48460,1,2,0:0:0:0:
332,181,48702,2,0,P|334:126|328:84,1,80,0|2,0:0|0:0,0:0:0:0:
263,58,49186,1,10,0:0:0:0:
263,58,49428,6,0,B|172:46|191:130|71:96,1,160,6|2,0:0|0:0,0:0:0:0:
34,99,50154,1,10,0:0:0:0:
34,99,50396,2,0,P|38:153|38:202,1,80,2|2,0:0|0:0,0:0:0:0:
76,249,50880,2,0,P|124:253|168:239,1,80,2|8,0:0|0:0,0:0:0:0:
230,218,51364,6,0,P|317:221|381:294,2,160,2|2|2,0:0|0:0|0:0,0:0:0:0:
265,374,52816,1,2,0:0:0:0:
424,340,53300,1,2,0:0:0:0:
424,340,53542,6,0,P|457:259|423:197,1,160,2|8,0:0|0:0,0:0:0:0:
359,154,54268,1,2,0:0:0:0:
359,154,54510,2,0,B|252:173|291:131|163:152,1,160,2|8,0:0|0:0,0:0:0:0:
120,144,55236,1,2,0:0:0:0:
120,144,55478,6,0,P|87:63|121:1,1,160,2|8,0:0|0:0,0:0:0:0:
202,7,56204,1,0,0:0:0:0:
202,7,56446,2,0,L|261:6,2,40,2|8|0,0:0|0:0|0:0,0:0:0:0:
200,87,56930,2,0,P|276:83|308:62,1,80,8|0,0:0|0:0,0:0:0:0:
349,46,57414,6,0,P|450:64|484:121,1,160,4|10,0:0|0:2,0:0:0:0:
478,186,58140,1,0,0:0:0:0:
398,183,58382,2,0,B|338:177|346:219|284:213,2,120,2|2|2,0:0|0:0|0:0,0:0:0:0:
434,254,59350,6,0,P|404:316|305:301,1,160,0|10,0:0|0:0,0:0:0:0:
244,338,60076,1,0,0:0:0:0:
183,285,60317,2,0,B|120:273|119:320|40:294,2,120,2|2|2,0:0|0:0|0:0,0:0:0:0:
257,254,61285,6,0,P|290:172|248:90,1,160,0|10,0:0|0:0,0:0:0:0:
207,53,62011,1,0,0:0:0:0:
132,81,62253,2,0,B|71:79|81:39|12:42,2,120,2|2|2,0:0|0:0|0:0,0:0:0:0:
132,161,63221,6,0,B|193:159|183:119|252:122,2,120,2|2|2,0:0|0:0|0:0,0:0:0:0:
58,193,64189,1,0,0:0:0:0:
69,272,64431,1,2,0:0:0:0:
125,328,64673,2,0,P|169:334|219:320,1,80,8|2,0:0|0:0,0:0:0:0:
260,269,65157,6,0,B|343:261|325:333|442:314,1,160,6|8,0:0|0:0,0:0:0:0:
486,297,65883,2,0,B|500:237|500:237|458:188|489:119,1,160,2|0,0:0|0:0,0:0:0:0:
509,70,66609,1,10,0:0:0:0:
371,151,67093,6,0,P|285:155|229:91,1,160,2|8,0:0|0:0,0:0:0:0:
196,36,67819,2,0,B|123:34|136:91|40:78,1,160,2|0,0:0|0:0,0:0:0:0:
69,1,68545,1,10,0:0:0:0:
154,136,69029,6,0,P|106:157|65:155,1,80,2|0,0:0|0:0,0:0:0:0:
1,176,69513,2,0,L|0:261,1,80,8|0,0:0|0:0,0:0:0:0:
52,316,69997,1,0,0:0:0:0:
52,316,70239,2,0,B|99:325|92:299|169:311,1,80,0|8,0:0|0:0,0:0:0:0:
202,343,70723,1,8,0:0:0:0:
252,280,70965,5,8,0:0:0:0:
340,146,71449,1,12,0:0:0:0:
191,87,71933,2,0,B|143:149|143:149|164:263,1,160,2|8,0:0|0:0,0:0:0:0:
280,343,72900,6,0,P|332:349|380:332,1,80,6|2,1:2|0:2,0:2:0:0:
427,301,73384,1,10,0:2:0:0:
427,301,73626,1,2,0:3:0:0:
497,263,73868,2,0,P|505:223|492:161,1,80,2|2,1:2|0:2,0:2:0:0:
437,134,74352,1,10,0:2:0:0:
437,134,74594,1,2,0:3:0:0:
358,123,74836,6,0,B|278:113|290:190|180:157,1,160,2|8,1:2|0:2,0:2:0:0:
144,211,75562,1,2,0:3:0:0:
66,189,75804,2,0,P|94:111|201:119,1,160,2|8,1:2|0:2,0:2:0:0:
102,285,76772,6,0,P|149:293|203:273,1,80,2|2,1:2|0:2,0:2:0:0:
245,239,77256,1,10,0:2:0:0:
245,239,77498,1,2,0:3:0:0:
320,265,77740,2,0,P|359:257|397:265,1,80,2|2,1:2|0:2,0:2:0:0:
457,319,78224,1,10,0:2:0:0:
457,319,78466,1,2,1:3:0:0:
507,257,78708,6,0,B|509:173|467:183|483:86,2,160,2|8|0,1:2|0:2|1:2,0:2:0:0:
361,176,80160,1,8,0:2:0:0:
201,180,80644,6,0,P|228:81|325:45,1,160,6|10,1:2|0:2,0:2:0:0:
352,45,81370,1,2,0:2:0:0:
427,70,81612,2,0,P|469:58|503:22,2,80,2|2|8,1:2|1:2|0:2,0:2:0:0:
288,149,82580,6,0,P|318:237|410:239,1,160,6|10,1:2|0:2,0:2:0:0:
453,233,83306,1,2,0:2:0:0:
507,291,83548,2,0,P|450:311|416:302,2,80,2|2|8,1:2|1:2|0:2,0:2:0:0:
355,344,84516,6,0,L|276:337,1,80,6|0,1:2|1:2,0:0:0:0:
197,318,84999,1,8,1:2:0:0:
197,318,85241,1,0,1:2:0:0:
118,331,85483,2,0,P|107:280|126:220,1,80,0|0,1:2|1:2,0:0:0:0:
172,201,85967,1,8,1:2:0:0:
172,201,86209,1,0,1:2:0:0:
173,120,86451,6,0,B|85:112|105:182|24:174,2,160,4|10|2,1:2|0:2|1:2,0:2:0:0:
327,161,87903,1,10,0:2:0:0:
429,283,88387,6,0,P|364:285|320:284,1,80,6|2,1:2|0:2,0:2:0:0:
284,332,88871,1,10,0:2:0:0:
284,332,89113,1,2,0:3:0:0:
211,297,89355,2,0,B|161:292|168:320|89:314,1,80,2|2,1:2|0:2,0:0:0:0:
53,315,89839,1,10,0:2:0:0:
53,315,90081,1,2,0:3:0:0:
16,243,90323,6,0,P|82:166|171:194,1,160,2|8,1:2|0:2,0:2:0:0:
204,205,91049,1,2,0:3:0:0:
284,203,91291,2,0,B|281:120|203:141|213:46,1,160,2|8,1:2|0:2,0:2:0:0:
372,65,92259,6,0,P|423:59|459:76,1,80,2|2,1:2|0:2,0:2:0:0:
485,140,92743,1,10,0:2:0:0:
485,140,92985,1,2,0:3:0:0:
447,210,93227,2,0,P|396:216|360:199,1,80,2|2,1:2|0:2,0:2:0:0:
292,185,93711,1,10,0:2:0:0:
292,185,93953,1,2,1:3:0:0:
212,197,94195,6,0,B|210:294|285:260|286:349,2,160,2|8|0,1:2|0:2|1:2,0:2:0:0:
84,294,95647,1,8,0:2:0:0:
12,152,96131,6,0,P|65:76|158:113,1,160,6|10,1:2|0:2,0:2:0:0:
195,117,96857,1,2,0:2:0:0:
275,115,97099,2,0,P|277:63|273:17,2,80,2|2|8,1:2|1:2|0:2,0:2:0:0:
429,157,98066,6,0,P|376:233|283:196,1,160,6|10,1:2|0:2,0:2:0:0:
246,192,98792,1,2,0:2:0:0:
166,194,99034,2,0,P|164:246|168:292,2,80,2|2|8,1:2|1:2|0:2,0:2:0:0:
47,85,100002,6,0,P|65:50|142:47,1,80,6|0,1:2|1:2,0:0:0:0:
178,56,100486,1,8,1:2:0:0:
178,56,100728,1,0,1:2:0:0:
239,107,100970,2,0,P|288:112|337:93,1,80,0|0,1:2|1:2,0:0:0:0:
384,60,101454,1,8,1:2:0:0:
384,60,101696,1,0,1:2:0:0:
463,64,101938,6,0,B|489:160|433:133|459:261,2,160,4|10|2,1:2|0:2|1:2,0:2:0:0:
351,178,103390,1,10,1:2:0:0:
227,280,103874,6,0,P|159:301|77:255,1,160,6|10,1:2|0:2,0:2:0:0:
56,187,104600,1,2,0:3:0:0:
61,107,104842,2,0,P|104:108|150:108,1,80,2|0,1:2|0:0,0:2:0:0:
209,149,105326,2,0,P|258:126|285:85,1,80,10|2,0:2|0:3,0:2:0:0:
275,26,105810,6,0,B|357:18|337:96|449:75,1,160,2|8,1:2|0:2,0:2:0:0:
462,152,106536,1,2,0:3:0:0:
462,152,106778,2,0,B|380:144|400:222|288:201,1,160,2|8,1:2|0:2,0:0:0:0:
236,199,107504,1,2,1:2:0:0:
236,199,107746,6,0,P|251:256|290:282,1,80,2|0,1:2|0:0,0:2:0:0:
344,282,108230,2,0,P|388:275|437:283,1,80,10|2,0:2|0:3,0:2:0:0:
421,359,108714,2,0,P|377:366|328:358,1,80,2|0,1:2|0:0,0:2:0:0:
262,351,109198,1,10,0:2:0:0:
181,351,109440,1,2,1:2:0:0:
101,348,109681,6,0,B|90:260|165:277|155:176,2,160,2|8|0,1:2|0:2|1:2,0:2:0:0:
41,198,111133,1,8,0:2:0:0:
145,76,111617,6,0,B|232:70|205:142|343:123,1,160,6|10,1:2|0:2,0:2:0:0:
364,90,112343,1,2,0:2:0:0:
364,90,112585,2,0,P|414:82|452:92,1,80,2|2,1:2|1:2,0:2:0:0:
446,168,113069,2,0,P|396:176|358:166,1,80,8|2,0:2|1:2,0:0:0:0:
304,219,113553,6,0,B|217:213|244:285|106:266,1,160,6|10,1:2|0:2,0:2:0:0:
85,233,114279,1,2,0:2:0:0:
85,233,114521,2,0,P|35:225|-6:235,1,80,2|2,1:2|1:2,0:2:0:0:
8,311,115005,2,0,P|58:319|99:307,1,80,8|2,0:2|1:2,0:2:0:0:
165,329,115489,6,0,P|205:320|257:329,1,80,6|0,1:2|1:2,0:0:0:0:
326,314,115973,1,8,1:2:0:0:
326,314,116215,1,0,1:2:0:0:
405,325,116457,2,0,P|420:270|407:223,1,80,0|0,1:2|1:2,0:0:0:0:
388,172,116941,1,8,1:2:0:0:
388,172,117183,1,0,1:2:0:0:
328,118,117425,6,0,B|237:110|266:184|159:174,2,160,4|10|2,1:2|0:2|1:2,0:2:0:0:
465,35,118877,1,10,0:2:0:0:
462,195,119361,1,14,1:2:0:0:
256,192,119603,12,0,123232,0:0:0:0:
