osu file format v14

[General]
AudioFilename: audio.mp3
AudioLeadIn: 0
PreviewTime:71812
Countdown: 0
SampleSet: Soft
StackLeniency: 0.3
Mode: 0
LetterboxInBreaks: 0
WidescreenStoryboard: 1

[Editor]
DistanceSpacing: 1
BeatDivisor: 4
GridSize: 4
TimelineZoom: 2.340001

[Metadata]
Title:promise
TitleUnicode:promise
Artist:Hirose Kohmi
ArtistUnicode:広瀬香美
Creator:Luscent
Version:Kalibe's Extra
Source:
Tags:get down geddan kawashiro nitori cut short ver japanese pop jpop 404 aimnotfound enon kalibe black man fixxis firika evilelvis v2 elvis jounzan natteke desu dailycare morinaga yokespai yokes
BeatmapID:2289943
BeatmapSetID:1094694

[Difficulty]
HPDrainRate:5
CircleSize:4.1
OverallDifficulty:8.5
ApproachRate:9.3
SliderMultiplier:2.6
SliderTickRate:0.5

[Events]
//Background and Video events
0,0,"bg.jpg"
//Break Periods
//Storyboard Layer 0 (Background)
//Storyboard Layer 1 (Fail)
//Storyboard Layer 2 (Pass)
//Storyboard Layer 3 (Foreground)
//Storyboard Layer 4 (Overlay)
//Storyboard Sound Samples

[TimingPoints]
10954,483.960734652395,4,2,1,70,1,0
10954,-125,4,1,1,70,0,0
16761,-200,4,1,1,70,0,0
18697,-125,4,1,1,70,0,0
22569,-100,4,1,1,70,0,0
24504,-100,4,1,1,70,0,0
26440,-90.9090909090909,4,1,1,70,0,0
40475,-100,4,1,1,70,0,0
41201,-200,4,1,1,70,0,0
41685,-100,4,1,1,70,0,0
65157,-142.857142857143,4,1,1,70,0,0
66125,-100,4,1,1,70,0,0
71449,-100,4,1,1,70,0,0
71933,-125,4,1,1,70,0,0
72900,-83.3333333333333,4,1,1,70,0,1
86935,-83.3333333333333,4,1,1,70,0,0
87540,-71.4285714285714,4,1,1,70,0,0
87722,-71.4285714285714,4,1,1,5,0,0
87903,-62.5,4,1,1,70,0,0
88387,-83.3333333333333,4,1,1,70,0,1
102422,-83.3333333333333,4,1,1,70,0,0
103874,-76.9230769230769,4,1,1,70,0,1
118393,-125,4,1,1,70,0,0
119119,-125,4,1,1,70,0,1
119361,-125,4,1,1,70,0,0
119482,-125,4,1,1,50,0,0

[Colours]
Combo1 : 17,254,176
Combo2 : 173,255,95
Combo3 : 255,88,100
Combo4 : 255,94,55

[HitObjects]
75,191,10954,6,0,L|187:179,1,104,2|0,0:3|2:0,0:0:0:0:
239,136,11437,2,0,L|353:148,1,104,2|0,0:3|2:0,0:0:0:0:
471,225,11800,5,0,2:2:0:0:
505,303,11921,2,0,P|512:236|504:176,1,104,2|0,0:3|2:0,0:0:0:0:
368,134,12284,2,0,P|361:201|369:261,1,104,2|0,0:0|2:0,0:0:0:0:
270,298,12647,1,2,0:3:0:0:
285,369,12889,6,0,P|296:347|293:299,1,52,0|0,0:0|2:0,0:0:0:0:
198,245,13131,2,0,P|181:265|171:298,1,52,2|0,0:3|0:0,0:0:0:0:
373,225,13373,2,0,B|321:222|329:196|270:195,1,104,2|0,0:3|0:0,0:0:0:0:
274,195,13736,2,0,L|267:152,2,26,0|0|0,2:0|2:0|1:0,2:0:0:0:
494,70,14099,6,0,L|439:25,1,52,2|0,0:3|0:0,0:0:0:0:
427,160,14341,2,0,L|478:149,1,52,2|0,0:3|0:0,0:0:0:0:
376,62,14583,2,0,L|365:113,1,52,2|0,0:3|0:0,0:0:0:0:
285,299,14825,5,2,0:0:0:0:
345,334,15067,2,0,P|390:331|416:281,1,104,0|2,2:0|0:3,0:0:0:0:
280,160,15551,2,0,P|234:162|209:213,1,104,0|2,2:0|0:3,0:0:0:0:
161,266,15914,1,0,2:0:0:0:
161,266,16035,2,0,L|43:286,1,104,4|2,0:3|0:3,0:0:0:0:
144,250,16398,5,2,0:3:0:0:
245,289,16519,1,2,0:3:0:0:
158,351,16640,1,4,0:3:0:0:
54,188,16761,6,0,L|316:230,1,260,2|0,0:0|0:0,2:0:0:0:
378,247,17971,2,0,L|333:255,1,32.5,0|0,0:3|2:0,0:0:0:0:
129,181,18213,6,0,L|53:172,1,65,2|0,0:3|0:0,0:0:0:0:
59,182,18697,6,0,P|157:192|191:93,1,208,2|0,0:3|0:0,0:0:0:0:
89,53,19302,1,0,0:0:0:0:
21,91,19423,2,0,L|84:81,1,52,2|0,0:3|0:0,0:0:0:0:
192,24,19665,2,0,B|254:33|230:41|308:48,2,104,0|2|0,0:0|0:3|0:0,0:0:0:0:
373,277,20391,5,0,0:0:0:0:
373,277,20512,1,0,0:0:0:0:
373,277,20633,2,0,P|433:296|498:185,1,208,2|0,0:3|0:0,0:0:0:0:
391,130,21238,1,0,0:0:0:0:
433,68,21359,2,0,L|422:133,1,52,2|0,0:3|0:0,0:0:0:0:
341,205,21601,2,0,B|299:213|299:213|280:227|280:227|237:236,2,104,0|2|0,0:0|0:3|0:0,0:0:0:0:
103,31,22327,6,0,P|142:29|164:67,1,78,2|0,0:0|2:0,0:0:0:0:
230,115,22569,6,0,L|161:136,1,65,2|0,0:3|2:0,0:0:0:0:
286,20,22811,2,0,L|301:87,1,65,2|0,0:3|2:0,0:0:0:0:
142,212,23053,6,0,L|208:232,1,65,2|0,0:3|2:0,0:0:0:0:
75,104,23294,2,0,L|58:171,1,65,2|0,0:3|2:0,0:0:0:0:
313,305,23536,6,0,L|246:321,1,65,2|0,0:3|2:0,0:0:0:0:
391,158,23778,2,0,L|411:247,1,65,2|0,0:3|2:0,0:0:0:0:
175,375,24020,5,2,0:3:0:0:
158,304,24141,1,4,0:3:0:0:
328,292,24262,5,2,0:3:0:0:
306,381,24383,1,2,0:0:0:0:
236,236,24504,5,2,0:3:0:0:
236,236,24746,2,0,B|229:158|259:198|244:100,1,130,8|0,0:3|2:0,0:0:0:0:
248,33,25109,2,0,B|241:111|271:71|256:169,1,130,8|0,0:3|2:0,0:0:0:0:
220,257,25472,5,4,0:0:0:0:
463,159,25593,2,0,P|427:104|352:125,1,130,10|0,0:3|2:0,0:0:0:0:
369,108,25896,1,0,2:0:0:0:
369,108,25956,1,2,0:0:0:0:
220,257,26198,5,2,0:3:0:0:
352,300,26319,1,2,0:3:0:0:
427,370,26440,6,0,P|446:330|402:224,1,143.000004364014,6|0,0:2|0:0,0:0:0:0:
264,144,26803,1,2,0:2:0:0:
332,70,26924,2,0,P|340:93|340:150,1,71.5000021820069,8|0,0:0|0:0,0:0:0:0:
204,260,27166,2,0,P|195:236|196:180,1,71.5000021820069,2|0,0:3|0:0,0:0:0:0:
32,62,27408,2,0,P|74:55|124:141,1,143.000004364014,2|0,0:2|2:0,0:0:0:0:
315,0,27771,2,0,P|273:-7|223:79,1,143.000004364014,2|0,0:3|2:0,0:0:0:0:
104,136,28134,5,2,2:3:0:0:
220,200,28255,1,8,0:2:0:0:
148,288,28376,2,0,B|83:279|69:326|-15:304,1,143.000004364014,2|0,0:2|2:0,0:0:0:0:
184,136,28739,1,0,0:0:0:0:
184,136,28860,2,0,L|164:228,1,71.5000021820069,8|0,0:0|0:0,0:0:0:0:
252,336,29102,2,0,P|270:346|348:368,1,71.5000021820069,2|0,0:3|0:0,0:0:0:0:
162,147,29344,6,0,P|126:136|56:217,1,143.000004364014,2|0,0:0|3:0,0:0:0:0:
236,65,29707,1,2,0:3:0:0:
236,65,29828,2,0,L|218:-18,1,71.5000021820069,8|0,0:0|0:0,0:0:0:0:
164,126,30070,5,0,2:2:0:0:
295,196,30191,1,8,0:2:0:0:
430,58,30312,2,0,P|389:49|325:122,1,143.000004364014,4|2,0:0|0:3,0:0:0:0:
444,224,30675,1,0,0:0:0:0:
444,224,30796,2,0,P|456:190|441:136,1,71.5000021820069,8|0,0:0|0:0,0:0:0:0:
252,256,31038,2,0,P|247:291|259:324,1,71.5000021820069,6|0,0:3|0:0,0:0:0:0:
460,316,31280,6,0,L|364:296,1,71.5000021820069,4|0,0:0|0:0,0:0:0:0:
192,176,31522,2,0,L|268:164,1,71.5000021820069,2|2,0:3|0:0,0:0:0:0:
348,88,31764,2,0,P|340:144|344:240,1,143.000004364014,8|0,0:0|2:0,0:0:0:0:
168,316,32127,1,8,0:2:0:0:
260,368,32248,2,0,B|272:336|272:336|260:280,1,71.5000021820069,2|0,0:2|0:0,0:0:0:0:
104,208,32490,2,0,L|8:228,1,71.5000021820069,2|0,0:3|0:0,0:0:0:0:
232,88,32732,1,8,0:0:0:0:
189,183,32853,1,2,0:3:0:0:
159,91,32974,1,2,0:3:0:0:
256,173,33095,1,0,3:0:0:0:
104,44,33216,6,0,P|64:40|20:124,1,143.000004364014,2|0,0:0|2:0,0:0:0:0:
130,228,33579,1,2,0:3:0:0:
364,176,33700,6,0,P|404:172|448:256,1,143.000004364014,10|0,0:0|2:0,0:0:0:0:
354,341,34063,1,8,0:2:0:0:
246,186,34184,5,4,0:0:0:0:
253,192,34547,1,2,0:3:0:0:
253,192,34668,2,0,L|224:346,1,143.000004364014,8|4,0:0|0:3,0:0:0:0:
48,160,35152,5,2,0:3:0:0:
154,120,35273,2,0,P|109:138|44:71,1,143.000004364014,2|0,0:0|2:0,0:0:0:0:
264,168,35635,2,0,P|322:159|412:152,1,143.000004364014,8|0,0:0|2:0,0:0:0:0:
248,148,35998,5,8,0:2:0:0:
472,264,36119,2,0,P|444:240|400:236,1,71.5000021820069,2|0,0:2|0:0,0:0:0:0:
268,360,36361,2,0,P|274:325|297:298,1,71.5000021820069,2|0,0:3|2:0,0:0:0:0:
368,352,36603,2,0,B|356:268|312:300|296:208,1,143.000004364014,8|4,0:0|0:3,0:0:0:0:
157,93,36966,5,2,0:3:0:0:
308,136,37087,2,0,P|268:144|228:176,1,71.5000021820069,2|0,0:0|2:0,0:0:0:0:
120,296,37329,2,0,L|138:210,1,71.5000021820069,2|0,0:3|2:0,0:0:0:0:
36,248,37571,5,8,0:0:0:0:
64,352,37692,1,4,3:0:0:0:
216,248,37813,5,2,2:0:0:0:
160,380,37934,1,10,0:2:0:0:
0,116,38055,6,0,P|56:100|152:224,1,214.500006546021,4|0,2:0|3:0,0:0:0:0:
312,376,38539,6,0,P|321:322|320:228,1,143.000004364014,10|0,0:0|2:2,0:0:0:0:
312,244,39023,2,0,P|315:278|308:328,1,71.5000021820069,2|0,0:3|0:0,0:0:0:0:
408,168,39265,2,0,L|496:184,1,71.5000021820069,2|0,0:3|2:0,0:0:0:0:
324,72,39507,2,0,P|292:60|216:128,1,143.000004364014,8|0,0:0|2:0,0:0:0:0:
324,72,39870,5,8,0:2:0:0:
184,208,39991,2,0,P|140:220|40:164,1,143.000004364014,4|0,2:0|2:0,0:0:0:0:
116,140,40354,5,2,3:0:0:0:
304,204,40475,2,0,B|364:204|376:276|460:272,1,162.5,10|0,0:2|2:0,0:0:0:0:
508,232,40838,6,0,L|460:244,1,32.5,2|0,0:0|2:0,0:0:0:0:
248,328,41201,5,2,3:0:0:0:
144,304,41443,5,6,0:0:0:0:
72,336,41685,6,0,P|69:307|72:196,1,130,2|0,0:2|0:0,0:0:0:0:
152,56,42169,1,0,0:0:0:0:
72,104,42411,1,8,0:0:0:0:
152,164,42653,2,0,L|232:192,1,65,0|0,0:0|2:0,0:0:0:0:
320,284,42895,6,0,P|336:252|336:208,1,65
480,364,43137,2,0,P|468:300|404:276,2,130,0|8|0,0:0|0:0|0:0,0:0:0:0:
321,265,43742,1,8,0:0:0:0:
256,316,43863,6,0,P|222:328|108:339,1,130
283,81,44347,2,0,P|337:92|327:178,1,130,8|0,0:0|0:0,0:0:0:0:
236,242,44710,1,0,0:0:0:0:
236,242,44831,2,0,L|250:173,1,65
165,94,45073,2,0,B|117:80|117:80|98:58|98:58|40:44,1,130,0|8,0:0|0:0,0:0:0:0:
49,47,45557,1,0,2:0:0:0:
47,236,45678,5,8,0:0:0:0:
126,169,45799,2,0,P|127:218|117:303,2,130,0|0|8,0:0|0:0|0:0,0:0:0:0:
135,157,46525,2,0,P|142:188|140:232,1,65
244,328,46767,6,0,P|303:337|320:274,1,130
244,148,47251,2,0,L|272:12,1,130,8|0,0:0|0:0,0:0:0:0:
387,78,47614,1,8,0:0:0:0:
495,187,47735,6,0,P|458:194|364:162,1,130,2|0,0:0|0:0,0:0:0:0:
379,164,48097,2,0,P|378:196|364:237,1,65,0|8,0:0|0:0,0:0:0:0:
190,361,48460,2,0,P|188:328|179:297,1,65
87,252,48702,6,0,P|22:239|10:307,1,130
87,252,49065,1,0,0:0:0:0:
170,324,49186,2,0,P|204:334|304:345,1,130,8|0,0:0|0:0,0:0:0:0:
415,253,49549,5,8,0:0:0:0:
310,362,49670,2,0,B|339:328|339:328|341:280|312:241,1,130,4|0,0:0|2:0,0:0:0:0:
465,97,50154,2,0,B|414:91|391:130|326:117,1,130,8|0,0:0|0:0,0:0:0:0:
252,64,50517,1,0,0:0:0:0:
376,32,50638,5,0,0:0:0:0:
240,168,50880,1,0,0:0:0:0:
92,56,51122,2,0,P|40:48|8:128,1,130,8|0,0:0|0:0,0:0:0:0:
116,220,51485,5,8,0:0:0:0:
72,349,51606,1,0,0:0:0:0:
316,236,51848,5,2,0:3:0:0:
408,304,52090,2,0,P|428:236|400:176,2,130,8|0|0,0:0|2:0|0:0,0:0:0:0:
363,362,52816,2,0,P|333:355|304:334,1,65
196,242,53058,2,0,B|135:244|133:279|56:280,1,130,8|0,0:0|0:0,0:0:0:0:
264,164,53421,1,8,0:0:0:0:
176,256,53542,6,0,P|156:220|196:132,1,130
364,76,54026,2,0,P|413:114|418:177,1,130,8|0,0:0|0:0,0:0:0:0:
417,178,54389,1,0,0:0:0:0:
472,278,54510,2,0,P|411:259|336:248,1,130,2|0,0:3|0:0,0:0:0:0:
156,69,54994,2,0,P|95:88|20:99,1,130,8|0,0:0|0:0,0:0:0:0:
206,149,55357,5,8,0:0:0:0:
145,251,55478,2,0,P|128:231|125:188,1,65,0|0,0:0|2:0,0:0:0:0:
230,257,55720,1,0,0:0:0:0:
116,327,55841,1,0,0:0:0:0:
0,207,55962,2,0,L|35:67,1,130,10|0,0:0|0:0,0:0:0:0:
31,80,56325,1,0,0:0:0:0:
31,80,56446,5,0,0:0:0:0:
181,118,56567,2,0,L|252:100,1,65,8|0,0:0|0:0,0:0:0:0:
181,118,56809,5,0,0:0:0:0:
312,40,56930,2,0,L|383:58,1,65,12|0,0:0|0:0,0:0:0:0:
445,102,57172,5,8,0:0:0:0:
472,85,57232,1,0,0:0:0:0:
470,106,57293,1,8,0:0:0:0:
486,97,57353,1,0,0:0:0:0:
490,106,57414,1,4,0:0:0:0:
451,368,57656,5,0,0:0:0:0:
348,323,57898,1,8,0:0:0:0:
476,228,58140,2,0,P|449:231|409:259,1,65
348,323,58382,2,0,B|278:305|274:345|212:341,1,130
122,305,58745,1,0,0:0:0:0:
0,367,58866,1,10,0:0:0:0:
0,367,59108,6,0,P|10:349|14:286,1,65,0|8,0:0|0:0,0:0:0:0:
99,199,59350,2,0,P|73:162|87:74,1,130
10,212,59713,1,0,0:0:0:0:
98,275,59834,2,0,P|157:282|234:298,1,130,10|0,0:0|0:0,0:0:0:0:
226,296,60197,1,0,0:0:0:0:
226,296,60317,5,0,0:0:0:0:
414,181,60559,1,2,0:3:0:0:
271,36,60801,2,0,P|263:64|289:176,1,130,8|0,0:0|0:0,0:0:0:0:
466,295,61164,5,8,0:0:0:0:
466,295,61285,2,0,P|486:244|426:196,1,130
238,268,61769,2,0,B|295:274|369:304|369:304,1,130,10|0,0:0|0:0,0:0:0:0:
232,104,62253,2,0,B|175:98|101:68|101:68,1,130,2|0,0:0|0:0,0:0:0:0:
4,152,62616,1,0,0:0:0:0:
4,152,62737,2,0,P|-13:85|35:50,1,130,8|0,0:0|0:0,0:0:0:0:
176,128,63100,5,8,0:0:0:0:
316,100,63221,1,0,0:0:0:0:
402,65,63463,6,0,P|408:84|413:139,1,65
300,217,63705,2,0,P|311:173|307:81,1,130,8|0,0:0|0:0,0:0:0:0:
308,88,64068,1,0,0:0:0:0:
441,151,64189,5,0,0:0:0:0:
283,211,64310,2,0,P|325:201|376:274,1,130,8|0,0:0|0:0,0:0:0:0:
414,331,64673,2,0,P|345:343|279:357,1,130,8|0,0:0|0:0,0:0:0:0:
136,292,65036,1,8,0:0:0:0:
0,336,65157,6,0,P|156:320|180:224,1,272.999991668701,6|0,0:0|2:0,0:0:0:0:
96,152,66004,1,0,0:0:0:0:
28,216,66125,6,0,L|168:256,1,130
297,344,66488,1,0,0:0:0:0:
349,258,66609,2,0,P|316:261|280:273,1,65,8|0,0:0|2:0,0:0:0:0:
121,361,66851,2,0,P|152:351|184:348,1,65,0|8,0:0|0:0,0:0:0:0:
389,326,67093,6,0,B|458:328|437:363|534:360,1,130,4|0,0:0|0:0,0:0:0:0:
210,182,67577,2,0,B|141:184|162:219|65:216,1,130,8|0,0:0|0:0,0:0:0:0:
345,84,68061,2,0,L|357:14,1,65,2|0,0:0|2:0,0:0:0:0:
440,118,68303,2,0,L|432:53,1,65,0|0,0:0|2:0,0:0:0:0:
286,144,68545,1,8,0:0:0:0:
286,144,68787,5,0,0:0:0:0:
391,209,68908,1,8,0:0:0:0:
300,300,69029,2,0,P|255:304|203:230,1,130
223,332,69392,5,0,0:0:0:0:
104,227,69513,2,0,P|100:182|174:130,1,130,8|0,0:0|0:0,0:0:0:0:
72,149,69876,5,0,0:0:0:0:
221,40,69997,2,0,P|266:36|318:110,1,130
300,19,70360,5,0,0:0:0:0:
409,168,70481,2,0,P|413:213|339:265,1,130,10|0,0:0|0:0,0:0:0:0:
448,248,70844,5,8,0:0:0:0:
256,192,70965,1,6,0:0:0:0:
263,200,71207,1,0,0:0:0:0:
247,207,71449,6,0,L|271:-5,1,195,4|0,0:0|2:0,0:0:0:0:
240,96,71933,6,0,L|256:316,1,208,2|8,0:2|0:0,0:0:0:0:
247,384,72658,5,8,0:0:0:0:
262,316,72779,5,8,0:0:0:0:
216,172,72900,6,0,B|166:142|92:176|92:240,1,155.999995239258,6|0,0:2|0:0,0:0:0:0:
0,288,73263,1,0,0:0:0:0:
109,377,73384,2,0,B|141:349|137:297|137:297,1,77.999997619629,8|0,0:0|0:0,0:0:0:0:
294,147,73626,1,2,0:3:0:0:
184,184,73747,1,0,0:0:0:0:
328,232,73868,2,0,L|484:212,1,155.999995239258,2|0,0:0|0:0,0:0:0:0:
482,212,74231,1,0,0:0:0:0:
369,113,74352,2,0,B|389:77|392:33|392:33,1,77.999997619629,8|0,0:0|0:0,0:0:0:0:
235,253,74594,2,0,B|228:299|263:335|263:335,1,77.999997619629,2|8,0:0|0:0,0:0:0:0:
380,29,74836,6,0,B|332:8|265:33|249:96,1,155.999995239258,4|0,0:0|0:0,0:0:0:0:
166,135,75199,1,2,0:0:0:0:
313,207,75320,2,0,L|407:227,1,77.999997619629,8|0,0:0|0:0,0:0:0:0:
461,269,75562,5,2,0:3:0:0:
343,322,75683,1,0,0:0:0:0:
203,223,75804,2,0,B|118:280|155:365|155:365,1,155.999995239258,2|0,0:0|0:0,0:0:0:0:
293,253,76167,1,0,0:0:0:0:
167,147,76288,2,0,B|114:135|114:135|54:169|0:158,1,155.999995239258,8|0,0:0|0:0,0:0:0:0:
214,213,76651,5,10,0:0:0:0:
124,355,76772,2,0,B|103:313|146:269|146:269,1,77.999997619629,4|0,0:0|2:0,0:0:0:0:
297,139,77014,5,2,0:3:0:0:
297,139,77135,1,2,0:3:0:0:
411,280,77256,2,0,B|432:238|389:194|389:194,1,77.999997619629,8|0,0:0|2:0,0:0:0:0:
351,342,77498,5,0,0:0:0:0:
489,237,77619,1,0,0:0:0:0:
297,139,77740,2,0,P|242:138|219:235,1,155.999995239258,2|0,0:0|0:0,0:0:0:0:
316,157,78103,1,0,0:0:0:0:
144,54,78224,2,0,L|49:25,1,77.999997619629,8|0,0:0|0:0,0:0:0:0:
69,31,78466,5,0,0:0:0:0:
181,144,78587,1,8,0:0:0:0:
350,58,78708,2,0,B|442:35|442:35|458:79|501:100,1,155.999995239258,6|0,0:0|0:0,0:0:0:0:
438,190,79071,5,2,0:0:0:0:
253,92,79192,2,0,B|272:131|275:188|275:188,1,77.999997619629,8|0,0:0|0:0,0:0:0:0:
366,24,79434,2,0,B|324:25|270:1|270:1,1,77.999997619629,2|0,0:3|0:0,0:0:0:0:
365,149,79676,2,0,B|420:181|487:149|480:79,1,155.999995239258,2|0,0:3|0:0,0:0:0:0:
364,317,80039,5,2,0:0:0:0:
259,159,80160,2,0,B|219:180|219:180|180:243|236:303,1,155.999995239258,8|0,0:0|0:0,0:0:0:0:
432,185,80523,1,8,0:0:0:0:
487,323,80644,6,0,B|431:264|336:294|336:294,1,155.999995239258,6|0,0:0|0:0,0:0:0:0:
342,293,81007,1,0,0:0:0:0:
193,205,81128,1,8,0:0:0:0:
162,276,81249,1,2,0:3:0:0:
267,208,81370,1,2,0:0:0:0:
159,131,81491,1,2,0:3:0:0:
353,171,81612,2,0,B|396:170|440:142|440:142,1,77.999997619629,2|0,0:0|2:0,0:0:0:0:
235,280,81854,2,0,B|269:278|303:308|303:308|303:356|359:382,2,155.999995239258,0|8|0,0:0|0:0|0:0,0:0:0:0:
432,165,82459,1,8,0:0:0:0:
339,106,82580,6,0,B|358:153|358:153|396:179|396:179|422:239,1,155.999995239258,6|2,0:0|0:3,0:0:0:0:
264,142,82943,1,0,0:0:0:0:
142,250,83064,1,10,0:0:0:0:
209,284,83185,1,0,0:0:0:0:
166,178,83306,1,2,0:0:0:0:
66,236,83427,1,2,0:3:0:0:
104,359,83548,2,0,L|186:344,1,77.999997619629,2|0,0:3|0:0,0:0:0:0:
338,188,83790,2,0,B|347:159|321:128|321:128|322:124|322:124|268:91|284:33,2,155.999995239258,0|8|0,0:0|0:0|0:0,0:0:0:0:
461,296,84395,1,8,0:0:0:0:
508,204,84516,6,0,L|414:222,1,77.999997619629,6|0,0:0|0:0,0:0:0:0:
355,47,84758,2,0,L|261:29,1,77.999997619629,6|0,0:0|0:0,0:0:0:0:
418,209,84999,6,0,L|324:227,1,77.999997619629,6|0,0:0|0:0,0:0:0:0:
265,38,85241,2,0,L|171:20,1,77.999997619629,6|0,0:0|0:0,0:0:0:0:
327,217,85483,6,0,L|233:235,1,77.999997619629,6|0,0:0|0:0,0:0:0:0:
174,30,85725,2,0,L|80:12,1,77.999997619629,6|0,0:0|0:0,0:0:0:0:
237,228,85967,6,0,L|143:246,1,77.999997619629,6|0,0:0|0:0,0:0:0:0:
83,20,86209,2,0,L|-11:2,1,77.999997619629,6|8,0:0|0:0,0:0:0:0:
6,5,86391,1,8,0:0:0:0:
6,5,86451,1,4,0:0:0:0:
272,176,86693,5,2,0:0:0:0:
396,116,86814,1,2,0:0:0:0:
348,12,86935,1,0,0:0:0:0:
280,180,87177,5,2,0:0:0:0:
416,232,87298,1,2,0:0:0:0:
512,112,87419,1,2,0:0:0:0:
388,88,87540,6,0,P|380:108|376:136,1,45.4999986114502,8|0,0:0|2:0,0:0:0:0:
363,90,87661,2,0,P|356:115|354:147,1,45.4999986114502,8|0,0:0|0:0,0:0:0:0:
488,292,87903,6,0,B|473:247|427:260|427:260|320:292,1,156,2|0,0:0|2:0,0:0:0:0:
352,282,88145,1,0,0:0:0:0:
217,153,88266,5,8,0:0:0:0:
280,348,88387,2,0,B|261:337|242:310|242:310|242:238|284:209,1,155.999995239258,6|0,0:2|0:0,0:0:0:0:
420,96,88750,1,0,2:0:0:0:
308,40,88871,2,0,B|264:32|224:8|224:8,1,77.999997619629,8|0,0:0|0:0,0:0:0:0:
376,204,89113,2,0,B|384:248|408:288|408:288,1,77.999997619629,2|0,0:0|0:0,0:0:0:0:
140,124,89355,6,0,B|78:139|78:139|46:182|-11:182,1,155.999995239258,2|0,0:2|0:0,0:0:0:0:
0,182,89718,1,0,0:0:0:0:
222,39,89839,2,0,B|247:71|239:128|239:128,1,77.999997619629,8|0,0:0|0:0,0:0:0:0:
143,208,90081,5,0,0:0:0:0:
243,28,90202,1,8,0:0:0:0:
351,133,90323,2,0,L|528:162,1,155.999995239258,2|0,0:0|0:0,0:0:0:0:
504,158,90686,1,0,0:0:0:0:
371,275,90807,2,0,L|392:355,1,77.999997619629,8|0,0:0|0:0,0:0:0:0:
236,212,91049,5,2,0:0:0:0:
357,281,91170,1,0,2:3:0:0:
236,368,91291,2,0,B|172:415|96:350|137:289|137:289,1,155.999995239258,2|0,0:0|0:0,0:0:0:0:
40,156,91654,1,0,0:0:0:0:
124,196,91775,5,8,0:0:0:0:
0,244,91896,1,2,0:3:0:0:
112,116,92017,5,10,0:0:0:0:
240,168,92138,1,8,0:0:0:0:
212,288,92259,2,0,B|272:272|300:308|380:284,1,155.999995239258,4|0,0:0|0:0,0:0:0:0:
440,120,92622,5,0,0:0:0:0:
332,168,92743,1,8,0:0:0:0:
268,364,92864,1,8,0:0:0:0:
376,320,92985,1,2,0:3:0:0:
288,260,93106,1,2,0:3:0:0:
148,200,93227,2,0,B|60:180|-12:248|-12:248,1,155.999995239258,2|0,0:0|0:0,0:0:0:0:
1,237,93590,5,2,0:3:0:0:
152,128,93711,1,8,0:0:0:0:
68,64,93832,1,2,0:0:0:0:
124,212,93953,1,2,0:3:0:0:
252,120,94074,1,8,0:0:0:0:
454,23,94195,6,0,B|480:33|498:54|498:54|519:113|469:175,1,155.999995239258,6|0,0:0|0:0,0:0:0:0:
441,304,94558,1,0,0:0:0:0:
441,304,94679,2,0,B|434:219|402:256|386:158,2,155.999995239258,8|0|0,0:0|2:0|0:0,0:0:0:0:
441,304,95284,1,0,0:0:0:0:
354,291,95405,2,0,B|304:325|225:291|236:208,1,155.999995239258,2|8,0:3|0:0,0:0:0:0:
17,48,95889,5,2,0:3:0:0:
110,105,96010,1,8,0:0:0:0:
179,9,96131,2,0,B|201:50|166:95|166:95|157:93|157:93|97:154|132:228,1,233.999992858887,4|0,0:0|0:0,0:0:0:0:
81,356,96615,1,8,0:0:0:0:
168,290,96736,1,0,0:0:0:0:
37,230,96857,1,0,0:0:0:0:
206,231,96978,5,0,0:0:0:0:
206,231,97038,1,0,0:0:0:0:
206,231,97099,2,0,L|307:209,1,77.999997619629,2|0,0:0|2:0,0:0:0:0:
358,292,97340,2,0,L|527:324,1,155.999995239258,2|8,0:0|0:0,0:0:0:0:
354,132,97824,5,0,0:0:0:0:
413,31,97945,1,8,0:0:0:0:
494,73,98066,2,0,B|400:26|376:157|254:90,1,233.999992858887,4|0,0:0|0:0,0:0:0:0:
155,0,98550,1,8,0:0:0:0:
243,28,98671,1,0,0:0:0:0:
193,129,98792,1,0,0:0:0:0:
297,183,98913,5,0,0:0:0:0:
297,183,98974,1,0,0:0:0:0:
297,183,99034,2,0,B|325:208|379:219|379:219,1,77.999997619629,2|0,0:0|0:0,0:0:0:0:
305,294,99276,2,0,B|237:334|147:339|147:339,1,155.999995239258,2|8,0:0|0:0,0:0:0:0:
20,76,99760,5,0,0:0:0:0:
24,80,99881,1,8,0:0:0:0:
152,144,100002,6,0,P|164:106|173:53,1,77.999997619629,6|0,0:0|0:0,0:0:0:0:
229,12,100244,2,0,P|248:45|256:83,1,77.999997619629,6|0,0:0|0:0,0:0:0:0:
380,220,100486,2,0,P|418:232|471:241,1,77.999997619629,6|0,0:0|0:0,0:0:0:0:
512,297,100728,2,0,P|478:316|440:324,1,77.999997619629,6|0,0:0|0:0,0:0:0:0:
132,220,100970,2,0,P|94:232|41:241,1,77.999997619629,6|0,0:0|0:0,0:0:0:0:
0,297,101212,2,0,P|33:316|71:324,1,77.999997619629,6|0,0:0|0:0,0:0:0:0:
361,144,101454,2,0,P|349:106|340:53,1,77.999997619629,6|0,0:0|0:0,0:0:0:0:
284,12,101696,2,0,P|264:45|256:83,1,77.999997619629,6|8,0:0|0:0,0:0:0:0:
256,328,101938,5,4,0:0:0:0:
244,336,102180,1,0,0:0:0:0:
256,352,102422,2,0,P|251:294|244:180,1,155.999995239258,8|0,0:0|0:0,0:0:0:0:
80,256,102906,5,2,0:3:0:0:
296,120,103027,2,0,P|288:168|272:288,1,155.999995239258,8|0,0:0|0:0,0:0:0:0:
244,196,103390,5,2,0:3:0:0:
364,244,103511,1,0,0:0:0:0:
216,120,103632,5,8,0:0:0:0:
88,160,103753,1,8,0:0:0:0:
0,16,103874,6,0,P|52:0|136:92,1,168.999992263794,6|0,0:2|0:0,0:0:0:0:
240,216,104237,1,0,0:0:0:0:
188,272,104358,2,0,P|148:280|16:224,1,168.999992263794,8|0,0:0|0:0,0:0:0:0:
160,144,104721,1,8,0:0:0:0:
328,280,104842,2,0,L|303:377,1,84.4999961318971,4|0,0:0|0:0,0:0:0:0:
306,361,105023,1,0,0:0:0:0:
306,361,105084,1,2,0:0:0:0:
196,372,105205,5,2,0:0:0:0:
160,256,105326,2,0,B|120:280|76:276|76:276|84:316|60:364,1,168.999992263794,8|0,0:0|0:0,0:0:0:0:
240,224,105689,5,8,0:0:0:0:
72,352,105810,2,0,P|16:328|24:208,1,168.999992263794,0|2,0:0|0:3,0:0:0:0:
156,136,106173,1,0,0:0:0:0:
60,88,106294,5,8,0:0:0:0:
140,224,106415,1,0,0:0:0:0:
276,136,106536,2,0,P|308:100|304:44,1,84.4999961318971,2|0,0:3|0:0,0:0:0:0:
280,140,106778,2,0,P|320:164|460:168,1,168.999992263794,4|0,0:0|0:0,0:0:0:0:
219,53,107141,2,0,P|135:51|59:87,1,168.999992263794,8|0,0:0|0:0,0:0:0:0:
132,212,107504,5,0,0:0:0:0:
232,328,107625,1,8,0:0:0:0:
136,372,107746,2,0,B|108:336|132:284|132:284|168:256|168:184,1,168.999992263794,2|0,0:0|2:0,0:0:0:0:
260,56,108109,1,2,0:3:0:0:
260,56,108230,2,0,P|304:44|340:28,1,84.4999961318971,8|0,0:0|0:0,0:0:0:0:
144,88,108472,5,2,0:0:0:0:
288,160,108593,1,0,0:0:0:0:
428,92,108714,2,0,P|488:124|484:240,1,168.999992263794,2|0,0:3|0:0,0:0:0:0:
376,160,109077,1,0,0:0:0:0:
288,268,109198,2,0,L|312:368,1,84.4999961318971,2|0,0:3|0:0,0:0:0:0:
307,351,109379,1,8,0:3:0:0:
307,351,109440,1,8,0:0:0:0:
184,300,109560,1,8,0:0:0:0:
16,368,109681,6,0,B|36:312|36:312|24:252|56:200,1,168.999992263794,4|0,0:0|0:0,0:0:0:0:
156,135,110044,1,2,0:0:0:0:
35,5,110165,2,0,L|52:101,1,84.4999961318971,8|0,0:0|0:0,0:0:0:0:
251,184,110407,2,0,L|347:167,1,84.4999961318971,2|0,0:0|0:0,0:0:0:0:
479,255,110649,6,0,L|389:233,1,84.4999961318971,2|0,0:0|0:0,0:0:0:0:
397,235,110891,1,2,0:3:0:0:
312,160,111012,1,2,0:2:0:0:
357,44,111133,2,0,P|306:15|194:43,1,168.999992263794,8|0,0:0|0:0,0:0:0:0:
66,109,111496,5,8,0:0:0:0:
66,109,111557,1,8,0:0:0:0:
66,109,111617,2,0,B|54:130|54:130|68:159|68:159|15:202|25:277,1,168.999992263794,6|0,0:0|0:0,0:0:0:0:
272,368,112101,5,8,0:0:0:0:
190,273,112222,1,0,0:0:0:0:
170,344,112343,1,0,0:0:0:0:
296,296,112464,1,8,0:0:0:0:
168,173,112585,2,0,P|164:215|147:275,1,84.4999961318971,2|0,0:0|0:0,0:0:0:0:
311,168,112827,2,0,P|301:97|297:-3,1,168.999992263794,2|8,0:0|0:0,0:0:0:0:
22,121,113311,1,2,0:3:0:0:
3,32,113432,5,8,0:0:0:0:
3,32,113493,1,0,0:0:0:0:
3,32,113553,2,0,B|103:12|82:101|182:76,1,168.999992263794,6|0,0:0|0:0,0:0:0:0:
436,176,114037,5,10,0:0:0:0:
388,288,114158,1,0,0:0:0:0:
456,256,114279,1,0,0:0:0:0:
364,196,114400,1,8,0:0:0:0:
264,332,114521,2,0,P|305:338|360:352,1,84.4999961318971,2|0,0:0|0:0,0:0:0:0:
184,168,114763,2,0,P|80:184|8:188,1,168.999992263794,0|8,0:0|0:0,0:0:0:0:
326,104,115247,5,8,0:0:0:0:
168,188,115368,1,8,0:0:0:0:
326,104,115489,6,0,P|349:74|356:-6,1,84.4999961318971,4|0,0:0|0:0,0:0:0:0:
421,154,115731,2,0,L|523:191,1,84.4999961318971,4|0,0:0|0:0,0:0:0:0:
245,196,115973,6,0,P|215:219|135:226,1,84.4999961318971,4|0,0:0|0:0,0:0:0:0:
295,291,116215,2,0,L|332:393,1,84.4999961318971,4|0,0:0|0:0,0:0:0:0:
95,185,116457,6,0,P|65:162|-15:155,1,84.4999961318971,4|0,0:0|0:0,0:0:0:0:
145,90,116699,2,0,L|182:-12,1,84.4999961318971,4|0,0:0|0:0,0:0:0:0:
215,279,116941,6,0,P|238:309|245:389,1,84.4999961318971,4|0,0:0|0:0,0:0:0:0:
310,229,117183,2,0,L|412:192,1,84.4999961318971,4|0,0:0|0:0,0:0:0:0:
389,200,117364,1,2,0:3:0:0:
389,200,117425,1,6,0:0:0:0:
467,35,117667,5,2,0:0:0:0:
381,62,117788,1,2,0:0:0:0:
245,136,117909,1,8,0:0:0:0:
44,152,118151,5,2,0:0:0:0:
162,176,118272,1,2,0:0:0:0:
304,240,118393,1,8,0:0:0:0:
248,384,118514,6,0,P|232:344|244:268,1,104,2|0,0:2|0:0,0:0:0:0:
304,240,118877,2,0,P|312:196|312:168,1,52,2|0,0:2|2:0,0:0:0:0:
252,72,119119,5,0,0:0:0:0:
264,36,119179,1,0,0:0:0:0:
256,24,119240,1,0,0:0:0:0:
264,12,119300,1,0,0:0:0:0:
256,0,119361,1,4,0:2:0:0:
256,192,119482,12,0,123232,0:0:0:0:
