osu file format v14

[General]
AudioFilename: audio.mp3
AudioLeadIn: 0
PreviewTime:71812
Countdown: 0
SampleSet: Soft
StackLeniency: 0.3
Mode: 0
LetterboxInBreaks: 0
WidescreenStoryboard: 1

[Editor]
Bookmarks: 30556,113043,119334,123205
DistanceSpacing: 0.3
BeatDivisor: 4
GridSize: 4
TimelineZoom: 2.64

[Metadata]
Title:promise
TitleUnicode:promise
Artist:Hirose Kohmi
ArtistUnicode:広瀬香美
Creator:Luscent
Version:Jounzan's Expert
Source:
Tags:get down geddan kawashiro nitori cut short ver japanese pop jpop 404 aimnotfound enon kalibe black man fixxis firika evilelvis v2 elvis jounzan natteke desu dailycare morinaga yokespai yokes
BeatmapID:2344652
BeatmapSetID:1094694

[Difficulty]
HPDrainRate:5
CircleSize:4
OverallDifficulty:9
ApproachRate:9.5
SliderMultiplier:2.8
SliderTickRate:0.5

[Events]
//Background and Video events
0,0,"bg.jpg"
//Break Periods
//Storyboard Layer 0 (Background)
//Storyboard Layer 1 (Fail)
//Storyboard Layer 2 (Pass)
//Storyboard Layer 3 (Foreground)
//Storyboard Layer 4 (Overlay)
//Storyboard Sound Samples

[TimingPoints]
10954,483.960734652395,4,2,5,50,1,0
25472,-100,4,2,3,50,0,0
26440,-100,4,2,3,70,0,0
39991,-100,4,2,1,70,0,0
41685,-133.333333333333,4,2,1,50,0,0
71449,-333.333333333333,4,2,1,70,0,0
72417,-133.333333333333,4,2,1,70,0,0
72900,-83.3333333333333,4,2,3,70,0,0
123232,-83.3333333333333,4,2,3,50,0,0

[Colours]
Combo1 : 17,254,176
Combo2 : 173,255,95
Combo3 : 255,88,100
Combo4 : 255,94,55

[HitObjects]
77,66,10954,5,2,0:0:0:0:
77,66,11195,2,0,L|81:137,1,70
98,211,11437,1,0,1:0:0:0:
159,162,11558,1,0,0:0:0:0:
204,161,11679,1,0,0:0:0:0:
226,177,11800,1,0,0:0:0:0:
305,237,11921,5,0,0:0:0:0:
366,286,12042,1,0,0:0:0:0:
411,287,12163,1,0,0:0:0:0:
433,271,12284,1,0,0:0:0:0:
476,194,12405,6,0,P|480:160|481:120,1,70,0|0,1:0|0:0,0:0:0:0:
382,30,12647,2,0,P|376:68|373:138,1,70,2|0,0:0|0:0,0:0:0:0:
376,170,12889,1,2,0:0:0:0:
296,117,13010,1,0,0:0:0:0:
223,148,13131,1,0,0:0:0:0:
168,64,13373,2,0,L|80:79,1,70,0|0,1:0|0:0,0:0:0:0:
31,46,13615,1,2,0:0:0:0:
28,201,13857,5,2,0:0:0:0:
102,195,13978,1,0,0:0:0:0:
222,219,14099,1,0,0:0:0:0:
297,213,14220,1,0,0:0:0:0:
412,236,14341,1,0,1:0:0:0:
487,230,14462,1,0,0:0:0:0:
420,264,14583,2,0,L|346:281,1,70
511,370,14825,5,2,0:0:0:0:
511,370,15067,2,0,L|486:298,1,70
497,200,15309,1,0,1:0:0:0:
436,233,15430,1,0,0:0:0:0:
383,214,15551,1,0,0:0:0:0:
371,192,15672,1,0,0:0:0:0:
233,79,15793,5,0,0:0:0:0:
298,47,15914,1,0,0:0:0:0:
351,66,16035,1,0,0:0:0:0:
363,88,16156,1,0,0:0:0:0:
254,203,16277,5,2,1:2:0:0:
254,203,16398,1,2,0:2:0:0:
296,125,16519,1,2,0:2:0:0:
394,244,16640,5,2,0:2:0:0:
352,322,16761,2,0,L|279:343,1,70,2|0,0:0|0:0,0:0:0:0:
332,198,17003,5,0,0:0:0:0:
394,244,17124,1,0,0:0:0:0:
207,273,17245,5,0,1:0:0:0:
145,227,17366,1,0,0:0:0:0:
49,300,17487,5,0,0:0:0:0:
49,300,17608,1,0,0:0:0:0:
63,376,17729,5,2,0:0:0:0:
145,227,17850,2,0,P|154:162|162:61,1,140
82,41,18213,1,2,0:0:0:0:
24,91,18334,1,0,0:0:0:0:
36,143,18455,1,0,0:0:0:0:
62,161,18576,1,0,0:0:0:0:
243,127,18697,6,0,B|304:114|313:174|380:175,1,140,2|0,0:0|0:0,0:0:0:0:
448,227,19060,1,0,0:0:0:0:
452,302,19181,1,0,1:0:0:0:
422,239,19302,5,2,0:0:0:0:
440,117,19423,1,2,0:0:0:0:
505,167,19544,5,2,0:0:0:0:
370,174,19665,2,0,L|298:182,1,70,2|0,0:0|0:0,0:0:0:0:
174,198,19907,1,2,0:0:0:0:
199,191,20028,1,0,0:0:0:0:
103,224,20149,1,0,1:0:0:0:
78,231,20270,1,0,0:0:0:0:
134,299,20391,5,2,0:0:0:0:
207,276,20512,1,2,0:0:0:0:
98,62,20633,2,0,P|110:122|138:213,1,140,2|0,0:0|0:0,0:0:0:0:
189,135,20996,1,0,0:0:0:0:
47,176,21117,1,0,1:0:0:0:
161,277,21238,1,2,0:0:0:0:
209,206,21359,5,2,0:0:0:0:
59,263,21480,1,2,0:0:0:0:
200,359,21601,2,0,P|188:325|172:293,1,70,2|0,0:0|0:0,0:0:0:0:
89,173,21843,1,2,0:0:0:0:
120,71,21964,1,0,0:0:0:0:
174,123,22085,1,0,1:0:0:0:
51,106,22206,1,0,0:0:0:0:
34,123,22327,5,2,0:0:0:0:
189,102,22448,1,0,0:0:0:0:
348,257,22569,6,0,P|292:250|220:245,1,70,4|0,0:3|0:0,0:0:0:0:
209,243,22811,1,4,0:3:0:0:
244,171,22932,1,0,0:0:0:0:
360,182,23053,1,2,1:2:0:0:
382,259,23174,1,0,0:0:0:0:
292,333,23294,5,2,0:3:0:0:
280,318,23415,1,0,0:0:0:0:
303,317,23536,5,4,0:3:0:0:
209,356,23657,1,0,0:0:0:0:
243,193,23778,5,4,0:3:0:0:
321,239,23899,1,2,0:0:0:0:
129,294,24020,5,2,1:2:0:0:
150,217,24141,1,0,0:0:0:0:
203,274,24262,5,8,0:3:0:0:
80,242,24383,1,4,0:3:0:0:
51,263,24504,5,2,0:0:0:0:
238,249,24625,2,0,B|305:241|311:287|373:288,1,140
419,343,24988,1,0,1:0:0:0:
432,166,25109,1,0,1:2:0:0:
439,160,25472,5,0,1:2:0:0:
458,229,25593,1,8,1:2:0:0:
280,146,25714,2,0,L|276:60,1,70,8|0,1:2|0:0,0:0:0:0:
351,101,25956,5,8,1:2:0:0:
203,122,26077,1,0,1:2:0:0:
377,230,26198,5,8,1:2:0:0:
377,230,26319,1,8,1:2:0:0:
298,179,26440,6,0,P|235:203|161:273,1,140,4|0,0:0|0:0,0:0:0:0:
161,321,26803,1,0,0:0:0:0:
106,266,26924,2,0,P|92:236|78:197,1,70,10|0,0:0|0:0,0:0:0:0:
31,115,27166,1,0,0:0:0:0:
53,46,27287,1,0,0:0:0:0:
45,127,27408,6,0,P|35:192|8:267,1,140,2|0,0:0|0:0,0:0:0:0:
189,373,27771,2,0,P|199:308|226:233,1,140,2|0,0:0|0:0,0:0:0:0:
140,171,28134,1,2,0:0:0:0:
140,171,28255,1,8,0:0:0:0:
248,126,28376,6,0,L|331:115,1,70,2|0,0:0|0:0,0:0:0:0:
407,154,28618,1,0,0:0:0:0:
398,77,28739,1,0,0:0:0:0:
245,137,28860,6,0,L|328:126,1,70,10|0,0:0|0:0,0:0:0:0:
404,165,29102,1,0,0:0:0:0:
395,88,29223,1,0,0:0:0:0:
244,147,29344,6,0,L|327:136,1,70,2|0,0:0|0:0,0:0:0:0:
403,175,29586,1,0,0:0:0:0:
394,98,29707,1,0,0:0:0:0:
334,210,29828,5,10,0:0:0:0:
400,254,29949,1,0,0:0:0:0:
465,131,30070,5,0,0:0:0:0:
394,98,30191,1,8,0:0:0:0:
400,254,30312,6,0,P|414:308|423:328,1,70,2|0,0:0|0:0,0:0:0:0:
465,131,30554,2,0,P|451:77|442:57,1,70
349,23,30796,1,8,0:0:0:0:
287,89,30917,1,0,0:0:0:0:
203,60,31038,1,0,0:0:0:0:
203,60,31159,1,0,0:0:0:0:
287,89,31280,6,0,P|323:102|367:115,1,70
425,269,31522,2,0,P|371:250|299:224,1,105,2|0,0:0|0:0,0:0:0:0:
288,217,31764,1,8,0:0:0:0:
259,291,31885,1,0,0:0:0:0:
160,191,32006,5,2,0:0:0:0:
209,84,32127,1,2,0:0:0:0:
144,205,32248,6,0,B|74:189|70:250|0:250,1,140,2|0,0:0|0:0,0:0:0:0:
124,279,32611,1,0,0:0:0:0:
19,163,32732,1,8,0:0:0:0:
121,312,32853,5,0,0:0:0:0:
28,126,32974,1,0,0:0:0:0:
82,223,33095,5,0,0:0:0:0:
111,93,33216,1,2,0:0:0:0:
136,63,33296,1,2,0:0:0:0:
146,94,33377,1,2,0:0:0:0:
122,120,33458,2,0,L|33:132,1,70,2|0,0:0|0:0,0:0:0:0:
229,38,33700,1,8,0:0:0:0:
282,90,33821,1,0,0:0:0:0:
214,107,33942,1,8,0:0:0:0:
298,18,34063,1,8,0:0:0:0:
405,136,34184,6,0,P|424:205|426:295,1,140,4|0,0:0|0:0,0:0:0:0:
457,342,34547,1,0,0:0:0:0:
427,273,34668,2,0,P|432:228|440:195,1,70,10|0,0:0|0:0,0:0:0:0:
405,136,34910,1,0,0:0:0:0:
484,143,35031,1,0,0:0:0:0:
378,336,35152,6,0,P|326:330|230:325,1,140,2|0,0:0|0:0,0:0:0:0:
37,235,35515,2,0,P|89:241|185:246,1,140,2|0,0:0|0:0,0:0:0:0:
230,179,35877,1,2,0:0:0:0:
230,179,35998,1,8,0:0:0:0:
397,214,36119,6,0,L|315:203,1,70,2|0,0:0|0:0,0:0:0:0:
338,134,36361,1,0,0:0:0:0:
411,143,36482,1,0,0:0:0:0:
130,32,36603,6,0,L|212:43,1,70,10|0,0:0|0:0,0:0:0:0:
189,112,36845,1,0,0:0:0:0:
116,103,36966,1,0,0:0:0:0:
287,33,37087,6,0,P|261:128|247:196,1,140,2|0,0:0|0:0,0:0:0:0:
278,317,37450,1,0,0:0:0:0:
235,255,37571,1,10,0:0:0:0:
171,297,37692,1,0,0:0:0:0:
238,240,37813,5,0,0:0:0:0:
209,365,37934,1,8,0:0:0:0:
38,239,38055,6,0,B|106:227|100:278|176:283,2,140,2|0|8,0:0|0:0|0:0,0:0:0:0:
83,157,38660,1,0,0:0:0:0:
36,59,38781,1,0,0:0:0:0:
108,85,38902,1,8,0:0:0:0:
167,282,39023,6,0,B|99:270|105:321|29:326,2,140,0|0|8,0:0|0:0|0:0,0:0:0:0:
259,356,39628,1,0,0:0:0:0:
325,229,39749,1,0,0:0:0:0:
436,312,39870,1,0,0:0:0:0:
491,152,39991,5,4,1:2:0:0:
256,29,40475,1,4,1:2:0:0:
146,140,40838,1,8,0:0:0:0:
146,140,41201,5,2,0:0:0:0:
100,77,41322,1,0,0:0:0:0:
31,216,41443,2,0,P|65:159|79:137,1,70,2|0,0:0|0:0,0:0:0:0:
224,211,41685,6,0,P|247:259|272:324,2,105.000004005432,6|0|2,1:2|0:0|0:0,0:0:0:0:
265,75,42411,1,10,0:0:0:0:
265,75,42532,1,0,0:0:0:0:
265,75,42653,1,2,0:0:0:0:
129,120,42895,2,0,L|16:143,1,105.000004005432,2|2,0:2|0:0,0:0:0:0:
170,46,43379,1,8,0:0:0:0:
170,46,43500,1,0,0:0:0:0:
170,46,43621,2,0,L|236:56,1,52.5000020027161,2|0,0:0|0:0,0:0:0:0:
276,137,43863,6,0,P|290:184|316:252,1,105.000004005432,0|2,0:0|0:0,0:0:0:0:
387,321,44347,1,10,0:0:0:0:
291,367,44589,2,0,P|280:336|268:305,1,52.5000020027161,2|0,0:0|0:0,0:0:0:0:
384,228,44831,6,0,P|392:192|404:117,1,105.000004005432,2|2,0:0|0:0,0:0:0:0:
296,38,45315,1,8,0:0:0:0:
296,38,45436,1,0,0:0:0:0:
296,38,45557,2,0,L|241:26,1,52.5000020027161,2|10,0:0|0:0,0:0:0:0:
194,106,45799,6,0,P|137:160|100:180,1,105.000004005432,2|0,0:0|0:0,0:0:0:0:
7,213,46283,1,8,0:0:0:0:
7,213,46404,1,0,0:0:0:0:
7,213,46525,1,2,0:0:0:0:
310,174,46767,6,0,P|367:228|404:248,1,105.000004005432,2|0,0:0|0:0,0:0:0:0:
497,281,47251,1,8,0:0:0:0:
497,281,47372,1,0,0:0:0:0:
497,281,47493,2,0,L|506:239,2,26.2500010013581,0|0|8,0:0|0:0|0:0,0:0:0:0:
409,344,47735,6,0,P|345:336|315:342,2,70.0000026702882,2|2|2,0:0|0:0|0:0,0:0:0:0:
265,281,48218,1,8,0:0:0:0:
176,338,48380,1,0,0:0:0:0:
82,292,48541,1,0,0:0:0:0:
12,357,48702,2,0,L|1:293,3,52.5000020027161,0|0|2|2,0:0|0:0|0:0|0:0,0:0:0:0:
82,292,49186,2,0,L|98:236,3,52.5000020027161,10|0|6|6,0:0|0:0|0:0|0:0,0:0:0:0:
24,203,49670,6,0,P|10:148|-2:89,1,105.000004005432,0|2,0:0|0:0,0:0:0:0:
0,100,50033,1,0,0:0:0:0:
0,100,50154,1,10,0:0:0:0:
141,108,50396,1,2,0:0:0:0:
248,44,50638,2,0,L|365:60,1,105.000004005432,2|2,0:0|0:0,0:0:0:0:
430,140,51122,1,8,0:0:0:0:
370,226,51364,5,2,0:0:0:0:
370,226,51485,1,0,0:0:0:0:
370,226,51606,2,0,B|283:203|274:314|189:321,1,210.000008010865,0|8,0:0|0:0,0:0:0:0:
44,209,52453,1,0,0:0:0:0:
44,209,52574,2,0,P|43:165|41:86,1,105.000004005432,0|2,0:0|0:0,0:0:0:0:
229,35,53058,1,8,0:0:0:0:
227,71,53179,1,0,0:0:0:0:
230,107,53300,1,2,0:0:0:0:
232,143,53421,1,8,0:0:0:0:
240,178,53542,5,2,0:0:0:0:
249,276,53784,2,0,P|251:295|252:318,2,26.2500010013581
301,227,54026,1,8,0:0:0:0:
181,235,54268,1,2,0:0:0:0:
181,235,54389,1,2,0:0:0:0:
181,235,54510,2,0,P|105:233|54:239,1,105.000004005432,2|0,0:0|0:0,0:0:0:0:
43,146,54994,1,8,0:0:0:0:
43,146,55236,2,0,P|47:95|45:59,1,52.5000020027161,2|0,0:0|0:0,0:0:0:0:
74,59,55478,2,0,L|73:23,2,26.2500010013581,2|0|0,0:0|0:0|0:0,0:0:0:0:
109,82,55720,2,0,L|183:79,1,52.5000020027161
205,97,55962,1,8,0:0:0:0:
205,97,56204,1,0,0:0:0:0:
205,97,56446,5,2,0:0:0:0:
321,163,56567,2,0,P|323:226|327:272,1,105.000004005432,8|0,0:0|0:0,0:0:0:0:
352,366,56930,1,8,0:0:0:0:
345,84,57172,2,0,L|354:45,2,26.2500010013581,0|0|8,0:0|0:0|0:0,0:0:0:0:
406,165,57414,6,0,P|435:218|528:232,1,157.500006008148,4|0,0:0|0:0,0:0:0:0:
399,286,57898,2,0,B|316:269|316:323|244:324,1,157.500006008148,10|0,0:2|0:0,0:0:0:0:
185,358,58382,1,2,0:0:0:0:
126,313,58503,1,2,0:3:0:0:
126,313,58745,1,2,0:0:0:0:
193,284,58866,2,0,P|202:252|207:223,1,52.5000020027161,2|2,0:0|0:3,0:0:0:0:
117,140,59108,2,0,P|122:165|129:190,1,52.5000020027161,2|8,0:0|0:0,0:0:0:0:
268,181,59350,6,0,L|388:152,1,105.000004005432
471,111,59713,1,0,0:0:0:0:
471,111,59834,2,0,L|346:80,1,105.000004005432,10|0,0:0|0:0,0:0:0:0:
286,40,60197,5,0,0:0:0:0:
286,40,60317,1,2,0:0:0:0:
171,183,60559,1,2,0:3:0:0:
171,183,60680,2,0,P|156:136|148:71,1,105.000004005432,2|2,0:0|0:3,0:0:0:0:
116,14,61043,1,2,0:0:0:0:
156,82,61164,1,8,0:0:0:0:
81,114,61285,6,0,P|37:155|31:263,1,157.500006008148
171,354,61769,2,0,P|215:313|221:205,1,157.500006008148,10|0,0:0|0:0,0:0:0:0:
181,102,62253,6,0,P|208:138|271:152,1,105.000004005432,2|2,0:0|0:3,0:0:0:0:
341,138,62616,1,2,0:0:0:0:
409,182,62737,6,0,P|426:231|423:256,3,52.5000020027161,8|0|2|2,0:0|0:0|0:0|0:0,0:0:0:0:
418,147,63221,2,0,P|428:113|510:7,1,157.500006008148,2|2,0:0|0:0,0:0:0:0:
497,39,63705,1,8,0:0:0:0:
322,192,63947,2,0,P|318:228|309:248,1,52.5000020027161,2|8,0:0|0:0,0:0:0:0:
288,313,64189,5,0,0:0:0:0:
179,266,64310,2,0,P|144:266|68:313,1,105.000004005432,8|0,0:0|0:0,0:0:0:0:
45,358,64673,1,8,0:0:0:0:
45,358,64915,1,2,0:0:0:0:
77,292,65036,1,10,0:0:0:0:
41,223,65157,6,0,P|37:187|17:109,2,105.000004005432,6|0|8,0:0|0:0|0:0,0:0:0:0:
197,41,65883,1,2,0:0:0:0:
197,41,66004,1,0,0:0:0:0:
300,152,66246,1,0,0:0:0:0:
300,152,66367,2,0,L|405:133,1,105.000004005432,0|10,0:0|0:0,0:0:0:0:
427,143,66730,1,2,0:0:0:0:
435,132,66851,1,2,0:0:0:0:
473,131,66972,1,2,0:0:0:0:
477,119,67093,6,0,P|496:176|502:232,1,105.000004005432,2|0,0:0|0:0,0:0:0:0:
297,342,67577,1,8,0:0:0:0:
171,226,67819,1,2,0:0:0:0:
171,226,67940,1,0,0:0:0:0:
55,286,68182,1,0,0:0:0:0:
55,286,68303,1,0,0:0:0:0:
14,209,68545,1,10,0:0:0:0:
18,195,68666,1,2,0:0:0:0:
39,151,68787,1,2,0:0:0:0:
36,137,68908,1,2,0:0:0:0:
32,123,69029,6,0,L|27:95,3,17.500000667572,2|0|0|0,0:0|0:0|0:0|0:0,0:0:0:0:
83,48,69271,1,0,0:0:0:0:
143,100,69392,1,0,0:0:0:0:
240,45,69513,2,0,P|305:40|359:42,1,105.000004005432,8|0,0:0|0:0,0:0:0:0:
363,47,69876,1,8,0:0:0:0:
430,79,69997,1,0,0:0:0:0:
467,163,70118,1,0,0:0:0:0:
416,263,70239,5,0,0:0:0:0:
299,279,70360,1,0,0:0:0:0:
336,212,70481,5,8,0:0:0:0:
386,328,70602,1,0,0:0:0:0:
250,351,70723,5,8,0:0:0:0:
175,282,70844,1,8,0:0:0:0:
63,359,70965,5,8,0:0:0:0:
63,359,71207,1,0,0:0:0:0:
475,358,71449,2,0,P|431:358|394:361,1,73.4999977569581,12|0,0:0|0:0,0:0:0:0:
364,343,71933,5,2,1:0:0:0:
145,339,72054,1,0,1:0:0:0:
255,331,72175,1,0,1:0:0:0:
255,331,72417,6,0,L|198:325,1,52.5000020027161,8|0,0:0|0:0,0:0:0:0:
397,249,72658,1,0,3:0:0:0:
397,249,72779,1,0,3:0:0:0:
306,204,72900,6,0,P|309:261|330:297,1,83.9999974365235,6|0,1:2|0:0,0:2:0:0:
475,195,73142,1,2,0:2:0:0:
372,151,73263,1,2,0:2:0:0:
306,204,73384,6,0,P|294:259|305:300,1,83.9999974365235,10|0,0:2|0:2,0:2:0:0:
471,239,73626,1,2,0:3:0:0:
383,169,73747,1,2,0:2:0:0:
306,204,73868,6,0,P|280:254|280:296,1,83.9999974365235,2|0,1:2|0:0,0:2:0:0:
456,280,74110,1,2,0:2:0:0:
389,190,74231,1,2,0:2:0:0:
382,266,74352,1,10,0:2:0:0:
465,205,74473,1,0,0:2:0:0:
379,111,74594,5,2,0:3:0:0:
319,157,74715,1,0,0:2:0:0:
206,127,74836,6,0,P|160:124|25:123,2,167.999994873047,2|0|8,1:2|1:2|0:2,0:2:0:0:
212,125,75562,1,2,0:3:0:0:
304,202,75683,1,2,0:2:0:0:
296,115,75804,5,2,1:2:0:0:
305,124,75925,1,8,0:2:0:0:
222,204,76046,5,0,0:2:0:0:
213,211,76167,1,0,0:2:0:0:
354,183,76288,5,8,0:2:0:0:
212,125,76409,1,0,0:2:0:0:
115,217,76530,5,2,1:2:0:0:
82,286,76651,1,10,1:2:0:0:
227,302,76772,2,0,P|283:316|390:351,1,167.999994873047,2|2,1:2|0:2,0:2:0:0:
160,281,77135,1,0,0:2:0:0:
436,179,77256,2,0,P|380:193|273:228,1,167.999994873047,10|2,0:2|0:3,0:2:0:0:
506,153,77619,1,2,0:2:0:0:
266,60,77740,2,0,P|328:81|360:88,1,83.9999974365235,2|0,1:2|0:0,0:2:0:0:
210,151,77982,5,2,0:2:0:0:
208,127,78103,1,2,0:2:0:0:
123,81,78224,5,10,0:2:0:0:
118,154,78345,1,0,0:2:0:0:
330,172,78466,5,2,1:3:0:0:
303,61,78587,1,10,1:2:0:0:
210,151,78708,6,0,P|217:236|234:332,2,167.999994873047,2|0|8,1:2|1:2|0:2,0:2:0:0:
222,141,79434,1,2,1:3:0:0:
508,273,79555,2,0,P|478:220|351:191,1,167.999994873047,0|8,1:2|0:2,0:0:0:0:
280,291,79918,1,0,0:2:0:0:
229,233,80039,1,0,0:2:0:0:
245,312,80160,2,0,L|147:344,1,83.9999974365235,8|0,0:2|0:2,0:0:0:0:
69,220,80402,5,2,1:2:0:0:
6,179,80523,1,10,1:2:0:0:
44,112,80644,2,0,P|108:107|229:235,1,251.999992309571,6|0,1:2|0:2,0:2:0:0:
244,294,81128,1,10,0:2:0:0:
223,279,81249,1,2,0:2:0:0:
229,232,81370,1,2,0:2:0:0:
304,180,81491,1,10,0:2:0:0:
416,222,81612,2,0,P|372:232|325:214,1,83.9999974365235,2|0,1:2|0:2,0:2:0:0:
409,66,81854,2,0,P|442:96|454:145,1,83.9999974365235,2|0,1:2|0:2,0:2:0:0:
278,140,82096,2,0,P|291:97|330:65,1,83.9999974365235,8|0,0:2|0:2,0:0:0:0:
366,145,82338,1,2,1:2:0:0:
335,221,82459,1,10,1:2:0:0:
396,283,82580,6,0,B|275:302|289:150|139:212,1,251.999992309571,6|0,1:2|0:2,0:2:0:0:
21,280,83064,1,10,0:2:0:0:
79,344,83185,1,2,0:2:0:0:
115,316,83306,1,2,0:2:0:0:
113,296,83427,1,10,0:2:0:0:
108,287,83548,2,0,P|100:238|81:190,1,83.9999974365235,2|0,1:2|0:2,0:2:0:0:
0,33,83790,2,0,P|8:82|27:130,1,83.9999974365235,2|0,1:2|0:2,0:2:0:0:
88,207,84032,2,0,L|191:239,1,83.9999974365235,8|0,0:2|0:2,0:2:0:0:
251,145,84274,5,2,1:2:0:0:
251,145,84395,1,10,1:2:0:0:
267,68,84516,5,6,1:2:0:0:
303,200,84637,1,0,0:2:0:0:
324,122,84758,5,0,1:2:0:0:
227,215,84879,1,0,0:2:0:0:
303,200,84999,5,8,1:2:0:0:
169,157,85120,1,0,0:2:0:0:
227,215,85241,5,0,1:2:0:0:
196,88,85362,1,8,0:2:0:0:
313,70,85483,5,0,1:2:0:0:
271,247,85604,1,0,0:2:0:0:
354,162,85725,5,0,1:2:0:0:
166,196,85846,1,0,0:2:0:0:
271,247,85967,5,8,1:2:0:0:
154,101,86088,1,0,0:2:0:0:
166,196,86209,5,0,1:2:0:0:
226,28,86330,1,8,0:2:0:0:
433,123,86451,5,4,1:2:0:0:
433,123,86935,1,10,0:2:0:0:
323,94,87056,1,0,0:0:0:0:
235,165,87177,2,0,L|132:170,1,83.9999974365235,0|8,0:2|0:2,0:0:0:0:
42,94,87419,5,2,1:2:0:0:
39,294,87540,2,0,P|35:214|36:105,1,167.999994873047,8|0,1:2|1:2,0:2:0:0:
133,243,87903,2,0,P|135:307|135:346,1,83.9999974365235,10|0,0:2|0:0,0:2:0:0:
218,220,88145,5,0,1:0:0:0:
218,220,88266,1,8,0:2:0:0:
305,111,88387,6,0,P|303:166|313:210,1,83.9999974365235,6|0,1:2|0:0,0:2:0:0:
217,29,88629,1,2,0:2:0:0:
302,30,88750,1,2,0:2:0:0:
216,115,88871,2,0,P|218:170|208:214,1,83.9999974365235,10|0,0:2|0:2,0:2:0:0:
309,25,89113,5,2,0:3:0:0:
209,25,89234,1,2,0:2:0:0:
305,111,89355,2,0,P|307:165|321:208,1,83.9999974365235,2|0,1:2|0:0,0:0:0:0:
201,23,89597,5,2,0:2:0:0:
316,23,89718,1,2,0:2:0:0:
207,111,89839,2,0,P|204:165|190:208,1,83.9999974365235,10|0,0:2|0:2,0:2:0:0:
350,40,90081,5,2,0:3:0:0:
175,37,90202,1,0,0:2:0:0:
256,226,90323,2,0,B|248:294|316:325|300:395,2,167.999994873047,2|0|8,1:2|1:2|0:2,0:2:0:0:
263,222,91049,1,2,0:3:0:0:
188,249,91170,1,2,0:2:0:0:
78,198,91291,5,2,1:2:0:0:
8,184,91412,1,8,0:2:0:0:
77,207,91533,1,0,0:2:0:0:
5,191,91654,1,0,0:2:0:0:
90,286,91775,5,8,0:2:0:0:
66,119,91896,1,0,0:2:0:0:
18,262,92017,5,2,1:2:0:0:
134,135,92138,1,10,1:2:0:0:
255,210,92259,6,0,B|328:189|335:278|422:283,1,167.999994873047,2|2,1:2|0:2,0:2:0:0:
263,291,92622,1,0,0:2:0:0:
495,283,92743,6,0,B|422:262|415:351|328:356,1,167.999994873047,10|2,0:2|0:3,0:2:0:0:
487,364,93106,1,2,0:2:0:0:
389,186,93227,6,0,P|384:135|381:81,1,83.9999974365235,2|0,1:2|0:0,0:2:0:0:
316,62,93469,1,2,0:2:0:0:
319,33,93590,1,2,0:2:0:0:
480,190,93711,5,10,0:2:0:0:
463,259,93832,1,0,0:2:0:0:
365,195,93953,5,2,1:3:0:0:
381,102,94074,1,10,1:2:0:0:
261,202,94195,6,0,P|186:198|63:222,2,167.999994873047,2|0|8,1:2|1:2|0:2,0:2:0:0:
263,213,94921,1,2,1:3:0:0:
450,354,95042,2,0,P|487:309|469:188,1,167.999994873047,0|8,1:2|0:2,0:0:0:0:
331,306,95405,1,0,0:2:0:0:
258,286,95526,1,0,0:2:0:0:
196,330,95647,2,0,L|104:336,1,83.9999974365235,8|0,0:2|0:2,0:0:0:0:
47,237,95889,5,2,1:2:0:0:
0,176,96010,1,10,1:2:0:0:
65,220,96131,2,0,P|155:211|251:81,1,251.999992309571,6|0,1:2|0:2,0:2:0:0:
253,17,96615,1,10,0:2:0:0:
249,90,96736,1,2,0:2:0:0:
300,166,96857,1,2,0:2:0:0:
398,192,96978,1,10,0:2:0:0:
506,120,97099,6,0,L|465:16,1,83.9999974365235,2|0,1:2|0:2,0:2:0:0:
300,166,97340,2,0,L|341:270,1,83.9999974365235,2|0,1:2|0:2,0:2:0:0:
490,131,97582,2,0,L|449:27,1,83.9999974365235,8|0,0:2|0:2,0:0:0:0:
276,84,97824,5,2,1:2:0:0:
185,176,97945,1,10,1:2:0:0:
38,145,98066,2,0,P|112:161|211:322,1,251.999992309571,6|0,1:2|0:2,0:2:0:0:
364,356,98550,1,10,0:2:0:0:
457,280,98671,1,2,0:2:0:0:
442,190,98792,1,2,0:2:0:0:
375,150,98913,1,10,0:2:0:0:
331,154,99034,6,0,L|218:186,1,83.9999974365235,2|0,1:2|0:2,0:2:0:0:
210,297,99276,2,0,L|323:265,1,83.9999974365235,2|0,1:2|0:2,0:2:0:0:
321,171,99518,2,0,L|208:203,1,83.9999974365235,8|0,0:2|0:2,0:2:0:0:
413,239,99760,5,2,1:2:0:0:
413,239,99881,1,10,1:2:0:0:
409,314,100002,5,6,1:2:0:0:
479,194,100123,1,0,0:2:0:0:
483,274,100244,5,0,1:2:0:0:
402,154,100365,1,0,0:2:0:0:
479,194,100486,5,8,1:2:0:0:
337,196,100607,1,0,0:2:0:0:
402,154,100728,5,0,1:2:0:0:
339,272,100849,1,8,0:2:0:0:
320,202,100970,5,0,1:2:0:0:
500,276,101091,1,0,0:2:0:0:
331,292,101212,5,0,1:2:0:0:
487,188,101333,1,0,0:2:0:0:
512,277,101454,5,8,1:2:0:0:
307,213,101575,1,0,0:2:0:0:
486,178,101696,5,0,1:2:0:0:
326,317,101817,1,8,0:2:0:0:
364,112,101938,5,4,1:2:0:0:
364,112,102422,1,10,0:2:0:0:
233,200,102543,1,0,0:0:0:0:
359,310,102664,2,0,L|460:293,1,83.9999974365235,0|8,0:2|0:2,0:0:0:0:
315,173,102906,5,2,1:2:0:0:
275,277,103027,2,0,P|232:307|85:330,1,167.999994873047,8|0,1:2|1:2,0:0:0:0:
11,247,103390,2,0,P|72:266|111:269,1,83.9999974365235,10|0,1:2|0:0,0:2:0:0:
47,334,103632,5,0,0:0:0:0:
159,214,103753,1,0,1:0:0:0:
96,77,103874,6,0,P|54:83|15:98,1,83.9999974365235,6|0,1:2|0:0,0:2:0:0:
196,128,104116,1,0,0:0:0:0:
190,9,104237,1,2,0:2:0:0:
187,238,104358,6,0,P|166:275|155:315,1,83.9999974365235,10|0,0:2|0:0,0:2:0:0:
287,188,104600,1,2,0:3:0:0:
188,121,104721,1,0,0:0:0:0:
315,285,104842,6,0,P|314:327|323:368,1,83.9999974365235,2|0,1:2|0:0,0:2:0:0:
440,211,105084,1,0,0:0:0:0:
262,177,105205,1,2,0:2:0:0:
400,280,105326,5,10,0:2:0:0:
287,95,105447,1,0,0:0:0:0:
315,285,105568,5,2,0:3:0:0:
371,85,105689,1,0,0:0:0:0:
188,183,105810,6,0,B|102:169|114:244|15:261,2,167.999994873047,2|0|8,1:2|1:0|0:2,0:2:0:0:
183,175,106536,1,2,0:3:0:0:
163,97,106657,1,0,0:0:0:0:
288,157,106778,5,2,1:2:0:0:
251,317,106899,1,8,0:0:0:0:
245,312,107141,1,0,0:0:0:0:
376,235,107262,2,0,P|444:220|517:152,1,167.999994873047,8|2,0:2|1:2,0:0:0:0:
512,166,107625,1,10,1:2:0:0:
206,188,107746,6,0,P|138:173|65:105,1,167.999994873047,2|0,1:2|0:0,0:2:0:0:
76,33,108109,1,0,0:2:0:0:
323,227,108230,6,0,P|391:212|464:144,1,167.999994873047,10|2,0:2|0:3,0:2:0:0:
453,72,108593,1,2,0:2:0:0:
224,272,108714,6,0,P|168:284|117:281,1,83.9999974365235,2|0,1:2|0:0,0:2:0:0:
292,307,108956,1,0,0:0:0:0:
265,209,109077,1,2,0:2:0:0:
364,188,109198,5,10,0:2:0:0:
223,366,109319,1,0,0:2:0:0:
185,168,109440,5,2,1:2:0:0:
380,275,109560,1,10,1:2:0:0:
96,272,109681,6,0,P|75:232|74:90,2,167.999994873047,2|0|8,1:2|1:2|0:2,0:2:0:0:
113,289,110407,1,2,1:3:0:0:
286,316,110528,2,0,B|353:291|371:375|462:376,1,167.999994873047,0|8,1:0|0:2,0:0:0:0:
467,192,110891,1,0,0:2:0:0:
443,260,111012,1,0,0:2:0:0:
476,158,111133,2,0,L|445:61,1,83.9999974365235,8|0,0:2|0:2,0:0:0:0:
167,16,111375,5,2,1:2:0:0:
196,84,111496,1,10,1:2:0:0:
256,40,111617,2,0,P|357:33|507:39,1,251.999992309571,6|0,1:2|0:0,0:2:0:0:
475,56,112101,1,10,0:2:0:0:
398,73,112222,1,2,0:2:0:0:
302,58,112343,1,2,0:2:0:0:
185,43,112464,1,10,0:2:0:0:
62,60,112585,2,0,P|63:111|68:147,1,83.9999974365235,2|0,1:2|0:0,0:2:0:0:
244,233,112827,2,0,P|243:182|238:146,1,83.9999974365235,2|0,1:2|0:0,0:2:0:0:
65,257,113069,2,0,P|66:308|71:344,1,83.9999974365235,8|0,0:2|0:2,0:0:0:0:
176,267,113311,5,2,1:2:0:0:
125,191,113432,1,10,1:2:0:0:
168,113,113553,2,0,P|249:115|374:229,1,251.999992309571,6|0,1:2|0:0,0:2:0:0:
264,355,114037,1,10,0:2:0:0:
287,248,114158,1,2,0:2:0:0:
371,223,114279,1,2,0:2:0:0:
442,241,114400,1,10,0:2:0:0:
481,217,114521,2,0,L|490:117,1,83.9999974365235,2|0,1:2|0:0,0:2:0:0:
475,56,114763,5,2,1:2:0:0:
488,132,114884,1,0,0:0:0:0:
340,109,115005,1,8,0:2:0:0:
340,109,115247,5,2,1:2:0:0:
409,96,115368,1,10,1:2:0:0:
304,183,115489,5,6,1:2:0:0:
296,24,115610,1,0,0:2:0:0:
384,190,115731,5,0,1:2:0:0:
257,106,115852,1,0,0:2:0:0:
210,183,115973,5,8,1:2:0:0:
218,24,116094,1,0,0:2:0:0:
130,190,116215,5,0,1:2:0:0:
257,106,116336,1,8,0:2:0:0:
360,214,116457,5,0,1:2:0:0:
296,24,116578,1,0,0:2:0:0:
436,154,116699,5,0,1:2:0:0:
257,106,116820,1,0,0:2:0:0:
154,214,116941,5,8,1:2:0:0:
218,24,117062,1,0,0:2:0:0:
78,154,117183,5,0,1:2:0:0:
257,106,117304,1,8,0:2:0:0:
255,288,117425,5,4,1:2:0:0:
255,288,117909,1,10,0:2:0:0:
132,325,118030,1,0,0:0:0:0:
51,235,118151,2,0,P|46:191|42:138,1,83.9999974365235,0|8,0:2|0:2,0:0:0:0:
176,104,118393,1,2,1:2:0:0:
296,192,118514,2,0,B|368:175|374:247|469:249,1,167.999994873047,8|0,0:2|1:2,0:0:0:0:
433,132,118877,1,10,0:2:0:0:
492,48,118998,1,0,1:0:0:0:
395,108,119119,2,0,P|385:92|379:63,2,41.9999987182618,0|0|0,1:0|0:0|0:0,0:0:0:0:
304,21,119361,5,14,1:2:0:0:
256,192,119421,12,0,123232,0:0:0:0:
