osu file format v14

[General]
AudioFilename: audio.mp3
AudioLeadIn: 0
PreviewTime:71812
Countdown: 0
SampleSet: Soft
StackLeniency: 0.3
Mode: 0
LetterboxInBreaks: 0
WidescreenStoryboard: 1

[Editor]
Bookmarks: 47251,64189
DistanceSpacing: 1.2
BeatDivisor: 8
GridSize: 4
TimelineZoom: 3.539999

[Metadata]
Title:promise
TitleUnicode:promise
Artist:Hirose Kohmi
ArtistUnicode:広瀬香美
Creator:Luscent
Version:Firika's Hard
Source:
Tags:get down geddan kawashiro nitori cut short ver japanese pop jpop 404 aimnotfound enon kalibe black man fixxis firika evilelvis v2 elvis jounzan natteke desu dailycare morinaga yokespai yokes
BeatmapID:2308230
BeatmapSetID:1094694

[Difficulty]
HPDrainRate:5
CircleSize:3
OverallDifficulty:6
ApproachRate:7.5
SliderMultiplier:2.2
SliderTickRate:0.5

[Events]
//Background and Video events
0,0,"bg.jpg"
//Break Periods
//Storyboard Layer 0 (Background)
//Storyboard Layer 1 (Fail)
//Storyboard Layer 2 (Pass)
//Storyboard Layer 3 (Foreground)
//Storyboard Layer 4 (Overlay)
//Storyboard Sound Samples

[TimingPoints]
10954,483.960734652395,4,2,5,50,1,0
10954,-125,4,2,5,50,0,0
25472,-125,4,2,3,50,0,0
26440,-100,4,2,3,70,0,0
39991,-100,4,2,1,70,0,0
41201,-125,4,2,1,50,0,0
70965,-100,4,2,1,50,0,0
71449,-125,4,2,1,50,0,0
71812,-125,4,2,1,5,0,0
71933,-100,4,2,1,50,0,0
72900,-83.3333333333333,4,2,3,70,0,1
86935,-83.3333333333333,4,2,3,70,0,0
88387,-83.3333333333333,4,2,3,70,0,1
102422,-83.3333333333333,4,2,3,70,0,0
103874,-83.3333333333333,4,2,3,70,0,1
118393,-83.3333333333333,4,2,3,70,0,0
119119,-83.3333333333333,4,2,3,70,0,1
119239,-83.3333333333333,4,2,3,70,0,1
119361,-83.3333333333333,4,2,3,70,0,0
119845,-100,4,2,3,70,0,0
123232,-100,4,2,3,70,0,0
123716,-100,4,2,3,70,0,0
142591,-100,4,2,3,5,0,0

[Colours]
Combo1 : 17,254,176
Combo2 : 173,255,95
Combo3 : 255,88,100
Combo4 : 255,94,55

[HitObjects]
136,116,10954,6,0,L|234:132,1,88,2|0,0:0|0:0,0:0:0:0:
326,73,11437,2,0,L|369:65,3,44,0|0|0|0,1:0|0:0|0:0|0:0,0:0:0:0:
391,62,11921,6,0,L|374:160,1,88
450,243,12405,1,0,1:0:0:0:
379,338,12647,1,2,0:0:0:0:
379,338,12768,1,0,0:0:0:0:
379,338,12889,6,0,P|315:324|285:326,1,88,2|0,0:0|0:0,0:0:0:0:
181,363,13373,1,0,1:0:0:0:
76,308,13615,1,2,0:0:0:0:
76,308,13736,1,2,0:0:0:0:
76,308,13857,6,0,L|61:204,1,88,2|0,0:0|0:0,0:0:0:0:
132,140,14341,2,0,L|184:132,3,44,0|0|0|0,1:0|0:0|0:0|0:0,0:0:0:0:
197,130,14825,6,0,L|212:25,2,88,2|0|0,0:0|0:0|1:0,0:0:0:0:
288,207,15551,1,0,0:0:0:0:
288,207,15672,1,0,0:0:0:0:
288,206,15793,6,0,P|327:187|370:187,1,88
467,258,16277,2,0,L|460:303,3,44,2|2|2|2,1:2|0:2|0:2|0:2,0:0:0:0:
457,323,16761,6,0,P|404:309|360:318,1,88,2|0,0:0|0:0,0:0:0:0:
351,323,17124,1,0,0:0:0:0:
333,336,17245,1,0,0:0:0:0:
239,286,17487,1,0,0:0:0:0:
239,286,17608,1,0,0:0:0:0:
239,286,17729,2,0,L|150:295,1,88,2|0,0:0|0:0,0:0:0:0:
79,216,18213,2,0,L|83:171,3,44,2|0|0|0,0:0|0:0|0:0|0:0,0:0:0:0:
71,154,18697,6,0,B|175:198|174:89|278:133,1,220,2|2,0:0|0:0,0:0:0:0:
297,145,19423,1,2,0:0:0:0:
318,141,19544,1,2,0:0:0:0:
340,137,19665,1,2,0:0:0:0:
427,76,19907,2,0,P|446:115|443:159,1,88,2|0,0:0|1:0,0:0:0:0:
477,274,20391,1,2,0:0:0:0:
477,274,20512,1,2,0:0:0:0:
477,274,20633,6,0,B|373:318|374:209|270:253,1,220,2|2,0:0|0:0,0:0:0:0:
251,265,21359,1,2,0:0:0:0:
230,261,21480,1,2,0:0:0:0:
208,257,21601,1,2,0:0:0:0:
107,319,21843,2,0,P|63:321|24:302,1,88,2|0,0:0|1:0,0:0:0:0:
14,183,22327,1,2,0:0:0:0:
14,183,22448,1,0,0:0:0:0:
14,182,22569,6,0,P|53:163|96:160,7,88,2|2|2|2|2|2|2|2,0:0|0:0|1:2|0:0|0:0|0:0|1:2|0:0,0:0:0:0:
114,174,24383,1,0,0:0:0:0:
132,188,24504,2,0,P|201:198|225:184,1,88,2|0,0:0|0:0,0:0:0:0:
310,145,24988,2,0,L|365:155,2,44,0|0|0,0:0|1:2|1:2,0:0:0:0:
232,72,25472,1,0,1:2:0:0:
232,72,25593,1,8,1:2:0:0:
232,72,25714,1,8,1:2:0:0:
327,26,25956,2,0,L|413:41,1,88,8|8,1:2|1:2,0:0:0:0:
430,58,26319,1,8,1:2:0:0:
447,74,26440,6,0,P|457:122|443:203,1,110,4|0,0:0|0:0,0:0:0:0:
338,252,26924,2,0,P|276:235|199:317,1,165,10|0,0:0|0:0,0:0:0:0:
181,312,27408,2,0,P|169:230|126:161,2,165,2|2|2,0:0|0:0|0:0,0:0:0:0:
163,333,28255,1,8,0:0:0:0:
144,353,28376,6,0,P|97:324|43:323,1,110,2|0,0:0|0:0,0:0:0:0:
10,195,28860,2,0,P|57:169|85:122,1,110,10|0,0:0|0:0,0:0:0:0:
213,157,29344,1,2,0:0:0:0:
208,184,29465,1,0,0:0:0:0:
211,211,29586,1,0,0:0:0:0:
221,236,29707,1,0,0:0:0:0:
238,258,29828,1,10,0:0:0:0:
359,309,30070,1,0,0:0:0:0:
359,309,30191,1,8,0:0:0:0:
359,309,30312,6,0,P|410:291|466:300,1,110,2|0,0:0|0:0,0:0:0:0:
510,175,30796,2,0,P|467:140|413:130,1,110,8|0,0:0|0:0,0:0:0:0:
394,110,31159,2,0,P|368:157|258:157,1,165
245,145,31643,1,0,0:0:0:0:
224,127,31764,1,8,0:0:0:0:
101,76,32006,1,2,0:0:0:0:
101,76,32127,1,2,0:0:0:0:
101,76,32248,6,0,P|50:100|23:148,1,110,2|0,0:0|0:0,0:0:0:0:
132,220,32732,2,0,P|127:276|155:323,1,110,8|0,0:0|0:0,0:0:0:0:
177,335,33095,1,0,0:0:0:0:
201,349,33216,2,0,P|252:324|321:329,1,110
328,337,33579,1,0,0:0:0:0:
352,351,33700,1,8,0:0:0:0:
468,289,33942,1,8,0:0:0:0:
468,289,34063,1,8,0:0:0:0:
468,289,34184,6,0,L|475:172,1,110,4|0,0:0|0:0,0:0:0:0:
394,73,34668,2,0,P|309:70|228:95,1,165,10|0,0:0|0:0,0:0:0:0:
207,79,35152,2,0,P|243:153|236:234,2,165,2|2|2,0:0|0:0|0:0,0:0:0:0:
185,65,35998,1,8,0:0:0:0:
163,50,36119,6,0,P|94:75|57:78,1,110,2|0,0:0|0:0,0:0:0:0:
29,207,36603,2,0,P|98:232|135:235,1,110,10|0,0:0|0:0,0:0:0:0:
222,333,37087,1,2,0:0:0:0:
341,275,37329,1,0,0:0:0:0:
341,275,37450,1,0,0:0:0:0:
341,275,37571,2,0,L|350:151,1,110,10|0,0:0|0:0,0:0:0:0:
334,141,37934,1,8,0:0:0:0:
320,116,38055,6,0,P|354:86|428:88,1,110,2|0,0:0|0:0,0:0:0:0:
492,191,38539,2,0,L|484:300,1,110,8|0,0:0|0:0,0:0:0:0:
463,318,38902,1,8,0:0:0:0:
442,336,39023,2,0,P|389:316|319:322,1,110
209,355,39507,1,8,0:0:0:0:
106,272,39749,1,0,0:0:0:0:
72,275,39870,1,0,0:0:0:0:
38,278,39991,5,4,0:0:0:0:
209,355,40475,2,0,B|270:356|288:259|225:217,1,165,4|8,2:0|0:0,0:0:0:0:
215,214,40959,1,0,0:0:0:0:
284,134,41201,2,0,P|320:129|370:173,1,88,2|2,0:0|0:0,0:0:0:0:
444,222,41685,6,0,P|471:142|425:70,1,176,6|2,1:2|0:0,0:0:0:0:
325,37,42411,1,10,0:0:0:0:
325,37,42653,1,2,0:0:0:0:
284,134,42895,1,2,0:2:0:0:
187,93,43137,2,0,P|129:96|91:121,1,88,2|8,0:0|0:0,0:0:0:0:
48,215,43621,1,2,0:0:0:0:
48,215,43742,1,0,0:0:0:0:
48,215,43863,6,0,L|59:302,1,88,0|2,0:0|0:0,0:0:0:0:
145,363,44347,1,10,0:0:0:0:
145,363,44589,1,2,0:0:0:0:
206,277,44831,1,2,0:0:0:0:
292,337,45073,2,0,P|310:298|310:254,1,88,2|8,0:0|0:0,0:0:0:0:
233,164,45557,1,2,0:0:0:0:
233,164,45678,1,10,0:0:0:0:
233,164,45799,6,0,L|141:158,1,88,2|0,0:0|0:0,0:0:0:0:
57,97,46283,1,8,0:0:0:0:
154,51,46525,1,2,0:0:0:0:
154,51,46646,1,2,0:0:0:0:
154,51,46767,2,0,L|241:56,1,88,2|0,0:0|0:0,0:0:0:0:
330,118,47251,1,8,0:0:0:0:
400,39,47493,1,0,0:0:0:0:
421,33,47614,1,8,0:0:0:0:
442,27,47735,6,0,L|437:84,2,44,2|0|0,0:0|0:0|0:0,0:0:0:0:
330,118,48218,2,0,L|342:209,1,88,8|2,0:0|0:0,0:0:0:0:
433,258,48702,1,0,0:0:0:0:
433,258,48944,2,0,P|456:294|455:337,1,88,2|10,0:0|0:0,0:0:0:0:
349,324,49428,1,6,0:0:0:0:
349,324,49549,1,0,0:0:0:0:
349,324,49670,6,0,P|306:319|266:334,1,88,0|2,0:0|0:0,0:0:0:0:
168,292,50154,1,10,0:0:0:0:
168,292,50396,1,2,0:0:0:0:
102,377,50638,1,2,0:0:0:0:
20,307,50880,2,0,L|13:208,1,88,2|8,0:0|0:0,0:0:0:0:
93,131,51364,1,2,0:0:0:0:
93,131,51485,1,0,0:0:0:0:
93,131,51606,5,0,0:0:0:0:
184,183,51848,2,0,P|197:141|193:98,1,88,2|8,0:0|0:0,0:0:0:0:
294,64,52332,2,0,P|322:96|362:114,1,88,2|0,0:0|0:0,0:0:0:0:
342,218,52816,2,0,P|299:226|263:252,1,88,2|8,0:0|0:0,0:0:0:0:
341,325,53300,1,2,0:0:0:0:
341,325,53421,1,8,0:0:0:0:
341,325,53542,6,0,P|394:335|426:366,1,88,2|0,0:0|0:0,0:0:0:0:
498,286,54026,1,8,0:0:0:0:
437,199,54268,1,2,0:0:0:0:
437,199,54389,1,2,0:0:0:0:
437,199,54510,2,0,L|445:104,1,88,2|0,0:0|0:0,0:0:0:0:
383,24,54994,1,8,0:0:0:0:
307,99,55236,1,2,0:0:0:0:
307,99,55357,1,2,0:0:0:0:
307,99,55478,6,0,L|303:144,2,44,2|0|0,0:0|0:0|0:0,0:0:0:0:
207,61,55962,2,0,P|189:110|193:148,1,88,8|0,0:0|0:0,0:0:0:0:
178,162,56325,1,0,0:0:0:0:
164,179,56446,1,0,0:0:0:0:
150,196,56567,2,0,P|191:232|269:239,1,132,8|8,0:0|0:0,0:0:0:0:
345,330,57172,1,0,0:0:0:0:
345,330,57293,1,8,0:0:0:0:
345,330,57414,6,0,B|255:304|268:384|180:361,1,176,4|10,0:0|0:2,0:0:0:0:
100,292,58140,1,0,0:0:0:0:
201,259,58382,2,0,P|223:218|189:142,2,132,2|2|2,0:0|0:0|0:0,0:0:0:0:
100,292,59350,2,0,P|47:279|-2:283,1,88
68,189,59834,2,0,P|70:138|103:106,1,88,10|0,0:0|0:0,0:0:0:0:
192,67,60317,5,2,0:0:0:0:
192,67,60438,1,2,0:0:0:0:
192,67,60559,2,0,L|201:-2,2,44,2|0|0,0:0|0:0|0:0,0:0:0:0:
282,142,61043,1,2,0:0:0:0:
282,142,61164,1,8,0:0:0:0:
282,142,61285,2,0,L|292:229,1,88
234,318,61769,1,10,0:0:0:0:
234,318,62011,1,0,0:0:0:0:
292,229,62253,6,0,P|352:204|425:221,2,132,2|2|2,0:0|0:0|0:0,0:0:0:0:
282,249,63100,1,8,0:0:0:0:
271,269,63221,2,0,P|264:213|229:131,2,132,2|2|2,0:0|0:0|0:0,0:0:0:0:
345,360,64189,1,0,0:0:0:0:
345,360,64310,1,8,0:0:0:0:
345,360,64431,1,0,0:0:0:0:
271,269,64673,1,8,0:0:0:0:
179,320,64915,1,2,0:0:0:0:
179,320,65036,1,10,0:0:0:0:
179,320,65157,6,0,P|130:303|82:309,1,88,6|0,0:0|0:0,0:0:0:0:
21,229,65641,1,8,0:0:0:0:
77,139,65883,1,2,0:0:0:0:
77,139,66004,1,0,0:0:0:0:
77,139,66125,2,0,B|155:121|164:186|245:168,1,176,0|10,0:0|0:0,0:0:0:0:
354,119,66851,1,0,0:0:0:0:
354,119,66972,1,8,0:0:0:0:
354,119,67093,6,0,P|360:73|378:34,2,88,2|0|8,0:0|0:0|0:0,0:0:0:0:
451,162,67819,2,0,P|479:133|498:122,2,44,2|0|0,0:0|0:0|0:0,0:0:0:0:
365,225,68303,1,0,0:0:0:0:
268,182,68545,2,0,P|226:182|177:207,1,88,10|0,0:0|0:0,0:0:0:0:
173,219,68908,1,8,0:0:0:0:
164,239,69029,6,0,L|171:336,1,88,2|0,0:0|0:0,0:0:0:0:
42,292,69513,2,0,L|39:231,3,44,8|0|0|8,0:0|0:0|0:0|0:0,0:0:0:0:
55,232,69997,2,0,L|61:187,2,44
27,102,70481,1,8,0:0:0:0:
134,44,70723,1,8,0:0:0:0:
134,44,70844,1,8,0:0:0:0:
134,44,70965,6,0,P|174:77|237:78,1,110,8|0,0:0|0:0,0:0:0:0:
360,51,71449,2,0,L|343:192,1,132,12|0,0:0|0:0,0:0:0:0:
360,205,71933,6,0,L|431:201,2,55,2|0|0,0:0|0:0|0:0,0:0:0:0:
235,250,72417,2,0,B|253:279|253:279|244:355,1,110,8|0,0:0|0:0,0:0:0:0:
266,360,72779,1,0,0:0:0:0:
288,365,72900,6,0,L|422:351,1,131.99999597168,6|2,1:2|0:2,0:2:0:0:
444,329,73263,1,2,0:2:0:0:
469,307,73384,2,0,P|478:248|422:186,1,131.99999597168,10|2,0:2|0:2,0:2:0:0:
275,177,73868,2,0,P|224:218|159:223,1,131.99999597168,2|2,1:2|0:2,0:2:0:0:
128,211,74231,1,2,0:2:0:0:
104,188,74352,1,10,0:2:0:0:
115,38,74594,1,2,0:2:0:0:
115,38,74715,1,0,0:2:0:0:
115,38,74836,6,0,P|42:45|0:93,2,131.99999597168,2|0|8,1:2|0:2|0:2,0:2:0:0:
272,15,75562,1,2,0:2:0:0:
304,23,75683,1,2,0:2:0:0:
336,31,75804,2,0,L|352:175,2,131.99999597168,2|0|8,1:2|0:2|0:2,0:2:0:0:
467,184,76530,1,2,1:2:0:0:
467,184,76651,1,10,1:2:0:0:
467,184,76772,5,2,1:2:0:0:
391,273,77014,2,0,L|415:337,2,65.9999979858399,2|0|10,0:2|0:2|0:2,0:0:0:0:
277,255,77498,2,0,L|233:306,2,65.9999979858399,2|2|2,0:2|0:2|1:2,0:0:0:0:
236,144,77982,1,2,0:2:0:0:
236,144,78103,1,2,0:2:0:0:
236,144,78224,2,0,P|208:120|106:123,1,131.99999597168,10|2,0:2|1:2,0:0:0:0:
92,139,78587,1,10,1:2:0:0:
76,168,78708,6,0,P|65:104|32:43,2,131.99999597168,2|0|8,1:2|0:2|0:2,0:2:0:0:
38,327,79434,1,0,0:2:0:0:
192,290,79676,2,0,P|256:300|317:333,2,131.99999597168,0|0|8,1:2|0:2|0:2,0:0:0:0:
38,327,80402,1,2,1:2:0:0:
32,295,80523,1,10,1:2:0:0:
26,262,80644,6,0,P|37:190|92:155,1,131.99999597168,6|0,1:2|0:0,0:2:0:0:
211,250,81128,1,10,0:2:0:0:
239,232,81249,2,0,P|303:227|366:268,1,131.99999597168,2|10,0:2|0:2,0:0:0:0:
377,289,81612,2,0,L|364:150,1,131.99999597168,2|2,1:2|1:2,0:2:0:0:
428,11,82096,1,8,0:2:0:0:
295,91,82338,1,2,1:2:0:0:
295,91,82459,1,10,1:2:0:0:
295,91,82580,6,0,P|242:53|177:43,1,131.99999597168,6|0,1:2|0:0,0:2:0:0:
8,148,83064,1,10,0:2:0:0:
38,134,83185,1,2,0:2:0:0:
70,136,83306,1,2,0:2:0:0:
99,153,83427,1,10,0:2:0:0:
115,180,83548,1,2,1:2:0:0:
241,277,83790,2,0,P|277:222|271:158,1,131.99999597168,2|8,1:2|0:2,0:2:0:0:
143,61,84274,2,0,P|176:31|217:31,1,65.9999979858399,2|10,1:2|1:2,0:0:0:0:
232,44,84516,6,0,P|309:47|371:78,7,131.99999597168,6|0|8|0|0|0|8|0,1:2|1:2|1:2|1:2|1:2|1:2|1:2|1:2,0:0:0:0:
372,39,86330,1,8,0:2:0:0:
404,49,86451,2,0,L|423:188,1,131.99999597168,4|0,1:2|0:2,0:2:0:0:
451,336,86935,6,0,L|495:271,2,65.9999979858399,10|0|0,0:2|0:0|0:2,0:2:0:0:
346,216,87419,1,2,1:2:0:0:
326,243,87540,2,0,L|334:308,1,65.9999979858399,8|0,1:2|0:0,0:2:0:0:
193,382,87903,2,0,P|124:349|59:368,1,131.99999597168,10|0,0:2|0:0,0:2:0:0:
43,343,88266,1,8,0:2:0:0:
13,326,88387,6,0,L|6:245,1,65.9999979858399,6|0,1:2|0:0,0:2:0:0:
96,128,88750,1,2,0:2:0:0:
120,105,88871,2,0,P|156:148|146:236,1,131.99999597168,10|2,0:2|0:2,0:2:0:0:
138,250,89234,1,2,0:2:0:0:
111,269,89355,2,0,P|169:257|252:289,1,131.99999597168,2|2,1:2|0:2,0:0:0:0:
359,379,89839,1,10,0:2:0:0:
455,255,90081,1,2,0:2:0:0:
455,255,90202,1,0,0:2:0:0:
455,255,90323,6,0,P|461:180|498:107,2,131.99999597168,2|0|8,1:2|0:2|0:2,0:2:0:0:
315,178,91049,1,2,0:2:0:0:
282,180,91170,1,2,0:2:0:0:
249,182,91291,2,0,L|117:193,2,131.99999597168,2|0|8,1:2|0:2|0:2,0:2:0:0:
384,95,92017,1,2,1:2:0:0:
384,95,92138,1,10,1:2:0:0:
384,95,92259,5,2,1:2:0:0:
243,24,92501,2,0,L|176:32,2,65.9999979858399,2|0|10,0:2|0:2|0:2,0:0:0:0:
384,95,92985,2,0,L|451:103,2,65.9999979858399,2|2|2,0:2|0:2|1:2,0:0:0:0:
249,182,93469,1,0,0:0:0:0:
95,143,93711,1,10,0:2:0:0:
117,168,93832,1,0,0:2:0:0:
127,199,93953,1,2,1:2:0:0:
123,232,94074,1,10,1:2:0:0:
107,260,94195,6,0,P|77:313|88:390,2,131.99999597168,2|0|8,1:2|0:2|0:2,0:2:0:0:
249,182,94921,1,0,0:2:0:0:
349,304,95163,2,0,P|409:303|471:255,2,131.99999597168,0|0|8,1:2|0:2|0:2,0:2:0:0:
249,182,95889,1,2,1:2:0:0:
240,151,96010,1,10,1:2:0:0:
254,121,96131,6,0,P|333:110|388:137,1,131.99999597168,6|0,1:2|0:0,0:2:0:0:
466,263,96615,1,10,0:2:0:0:
461,295,96736,1,2,0:2:0:0:
439,319,96857,1,2,0:2:0:0:
408,329,96978,1,10,0:2:0:0:
377,320,97099,1,2,1:2:0:0:
235,272,97340,2,0,P|170:266|111:292,1,131.99999597168,2|8,1:2|0:2,0:2:0:0:
39,163,97824,1,2,1:2:0:0:
39,163,97945,1,10,1:2:0:0:
39,163,98066,6,0,P|100:185|164:175,1,131.99999597168,6|0,1:2|0:0,0:2:0:0:
291,78,98550,1,10,0:2:0:0:
323,85,98671,1,2,0:2:0:0:
352,102,98792,1,2,0:2:0:0:
374,126,98913,1,10,0:2:0:0:
387,156,99034,1,2,1:2:0:0:
476,287,99276,2,0,L|344:336,1,131.99999597168,2|8,1:2|0:2,0:2:0:0:
206,271,99760,2,0,P|166:265|139:246,1,65.9999979858399,2|10,1:2|1:2,0:0:0:0:
140,212,100002,6,0,P|113:176|107:81,7,131.99999597168,6|0|8|0|0|0|8|0,1:2|1:2|1:2|1:2|1:2|1:2|1:2|1:2,0:0:0:0:
86,64,101817,1,8,0:2:0:0:
55,75,101938,2,0,P|24:132|27:197,1,131.99999597168,4|0,1:2|0:2,0:2:0:0:
149,299,102422,5,10,0:2:0:0:
269,192,102664,1,0,0:2:0:0:
269,192,102785,1,8,0:2:0:0:
269,192,102906,2,0,L|277:127,2,65.9999979858399,2|8|0,1:2|1:2|0:0,0:0:0:0:
369,315,103390,2,0,P|434:319|482:276,1,131.99999597168,10|0,1:2|0:0,0:2:0:0:
486,244,103753,1,0,0:0:0:0:
490,212,103874,6,0,P|447:182|437:100,1,131.99999597168,6|0,1:2|0:0,0:2:0:0:
277,127,104358,2,0,P|212:150|140:136,1,131.99999597168,10|2,0:2|0:2,0:2:0:0:
121,126,104721,1,0,0:0:0:0:
101,100,104842,1,2,1:2:0:0:
6,227,105084,1,0,0:0:0:0:
26,253,105205,1,2,0:2:0:0:
46,279,105326,2,0,P|104:248|169:253,1,131.99999597168,10|2,0:2|0:2,0:2:0:0:
297,345,105810,6,0,P|310:273|337:210,2,131.99999597168,2|0|8,1:2|0:0|0:2,0:2:0:0:
456,343,106536,2,0,P|475:307|506:280,2,65.9999979858399,2|0|2,0:2|0:0|1:2,0:2:0:0:
350,239,107020,1,0,0:2:0:0:
350,239,107141,1,0,0:0:0:0:
350,239,107262,2,0,L|205:259,1,131.99999597168,8|2,0:2|1:2,0:0:0:0:
197,282,107625,1,10,1:2:0:0:
164,279,107746,6,0,L|95:273,1,65.9999979858399,2|0,1:2|0:0,0:2:0:0:
126,102,108109,1,0,0:2:0:0:
154,118,108230,2,0,P|217:107|249:52,1,131.99999597168,10|2,0:2|0:2,0:2:0:0:
278,35,108593,1,2,0:2:0:0:
306,19,108714,2,0,L|441:41,1,131.99999597168,2|0,1:2|0:0,0:2:0:0:
496,187,109198,2,0,P|449:183|412:204,1,65.9999979858399,10|0,0:2|0:2,0:0:0:0:
395,175,109440,2,0,P|370:195|356:225,1,65.9999979858399,2|10,1:2|1:2,0:0:0:0:
321,244,109681,6,0,P|336:280|348:392,2,131.99999597168,2|0|8,1:2|0:2|0:2,0:2:0:0:
173,184,110407,2,0,P|125:204|102:230,2,65.9999979858399,0|0|0,0:2|0:0|1:2,0:2:0:0:
301,87,110891,1,0,0:2:0:0:
301,87,111012,1,0,0:2:0:0:
301,87,111133,1,8,0:2:0:0:
321,244,111375,1,2,1:2:0:0:
349,262,111496,1,10,1:2:0:0:
377,280,111617,6,0,P|446:274|502:239,1,131.99999597168,6|0,1:2|0:0,0:2:0:0:
457,88,112101,1,10,0:2:0:0:
431,69,112222,1,2,0:2:0:0:
400,59,112343,1,2,0:2:0:0:
367,60,112464,1,10,0:2:0:0:
336,71,112585,1,2,1:2:0:0:
208,162,112827,2,0,L|190:31,1,131.99999597168,2|8,1:2|0:2,0:2:0:0:
47,98,113311,1,2,1:2:0:0:
47,98,113432,1,10,1:2:0:0:
47,98,113553,6,0,L|66:228,1,131.99999597168,6|0,1:2|0:0,0:2:0:0:
185,335,114037,1,10,0:2:0:0:
207,311,114158,1,2,0:2:0:0:
236,297,114279,1,2,0:2:0:0:
269,294,114400,1,10,0:2:0:0:
300,304,114521,1,2,1:2:0:0:
438,382,114763,2,0,L|444:301,2,65.9999979858399,2|0|8,1:2|0:0|0:2,0:0:0:0:
504,237,115247,2,0,P|477:217|444:213,1,65.9999979858399,2|10,1:2|1:2,0:0:0:0:
412,191,115489,6,0,P|370:195|291:257,7,131.99999597168,6|0|8|0|0|0|8|0,1:2|1:2|1:2|1:2|1:2|1:2|1:2|1:2,0:0:0:0:
301,279,117304,1,8,0:2:0:0:
276,301,117425,2,0,P|209:319|146:285,1,131.99999597168,4|0,1:2|0:2,0:2:0:0:
24,202,117909,6,0,P|12:244|21:279,2,65.9999979858399,10|0|0,0:2|0:0|0:2,0:2:0:0:
142,95,118393,1,2,1:2:0:0:
170,112,118514,2,0,P|234:116|285:77,1,131.99999597168,8|0,0:2|1:2,0:0:0:0:
316,91,118877,2,0,P|365:133|398:28,1,197.99999395752,10|8,0:2|1:2,0:0:0:0:
435,17,119361,6,0,P|458:69|428:146,1,131.99999597168,14|0,1:2|0:0,0:0:0:0:
311,247,119845,2,0,B|263:242|263:242|237:255|237:255|149:244,1,165,8|0,0:0|0:0,0:0:0:0:
128,226,120329,2,0,P|80:222|63:333,2,165,2|0|2,0:0|0:0|0:0,0:0:0:0:
151,211,121176,1,8,0:0:0:0:
175,196,121297,6,0,P|151:146|154:92,1,110,2|0,0:0|0:0,0:0:0:0:
283,120,121781,2,0,P|314:74|363:50,1,110,8|0,0:0|0:0,0:0:0:0:
480,110,122264,1,2,0:0:0:0:
486,137,122385,1,0,0:0:0:0:
486,165,122506,1,0,0:0:0:0:
479,191,122627,1,0,0:0:0:0:
466,215,122748,1,8,0:0:0:0:
335,201,122990,1,2,0:0:0:0:
335,201,123111,1,8,0:0:0:0:
335,201,123232,6,0,L|346:317,1,110
223,359,123716,2,0,L|212:243,1,110,8|0,0:0|0:0,0:0:0:0:
82,229,124200,2,0,L|93:345,1,110,2|0,0:0|0:0,0:0:0:0:
223,359,124684,2,0,L|212:243,1,110,8|2,0:0|0:0,0:0:0:0:
227,226,125047,1,8,0:0:0:0:
241,202,125168,6,0,P|287:232|341:236,1,110,2|0,0:0|0:0,0:0:0:0:
451,160,125652,1,8,0:0:0:0:
439,135,125773,1,0,0:0:0:0:
432,108,125894,1,0,0:0:0:0:
432,81,126015,1,0,0:0:0:0:
438,54,126136,2,0,P|373:83|326:82,1,110,2|0,0:0|0:0,0:0:0:0:
314,65,126499,1,2,0:0:0:0:
293,47,126620,2,0,P|242:41|198:100,1,110,8|0,0:0|0:0,0:0:0:0:
72,55,127104,6,0,P|94:105|103:159,1,110,6|0,0:0|0:0,0:0:0:0:
88,291,127588,2,0,B|174:304|167:246|246:259,1,165,8|0,0:0|0:0,0:0:0:0:
263,281,128072,2,0,P|310:353|376:327,2,165,2|0|2,0:0|0:0|0:0,0:0:0:0:
272,255,128919,1,8,0:0:0:0:
287,231,129040,6,0,P|331:213|406:223,1,110,2|0,0:0|0:0,0:0:0:0:
497,133,129524,2,0,P|455:97|402:84,1,110,8|0,0:0|0:0,0:0:0:0:
284,26,130008,1,2,0:0:0:0:
268,49,130129,1,0,0:0:0:0:
246,66,130250,1,0,0:0:0:0:
221,75,130371,1,0,0:0:0:0:
193,76,130492,1,8,0:0:0:0:
69,33,130734,1,2,0:0:0:0:
69,33,130855,1,8,0:0:0:0:
69,33,130976,6,0,L|84:148,1,110,6|0,0:0|0:0,0:0:0:0:
27,261,131460,2,0,L|35:315,2,55,8|0|0,0:0|0:0|0:0,0:0:0:0:
84,142,131944,2,0,P|134:121|188:126,1,110,2|0,0:0|0:0,0:0:0:0:
296,203,132428,2,0,P|334:215|365:205,2,55,8|0|2,0:0|0:0|0:0,0:0:0:0:
189,126,132912,6,0,P|163:173|166:228,1,110,6|0,0:0|0:0,0:0:0:0:
219,349,133396,1,8,0:0:0:0:
238,329,133517,2,0,P|289:309|342:321,1,110
361,342,133880,1,2,0:0:0:0:
380,323,134001,2,0,P|400:272|388:219,1,110,0|2,0:0|0:0,0:0:0:0:
368,200,134363,2,0,P|353:151|395:105,1,110,8|0,0:0|0:0,0:0:0:0:
414,104,134726,1,8,0:0:0:0:
439,115,134847,2,0,P|454:52|444:4,1,110,2|0,0:0|0:0,0:0:0:0:
256,192,135331,12,0,142591,0:0:0:0:
