osu file format v14

[General]
AudioFilename: audio.mp3
AudioLeadIn: 0
PreviewTime:71812
Countdown: 0
SampleSet: Soft
StackLeniency: 0.5
Mode: 0
LetterboxInBreaks: 0
WidescreenStoryboard: 0

[Editor]
DistanceSpacing: 0.95
BeatDivisor: 4
GridSize: 4
TimelineZoom: 2.340001

[Metadata]
Title:promise
TitleUnicode:promise
Artist:Hirose Kohmi
ArtistUnicode:広瀬香美
Creator:Luscent
Version:Dailycare's Insane
Source:
Tags:get down geddan kawashiro nitori cut short ver japanese pop jpop 404 aimnotfound enon kalibe black man fixxis firika evilelvis v2 elvis jounzan natteke desu dailycare morinaga yokespai yokes
BeatmapID:2390351
BeatmapSetID:1094694

[Difficulty]
HPDrainRate:5
CircleSize:4
OverallDifficulty:8
ApproachRate:8.5
SliderMultiplier:2.44
SliderTickRate:0.5

[Events]
//Background and Video events
0,0,"bg.jpg"
//Break Periods
//Storyboard Layer 0 (Background)
//Storyboard Layer 1 (Fail)
//Storyboard Layer 2 (Pass)
//Storyboard Layer 3 (Foreground)
//Storyboard Layer 4 (Overlay)
//Storyboard Sound Samples

[TimingPoints]
10954,483.960734652395,4,2,5,52,1,0
10954,-166.666666666667,4,2,5,52,0,0
17729,-166.666666666667,4,2,5,59,0,0
24504,-125,4,2,5,59,0,0
25472,-125,4,2,3,74,0,0
25714,-100,4,2,3,74,0,0
39991,-100,4,2,1,74,0,0
41685,-125,4,2,1,59,0,0
65157,-125,4,2,1,64,0,0
71449,-125,4,2,1,70,0,0
72417,-125,4,2,1,74,0,0
72900,-100,4,2,3,74,0,1
88145,-100,4,2,3,74,0,0
88387,-100,4,2,3,74,0,1
103632,-100,4,2,3,74,0,0
103874,-100,4,2,3,74,0,1
119119,-100,4,2,3,74,0,0
119361,-100,4,2,3,74,0,1
119482,-100,4,2,3,50,0,0
123232,-100,4,2,3,35,0,0

[Colours]
Combo1 : 17,254,176
Combo2 : 173,255,95
Combo3 : 255,88,100
Combo4 : 255,94,55

[HitObjects]
507,80,10954,6,0,P|476:100|427:107,1,73.1999977661134,2|0,0:0|0:0,0:0:0:0:
419,193,11437,2,0,P|382:189|340:162,1,73.1999977661134,0|0,1:0|0:0,0:0:0:0:
278,223,11921,2,0,P|252:196|236:149,1,73.1999977661134
98,106,12405,5,0,1:0:0:0:
98,106,12647,1,2,0:0:0:0:
259,27,12889,6,0,P|219:45|179:111,1,109.79999664917,2|0,0:0|0:0,0:0:0:0:
108,179,13373,2,0,L|97:97,1,73.1999977661134,0|2,1:0|0:0,0:0:0:0:
20,160,13736,2,0,L|22:141,2,18.2999994415283,2|2|2,0:0|0:0|0:0,0:0:0:0:
267,174,14099,6,0,L|187:187,2,73.1999977661134,0|0|0,0:0|1:0|0:0,0:0:0:0:
502,303,14825,6,0,P|480:279|435:265,1,73.1999977661134,2|0,0:0|0:0,0:0:0:0:
415,184,15309,2,0,P|383:185|343:210,1,73.1999977661134,0|0,1:0|0:0,0:0:0:0:
267,174,15793,2,0,P|247:199|241:246,1,73.1999977661134
78,266,16277,5,2,1:2:0:0:
107,341,16398,2,0,L|113:377,2,36.5999988830567,2|2|2,0:2|0:2|0:2,0:0:0:0:
28,329,16761,6,0,L|318:280,1,292.799991064453,2|2,0:0|0:0,0:0:0:0:
316,280,18213,5,2,0:0:0:0:
316,280,18697,6,0,P|378:320|413:389,1,146.399995532227,2|0,0:0|1:0,0:0:0:0:
475,327,19302,2,0,L|524:320,2,36.5999988830567,2|2|2,0:0|0:0|0:0,0:0:0:0:
428,260,19665,2,0,P|432:222|444:188,2,73.1999977661134,2|2|0,0:0|0:0|1:0,0:0:0:0:
295,55,20391,5,2,0:0:0:0:
379,23,20633,2,0,L|365:177,1,146.399995532227,2|0,0:0|1:0,0:0:0:0:
287,176,21238,2,0,L|281:140,2,36.5999988830567,2|2|2,0:0|0:0|0:0,0:0:0:0:
215,207,21601,2,0,L|178:130,2,73.1999977661134,2|2|0,0:0|0:0|1:0,0:0:0:0:
443,189,22327,5,2,0:0:0:0:
465,280,22569,2,0,P|433:270|391:266,1,73.1999977661134,2|2,0:0|0:0,0:0:0:0:
425,99,23053,2,0,P|457:109|499:113,1,73.1999977661134,2|2,1:2|0:0,0:0:0:0:
271,162,23536,5,2,0:0:0:0:
335,207,23657,2,0,P|296:238|275:240,1,73.1999977661134
220,293,24020,2,0,P|181:262|160:260,1,73.1999977661134,2|2,1:2|0:0,0:0:0:0:
112,197,24383,2,0,L|72:202,1,36.5999988830567,0|2,0:0|0:0,0:0:0:0:
76,202,24746,6,0,L|63:353,2,146.4,0|0|0,0:0|1:2|1:2,0:0:0:0:
5,155,25593,5,8,1:2:0:0:
102,121,25714,2,0,L|91:45,1,61,8|0,1:2|0:0,0:0:0:0:
22,16,25956,2,0,L|13:76,1,61,8|0,1:2|1:2,0:0:0:0:
184,158,26198,5,8,1:2:0:0:
184,158,26319,1,8,1:2:0:0:
222,86,26440,6,0,P|273:76|378:159,1,183,4|0,0:0|0:0,0:0:0:0:
461,81,26924,2,0,L|481:206,1,122,10|0,0:0|0:0,0:0:0:0:
438,266,27287,1,0,0:0:0:0:
481,202,27408,6,0,B|406:200|440:236|358:232,1,122,2|0,0:0|0:0,0:0:0:0:
318,299,27771,2,0,B|243:301|277:265|195:269,1,122,2|0,0:0|0:0,0:0:0:0:
140,217,28134,2,0,L|60:229,1,61,2|8,0:0|0:0,0:0:0:0:
4,306,28376,6,0,B|82:321|151:358|151:358|190:340|188:274,2,244,2|10|2,0:0|0:0|0:0,0:0:0:0:
130,156,29586,6,0,L|139:216,1,61
316,129,29828,1,10,0:0:0:0:
316,129,29949,1,0,0:0:0:0:
316,129,30070,2,0,L|306:189,1,61,0|8,0:0|0:0,0:0:0:0:
222,187,30312,6,0,L|249:-9,1,183,2|0,0:0|0:0,0:0:0:0:
158,69,30796,2,0,L|12:91,1,122,8|0,0:0|0:0,0:0:0:0:
130,156,31159,2,0,L|276:178,1,122
138,239,31522,2,0,L|-8:261,2,122,0|8|2,0:0|0:0|0:0,0:0:0:0:
115,323,32127,5,2,0:0:0:0:
115,323,32248,2,0,P|191:367|301:347,1,183,2|0,0:0|0:0,0:0:0:0:
360,372,32732,2,0,P|343:305|290:278,1,122,8|0,0:0|0:0,0:0:0:0:
173,173,33216,5,0,0:0:0:0:
335,141,33458,2,0,P|338:168|321:208,1,61
328,200,33700,2,0,P|259:205|223:252,1,122,8|0,0:0|0:0,0:0:0:0:
0,14,34184,6,0,P|76:32|164:103,1,183,4|0,0:0|0:0,0:0:0:0:
226,242,34668,2,0,L|241:120,1,122,10|0,0:0|0:0,0:0:0:0:
219,42,35031,1,0,0:0:0:0:
240,120,35152,6,0,P|287:149|363:134,1,122,2|0,0:0|0:0,0:0:0:0:
411,198,35515,2,0,P|459:171|484:98,1,122,2|0,0:0|0:0,0:0:0:0:
493,33,35877,2,0,P|453:35|427:65,1,61,2|8,0:0|0:0,0:0:0:0:
411,198,36119,6,0,B|441:346|441:346|401:360|347:389,2,244,2|10|2,0:0|0:0|0:0,0:0:0:0:
279,361,37329,6,0,L|289:295,1,61
223,176,37571,1,10,0:0:0:0:
223,176,37692,1,0,0:0:0:0:
223,176,37813,2,0,L|233:242,1,61,0|8,0:0|0:0,0:0:0:0:
283,73,38055,6,0,P|212:55|146:131,1,183,2|0,0:0|0:0,0:0:0:0:
52,48,38539,2,0,L|73:194,1,122,8|0,0:0|0:0,0:0:0:0:
123,334,38902,2,0,L|140:213,1,122,8|8,0:0|0:0,0:0:0:0:
56,252,39265,5,0,0:0:0:0:
202,352,39507,1,8,0:0:0:0:
302,206,39749,1,0,0:0:0:0:
156,106,39991,1,4,0:0:0:0:
156,106,40475,6,0,L|180:246,1,122,4|0,2:0|0:0,0:0:0:0:
202,352,40838,1,8,0:0:0:0:
286,369,41201,5,2,0:0:0:0:
131,295,41443,1,2,0:0:0:0:
176,226,41685,2,0,L|372:204,1,195.2,6|2,1:2|0:0,0:0:0:0:
432,151,42411,5,10,0:0:0:0:
405,277,42653,1,2,0:0:0:0:
466,224,42895,1,2,0:2:0:0:
366,109,43137,2,0,L|377:10,1,97.6,2|8,0:0|0:0,0:0:0:0:
305,244,43621,5,2,0:0:0:0:
305,244,43742,1,0,0:0:0:0:
305,244,43863,2,0,L|325:347,1,97.6,0|2,0:0|0:0,0:0:0:0:
252,379,44347,1,10,0:0:0:0:
202,308,44589,1,2,0:0:0:0:
74,164,44831,5,2,0:0:0:0:
173,103,45073,2,0,L|154:199,1,97.6,2|8,0:0|0:0,0:0:0:0:
109,355,45557,5,2,0:0:0:0:
109,355,45678,1,10,0:0:0:0:
109,355,45799,2,0,L|72:157,1,195.2,2|8,0:0|0:0,0:0:0:0:
200,28,46525,5,2,0:0:0:0:
200,28,46646,1,2,0:0:0:0:
200,28,46767,2,0,L|237:226,1,195.2,2|8,0:0|0:0,0:0:0:0:
411,293,47493,5,0,0:0:0:0:
411,293,47614,1,8,0:0:0:0:
411,293,47735,2,0,L|374:95,2,195.2,2|8|0,0:0|0:0|0:0,0:0:0:0:
478,220,48944,5,2,0:0:0:0:
304,156,49186,1,10,0:0:0:0:
463,48,49428,1,6,0:0:0:0:
463,48,49549,1,0,0:0:0:0:
463,48,49670,2,0,L|443:161,1,97.6,0|2,0:0|0:0,0:0:0:0:
396,207,50154,5,10,0:0:0:0:
290,76,50396,1,2,0:0:0:0:
304,156,50638,1,2,0:0:0:0:
375,112,50880,2,0,L|362:14,1,97.6,2|8,0:0|0:0,0:0:0:0:
250,218,51364,5,2,0:0:0:0:
250,218,51485,1,0,0:0:0:0:
250,218,51606,1,0,0:0:0:0:
128,105,51848,2,0,L|226:134,1,97.6,2|8,0:0|0:0,0:0:0:0:
342,277,52332,2,0,L|244:306,1,97.6,2|0,0:0|0:0,0:0:0:0:
66,379,52816,5,2,0:0:0:0:
171,228,53058,1,8,0:0:0:0:
188,358,53300,6,0,L|122:337,1,48.8,2|8,0:0|0:0,0:0:0:0:
99,273,53542,2,0,L|62:75,1,195.2,2|8,0:0|0:0,0:0:0:0:
214,26,54268,5,2,0:0:0:0:
214,26,54389,1,2,0:0:0:0:
214,26,54510,2,0,L|251:224,1,195.2,2|8,0:0|0:0,0:0:0:0:
410,292,55236,5,2,0:0:0:0:
410,292,55357,1,2,0:0:0:0:
410,292,55478,2,0,L|373:94,2,195.2,2|8|0,0:0|0:0|0:0,0:0:0:0:
410,292,56567,2,0,L|523:268,1,97.6,8|0,0:0|0:0,0:0:0:0:
321,243,56930,2,0,L|208:219,1,97.6,8|0,0:0|0:0,0:0:0:0:
225,222,57293,1,8,0:0:0:0:
225,222,57414,1,4,0:0:0:0:
96,275,57656,5,0,0:0:0:0:
188,384,57898,2,0,P|187:340|167:270,1,97.6,10|0,0:2|0:0,0:0:0:0:
6,343,58382,2,0,P|7:294|19:247,1,97.6,2|0,0:0|0:0,0:0:0:0:
71,115,58866,1,8,0:0:0:0:
90,201,59108,1,2,0:0:0:0:
90,201,59229,1,8,0:0:0:0:
90,201,59350,1,0,0:0:0:0:
6,164,59592,5,0,0:0:0:0:
138,45,59834,2,0,L|153:154,1,97.6,10|0,0:0|0:0,0:0:0:0:
212,272,60317,2,0,L|225:175,1,97.6,2|0,0:0|0:0,0:0:0:0:
356,125,60801,1,8,0:0:0:0:
279,112,61043,1,2,0:0:0:0:
279,112,61164,1,8,0:0:0:0:
279,112,61285,1,0,0:0:0:0:
308,194,61527,5,0,0:0:0:0:
212,272,61769,2,0,P|135:288|63:304,1,146.4,10|0,0:0|0:0,0:0:0:0:
68,302,62253,2,0,P|69:252|78:203,1,97.6,2|0,0:0|0:0,0:0:0:0:
77,205,62616,1,2,0:0:0:0:
77,205,62737,1,8,0:0:0:0:
226,138,62979,1,2,0:0:0:0:
123,19,63221,6,0,L|154:178,1,146.4,2|2,0:0|0:0,0:0:0:0:
151,162,63705,1,8,0:0:0:0:
270,208,63947,1,2,0:0:0:0:
388,253,64189,1,0,0:0:0:0:
388,253,64310,2,0,P|405:211|407:101,1,146.4,8|8,0:0|0:0,0:0:0:0:
314,286,64915,5,2,0:0:0:0:
314,286,65036,1,10,0:0:0:0:
314,286,65157,2,0,P|308:336|331:401,1,97.6,6|0,0:0|0:0,0:0:0:0:
396,355,65641,1,8,0:0:0:0:
234,301,65883,1,2,0:0:0:0:
262,214,66125,6,0,L|52:260,1,195.2,0|10,0:0|0:0,0:0:0:0:
171,155,66851,5,0,0:0:0:0:
171,155,66972,1,8,0:0:0:0:
171,155,67093,2,0,L|159:46,1,97.6,2|0,0:0|0:0,0:0:0:0:
89,175,67577,1,8,0:0:0:0:
234,301,67819,1,2,0:0:0:0:
361,196,68061,6,0,L|151:150,1,195.2,0|10,0:0|0:0,0:0:0:0:
14,361,68787,5,0,0:0:0:0:
14,361,68908,1,8,0:0:0:0:
14,361,69029,2,0,L|167:328,1,146.4,2|0,0:0|0:0,0:0:0:0:
157,330,69513,1,8,0:0:0:0:
319,271,69876,5,8,0:0:0:0:
319,271,69997,1,0,0:0:0:0:
222,216,70239,1,0,0:0:0:0:
318,183,70481,1,8,0:0:0:0:
248,143,70723,2,0,L|239:81,1,48.8,8|8,0:0|0:0,0:0:0:0:
354,5,70965,5,8,0:0:0:0:
413,57,71207,1,0,0:0:0:0:
485,37,71449,1,12,0:0:0:0:
485,347,71933,5,2,0:0:0:0:
412,328,72054,1,0,0:0:0:0:
354,379,72175,1,0,0:0:0:0:
279,185,72417,5,8,0:0:0:0:
169,316,72658,5,0,0:0:0:0:
169,316,72779,1,0,0:0:0:0:
169,316,72900,2,0,P|221:309|274:259,1,122,6|2,1:2|0:2,0:2:0:0:
271,263,73263,1,2,0:2:0:0:
357,269,73384,6,0,P|310:244|277:179,1,122,10|2,0:2|0:2,0:2:0:0:
278,184,73747,1,2,0:2:0:0:
230,124,73868,6,0,P|268:78|274:18,1,122,2|2,1:2|0:2,0:2:0:0:
274,18,74231,1,2,0:2:0:0:
274,18,74352,1,10,0:2:0:0:
199,199,74594,5,2,0:2:0:0:
10,33,74836,2,0,P|83:53|153:139,1,183,2|0,1:2|0:2,0:2:0:0:
150,132,75320,1,8,0:2:0:0:
179,379,75562,5,2,0:2:0:0:
179,379,75683,1,2,0:2:0:0:
96,357,75804,2,0,P|182:329|248:266,1,183,2|0,1:2|0:2,0:2:0:0:
248,266,76288,1,8,0:2:0:0:
347,36,76530,6,0,L|368:101,2,61,2|10|2,1:2|1:2|1:2,0:0:0:0:
448,91,77014,2,0,L|434:157,2,61,2|0|10,0:2|0:2|0:2,0:0:0:0:
508,191,77498,2,0,L|462:242,2,61,2|2|2,0:2|0:2|1:2,0:0:0:0:
509,307,77982,6,0,L|443:328,2,61,2|2|10,0:2|0:2|1:2,0:0:0:0:
324,368,78466,1,2,1:2:0:0:
292,365,78587,1,10,1:2:0:0:
266,347,78708,6,0,P|251:257|230:157,1,183,2|0,1:2|0:2,0:2:0:0:
232,167,79192,1,8,0:2:0:0:
335,253,79434,5,0,0:2:0:0:
335,253,79555,1,0,0:2:0:0:
335,253,79676,1,0,1:2:0:0:
181,325,79918,1,0,0:2:0:0:
157,238,80160,1,8,0:2:0:0:
317,164,80402,5,2,1:2:0:0:
317,164,80523,1,10,1:2:0:0:
317,164,80644,2,0,L|498:190,1,183,6|0,1:2|0:2,0:2:0:0:
512,114,81128,2,0,L|500:46,1,61,10|2,0:2|0:2,0:0:0:0:
420,39,81370,2,0,L|430:99,1,61,2|10,0:2|0:2,0:0:0:0:
416,180,81612,6,0,L|443:316,2,122,2|2|8,1:2|1:2|0:2,0:2:0:0:
234,129,82338,5,2,1:2:0:0:
234,129,82459,1,10,1:2:0:0:
234,129,82580,2,0,L|53:155,1,183,6|0,1:2|0:2,0:2:0:0:
39,79,83064,2,0,L|51:11,1,61,10|2,0:2|0:2,0:0:0:0:
131,4,83306,2,0,L|120:64,1,61,2|10,0:2|0:2,0:0:0:0:
135,145,83548,6,0,L|108:281,2,122,2|2|8,1:2|1:2|0:2,0:2:0:0:
10,351,84274,6,0,L|75:335,1,61,2|10,1:2|1:2,0:0:0:0:
69,336,84516,5,6,1:2:0:0:
178,374,84758,1,0,1:2:0:0:
224,268,84999,1,8,1:2:0:0:
113,233,85241,1,0,1:2:0:0:
154,124,85483,1,0,1:2:0:0:
265,157,85725,1,0,1:2:0:0:
311,50,85967,1,8,1:2:0:0:
206,28,86209,5,0,1:2:0:0:
206,28,86330,1,8,0:2:0:0:
206,28,86451,2,0,L|12:50,1,183,4|0,1:2|0:2,0:2:0:0:
24,48,86935,1,10,0:2:0:0:
173,170,87177,1,0,0:2:0:0:
55,277,87419,5,2,1:2:0:0:
6,215,87540,2,0,L|152:240,1,122,8|0,1:2|1:2,0:2:0:0:
90,348,87903,2,0,P|117:332|166:315,1,61,10|0,0:2|0:0,0:2:0:0:
118,142,88145,2,0,P|145:158|194:175,1,61,0|8,0:0|0:2,0:0:0:0:
226,370,88387,6,0,L|252:188,1,183,6|2,1:2|0:2,0:2:0:0:
338,251,88871,6,0,L|323:128,1,122,10|2,0:2|0:2,0:2:0:0:
323,129,89234,1,2,0:2:0:0:
404,110,89355,6,0,L|347:0,1,122,2|2,1:2|0:2,0:0:0:0:
348,0,89718,1,2,0:2:0:0:
348,0,89839,1,10,0:2:0:0:
485,131,90081,5,2,0:2:0:0:
391,366,90323,2,0,P|421:310|424:178,1,183,2|0,1:2|0:2,0:2:0:0:
427,192,90807,1,8,0:2:0:0:
172,169,91049,5,2,0:2:0:0:
172,169,91170,1,2,0:2:0:0:
156,243,91291,2,0,P|126:187|123:55,1,183,2|0,1:2|0:2,0:2:0:0:
119,69,91775,1,8,0:2:0:0:
0,274,92017,6,0,P|31:283|71:288,2,61,2|10|2,1:2|1:2|1:2,0:0:0:0:
116,351,92501,2,0,P|145:339|180:318,2,61,2|0|10,0:2|0:2|0:2,0:0:0:0:
254,340,92985,2,0,P|270:312|284:274,2,61,2|2|2,0:2|0:2|1:2,0:0:0:0:
356,246,93469,6,0,P|351:214|339:175,1,61,2|2,0:2|0:2,0:0:0:0:
390,118,93711,1,10,0:2:0:0:
360,99,93832,1,0,0:2:0:0:
340,69,93953,1,2,1:2:0:0:
334,36,94074,1,10,1:2:0:0:
343,4,94195,6,0,P|419:2|504:89,1,183,2|0,1:2|0:2,0:2:0:0:
496,68,94679,1,8,0:2:0:0:
430,203,94921,5,0,0:2:0:0:
430,203,95042,1,0,0:2:0:0:
430,203,95163,1,0,1:2:0:0:
443,284,95405,1,0,0:2:0:0:
496,149,95647,1,8,0:2:0:0:
385,78,95889,5,2,1:2:0:0:
385,78,96010,1,10,1:2:0:0:
385,78,96131,2,0,P|309:76|224:163,1,183,6|0,1:2|0:2,0:2:0:0:
165,194,96615,2,0,L|103:185,1,61,10|2,0:2|0:2,0:0:0:0:
239,233,96857,2,0,L|301:224,1,61,2|10,0:2|0:2,0:0:0:0:
231,142,97099,6,0,P|205:87|159:47,2,122,2|2|8,1:2|1:2|0:2,0:2:0:0:
222,319,97824,5,2,1:2:0:0:
222,319,97945,1,10,1:2:0:0:
222,319,98066,2,0,P|298:321|383:234,1,183,6|0,1:2|0:2,0:2:0:0:
442,203,98550,2,0,L|504:212,1,61,10|2,0:2|0:2,0:0:0:0:
368,164,98792,2,0,L|306:173,1,61,2|10,0:2|0:2,0:0:0:0:
376,255,99034,6,0,P|401:309|447:349,2,122,2|2|8,1:2|1:2|0:2,0:2:0:0:
334,352,99760,6,0,L|269:336,1,61,2|10,1:2|1:2,0:0:0:0:
274,337,100002,5,6,1:2:0:0:
164,373,100244,1,0,1:2:0:0:
122,265,100485,1,8,1:2:0:0:
233,232,100727,1,0,1:2:0:0:
191,123,100969,1,0,1:2:0:0:
78,151,101211,1,0,1:2:0:0:
37,42,101453,1,8,1:2:0:0:
157,23,101695,5,0,1:2:0:0:
157,23,101817,1,8,0:2:0:0:
157,23,101938,2,0,L|185:214,1,183,4|0,1:2|0:2,0:2:0:0:
183,204,102422,1,10,0:2:0:0:
90,109,102664,1,0,0:2:0:0:
292,20,102906,5,2,1:2:0:0:
325,89,103027,2,0,P|286:127|205:124,1,122,8|0,1:2|1:2,0:0:0:0:
221,131,103390,1,10,1:2:0:0:
75,299,103632,2,0,L|142:310,1,61
302,317,103874,6,0,P|264:259|132:240,1,183,6|2,1:2|0:2,0:2:0:0:
3,208,104358,6,0,P|36:172|114:163,1,122,10|2,0:2|0:2,0:2:0:0:
105,160,104721,1,0,0:0:0:0:
177,120,104842,6,0,P|150:78|75:56,1,122,2|0,1:2|0:0,0:2:0:0:
84,56,105205,1,2,0:2:0:0:
84,56,105326,1,10,0:2:0:0:
158,231,105568,5,2,0:2:0:0:
204,13,105810,2,0,P|293:16|361:75,1,183,2|0,1:2|0:2,0:2:0:0:
361,75,106294,1,8,0:2:0:0:
158,231,106536,5,2,0:2:0:0:
158,231,106657,1,0,0:0:0:0:
226,271,106778,2,0,P|136:274|68:333,1,183,2|0,1:2|0:0,0:0:0:0:
68,332,107262,1,8,0:2:0:0:
194,159,107504,6,0,L|268:173,2,61,2|10|2,1:2|1:2|1:2,0:0:0:0:
226,271,107988,2,0,L|297:246,2,61,0|0|10,0:0|0:2|0:2,0:0:0:0:
309,351,108472,2,0,L|358:293,2,61,2|2|2,0:2|0:2|1:2,0:0:0:0:
420,378,108956,6,0,L|434:304,1,61,0|2,0:0|0:2,0:0:0:0:
502,279,109198,5,10,0:2:0:0:
497,252,109319,1,0,0:2:0:0:
492,225,109440,1,2,1:2:0:0:
487,195,109560,1,10,1:2:0:0:
481,165,109681,6,0,L|298:197,1,183,2|0,1:2|0:0,0:2:0:0:
300,196,110165,1,8,0:2:0:0:
209,58,110407,5,0,0:2:0:0:
209,58,110528,1,0,0:0:0:0:
209,58,110649,1,0,1:2:0:0:
250,266,110891,1,0,0:2:0:0:
250,266,111012,1,0,0:2:0:0:
250,266,111133,1,8,0:2:0:0:
312,115,111375,5,2,1:2:0:0:
312,115,111496,1,10,1:2:0:0:
312,115,111617,2,0,L|120:82,1,183,6|0,1:2|0:0,0:2:0:0:
45,53,112101,2,0,L|58:135,1,61,10|2,0:2|0:2,0:0:0:0:
129,227,112343,2,0,L|119:166,1,61,2|10,0:2|0:2,0:0:0:0:
42,194,112585,6,0,L|63:335,2,122,2|2|8,1:2|1:2|0:2,0:2:0:0:
209,185,113311,5,2,1:2:0:0:
209,185,113432,1,10,1:2:0:0:
209,185,113553,2,0,L|401:152,1,183,6|0,1:2|0:0,0:2:0:0:
476,123,114037,2,0,L|463:205,1,61,10|2,0:2|0:2,0:0:0:0:
392,297,114279,2,0,L|401:236,1,61,2|10,0:2|0:2,0:0:0:0:
479,264,114521,6,0,L|457:405,2,122,2|2|8,1:2|1:2|0:2,0:2:0:0:
260,380,115247,6,0,L|249:300,1,61,2|10,1:2|1:2,0:0:0:0:
241,298,115489,5,6,1:2:0:0:
350,261,115731,1,0,1:2:0:0:
388,154,115973,1,8,1:2:0:0:
329,57,116215,1,0,1:2:0:0:
217,41,116457,1,0,1:2:0:0:
134,121,116699,1,0,1:2:0:0:
145,235,116941,1,8,1:2:0:0:
241,298,117183,5,0,1:2:0:0:
241,298,117304,1,8,0:2:0:0:
241,298,117425,2,0,L|261:106,1,183,4|0,1:2|0:2,0:2:0:0:
259,116,117909,1,10,0:2:0:0:
180,384,118151,1,0,0:2:0:0:
361,181,118393,5,2,1:2:0:0:
417,235,118514,2,0,L|397:100,1,122,8|0,0:2|1:2,0:0:0:0:
333,75,118877,2,0,L|345:-1,1,61,10|0,0:2|0:0,0:0:0:0:
177,162,119119,2,0,L|165:86,1,61,0|8,1:0|1:2,0:0:0:0:
97,65,119361,5,14,1:2:0:0:
256,192,119482,12,0,123232,0:0:0:0:
