osu file format v14

[General]
AudioFilename: audio.mp3
AudioLeadIn: 0
PreviewTime: 20540
Countdown: 0
SampleSet: Soft
StackLeniency: 0.7
Mode: 3
LetterboxInBreaks: 0
SpecialStyle: 0
WidescreenStoryboard: 1

[Editor]
DistanceSpacing: 1
BeatDivisor: 4
GridSize: 32
TimelineZoom: 1.1

[Metadata]
Title:KISSA Rain
TitleUnicode:喫茶レイン
Artist:Hiromi Shibano
ArtistUnicode:柴野浩美
Creator:HimitsuHiketsu
Version:Muzukashii
Source:太鼓の達人
Tags:instrumental video game electronic rhythm arcade original taiko no tatsujin 12 don~! to zoryoban きっさレイン cafe Bandai Namco Entertainment
BeatmapID:3925885
BeatmapSetID:1904118

[Difficulty]
HPDrainRate:7
CircleSize:4
OverallDifficulty:7
ApproachRate:5
SliderMultiplier:1.4
SliderTickRate:1

[Events]
//Background and Video events
0,0,"taiko-drummaster-header-mobile.jpg",0,0
//Break Periods
//Storyboard Layer 0 (Background)
//Storyboard Layer 1 (Fail)
//Storyboard Layer 2 (Pass)
//Storyboard Layer 3 (Foreground)
//Storyboard Layer 4 (Overlay)
//Storyboard Sound Samples
Sample,137074,0,"kick.wav",50
Sample,141519,0,"kick.wav",50

[TimingPoints]
547,555.555555555556,4,2,1,25,1,0
56102,-100,4,2,1,25,0,1
73880,-100,4,2,1,25,0,0
109435,-100,4,2,1,25,0,1
127213,-100,4,2,1,25,0,0

[HitObjects]
64,192,547,5,0,0:0:0:35:don.wav
192,192,547,1,0,0:0:0:0:
320,192,1102,1,0,0:0:0:25:kat.wav
448,192,1102,1,0,0:0:0:0:
64,192,1519,1,0,0:0:0:35:don.wav
192,192,1519,1,0,0:0:0:0:
320,192,1658,1,0,0:0:0:35:don.wav
448,192,1658,1,0,0:0:0:0:
64,192,2213,1,0,0:0:0:25:kat.wav
192,192,2213,1,0,0:0:0:0:
64,192,2769,1,0,0:0:0:35:don.wav
448,192,2769,1,0,0:0:0:0:
320,192,3047,1,0,0:0:0:0:
64,192,3185,1,0,0:0:0:0:
192,192,3324,1,0,0:0:0:25:kat.wav
448,192,3324,1,0,0:0:0:0:
320,192,3463,1,0,0:0:0:0:
192,192,3741,1,0,0:0:0:35:don.wav
448,192,3741,1,0,0:0:0:0:
64,192,3880,1,0,0:0:0:35:don.wav
320,192,3880,1,0,0:0:0:0:
448,192,4158,128,0,4991:0:0:0:0:
64,192,4435,1,0,0:0:0:25:kat.wav
192,192,4435,1,0,0:0:0:0:
64,192,4991,1,0,0:0:0:35:don.wav
320,192,4991,1,0,0:0:0:0:
192,192,5269,1,0,0:0:0:0:
320,192,5408,1,0,0:0:0:0:
64,192,5547,1,0,0:0:0:25:kat.wav
192,192,5547,1,0,0:0:0:0:
448,192,5685,1,0,0:0:0:0:
64,192,5963,1,0,0:0:0:35:don.wav
192,192,5963,1,0,0:0:0:0:
320,192,6102,128,0,6380:0:0:0:35:don.wav
448,192,6102,1,0,0:0:0:0:
192,192,6380,1,0,0:0:0:0:
320,192,6658,128,0,6935:0:0:0:25:kat.wav
448,192,6658,1,0,0:0:0:0:
192,192,6935,1,0,0:0:0:0:
64,192,7213,1,0,0:0:0:35:don.wav
448,192,7213,1,0,0:0:0:0:
320,192,7491,1,0,0:0:0:0:
192,192,7630,1,0,0:0:0:0:
64,192,7769,1,0,0:0:0:25:kat.wav
320,192,7769,1,0,0:0:0:0:
448,192,7908,1,0,0:0:0:0:
64,192,8185,1,0,0:0:0:35:don.wav
320,192,8185,1,0,0:0:0:0:
192,192,8324,1,0,0:0:0:35:don.wav
448,192,8324,1,0,0:0:0:0:
64,192,8602,128,0,8880:0:0:0:0:
320,192,8880,1,0,0:0:0:25:kat.wav
448,192,8880,1,0,0:0:0:0:
64,192,9158,128,0,9435:0:0:0:0:
320,192,9435,1,0,0:0:0:35:don.wav
448,192,9435,1,0,0:0:0:0:
192,192,9713,128,0,9991:0:0:0:0:
320,192,9991,1,0,0:0:0:25:kat.wav
448,192,9991,1,0,0:0:0:0:
64,192,10130,128,0,10408:0:0:0:0:
192,192,10408,1,0,0:0:0:35:don.wav
320,192,10408,1,0,0:0:0:0:
64,192,10547,1,0,0:0:0:35:don.wav
448,192,10547,128,0,11102:0:0:0:0:
192,192,10824,1,0,0:0:0:0:
64,192,11102,1,0,0:0:0:25:kat.wav
320,192,11102,1,0,0:0:0:0:
192,192,11241,128,0,11658:0:0:0:0:
320,192,11658,1,0,0:0:0:35:don.wav
448,192,11658,1,0,0:0:0:0:
192,192,11935,1,0,0:0:0:0:
448,192,12074,1,0,0:0:0:0:
64,192,12213,1,0,0:0:0:25:kat.wav
320,192,12213,1,0,0:0:0:0:
192,192,12352,1,0,0:0:0:0:
64,192,12630,1,0,0:0:0:35:don.wav
320,192,12630,1,0,0:0:0:0:
192,192,12769,1,0,0:0:0:35:don.wav
448,192,12769,1,0,0:0:0:0:
64,192,13047,128,0,13880:0:0:0:0:
320,192,13324,1,0,0:0:0:25:kat.wav
448,192,13324,1,0,0:0:0:0:
192,192,13880,1,0,0:0:0:35:don.wav
448,192,13880,1,0,0:0:0:0:
320,192,14158,1,0,0:0:0:0:
192,192,14297,1,0,0:0:0:0:
320,192,14435,1,0,0:0:0:25:kat.wav
448,192,14435,1,0,0:0:0:0:
64,192,14574,1,0,0:0:0:0:
320,192,14852,1,0,0:0:0:35:don.wav
448,192,14852,1,0,0:0:0:0:
64,192,14991,1,0,0:0:0:35:don.wav
192,192,14991,128,0,15269:0:0:0:0:
320,192,15269,1,0,0:0:0:0:
64,192,15547,1,0,0:0:0:25:kat.wav
192,192,15547,128,0,15824:0:0:0:0:
320,192,15824,1,0,0:0:0:0:
64,192,16102,1,0,0:0:0:35:don.wav
448,192,16102,1,0,0:0:0:0:
192,192,16380,1,0,0:0:0:0:
320,192,16519,1,0,0:0:0:0:
192,192,16658,1,0,0:0:0:25:kat.wav
448,192,16658,1,0,0:0:0:0:
64,192,16797,1,0,0:0:0:0:
448,192,17074,1,0,0:0:0:0:
192,192,17074,1,0,0:0:0:35:don.wav
64,192,17213,1,0,0:0:0:35:don.wav
320,192,17213,1,0,0:0:0:0:
448,192,17491,128,0,17769:0:0:0:0:
64,192,17769,1,0,0:0:0:25:kat.wav
192,192,17769,1,0,0:0:0:0:
448,192,18047,128,0,18324:0:0:0:0:
192,192,18324,1,0,0:0:0:35:don.wav
320,192,18324,1,0,0:0:0:0:
64,192,18602,128,0,18880:0:0:0:0:
320,192,18880,1,0,0:0:0:25:kat.wav
448,192,18880,1,0,0:0:0:0:
192,192,19019,128,0,19297:0:0:0:0:
64,192,19297,1,0,0:0:0:35:don.wav
448,192,19297,1,0,0:0:0:0:
192,192,19435,1,0,0:0:0:35:don.wav
320,192,19435,128,0,19852:0:0:0:0:
448,192,19852,128,0,20547:0:0:0:0:
64,192,19991,1,0,0:0:0:25:kat.wav
192,192,19991,1,0,0:0:0:0:
64,192,20547,1,0,0:0:0:35:don.wav
320,192,20547,1,0,0:0:0:0:
192,192,20824,1,0,0:0:0:0:
64,192,20963,1,0,0:0:0:0:
192,192,21102,1,0,0:0:0:25:kat.wav
320,192,21102,1,0,0:0:0:0:
448,192,21241,1,0,0:0:0:0:
320,192,21380,1,0,0:0:0:0:
64,192,21519,128,0,21935:0:0:0:35:don.wav
192,192,21519,1,0,0:0:0:0:
320,192,21658,1,0,0:0:0:35:don.wav
448,192,21658,1,0,0:0:0:0:
448,192,21935,1,0,0:0:0:0:
64,192,22213,1,0,0:0:0:25:kat.wav
192,192,22213,128,0,22491:0:0:0:0:
320,192,22491,128,0,22769:0:0:0:0:
64,192,22769,1,0,0:0:0:35:don.wav
192,192,22769,1,0,0:0:0:0:
448,192,22908,1,0,0:0:0:0:
192,192,23047,1,0,0:0:0:0:
64,192,23324,1,0,0:0:0:25:kat.wav
448,192,23324,1,0,0:0:0:0:
320,192,23602,1,0,0:0:0:0:
64,192,23741,1,0,0:0:0:35:don.wav
192,192,23741,1,0,0:0:0:0:
320,192,23880,128,0,24158:0:0:0:35:don.wav
448,192,23880,1,0,0:0:0:0:
64,192,24158,1,0,0:0:0:0:
192,192,24297,1,0,0:0:0:0:
320,192,24435,1,0,0:0:0:25:kat.wav
448,192,24435,1,0,0:0:0:0:
192,192,24574,1,0,0:0:0:0:
448,192,24852,1,0,0:0:0:0:
64,192,24991,1,0,0:0:0:35:don.wav
320,192,24991,1,0,0:0:0:0:
192,192,25130,128,0,25547:0:0:0:0:
320,192,25547,1,0,0:0:0:25:kat.wav
448,192,25547,1,0,0:0:0:0:
64,192,25824,1,0,0:0:0:0:
320,192,25963,1,0,0:0:0:35:don.wav
448,192,25963,1,0,0:0:0:0:
64,192,26102,1,0,0:0:0:35:don.wav
192,192,26102,1,0,0:0:0:0:
320,192,26241,1,0,0:0:0:0:
192,192,26519,1,0,0:0:0:0:
64,192,26658,1,0,0:0:0:25:kat.wav
448,192,26658,1,0,0:0:0:0:
320,192,26797,1,0,0:0:0:0:
448,192,26935,128,0,27491:0:0:0:0:
64,192,27213,1,0,0:0:0:35:don.wav
192,192,27213,1,0,0:0:0:0:
320,192,27491,128,0,27769:0:0:0:0:
64,192,27769,1,0,0:0:0:25:kat.wav
448,192,27769,1,0,0:0:0:0:
192,192,27908,128,0,28185:0:0:0:0:
320,192,28185,1,0,0:0:0:35:don.wav
448,192,28185,1,0,0:0:0:0:
64,192,28324,128,0,28880:0:0:0:35:don.wav
192,192,28324,1,0,0:0:0:0:
320,192,28880,1,0,0:0:0:25:kat.wav
448,192,28880,128,0,29435:0:0:0:0:
64,192,29435,1,0,0:0:0:35:don.wav
192,192,29435,1,0,0:0:0:0:
320,192,29713,1,0,0:0:0:0:
448,192,29852,1,0,0:0:0:0:
192,192,29991,1,0,0:0:0:25:kat.wav
320,192,29991,1,0,0:0:0:0:
64,192,30130,1,0,0:0:0:0:
192,192,30269,1,0,0:0:0:0:
320,192,30408,1,0,0:0:0:35:don.wav
448,192,30408,128,0,30824:0:0:0:0:
64,192,30547,1,0,0:0:0:35:don.wav
192,192,30547,1,0,0:0:0:0:
64,192,30824,1,0,0:0:0:0:
320,192,31102,128,0,31380:0:0:0:25:kat.wav
448,192,31102,1,0,0:0:0:0:
192,192,31380,128,0,31658:0:0:0:0:
320,192,31658,1,0,0:0:0:35:don.wav
448,192,31658,1,0,0:0:0:0:
64,192,31797,1,0,0:0:0:0:
320,192,31935,1,0,0:0:0:0:
64,192,32213,1,0,0:0:0:25:kat.wav
448,192,32213,1,0,0:0:0:0:
320,192,32491,1,0,0:0:0:0:
64,192,32630,1,0,0:0:0:35:don.wav
192,192,32630,1,0,0:0:0:0:
448,192,32769,1,0,0:0:0:35:don.wav
320,192,32769,128,0,33047:0:0:0:0:
64,192,33047,1,0,0:0:0:0:
192,192,33185,1,0,0:0:0:0:
64,192,33324,1,0,0:0:0:25:kat.wav
448,192,33324,1,0,0:0:0:0:
320,192,33463,1,0,0:0:0:0:
192,192,33741,1,0,0:0:0:0:
320,192,33880,1,0,0:0:0:35:don.wav
448,192,33880,1,0,0:0:0:0:
64,192,34019,1,0,0:0:0:0:
448,192,34158,128,0,34852:0:0:0:0:
64,192,34435,1,0,0:0:0:25:kat.wav
192,192,34435,1,0,0:0:0:0:
64,192,34852,1,0,0:0:0:35:don.wav
192,192,34852,1,0,0:0:0:0:
320,192,34991,1,0,0:0:0:35:don.wav
448,192,34991,1,0,0:0:0:0:
192,192,35130,1,0,0:0:0:0:
320,192,35408,1,0,0:0:0:0:
64,192,35547,1,0,0:0:0:25:kat.wav
448,192,35547,1,0,0:0:0:0:
192,192,35685,1,0,0:0:0:0:
320,192,35963,1,0,0:0:0:0:
192,192,36102,1,0,0:0:0:35:don.wav
448,192,36102,1,0,0:0:0:0:
64,192,36241,1,0,0:0:0:0:
448,192,36380,128,0,36658:0:0:0:0:
64,192,36658,1,0,0:0:0:25:kat.wav
192,192,36658,1,0,0:0:0:0:
320,192,36797,128,0,37074:0:0:0:0:
64,192,37074,1,0,0:0:0:35:don.wav
448,192,37074,1,0,0:0:0:0:
192,192,37213,128,0,37769:0:0:0:35:don.wav
320,192,37213,1,0,0:0:0:0:
448,192,37491,1,0,0:0:0:0:
64,192,37769,1,0,0:0:0:25:kat.wav
320,192,37769,1,0,0:0:0:0:
448,192,37908,1,0,0:0:0:0:
64,192,38324,1,0,0:0:0:35:don.wav
192,192,38324,1,0,0:0:0:0:
320,192,38602,1,0,0:0:0:0:
448,192,38741,1,0,0:0:0:0:
192,192,38880,1,0,0:0:0:25:kat.wav
320,192,38880,1,0,0:0:0:0:
64,192,39019,1,0,0:0:0:0:
192,192,39158,1,0,0:0:0:0:
320,192,39297,1,0,0:0:0:35:don.wav
448,192,39297,128,0,39713:0:0:0:0:
64,192,39435,1,0,0:0:0:35:don.wav
192,192,39435,1,0,0:0:0:0:
64,192,39713,1,0,0:0:0:0:
320,192,39991,128,0,40269:0:0:0:25:kat.wav
448,192,39991,1,0,0:0:0:0:
192,192,40269,128,0,40547:0:0:0:0:
320,192,40547,1,0,0:0:0:35:don.wav
448,192,40547,1,0,0:0:0:0:
64,192,40685,1,0,0:0:0:0:
320,192,40824,1,0,0:0:0:0:
64,192,41102,1,0,0:0:0:25:kat.wav
448,192,41102,1,0,0:0:0:0:
192,192,41380,1,0,0:0:0:0:
320,192,41519,1,0,0:0:0:35:don.wav
448,192,41519,1,0,0:0:0:0:
64,192,41658,1,0,0:0:0:35:don.wav
192,192,41658,128,0,41935:0:0:0:0:
448,192,41935,1,0,0:0:0:0:
320,192,42074,1,0,0:0:0:0:
64,192,42213,1,0,0:0:0:25:kat.wav
192,192,42213,1,0,0:0:0:0:
320,192,42352,1,0,0:0:0:0:
64,192,42630,1,0,0:0:0:0:
192,192,42769,1,0,0:0:0:35:don.wav
448,192,42769,1,0,0:0:0:0:
320,192,42908,128,0,43324:0:0:0:0:
64,192,43324,1,0,0:0:0:25:kat.wav
192,192,43324,1,0,0:0:0:0:
448,192,43602,1,0,0:0:0:0:
64,192,43741,1,0,0:0:0:35:don.wav
192,192,43741,1,0,0:0:0:0:
320,192,43880,1,0,0:0:0:35:don.wav
448,192,43880,1,0,0:0:0:0:
192,192,44019,1,0,0:0:0:0:
320,192,44297,1,0,0:0:0:0:
64,192,44435,1,0,0:0:0:25:kat.wav
448,192,44435,1,0,0:0:0:0:
192,192,44574,1,0,0:0:0:0:
64,192,44713,128,0,45269:0:0:0:0:
320,192,44991,1,0,0:0:0:35:don.wav
448,192,44991,1,0,0:0:0:0:
192,192,45269,128,0,45547:0:0:0:0:
64,192,45547,1,0,0:0:0:25:kat.wav
448,192,45547,1,0,0:0:0:0:
320,192,45685,128,0,45963:0:0:0:0:
64,192,45963,1,0,0:0:0:35:don.wav
192,192,45963,1,0,0:0:0:0:
320,192,46102,1,0,0:0:0:35:don.wav
448,192,46102,128,0,46658:0:0:0:0:
64,192,46658,1,0,0:0:0:25:kat.wav
192,192,46658,1,0,0:0:0:0:
320,192,46935,128,0,47213:0:0:0:0:
448,192,47213,1,0,0:0:0:35:don.wav
64,192,47213,1,0,0:0:0:0:
192,192,47491,1,0,0:0:0:0:
64,192,47630,1,0,0:0:0:0:
192,192,47769,1,0,0:0:0:25:kat.wav
320,192,47769,1,0,0:0:0:0:
448,192,47908,1,0,0:0:0:0:
320,192,48047,1,0,0:0:0:0:
64,192,48185,128,0,48602:0:0:0:35:don.wav
192,192,48185,1,0,0:0:0:0:
320,192,48324,1,0,0:0:0:35:don.wav
448,192,48324,1,0,0:0:0:0:
448,192,48602,1,0,0:0:0:0:
64,192,48880,1,0,0:0:0:25:kat.wav
192,192,48880,128,0,49158:0:0:0:0:
320,192,49158,128,0,49435:0:0:0:0:
64,192,49435,1,0,0:0:0:35:don.wav
192,192,49435,1,0,0:0:0:0:
448,192,49574,1,0,0:0:0:0:
192,192,49713,1,0,0:0:0:0:
64,192,49991,1,0,0:0:0:25:kat.wav
448,192,49991,1,0,0:0:0:0:
192,192,50269,1,0,0:0:0:0:
320,192,50408,1,0,0:0:0:35:don.wav
448,192,50408,1,0,0:0:0:0:
192,192,50547,128,0,50824:0:0:0:35:don.wav
64,192,50547,1,0,0:0:0:0:
448,192,50824,1,0,0:0:0:0:
320,192,50963,1,0,0:0:0:0:
64,192,51102,1,0,0:0:0:25:kat.wav
448,192,51102,1,0,0:0:0:0:
192,192,51241,1,0,0:0:0:0:
320,192,51519,1,0,0:0:0:0:
64,192,51658,1,0,0:0:0:35:don.wav
192,192,51658,1,0,0:0:0:0:
448,192,51797,1,0,0:0:0:0:
192,192,51935,1,0,0:0:0:0:
64,192,52074,128,0,52630:0:0:0:0:
320,192,52213,1,0,0:0:0:25:kat.wav
448,192,52213,1,0,0:0:0:0:
320,192,52630,1,0,0:0:0:35:don.wav
448,192,52630,1,0,0:0:0:0:
64,192,52769,1,0,0:0:0:35:don.wav
192,192,52769,1,0,0:0:0:0:
320,192,52908,1,0,0:0:0:0:
192,192,53185,1,0,0:0:0:0:
64,192,53324,1,0,0:0:0:25:kat.wav
448,192,53324,1,0,0:0:0:0:
320,192,53463,1,0,0:0:0:0:
192,192,53741,1,0,0:0:0:0:
64,192,53880,1,0,0:0:0:35:don.wav
320,192,53880,1,0,0:0:0:0:
448,192,54019,1,0,0:0:0:0:
64,192,54158,128,0,54435:0:0:0:0:
320,192,54435,1,0,0:0:0:25:kat.wav
448,192,54435,1,0,0:0:0:0:
192,192,54574,128,0,54852:0:0:0:0:
64,192,54852,1,0,0:0:0:35:don.wav
448,192,54852,1,0,0:0:0:0:
192,192,54991,1,0,0:0:0:35:don.wav
320,192,54991,128,0,55547:0:0:0:0:
64,192,55269,128,0,55547:0:0:0:0:
192,192,55547,1,0,0:0:0:25:kat.wav
448,192,55547,128,0,55824:0:0:0:0:
192,192,55824,128,0,56380:0:0:0:0:
64,192,56102,128,0,56380:0:0:0:35:don.wav
448,192,56102,1,0,0:0:0:0:
320,192,56380,128,0,56658:0:0:0:0:
64,192,56658,128,0,56935:0:0:0:25:kat.wav
448,192,56658,1,0,0:0:0:0:
320,192,57074,1,0,0:0:0:35:don.wav
448,192,57074,1,0,0:0:0:0:
64,192,57213,128,0,57491:0:0:0:35:don.wav
192,192,57213,1,0,0:0:0:0:
320,192,57630,1,0,0:0:0:0:
64,192,57769,128,0,58047:0:0:0:25:kat.wav
448,192,57769,1,0,0:0:0:0:
192,192,57908,1,0,0:0:0:0:
448,192,58047,1,0,0:0:0:0:
192,192,58324,1,0,0:0:0:35:don.wav
320,192,58324,1,0,0:0:0:0:
448,192,58463,1,0,0:0:0:0:
64,192,58602,128,0,58880:0:0:0:0:
320,192,58880,1,0,0:0:0:25:kat.wav
448,192,58880,1,0,0:0:0:0:
64,192,59297,1,0,0:0:0:35:don.wav
192,192,59297,1,0,0:0:0:0:
320,192,59435,1,0,0:0:0:35:don.wav
448,192,59435,1,0,0:0:0:0:
192,192,59713,128,0,59991:0:0:0:0:
320,192,59991,128,0,60269:0:0:0:25:kat.wav
448,192,59991,1,0,0:0:0:0:
64,192,60269,128,0,60824:0:0:0:0:
320,192,60547,1,0,0:0:0:35:don.wav
448,192,60547,128,0,60824:0:0:0:0:
192,192,60824,128,0,61102:0:0:0:0:
320,192,61102,1,0,0:0:0:25:kat.wav
448,192,61102,128,0,61380:0:0:0:0:
64,192,61519,1,0,0:0:0:35:don.wav
192,192,61519,1,0,0:0:0:0:
320,192,61658,1,0,0:0:0:35:don.wav
448,192,61658,128,0,61935:0:0:0:0:
64,192,62074,1,0,0:0:0:0:
320,192,62213,1,0,0:0:0:25:kat.wav
448,192,62213,128,0,62491:0:0:0:0:
64,192,62352,1,0,0:0:0:0:
192,192,62491,1,0,0:0:0:0:
320,192,62630,1,0,0:0:0:0:
64,192,62769,128,0,63047:0:0:0:35:don.wav
448,192,62769,1,0,0:0:0:0:
64,192,63324,1,0,0:0:0:25:kat.wav
448,192,63324,1,0,0:0:0:0:
320,192,63463,1,0,0:0:0:0:
192,192,63602,1,0,0:0:0:0:
320,192,63741,1,0,0:0:0:35:don.wav
64,192,63880,1,0,0:0:0:35:don.wav
448,192,63880,1,0,0:0:0:0:
192,192,64019,1,0,0:0:0:0:
64,192,64158,128,0,64435:0:0:0:0:
192,192,64435,128,0,64713:0:0:0:25:kat.wav
448,192,64435,1,0,0:0:0:0:
320,192,64713,128,0,65269:0:0:0:0:
64,192,64991,1,0,0:0:0:35:don.wav
448,192,64991,128,0,65269:0:0:0:0:
192,192,65269,128,0,65547:0:0:0:0:
64,192,65547,1,0,0:0:0:25:kat.wav
448,192,65547,128,0,65824:0:0:0:0:
64,192,65963,1,0,0:0:0:35:don.wav
192,192,65963,1,0,0:0:0:0:
320,192,66102,1,0,0:0:0:35:don.wav
448,192,66102,128,0,66380:0:0:0:0:
192,192,66519,1,0,0:0:0:0:
64,192,66658,1,0,0:0:0:25:kat.wav
448,192,66658,128,0,66935:0:0:0:0:
320,192,66797,1,0,0:0:0:0:
64,192,66935,1,0,0:0:0:0:
192,192,67213,1,0,0:0:0:35:don.wav
320,192,67213,1,0,0:0:0:0:
64,192,67352,1,0,0:0:0:0:
448,192,67491,128,0,67769:0:0:0:0:
64,192,67769,1,0,0:0:0:25:kat.wav
192,192,67769,1,0,0:0:0:0:
320,192,68185,1,0,0:0:0:35:don.wav
448,192,68185,1,0,0:0:0:0:
64,192,68324,1,0,0:0:0:35:don.wav
192,192,68324,1,0,0:0:0:0:
320,192,68602,128,0,68880:0:0:0:0:
64,192,68880,1,0,0:0:0:25:kat.wav
192,192,68880,128,0,69158:0:0:0:0:
448,192,69158,128,0,69713:0:0:0:0:
64,192,69435,128,0,69713:0:0:0:35:don.wav
192,192,69435,1,0,0:0:0:0:
320,192,69713,128,0,69991:0:0:0:0:
64,192,69991,128,0,70269:0:0:0:25:kat.wav
192,192,69991,1,0,0:0:0:0:
320,192,70408,1,0,0:0:0:35:don.wav
448,192,70408,1,0,0:0:0:0:
64,192,70547,128,0,70824:0:0:0:35:don.wav
192,192,70547,1,0,0:0:0:0:
448,192,70963,1,0,0:0:0:0:
64,192,71102,128,0,71380:0:0:0:25:kat.wav
192,192,71102,1,0,0:0:0:0:
448,192,71241,1,0,0:0:0:0:
320,192,71380,1,0,0:0:0:0:
192,192,71519,1,0,0:0:0:0:
64,192,71658,1,0,0:0:0:35:don.wav
448,192,71658,128,0,71935:0:0:0:0:
64,192,72213,1,0,0:0:0:25:kat.wav
192,192,72213,1,0,0:0:0:0:
320,192,72352,1,0,0:0:0:0:
448,192,72491,1,0,0:0:0:0:
64,192,72630,1,0,0:0:0:35:don.wav
192,192,72769,1,0,0:0:0:35:don.wav
448,192,72769,1,0,0:0:0:0:
64,192,72908,1,0,0:0:0:0:
320,192,73047,1,0,0:0:0:0:
192,192,73185,1,0,0:0:0:0:
64,192,73324,1,0,0:0:0:25:kat.wav
448,192,73324,1,0,0:0:0:0:
192,192,73463,1,0,0:0:0:0:
320,192,73602,1,0,0:0:0:0:
448,192,73741,1,0,0:0:0:0:
64,192,73880,1,0,0:0:0:35:don.wav
192,192,73880,1,0,0:0:0:0:
320,192,74158,1,0,0:0:0:0:
448,192,74297,1,0,0:0:0:0:
192,192,74435,1,0,0:0:0:25:kat.wav
320,192,74435,1,0,0:0:0:0:
64,192,74574,1,0,0:0:0:0:
192,192,74713,1,0,0:0:0:0:
320,192,74852,1,0,0:0:0:35:don.wav
448,192,74852,128,0,75269:0:0:0:0:
64,192,74991,1,0,0:0:0:35:don.wav
192,192,74991,1,0,0:0:0:0:
64,192,75269,1,0,0:0:0:0:
320,192,75547,128,0,75824:0:0:0:25:kat.wav
448,192,75547,1,0,0:0:0:0:
192,192,75824,128,0,76102:0:0:0:0:
320,192,76102,1,0,0:0:0:35:don.wav
448,192,76102,1,0,0:0:0:0:
64,192,76241,1,0,0:0:0:0:
320,192,76380,1,0,0:0:0:0:
64,192,76658,1,0,0:0:0:25:kat.wav
448,192,76658,1,0,0:0:0:0:
192,192,76935,1,0,0:0:0:0:
320,192,77074,1,0,0:0:0:35:don.wav
448,192,77074,1,0,0:0:0:0:
64,192,77213,1,0,0:0:0:35:don.wav
192,192,77213,128,0,77491:0:0:0:0:
448,192,77491,1,0,0:0:0:0:
320,192,77630,1,0,0:0:0:0:
64,192,77769,1,0,0:0:0:25:kat.wav
192,192,77769,1,0,0:0:0:0:
320,192,77908,1,0,0:0:0:0:
64,192,78185,1,0,0:0:0:0:
192,192,78324,1,0,0:0:0:35:don.wav
448,192,78324,1,0,0:0:0:0:
320,192,78463,128,0,78880:0:0:0:0:
64,192,78880,1,0,0:0:0:25:kat.wav
192,192,78880,1,0,0:0:0:0:
448,192,79158,1,0,0:0:0:0:
64,192,79297,1,0,0:0:0:35:don.wav
192,192,79297,1,0,0:0:0:0:
320,192,79435,1,0,0:0:0:35:don.wav
448,192,79435,1,0,0:0:0:0:
192,192,79574,1,0,0:0:0:0:
320,192,79852,1,0,0:0:0:0:
64,192,79991,1,0,0:0:0:25:kat.wav
448,192,79991,1,0,0:0:0:0:
192,192,80130,1,0,0:0:0:0:
64,192,80269,128,0,80824:0:0:0:0:
320,192,80547,1,0,0:0:0:35:don.wav
448,192,80547,1,0,0:0:0:0:
192,192,80824,128,0,81102:0:0:0:0:
64,192,81102,1,0,0:0:0:25:kat.wav
448,192,81102,1,0,0:0:0:0:
320,192,81241,128,0,81519:0:0:0:0:
64,192,81519,1,0,0:0:0:35:don.wav
192,192,81519,1,0,0:0:0:0:
320,192,81658,1,0,0:0:0:35:don.wav
448,192,81658,128,0,82213:0:0:0:0:
64,192,82213,128,0,82769:0:0:0:25:kat.wav
192,192,82213,1,0,0:0:0:0:
320,192,82769,1,0,0:0:0:35:don.wav
448,192,82769,1,0,0:0:0:0:
192,192,83047,1,0,0:0:0:0:
64,192,83185,1,0,0:0:0:0:
192,192,83324,1,0,0:0:0:25:kat.wav
320,192,83324,1,0,0:0:0:0:
448,192,83463,1,0,0:0:0:0:
320,192,83602,1,0,0:0:0:0:
64,192,83741,128,0,84158:0:0:0:35:don.wav
192,192,83741,1,0,0:0:0:0:
320,192,83880,1,0,0:0:0:35:don.wav
448,192,83880,1,0,0:0:0:0:
448,192,84158,1,0,0:0:0:0:
64,192,84435,1,0,0:0:0:25:kat.wav
192,192,84435,128,0,84713:0:0:0:0:
320,192,84713,128,0,84991:0:0:0:0:
64,192,84991,1,0,0:0:0:35:don.wav
192,192,84991,1,0,0:0:0:0:
448,192,85130,1,0,0:0:0:0:
192,192,85269,1,0,0:0:0:0:
64,192,85547,1,0,0:0:0:25:kat.wav
448,192,85547,1,0,0:0:0:0:
192,192,85824,1,0,0:0:0:0:
320,192,85963,1,0,0:0:0:35:don.wav
448,192,85963,1,0,0:0:0:0:
192,192,86102,128,0,86380:0:0:0:35:don.wav
64,192,86102,1,0,0:0:0:0:
448,192,86380,1,0,0:0:0:0:
320,192,86519,1,0,0:0:0:0:
64,192,86658,1,0,0:0:0:25:kat.wav
448,192,86658,1,0,0:0:0:0:
192,192,86797,1,0,0:0:0:0:
320,192,87074,1,0,0:0:0:0:
64,192,87213,1,0,0:0:0:35:don.wav
192,192,87213,1,0,0:0:0:0:
448,192,87352,1,0,0:0:0:0:
64,192,87491,128,0,88185:0:0:0:0:
320,192,87769,1,0,0:0:0:25:kat.wav
448,192,87769,1,0,0:0:0:0:
320,192,88185,1,0,0:0:0:35:don.wav
448,192,88185,1,0,0:0:0:0:
64,192,88324,1,0,0:0:0:35:don.wav
192,192,88324,1,0,0:0:0:0:
320,192,88463,1,0,0:0:0:0:
192,192,88741,1,0,0:0:0:0:
64,192,88880,1,0,0:0:0:25:kat.wav
448,192,88880,1,0,0:0:0:0:
320,192,89019,1,0,0:0:0:0:
192,192,89297,1,0,0:0:0:0:
64,192,89435,1,0,0:0:0:35:don.wav
320,192,89435,1,0,0:0:0:0:
448,192,89574,1,0,0:0:0:0:
64,192,89713,128,0,89991:0:0:0:0:
320,192,89991,1,0,0:0:0:25:kat.wav
448,192,89991,1,0,0:0:0:0:
192,192,90130,128,0,90408:0:0:0:0:
64,192,90408,1,0,0:0:0:35:don.wav
448,192,90408,1,0,0:0:0:0:
192,192,90547,1,0,0:0:0:35:don.wav
320,192,90547,128,0,91102:0:0:0:0:
64,192,90824,1,0,0:0:0:0:
192,192,91102,1,0,0:0:0:25:kat.wav
448,192,91102,1,0,0:0:0:0:
64,192,91241,1,0,0:0:0:0:
320,192,91658,1,0,0:0:0:35:don.wav
448,192,91658,1,0,0:0:0:0:
192,192,91935,1,0,0:0:0:0:
64,192,92074,1,0,0:0:0:0:
192,192,92213,1,0,0:0:0:25:kat.wav
320,192,92213,1,0,0:0:0:0:
448,192,92352,1,0,0:0:0:0:
320,192,92491,1,0,0:0:0:0:
64,192,92630,128,0,93047:0:0:0:35:don.wav
192,192,92630,1,0,0:0:0:0:
320,192,92769,1,0,0:0:0:35:don.wav
448,192,92769,1,0,0:0:0:0:
448,192,93047,1,0,0:0:0:0:
64,192,93324,1,0,0:0:0:25:kat.wav
192,192,93324,128,0,93602:0:0:0:0:
320,192,93602,128,0,93880:0:0:0:0:
64,192,93880,1,0,0:0:0:35:don.wav
192,192,93880,1,0,0:0:0:0:
448,192,94019,1,0,0:0:0:0:
192,192,94158,1,0,0:0:0:0:
64,192,94435,1,0,0:0:0:25:kat.wav
448,192,94435,1,0,0:0:0:0:
320,192,94713,1,0,0:0:0:0:
64,192,94852,1,0,0:0:0:35:don.wav
192,192,94852,1,0,0:0:0:0:
320,192,94991,128,0,95269:0:0:0:35:don.wav
448,192,94991,1,0,0:0:0:0:
64,192,95269,1,0,0:0:0:0:
192,192,95408,1,0,0:0:0:0:
320,192,95547,1,0,0:0:0:25:kat.wav
448,192,95547,1,0,0:0:0:0:
192,192,95685,1,0,0:0:0:0:
448,192,95963,1,0,0:0:0:0:
64,192,96102,1,0,0:0:0:35:don.wav
320,192,96102,1,0,0:0:0:0:
192,192,96241,128,0,96658:0:0:0:0:
320,192,96658,1,0,0:0:0:25:kat.wav
448,192,96658,1,0,0:0:0:0:
64,192,96935,1,0,0:0:0:0:
320,192,97074,1,0,0:0:0:35:don.wav
448,192,97074,1,0,0:0:0:0:
64,192,97213,1,0,0:0:0:35:don.wav
192,192,97213,1,0,0:0:0:0:
320,192,97352,1,0,0:0:0:0:
192,192,97630,1,0,0:0:0:0:
64,192,97769,1,0,0:0:0:25:kat.wav
448,192,97769,1,0,0:0:0:0:
320,192,97908,1,0,0:0:0:0:
448,192,98047,128,0,98602:0:0:0:0:
64,192,98324,1,0,0:0:0:35:don.wav
192,192,98324,1,0,0:0:0:0:
320,192,98602,128,0,98880:0:0:0:0:
64,192,98880,1,0,0:0:0:25:kat.wav
448,192,98880,1,0,0:0:0:0:
192,192,99019,128,0,99297:0:0:0:0:
320,192,99297,1,0,0:0:0:35:don.wav
448,192,99297,1,0,0:0:0:0:
64,192,99435,128,0,99991:0:0:0:35:don.wav
192,192,99435,1,0,0:0:0:0:
320,192,99991,1,0,0:0:0:25:kat.wav
448,192,99991,1,0,0:0:0:0:
192,192,100269,128,0,100547:0:0:0:0:
64,192,100547,1,0,0:0:0:35:don.wav
448,192,100547,1,0,0:0:0:0:
320,192,100824,1,0,0:0:0:0:
448,192,100963,1,0,0:0:0:0:
192,192,101102,1,0,0:0:0:25:kat.wav
320,192,101102,1,0,0:0:0:0:
64,192,101241,1,0,0:0:0:0:
192,192,101380,1,0,0:0:0:0:
320,192,101519,1,0,0:0:0:35:don.wav
448,192,101519,128,0,101935:0:0:0:0:
64,192,101658,1,0,0:0:0:35:don.wav
192,192,101658,1,0,0:0:0:0:
64,192,101935,1,0,0:0:0:0:
320,192,102213,128,0,102491:0:0:0:25:kat.wav
448,192,102213,1,0,0:0:0:0:
192,192,102491,128,0,102769:0:0:0:0:
320,192,102769,1,0,0:0:0:35:don.wav
448,192,102769,1,0,0:0:0:0:
64,192,102908,1,0,0:0:0:0:
320,192,103047,1,0,0:0:0:0:
64,192,103324,1,0,0:0:0:25:kat.wav
448,192,103324,1,0,0:0:0:0:
320,192,103602,1,0,0:0:0:0:
64,192,103741,1,0,0:0:0:35:don.wav
192,192,103741,1,0,0:0:0:0:
448,192,103880,1,0,0:0:0:35:don.wav
320,192,103880,128,0,104158:0:0:0:0:
64,192,104158,1,0,0:0:0:0:
192,192,104297,1,0,0:0:0:0:
64,192,104435,1,0,0:0:0:25:kat.wav
448,192,104435,1,0,0:0:0:0:
320,192,104574,1,0,0:0:0:0:
192,192,104852,1,0,0:0:0:0:
320,192,104991,1,0,0:0:0:35:don.wav
448,192,104991,1,0,0:0:0:0:
64,192,105130,1,0,0:0:0:0:
320,192,105269,1,0,0:0:0:0:
448,192,105408,128,0,105963:0:0:0:0:
64,192,105547,1,0,0:0:0:25:kat.wav
192,192,105547,1,0,0:0:0:0:
64,192,105963,1,0,0:0:0:35:don.wav
192,192,105963,1,0,0:0:0:0:
320,192,106102,1,0,0:0:0:35:don.wav
448,192,106102,1,0,0:0:0:0:
192,192,106241,1,0,0:0:0:0:
320,192,106519,1,0,0:0:0:0:
64,192,106658,1,0,0:0:0:25:kat.wav
448,192,106658,1,0,0:0:0:0:
192,192,106797,1,0,0:0:0:0:
320,192,107074,1,0,0:0:0:0:
192,192,107213,1,0,0:0:0:35:don.wav
448,192,107213,1,0,0:0:0:0:
64,192,107352,1,0,0:0:0:0:
448,192,107491,128,0,107769:0:0:0:0:
64,192,107769,1,0,0:0:0:25:kat.wav
192,192,107769,1,0,0:0:0:0:
320,192,107908,128,0,108185:0:0:0:0:
64,192,108185,1,0,0:0:0:35:don.wav
448,192,108185,1,0,0:0:0:0:
192,192,108324,128,0,108880:0:0:0:35:don.wav
320,192,108324,1,0,0:0:0:0:
448,192,108602,128,0,108880:0:0:0:0:
64,192,108880,128,0,109158:0:0:0:25:kat.wav
320,192,108880,1,0,0:0:0:0:
320,192,109158,128,0,109713:0:0:0:0:
64,192,109435,1,0,0:0:0:35:don.wav
448,192,109435,128,0,109713:0:0:0:0:
192,192,109713,128,0,109991:0:0:0:0:
64,192,109991,1,0,0:0:0:25:kat.wav
448,192,109991,128,0,110269:0:0:0:0:
64,192,110408,1,0,0:0:0:35:don.wav
192,192,110408,1,0,0:0:0:0:
320,192,110547,1,0,0:0:0:35:don.wav
448,192,110547,128,0,110824:0:0:0:0:
192,192,110963,1,0,0:0:0:0:
64,192,111102,1,0,0:0:0:25:kat.wav
448,192,111102,128,0,111380:0:0:0:0:
320,192,111241,1,0,0:0:0:0:
64,192,111380,1,0,0:0:0:0:
192,192,111658,1,0,0:0:0:35:don.wav
320,192,111658,1,0,0:0:0:0:
64,192,111797,1,0,0:0:0:0:
448,192,111935,128,0,112213:0:0:0:0:
64,192,112213,1,0,0:0:0:25:kat.wav
192,192,112213,1,0,0:0:0:0:
320,192,112630,1,0,0:0:0:35:don.wav
448,192,112630,1,0,0:0:0:0:
64,192,112769,1,0,0:0:0:35:don.wav
192,192,112769,1,0,0:0:0:0:
320,192,113047,128,0,113324:0:0:0:0:
64,192,113324,1,0,0:0:0:25:kat.wav
192,192,113324,128,0,113602:0:0:0:0:
448,192,113602,128,0,114158:0:0:0:0:
64,192,113880,128,0,114158:0:0:0:35:don.wav
192,192,113880,1,0,0:0:0:0:
320,192,114158,128,0,114435:0:0:0:0:
64,192,114435,128,0,114713:0:0:0:25:kat.wav
192,192,114435,1,0,0:0:0:0:
320,192,114852,1,0,0:0:0:35:don.wav
448,192,114852,1,0,0:0:0:0:
64,192,114991,128,0,115269:0:0:0:35:don.wav
192,192,114991,1,0,0:0:0:0:
448,192,115408,1,0,0:0:0:0:
64,192,115547,128,0,115824:0:0:0:25:kat.wav
192,192,115547,1,0,0:0:0:0:
448,192,115685,1,0,0:0:0:0:
320,192,115824,1,0,0:0:0:0:
192,192,115963,1,0,0:0:0:0:
64,192,116102,1,0,0:0:0:35:don.wav
448,192,116102,128,0,116380:0:0:0:0:
448,192,116658,1,0,0:0:0:25:kat.wav
64,192,116658,1,0,0:0:0:0:
192,192,116797,1,0,0:0:0:0:
320,192,116935,1,0,0:0:0:0:
192,192,117074,1,0,0:0:0:35:don.wav
448,192,117213,1,0,0:0:0:35:don.wav
64,192,117213,1,0,0:0:0:0:
320,192,117352,1,0,0:0:0:0:
448,192,117491,128,0,117769:0:0:0:0:
64,192,117769,1,0,0:0:0:0:
320,192,117769,128,0,118047:0:0:0:25:kat.wav
192,192,118047,128,0,118602:0:0:0:0:
64,192,118324,128,0,118602:0:0:0:35:don.wav
448,192,118324,1,0,0:0:0:0:
320,192,118602,128,0,118880:0:0:0:0:
64,192,118880,128,0,119158:0:0:0:25:kat.wav
448,192,118880,1,0,0:0:0:0:
320,192,119297,1,0,0:0:0:35:don.wav
448,192,119297,1,0,0:0:0:0:
64,192,119435,128,0,119713:0:0:0:35:don.wav
192,192,119435,1,0,0:0:0:0:
320,192,119852,1,0,0:0:0:0:
64,192,119991,128,0,120269:0:0:0:25:kat.wav
448,192,119991,1,0,0:0:0:0:
192,192,120130,1,0,0:0:0:0:
448,192,120269,1,0,0:0:0:0:
192,192,120547,1,0,0:0:0:35:don.wav
320,192,120547,1,0,0:0:0:0:
448,192,120685,1,0,0:0:0:0:
64,192,120824,128,0,121102:0:0:0:0:
320,192,121102,1,0,0:0:0:25:kat.wav
448,192,121102,1,0,0:0:0:0:
64,192,121519,1,0,0:0:0:35:don.wav
192,192,121519,1,0,0:0:0:0:
320,192,121658,1,0,0:0:0:35:don.wav
448,192,121658,1,0,0:0:0:0:
192,192,121935,128,0,122213:0:0:0:0:
320,192,122213,128,0,122491:0:0:0:25:kat.wav
448,192,122213,1,0,0:0:0:0:
64,192,122491,128,0,123047:0:0:0:0:
320,192,122769,1,0,0:0:0:35:don.wav
448,192,122769,128,0,123047:0:0:0:0:
192,192,123047,128,0,123324:0:0:0:0:
320,192,123324,1,0,0:0:0:25:kat.wav
448,192,123324,128,0,123602:0:0:0:0:
64,192,123741,1,0,0:0:0:35:don.wav
192,192,123741,1,0,0:0:0:0:
320,192,123880,1,0,0:0:0:35:don.wav
448,192,123880,128,0,124158:0:0:0:0:
64,192,124297,1,0,0:0:0:0:
320,192,124435,1,0,0:0:0:25:kat.wav
448,192,124435,128,0,124713:0:0:0:0:
64,192,124574,1,0,0:0:0:0:
192,192,124713,1,0,0:0:0:0:
320,192,124852,1,0,0:0:0:0:
64,192,124991,128,0,125269:0:0:0:35:don.wav
448,192,124991,1,0,0:0:0:0:
320,192,125547,1,0,0:0:0:25:kat.wav
448,192,125547,1,0,0:0:0:0:
192,192,125685,1,0,0:0:0:0:
64,192,125824,1,0,0:0:0:0:
448,192,125963,1,0,0:0:0:35:don.wav
64,192,126102,1,0,0:0:0:35:don.wav
320,192,126102,1,0,0:0:0:0:
448,192,126241,1,0,0:0:0:0:
192,192,126380,1,0,0:0:0:0:
320,192,126519,1,0,0:0:0:0:
64,192,126658,1,0,0:0:0:25:kat.wav
448,192,126658,1,0,0:0:0:0:
320,192,126797,1,0,0:0:0:0:
192,192,126935,1,0,0:0:0:0:
448,192,127074,1,0,0:0:0:0:
64,192,127213,128,0,127769:0:0:0:35:don.wav
192,192,127213,1,0,0:0:0:0:
192,192,127769,1,0,0:0:0:25:kat.wav
320,192,127769,1,0,0:0:0:0:
448,192,128047,128,0,128880:0:0:0:0:
64,192,128185,1,0,0:0:0:35:don.wav
320,192,128324,1,0,0:0:0:35:don.wav
64,192,128880,1,0,0:0:0:25:kat.wav
192,192,128880,1,0,0:0:0:0:
320,192,129158,128,0,129991:0:0:0:0:
64,192,129435,1,0,0:0:0:35:don.wav
448,192,129435,1,0,0:0:0:0:
64,192,129991,1,0,0:0:0:25:kat.wav
192,192,129991,1,0,0:0:0:0:
64,192,130408,1,0,0:0:0:35:don.wav
192,192,130408,1,0,0:0:0:0:
320,192,130547,1,0,0:0:0:35:don.wav
448,192,130547,128,0,130824:0:0:0:0:
192,192,131102,128,0,131380:0:0:0:25:kat.wav
320,192,131102,1,0,0:0:0:0:
64,192,131658,128,0,132213:0:0:0:35:don.wav
320,192,131658,1,0,0:0:0:0:
192,192,132213,1,0,0:0:0:25:kat.wav
448,192,132213,1,0,0:0:0:0:
320,192,132491,128,0,133324:0:0:0:0:
192,192,132630,1,0,0:0:0:35:don.wav
64,192,132769,1,0,0:0:0:35:don.wav
64,192,133324,1,0,0:0:0:25:kat.wav
448,192,133324,1,0,0:0:0:0:
192,192,133602,128,0,134991:0:0:0:0:
320,192,133880,1,0,0:0:0:35:don.wav
448,192,133880,1,0,0:0:0:0:
64,192,134435,1,0,0:0:0:25:kat.wav
448,192,134435,1,0,0:0:0:0:
448,192,134852,1,0,0:0:0:35:don.wav
64,192,134991,128,0,135269:0:0:0:35:don.wav
320,192,134991,1,0,0:0:0:35:vibraslap.ogg
192,192,135547,1,0,0:0:0:25:kat.wav
448,192,135547,128,0,135824:0:0:0:0:
64,192,136102,128,0,136658:0:0:0:70:crash.wav
192,192,136102,1,0,0:0:0:35:don.wav
448,192,136102,1,0,0:0:0:50:kick.wav
192,192,136658,1,0,0:0:0:25:kat.wav
320,192,136658,1,0,0:0:0:70:snare.wav
448,192,136935,128,0,137769:0:0:0:0:
64,192,137074,1,0,0:0:0:35:don.wav
192,192,137213,1,0,0:0:0:35:don.wav
320,192,137213,1,0,0:0:0:50:kick.wav
64,192,137491,1,0,0:0:0:35:don.wav
192,192,137491,128,0,137769:0:0:0:50:kick.wav
64,192,137769,1,0,0:0:0:25:kat.wav
320,192,137769,1,0,0:0:0:70:snare.wav
320,192,138047,128,0,138880:0:0:0:35:don.wav
448,192,138047,1,0,0:0:0:50:kick.wav
64,192,138324,1,0,0:0:0:35:don.wav
448,192,138324,1,0,0:0:0:50:kick.wav
64,192,138880,1,0,0:0:0:25:kat.wav
192,192,138880,1,0,0:0:0:70:snare.wav
64,192,139297,1,0,0:0:0:35:don.wav
192,192,139297,1,0,0:0:0:50:kick.wav
320,192,139435,1,0,0:0:0:35:don.wav
448,192,139435,128,0,139713:0:0:0:50:kick.wav
64,192,139713,128,0,139991:0:0:0:35:don.wav
192,192,139713,1,0,0:0:0:50:kick.wav
192,192,139991,1,0,0:0:0:25:kat.wav
320,192,139991,128,0,140269:0:0:0:70:snare.wav
64,192,140269,1,0,0:0:0:35:don.wav
448,192,140269,1,0,0:0:0:50:kick.wav
64,192,140547,128,0,141102:0:0:0:35:don.wav
320,192,140547,1,0,0:0:0:50:kick.wav
192,192,141102,1,0,0:0:0:25:kat.wav
448,192,141102,1,0,0:0:0:70:snare.wav
320,192,141380,128,0,142213:0:0:0:0:
192,192,141519,1,0,0:0:0:35:don.wav
64,192,141658,1,0,0:0:0:35:don.wav
448,192,141658,1,0,0:0:0:50:kick.wav
64,192,141935,128,0,142213:0:0:0:35:don.wav
192,192,141935,1,0,0:0:0:50:kick.wav
192,192,142213,1,0,0:0:0:25:kat.wav
448,192,142213,1,0,0:0:0:70:snare.wav
192,192,142491,128,0,143741:0:0:0:35:don.wav
320,192,142491,1,0,0:0:0:50:kick.wav
320,192,142769,1,0,0:0:0:35:don.wav
448,192,142769,1,0,0:0:0:50:kick.wav
64,192,143324,1,0,0:0:0:25:kat.wav
448,192,143324,1,0,0:0:0:70:snare.wav
320,192,143602,128,0,143741:0:0:0:0:
64,192,143741,1,0,0:0:0:35:don.wav
448,192,143741,1,0,0:0:0:50:kick.wav
192,192,143880,1,0,0:0:0:35:don.wav
320,192,143880,1,0,0:0:0:50:kick.wav
