osu file format v14

[General]
AudioFilename: audio.mp3
AudioLeadIn: 0
PreviewTime: 20540
Countdown: 0
SampleSet: Soft
StackLeniency: 0.7
Mode: 3
LetterboxInBreaks: 0
SpecialStyle: 0
WidescreenStoryboard: 1

[Editor]
DistanceSpacing: 1
BeatDivisor: 4
GridSize: 32
TimelineZoom: 1.1

[Metadata]
Title:KISSA Rain
TitleUnicode:喫茶レイン
Artist:Hiromi Shibano
ArtistUnicode:柴野浩美
Creator:HimitsuHiketsu
Version:Kantan
Source:太鼓の達人
Tags:instrumental video game electronic rhythm arcade original taiko no tatsujin 12 don~! to zoryoban きっさレイン cafe Bandai Namco Entertainment
BeatmapID:3981094
BeatmapSetID:1904118

[Difficulty]
HPDrainRate:6
CircleSize:4
OverallDifficulty:6
ApproachRate:5
SliderMultiplier:1.4
SliderTickRate:1

[Events]
//Background and Video events
0,0,"taiko-drummaster-header-mobile.jpg",0,0
//Break Periods
//Storyboard Layer 0 (Background)
//Storyboard Layer 1 (Fail)
//Storyboard Layer 2 (Pass)
//Storyboard Layer 3 (Foreground)
//Storyboard Layer 4 (Overlay)
//Storyboard Sound Samples
Sample,1519,0,"don.wav",35
Sample,3324,0,"kat.wav",25
Sample,3880,0,"don.wav",35
Sample,4435,0,"kat.wav",25
Sample,5547,0,"kat.wav",25
Sample,5963,0,"don.wav",35
Sample,7769,0,"kat.wav",25
Sample,8324,0,"don.wav",35
Sample,8880,0,"kat.wav",25
Sample,9991,0,"kat.wav",25
Sample,10408,0,"don.wav",35
Sample,12213,0,"kat.wav",25
Sample,12769,0,"don.wav",35
Sample,13324,0,"kat.wav",25
Sample,14435,0,"kat.wav",25
Sample,14852,0,"don.wav",35
Sample,16658,0,"kat.wav",25
Sample,17213,0,"don.wav",35
Sample,17769,0,"kat.wav",25
Sample,18880,0,"kat.wav",25
Sample,19297,0,"don.wav",35
Sample,19991,0,"kat.wav",25
Sample,21658,0,"don.wav",35
Sample,23324,0,"kat.wav",25
Sample,23741,0,"don.wav",35
Sample,24435,0,"kat.wav",25
Sample,24991,0,"don.wav",35
Sample,25547,0,"kat.wav",25
Sample,25963,0,"don.wav",35
Sample,26658,0,"kat.wav",25
Sample,27213,0,"don.wav",35
Sample,27769,0,"kat.wav",25
Sample,28185,0,"don.wav",35
Sample,30547,0,"don.wav",35
Sample,32213,0,"kat.wav",25
Sample,32630,0,"don.wav",35
Sample,33324,0,"kat.wav",25
Sample,33880,0,"don.wav",35
Sample,34435,0,"kat.wav",25
Sample,34852,0,"don.wav",35
Sample,35547,0,"kat.wav",25
Sample,36102,0,"don.wav",35
Sample,36658,0,"kat.wav",25
Sample,37074,0,"don.wav",35
Sample,37769,0,"kat.wav",25
Sample,39435,0,"don.wav",35
Sample,41102,0,"kat.wav",25
Sample,41519,0,"don.wav",35
Sample,42213,0,"kat.wav",25
Sample,42769,0,"don.wav",35
Sample,43324,0,"kat.wav",25
Sample,43741,0,"don.wav",35
Sample,44435,0,"kat.wav",25
Sample,44991,0,"don.wav",35
Sample,45547,0,"kat.wav",25
Sample,45963,0,"don.wav",35
Sample,48324,0,"don.wav",35
Sample,49991,0,"kat.wav",25
Sample,50408,0,"don.wav",35
Sample,51102,0,"kat.wav",25
Sample,51658,0,"don.wav",35
Sample,52213,0,"kat.wav",25
Sample,52630,0,"don.wav",35
Sample,53324,0,"kat.wav",25
Sample,53880,0,"don.wav",35
Sample,54435,0,"kat.wav",25
Sample,54852,0,"don.wav",35
Sample,56102,0,"don.wav",35
Sample,57074,0,"don.wav",35
Sample,58880,0,"kat.wav",25
Sample,59297,0,"don.wav",35
Sample,59435,0,"don.wav",35
Sample,60547,0,"don.wav",35
Sample,61519,0,"don.wav",35
Sample,63741,0,"don.wav",35
Sample,64991,0,"don.wav",35
Sample,65963,0,"don.wav",35
Sample,67769,0,"kat.wav",25
Sample,68185,0,"don.wav",35
Sample,68324,0,"don.wav",35
Sample,69435,0,"don.wav",35
Sample,70408,0,"don.wav",35
Sample,72630,0,"don.wav",35
Sample,74991,0,"don.wav",35
Sample,76658,0,"kat.wav",25
Sample,77074,0,"don.wav",35
Sample,77769,0,"kat.wav",25
Sample,78324,0,"don.wav",35
Sample,78880,0,"kat.wav",25
Sample,79297,0,"don.wav",35
Sample,79991,0,"kat.wav",25
Sample,80547,0,"don.wav",35
Sample,81102,0,"kat.wav",25
Sample,81519,0,"don.wav",35
Sample,83880,0,"don.wav",35
Sample,85547,0,"kat.wav",25
Sample,85963,0,"don.wav",35
Sample,86658,0,"kat.wav",25
Sample,87213,0,"don.wav",35
Sample,87769,0,"kat.wav",25
Sample,88185,0,"don.wav",35
Sample,88880,0,"kat.wav",25
Sample,89435,0,"don.wav",35
Sample,89991,0,"kat.wav",25
Sample,90408,0,"don.wav",35
Sample,91102,0,"kat.wav",25
Sample,92769,0,"don.wav",35
Sample,94435,0,"kat.wav",25
Sample,94852,0,"don.wav",35
Sample,95547,0,"kat.wav",25
Sample,96102,0,"don.wav",35
Sample,96658,0,"kat.wav",25
Sample,97074,0,"don.wav",35
Sample,97769,0,"kat.wav",25
Sample,98324,0,"don.wav",35
Sample,98880,0,"kat.wav",25
Sample,99297,0,"don.wav",35
Sample,101658,0,"don.wav",35
Sample,103324,0,"kat.wav",25
Sample,103741,0,"don.wav",35
Sample,104435,0,"kat.wav",25
Sample,104991,0,"don.wav",35
Sample,105547,0,"kat.wav",25
Sample,105963,0,"don.wav",35
Sample,106658,0,"kat.wav",25
Sample,107213,0,"don.wav",35
Sample,107769,0,"kat.wav",25
Sample,108185,0,"don.wav",35
Sample,109435,0,"don.wav",35
Sample,110408,0,"don.wav",35
Sample,112213,0,"kat.wav",25
Sample,112630,0,"don.wav",35
Sample,112769,0,"don.wav",35
Sample,113880,0,"don.wav",35
Sample,114852,0,"don.wav",35
Sample,117074,0,"don.wav",35
Sample,118324,0,"don.wav",35
Sample,119297,0,"don.wav",35
Sample,121102,0,"kat.wav",25
Sample,121519,0,"don.wav",35
Sample,121658,0,"don.wav",35
Sample,122769,0,"don.wav",35
Sample,123741,0,"don.wav",35
Sample,125963,0,"don.wav",35
Sample,128185,0,"don.wav",35
Sample,128324,0,"don.wav",35
Sample,129435,0,"don.wav",35
Sample,130408,0,"don.wav",35
Sample,132630,0,"don.wav",35
Sample,132769,0,"don.wav",35
Sample,133880,0,"don.wav",35
Sample,134435,0,"kat.wav",25
Sample,134852,0,"don.wav",35
Sample,134991,0,"don.wav",35
Sample,136102,0,"kick.wav",50
Sample,136658,0,"snare.wav",70
Sample,137074,0,"don.wav",35
Sample,137074,0,"kick.wav",50
Sample,137213,0,"don.wav",35
Sample,137213,0,"kick.wav",50
Sample,137491,0,"kick.wav",50
Sample,137769,0,"snare.wav",70
Sample,138047,0,"kick.wav",50
Sample,138324,0,"don.wav",35
Sample,138324,0,"kick.wav",50
Sample,138880,0,"snare.wav",70
Sample,139297,0,"don.wav",35
Sample,139297,0,"kick.wav",50
Sample,139435,0,"kick.wav",50
Sample,139713,0,"kick.wav",50
Sample,139991,0,"snare.wav",70
Sample,140269,0,"kick.wav",50
Sample,140547,0,"kick.wav",50
Sample,141102,0,"snare.wav",70
Sample,141519,0,"don.wav",35
Sample,141519,0,"kick.wav",50
Sample,141658,0,"don.wav",35
Sample,141658,0,"kick.wav",50
Sample,141935,0,"kick.wav",50
Sample,142213,0,"snare.wav",70
Sample,142491,0,"kick.wav",50
Sample,142769,0,"don.wav",35
Sample,142769,0,"kick.wav",50
Sample,143324,0,"snare.wav",70
Sample,143741,0,"don.wav",35
Sample,143741,0,"kick.wav",50

[TimingPoints]
547,555.555555555556,4,2,1,25,1,0
56102,-100.0,4,2,1,25,0,1
73880,-100.0,4,2,1,25,0,0
109435,-100.0,4,2,1,25,0,1
127213,-100.0,4,2,1,25,0,0

[HitObjects]
192,192,547,1,0,0:0:0:35:don.wav
448,192,1102,1,0,0:0:0:25:kat.wav
192,192,1658,1,0,0:0:0:35:don.wav
448,192,2213,1,0,0:0:0:25:kat.wav
64,192,2769,1,0,0:0:0:35:don.wav
320,192,3047,1,0,0:0:0:0:
192,192,3463,1,0,0:0:0:0:
64,192,3741,1,0,0:0:0:35:don.wav
448,192,4158,128,0,4991:0:0:0:0:
64,192,4991,1,0,0:0:0:35:don.wav
320,192,5269,1,0,0:0:0:0:
192,192,5685,1,0,0:0:0:0:
448,192,6102,1,0,0:0:0:35:don.wav
448,192,6658,1,0,0:0:0:25:kat.wav
64,192,7213,1,0,0:0:0:35:don.wav
448,192,7491,1,0,0:0:0:0:
320,192,7908,1,0,0:0:0:0:
64,192,8185,1,0,0:0:0:35:don.wav
192,192,8602,1,0,0:0:0:0:
192,192,9158,1,0,0:0:0:0:
448,192,9435,1,0,0:0:0:35:don.wav
320,192,9713,1,0,0:0:0:0:
64,192,10130,1,0,0:0:0:0:
448,192,10547,128,0,11102:0:0:0:35:don.wav
192,192,11102,1,0,0:0:0:25:kat.wav
64,192,11658,1,0,0:0:0:35:don.wav
320,192,11935,1,0,0:0:0:0:
192,192,12352,1,0,0:0:0:0:
64,192,12630,1,0,0:0:0:35:don.wav
448,192,13047,128,0,13880:0:0:0:0:
64,192,13880,1,0,0:0:0:35:don.wav
320,192,14158,1,0,0:0:0:0:
192,192,14574,1,0,0:0:0:0:
448,192,14991,1,0,0:0:0:35:don.wav
448,192,15547,1,0,0:0:0:25:kat.wav
192,192,16102,1,0,0:0:0:35:don.wav
448,192,16380,1,0,0:0:0:0:
320,192,16797,1,0,0:0:0:0:
64,192,17074,1,0,0:0:0:35:don.wav
192,192,17491,1,0,0:0:0:0:
192,192,18047,1,0,0:0:0:0:
448,192,18324,1,0,0:0:0:35:don.wav
64,192,18602,1,0,0:0:0:0:
192,192,19019,1,0,0:0:0:0:
320,192,19435,1,0,0:0:0:35:don.wav
448,192,19852,128,0,20547:0:0:0:0:
64,192,20547,1,0,0:0:0:35:don.wav
192,192,20824,1,0,0:0:0:0:
320,192,21102,1,0,0:0:0:25:kat.wav
64,192,21519,1,0,0:0:0:35:don.wav
320,192,21935,1,0,0:0:0:0:
192,192,22213,1,0,0:0:0:25:kat.wav
448,192,22491,1,0,0:0:0:0:
64,192,22769,1,0,0:0:0:35:don.wav
192,192,23602,1,0,0:0:0:0:
448,192,23880,1,0,0:0:0:35:don.wav
320,192,24158,1,0,0:0:0:0:
192,192,24574,1,0,0:0:0:0:
320,192,24852,1,0,0:0:0:0:
64,192,25130,1,0,0:0:0:0:
320,192,25824,1,0,0:0:0:0:
448,192,26102,1,0,0:0:0:35:don.wav
192,192,26519,1,0,0:0:0:0:
320,192,26935,128,0,27491:0:0:0:0:
64,192,27491,1,0,0:0:0:0:
192,192,27908,1,0,0:0:0:0:
448,192,28324,128,0,28880:0:0:0:35:don.wav
64,192,28880,128,0,29435:0:0:0:25:kat.wav
448,192,29435,1,0,0:0:0:35:don.wav
192,192,29713,1,0,0:0:0:0:
320,192,29991,1,0,0:0:0:25:kat.wav
64,192,30408,1,0,0:0:0:35:don.wav
320,192,30824,1,0,0:0:0:0:
448,192,31102,1,0,0:0:0:25:kat.wav
192,192,31380,1,0,0:0:0:0:
64,192,31658,1,0,0:0:0:35:don.wav
192,192,32491,1,0,0:0:0:0:
448,192,32769,1,0,0:0:0:35:don.wav
64,192,33047,1,0,0:0:0:0:
320,192,33463,1,0,0:0:0:0:
192,192,33741,1,0,0:0:0:0:
64,192,34158,128,0,34991:0:0:0:0:
448,192,34991,1,0,0:0:0:35:don.wav
192,192,35408,1,0,0:0:0:0:
448,192,35685,1,0,0:0:0:0:
320,192,35963,1,0,0:0:0:0:
192,192,36380,1,0,0:0:0:0:
64,192,36797,1,0,0:0:0:0:
448,192,37213,128,0,38324:0:0:0:35:don.wav
64,192,38324,1,0,0:0:0:35:don.wav
192,192,38602,1,0,0:0:0:0:
320,192,38880,1,0,0:0:0:25:kat.wav
64,192,39297,1,0,0:0:0:35:don.wav
320,192,39713,1,0,0:0:0:0:
192,192,39991,1,0,0:0:0:25:kat.wav
448,192,40269,1,0,0:0:0:0:
64,192,40547,1,0,0:0:0:35:don.wav
192,192,41380,1,0,0:0:0:0:
448,192,41658,1,0,0:0:0:35:don.wav
320,192,41935,1,0,0:0:0:0:
192,192,42352,1,0,0:0:0:0:
320,192,42630,1,0,0:0:0:0:
64,192,42908,1,0,0:0:0:0:
320,192,43602,1,0,0:0:0:0:
448,192,43880,1,0,0:0:0:35:don.wav
192,192,44297,1,0,0:0:0:0:
320,192,44713,128,0,45269:0:0:0:0:
64,192,45269,1,0,0:0:0:0:
192,192,45685,1,0,0:0:0:0:
448,192,46102,128,0,46658:0:0:0:35:don.wav
64,192,46658,1,0,0:0:0:25:kat.wav
320,192,46935,1,0,0:0:0:0:
448,192,47213,1,0,0:0:0:35:don.wav
192,192,47491,1,0,0:0:0:0:
320,192,47769,1,0,0:0:0:25:kat.wav
64,192,48185,1,0,0:0:0:35:don.wav
320,192,48602,1,0,0:0:0:0:
448,192,48880,1,0,0:0:0:25:kat.wav
192,192,49158,1,0,0:0:0:0:
64,192,49435,1,0,0:0:0:35:don.wav
192,192,50269,1,0,0:0:0:0:
448,192,50547,1,0,0:0:0:35:don.wav
64,192,50824,1,0,0:0:0:0:
320,192,51241,1,0,0:0:0:0:
192,192,51519,1,0,0:0:0:0:
320,192,51797,1,0,0:0:0:0:
64,192,52074,128,0,52769:0:0:0:0:
448,192,52769,1,0,0:0:0:35:don.wav
192,192,53185,1,0,0:0:0:0:
448,192,53463,1,0,0:0:0:0:
320,192,53741,1,0,0:0:0:0:
192,192,54158,1,0,0:0:0:0:
320,192,54574,1,0,0:0:0:0:
448,192,54991,1,0,0:0:0:35:don.wav
64,192,55269,1,0,0:0:0:0:
192,192,55547,1,0,0:0:0:25:kat.wav
320,192,55824,128,0,56380:0:0:0:0:
448,192,56380,1,0,0:0:0:0:
64,192,56658,1,0,0:0:0:25:kat.wav
64,192,57213,1,0,0:0:0:35:don.wav
448,192,57769,1,0,0:0:0:25:kat.wav
320,192,58047,1,0,0:0:0:0:
192,192,58324,1,0,0:0:0:35:don.wav
64,192,58602,1,0,0:0:0:0:
448,192,59713,1,0,0:0:0:0:
320,192,59991,1,0,0:0:0:25:kat.wav
64,192,60269,128,0,60824:0:0:0:0:
192,192,60824,1,0,0:0:0:0:
448,192,61102,1,0,0:0:0:25:kat.wav
448,192,61658,1,0,0:0:0:35:don.wav
64,192,62213,1,0,0:0:0:25:kat.wav
192,192,62491,1,0,0:0:0:0:
320,192,62769,1,0,0:0:0:35:don.wav
448,192,63324,1,0,0:0:0:25:kat.wav
64,192,63880,1,0,0:0:0:35:don.wav
448,192,64158,1,0,0:0:0:0:
320,192,64435,1,0,0:0:0:25:kat.wav
64,192,64713,128,0,65269:0:0:0:0:
192,192,65269,1,0,0:0:0:0:
448,192,65547,1,0,0:0:0:25:kat.wav
448,192,66102,1,0,0:0:0:35:don.wav
64,192,66658,1,0,0:0:0:25:kat.wav
192,192,66935,1,0,0:0:0:0:
320,192,67213,1,0,0:0:0:35:don.wav
448,192,67491,1,0,0:0:0:0:
64,192,68602,1,0,0:0:0:0:
192,192,68880,1,0,0:0:0:25:kat.wav
320,192,69158,128,0,69713:0:0:0:0:
448,192,69713,1,0,0:0:0:0:
64,192,69991,1,0,0:0:0:25:kat.wav
64,192,70547,1,0,0:0:0:35:don.wav
448,192,71102,1,0,0:0:0:25:kat.wav
320,192,71380,1,0,0:0:0:0:
192,192,71658,1,0,0:0:0:35:don.wav
64,192,72213,1,0,0:0:0:25:kat.wav
448,192,72769,1,0,0:0:0:35:don.wav
64,192,73324,1,0,0:0:0:25:kat.wav
64,192,73880,1,0,0:0:0:35:don.wav
192,192,74158,1,0,0:0:0:0:
320,192,74435,1,0,0:0:0:25:kat.wav
64,192,74852,1,0,0:0:0:35:don.wav
320,192,75269,1,0,0:0:0:0:
192,192,75547,1,0,0:0:0:25:kat.wav
448,192,75824,1,0,0:0:0:0:
64,192,76102,1,0,0:0:0:35:don.wav
192,192,76935,1,0,0:0:0:0:
448,192,77213,1,0,0:0:0:35:don.wav
320,192,77491,1,0,0:0:0:0:
192,192,77908,1,0,0:0:0:0:
320,192,78185,1,0,0:0:0:0:
64,192,78463,1,0,0:0:0:0:
320,192,79158,1,0,0:0:0:0:
448,192,79435,1,0,0:0:0:35:don.wav
192,192,79852,1,0,0:0:0:0:
320,192,80269,128,0,80824:0:0:0:0:
64,192,80824,1,0,0:0:0:0:
192,192,81241,1,0,0:0:0:0:
448,192,81658,128,0,82213:0:0:0:35:don.wav
64,192,82213,128,0,82769:0:0:0:25:kat.wav
448,192,82769,1,0,0:0:0:35:don.wav
192,192,83047,1,0,0:0:0:0:
320,192,83324,1,0,0:0:0:25:kat.wav
64,192,83741,1,0,0:0:0:35:don.wav
320,192,84158,1,0,0:0:0:0:
448,192,84435,1,0,0:0:0:25:kat.wav
192,192,84713,1,0,0:0:0:0:
64,192,84991,1,0,0:0:0:35:don.wav
192,192,85824,1,0,0:0:0:0:
448,192,86102,1,0,0:0:0:35:don.wav
64,192,86380,1,0,0:0:0:0:
320,192,86797,1,0,0:0:0:0:
192,192,87074,1,0,0:0:0:0:
64,192,87491,128,0,88324:0:0:0:0:
448,192,88324,1,0,0:0:0:35:don.wav
192,192,88741,1,0,0:0:0:0:
448,192,89019,1,0,0:0:0:0:
320,192,89297,1,0,0:0:0:0:
192,192,89713,1,0,0:0:0:0:
64,192,90130,1,0,0:0:0:0:
448,192,90547,128,0,91658:0:0:0:35:don.wav
64,192,91658,1,0,0:0:0:35:don.wav
192,192,91935,1,0,0:0:0:0:
320,192,92213,1,0,0:0:0:25:kat.wav
64,192,92630,1,0,0:0:0:35:don.wav
320,192,93047,1,0,0:0:0:0:
192,192,93324,1,0,0:0:0:25:kat.wav
448,192,93602,1,0,0:0:0:0:
64,192,93880,1,0,0:0:0:35:don.wav
192,192,94713,1,0,0:0:0:0:
448,192,94991,1,0,0:0:0:35:don.wav
320,192,95269,1,0,0:0:0:0:
192,192,95685,1,0,0:0:0:0:
320,192,95963,1,0,0:0:0:0:
64,192,96241,1,0,0:0:0:0:
320,192,96935,1,0,0:0:0:0:
448,192,97213,1,0,0:0:0:35:don.wav
192,192,97630,1,0,0:0:0:0:
320,192,98047,128,0,98602:0:0:0:0:
64,192,98602,1,0,0:0:0:0:
192,192,99019,1,0,0:0:0:0:
448,192,99435,128,0,99991:0:0:0:35:don.wav
64,192,99991,1,0,0:0:0:25:kat.wav
320,192,100269,1,0,0:0:0:0:
448,192,100547,1,0,0:0:0:35:don.wav
192,192,100824,1,0,0:0:0:0:
320,192,101102,1,0,0:0:0:25:kat.wav
64,192,101519,1,0,0:0:0:35:don.wav
320,192,101935,1,0,0:0:0:0:
448,192,102213,1,0,0:0:0:25:kat.wav
192,192,102491,1,0,0:0:0:0:
64,192,102769,1,0,0:0:0:35:don.wav
192,192,103602,1,0,0:0:0:0:
448,192,103880,1,0,0:0:0:35:don.wav
64,192,104158,1,0,0:0:0:0:
320,192,104574,1,0,0:0:0:0:
192,192,104852,1,0,0:0:0:0:
320,192,105130,1,0,0:0:0:0:
64,192,105408,128,0,106102:0:0:0:0:
448,192,106102,1,0,0:0:0:35:don.wav
192,192,106519,1,0,0:0:0:0:
448,192,106797,1,0,0:0:0:0:
320,192,107074,1,0,0:0:0:0:
192,192,107491,1,0,0:0:0:0:
320,192,107908,1,0,0:0:0:0:
448,192,108324,1,0,0:0:0:35:don.wav
64,192,108602,1,0,0:0:0:0:
192,192,108880,1,0,0:0:0:25:kat.wav
320,192,109158,128,0,109713:0:0:0:0:
448,192,109713,1,0,0:0:0:0:
64,192,109991,1,0,0:0:0:25:kat.wav
64,192,110547,1,0,0:0:0:35:don.wav
448,192,111102,1,0,0:0:0:25:kat.wav
320,192,111380,1,0,0:0:0:0:
192,192,111658,1,0,0:0:0:35:don.wav
64,192,111935,1,0,0:0:0:0:
448,192,113047,1,0,0:0:0:0:
320,192,113324,1,0,0:0:0:25:kat.wav
64,192,113602,128,0,114158:0:0:0:0:
192,192,114158,1,0,0:0:0:0:
448,192,114435,1,0,0:0:0:25:kat.wav
448,192,114991,1,0,0:0:0:35:don.wav
64,192,115547,1,0,0:0:0:25:kat.wav
192,192,115824,1,0,0:0:0:0:
320,192,116102,1,0,0:0:0:35:don.wav
448,192,116658,1,0,0:0:0:25:kat.wav
64,192,117213,1,0,0:0:0:35:don.wav
448,192,117491,1,0,0:0:0:0:
320,192,117769,1,0,0:0:0:25:kat.wav
64,192,118047,128,0,118602:0:0:0:0:
192,192,118602,1,0,0:0:0:0:
448,192,118880,1,0,0:0:0:25:kat.wav
448,192,119435,1,0,0:0:0:35:don.wav
64,192,119991,1,0,0:0:0:25:kat.wav
192,192,120269,1,0,0:0:0:0:
320,192,120547,1,0,0:0:0:35:don.wav
448,192,120824,1,0,0:0:0:0:
64,192,121935,1,0,0:0:0:0:
192,192,122213,1,0,0:0:0:25:kat.wav
320,192,122491,128,0,123047:0:0:0:0:
448,192,123047,1,0,0:0:0:0:
64,192,123324,1,0,0:0:0:25:kat.wav
64,192,123880,1,0,0:0:0:35:don.wav
448,192,124435,1,0,0:0:0:25:kat.wav
320,192,124713,1,0,0:0:0:0:
192,192,124991,1,0,0:0:0:35:don.wav
64,192,125547,1,0,0:0:0:25:kat.wav
448,192,126102,1,0,0:0:0:35:don.wav
64,192,126658,1,0,0:0:0:25:kat.wav
192,192,127213,128,0,127769:0:0:0:35:don.wav
320,192,127769,1,0,0:0:0:25:kat.wav
64,192,128047,128,0,128880:0:0:0:0:
448,192,128880,1,0,0:0:0:25:kat.wav
320,192,129158,128,0,129991:0:0:0:0:
192,192,129991,1,0,0:0:0:25:kat.wav
448,192,130547,1,0,0:0:0:35:don.wav
64,192,131102,1,0,0:0:0:25:kat.wav
320,192,131658,128,0,132213:0:0:0:35:don.wav
64,192,132213,1,0,0:0:0:25:kat.wav
192,192,132491,128,0,133324:0:0:0:0:
448,192,133324,1,0,0:0:0:25:kat.wav
64,192,133602,128,0,134991:0:0:0:0:
320,192,134991,1,0,0:0:0:70:vibraslap.ogg
448,192,135547,1,0,0:0:0:25:kat.wav
192,192,136102,128,0,136658:0:0:0:70:crash.wav
448,192,136102,1,0,0:0:0:35:don.wav
320,192,136658,1,0,0:0:0:25:kat.wav
64,192,136935,128,0,137491:0:0:0:0:
192,192,137491,1,0,0:0:0:35:don.wav
448,192,137769,1,0,0:0:0:25:kat.wav
320,192,138047,128,0,138880:0:0:0:35:don.wav
64,192,138880,1,0,0:0:0:25:kat.wav
448,192,139435,1,0,0:0:0:35:don.wav
320,192,139713,1,0,0:0:0:35:don.wav
64,192,139991,1,0,0:0:0:25:kat.wav
192,192,140269,1,0,0:0:0:35:don.wav
320,192,140547,128,0,141102:0:0:0:35:don.wav
64,192,141102,1,0,0:0:0:25:kat.wav
192,192,141380,128,0,141935:0:0:0:0:
320,192,141935,1,0,0:0:0:35:don.wav
448,192,142213,1,0,0:0:0:25:kat.wav
64,192,142491,128,0,143324:0:0:0:35:don.wav
448,192,143324,1,0,0:0:0:25:kat.wav
192,192,143880,1,0,0:0:0:35:don.wav
320,192,143880,1,0,0:0:0:50:kick.wav
