osu file format v14

[General]
AudioFilename: audio.mp3
AudioLeadIn: 0
PreviewTime: 67316
Countdown: 0
SampleSet: Soft
StackLeniency: 0.7
Mode: 0
LetterboxInBreaks: 0
EpilepsyWarning: 1
WidescreenStoryboard: 1

[Editor]
Bookmarks: 234508
DistanceSpacing: 1.2
BeatDivisor: 4
GridSize: 8
TimelineZoom: 1.8

[Metadata]
Title:Kowarekake no Orgol
TitleUnicode:こわれかけのオルゴール
Artist:Hiromi Satou
ArtistUnicode:佐藤 ひろ美
Creator:Hikari-
Version:Flower
Source:こわれかけのオルゴール
Tags:
BeatmapID:1210980
BeatmapSetID:571409

[Difficulty]
HPDrainRate:5
CircleSize:4.2
OverallDifficulty:8
ApproachRate:8.2
SliderMultiplier:1.5
SliderTickRate:1

[Events]
//Background and Video events
0,0,"backgroud.jpg",0,0
//Break Periods
2,112867,119332
2,188559,197562
2,234713,247639
//Storyboard Layer 0 (Background)
//Storyboard Layer 1 (Fail)
//Storyboard Layer 2 (Pass)
//Storyboard Layer 3 (Foreground)
//Storyboard Sound Samples

[TimingPoints]
52,461.538461538462,4,2,1,60,1,0
4898,-100,4,2,1,40,0,0
7436,-100,4,2,1,60,0,0
22205,-133.333333333333,4,2,1,40,0,0
36975,-100,4,2,1,60,0,0
51744,-133.333333333333,4,2,1,40,0,0
59128,-100,4,2,1,60,0,0
64667,-100,4,2,1,70,0,0
65590,-83.3333333333333,4,2,1,80,0,0
67436,-200,4,2,1,30,0,0
68359,-100,4,2,1,70,0,1
97898,-100,4,2,1,60,0,0
112667,-133.333333333333,4,2,1,40,0,0
127436,-100,4,2,1,60,0,0
142205,-133.333333333333,4,2,1,40,0,0
149590,-100,4,2,1,60,0,0
156052,-83.3333333333333,4,2,1,70,0,0
158821,-100,4,2,1,70,0,1
188359,-100,4,2,1,70,0,0
199436,-100,4,2,1,50,0,0
201282,-100,4,2,1,60,0,0
202205,-100,4,2,1,70,0,0
217898,-133.333333333333,4,2,1,50,0,0
225282,-100,4,2,1,60,0,0
231744,-83.3333333333333,4,2,1,70,0,0
233590,-133.333333333333,4,2,1,50,0,0
249282,-100,4,2,1,70,0,0
263128,-200,4,2,1,40,0,0
264052,-100,4,2,1,70,0,1
293590,-133.333333333333,4,2,1,50,0,0
296359,-133.333333333333,4,2,1,20,0,0

[Colours]
Combo1 : 83,240,189
Combo2 : 253,128,168
Combo3 : 140,165,249
Combo4 : 255,102,102

[HitObjects]
112,88,52,5,0,0:0:0:0:
119,173,282,1,2,0:0:0:0:
126,255,513,1,2,0:0:0:0:
320,336,744,2,0,P|397:335|459:293,2,150,0|2|0,0:0|0:0|0:0,0:0:0:0:
312,328,2128,5,0,0:0:0:0:
344,192,2359,1,2,0:0:0:0:
350,201,2821,1,0,0:0:0:0:
234,242,3052,1,2,0:0:0:0:
142,159,3282,2,0,P|108:144|61:146,1,75,2|0,0:0|0:0,0:0:0:0:
60,323,3744,5,0,0:0:0:0:
146,330,3975,1,2,0:0:0:0:
231,338,4205,1,2,0:0:0:0:
285,167,4436,2,0,L|265:10,2,150,0|2|2,0:0|0:0|0:0,0:0:0:0:
256,192,5590,12,4,7436,1:2:0:0:
167,103,7898,5,2,0:0:0:0:
167,103,8128,2,0,B|144:112|136:144|136:144|176:192|157:239,1,150,0|0,1:0|3:0,0:0:0:0:
80,201,8821,1,0,1:0:0:0:
80,201,9052,1,0,1:0:0:0:
314,26,9513,6,0,P|323:64|328:104,1,75,2|0,0:0|0:0,0:0:0:0:
236,79,9975,1,0,3:0:0:0:
221,194,10205,2,0,B|250:187|270:166|270:166|307:201|356:185,1,150,0|0,1:0|3:0,0:0:0:0:
422,111,10898,1,0,1:0:0:0:
448,243,11128,6,0,P|450:293|430:338,1,75,0|0,1:0|0:0,0:0:0:0:
357,269,11590,1,2,0:0:0:0:
305,339,11821,2,0,B|282:331|261:305|261:305|217:342|161:328,1,150,0|0,1:0|3:0,0:0:0:0:
102,213,12513,1,0,1:0:0:0:
190,247,12744,1,6,0:0:0:0:
273,68,13205,5,2,0:0:0:0:
168,32,13436,2,0,L|178:117,1,75,0|2,1:0|0:0,0:0:0:0:
288,176,13898,1,0,3:2:0:0:
273,68,14128,1,0,1:0:0:0:
88,138,14359,2,0,L|101:217,1,75,0|0,1:0|0:0,0:0:0:0:
124,336,14821,5,4,0:0:0:0:
439,242,15282,1,2,0:0:0:0:
439,242,15513,2,0,B|392:210|392:210|339:212|306:241,1,150,0|0,1:0|3:0,0:0:0:0:
376,307,16205,1,0,1:0:0:0:
397,128,16436,1,0,1:0:0:0:
144,60,16898,6,0,L|149:146,1,75,2|0,0:0|0:0,0:0:0:0:
203,220,17359,1,0,3:0:0:0:
77,183,17590,2,0,P|24:225|63:281,1,150,0|0,1:0|3:0,0:0:0:0:
128,345,18282,1,0,1:0:0:0:
212,322,18513,6,0,L|309:315,1,75,0|0,1:0|0:0,0:0:0:0:
424,262,18975,1,0,3:0:0:0:
424,262,19090,1,0,0:0:0:0:
310,174,19321,1,0,0:0:0:0:
310,174,19436,1,0,3:0:0:0:
287,317,19667,1,2,0:0:0:0:
424,147,19898,1,0,1:0:0:0:
221,100,20128,1,4,0:0:0:0:
208,104,20590,5,0,1:0:0:0:
254,317,20821,2,0,P|274:289|252:184,1,150,0|0,1:0|0:0,0:0:0:0:
167,341,21513,1,0,3:0:0:0:
89,288,21744,1,0,1:0:0:0:
64,279,21859,1,0,3:0:0:0:
38,278,21974,1,0,3:0:0:0:
173,246,22205,5,0,1:0:0:0:
173,246,22667,2,0,P|172:218|163:177,1,56.2500021457673,2|0,0:0|0:0,0:0:0:0:
77,154,23128,1,2,0:0:0:0:
77,154,23590,2,0,P|83:126|98:89,1,56.2500021457673,2|0,1:3|1:0,0:0:0:0:
115,17,24052,6,0,L|233:35,2,112.500004291535,0|0|2,1:0|0:0|0:0,0:0:0:0:
235,152,25436,1,2,1:3:0:0:
318,128,25667,1,0,1:0:0:0:
400,99,25898,2,0,P|421:137|415:217,1,112.500004291535,0|0,1:0|0:0,0:0:0:0:
376,273,26590,2,0,P|351:266|309:265,1,56.2500021457673,2|0,0:0|0:0,0:0:0:0:
255,331,27052,2,0,P|227:331|185:344,1,56.2500021457673,2|2,0:0|1:3,0:0:0:0:
115,313,27513,1,0,1:0:0:0:
57,186,27744,5,0,1:0:0:0:
57,186,28205,2,0,P|112:185|157:152,1,112.500004291535,2|0,0:0|0:0,0:0:0:0:
85,90,28898,1,0,1:0:0:0:
231,47,29128,2,0,L|236:98,1,28.1250010728836,2|0,0:0|1:0,0:0:0:0:
236,109,29359,1,2,1:2:0:0:
369,233,29590,6,0,L|240:250,1,112.500004291535,0|0,1:0|0:0,0:0:0:0:
423,305,30282,2,0,P|455:266|450:207,1,112.500004291535,2|0,0:0|0:0,0:0:0:0:
374,145,30975,1,2,1:3:0:0:
449,206,31205,1,0,1:0:0:0:
374,39,31436,6,0,P|357:95|378:151,1,112.500004291535,0|0,1:0|0:0,0:0:0:0:
446,97,32128,1,2,0:0:0:0:
265,30,32359,2,0,L|272:123,1,84.375003218651
274,147,32821,1,2,1:3:0:0:
386,234,33052,1,0,1:0:0:0:
291,314,33282,6,0,P|235:311|178:319,1,112.500004291535,0|0,1:0|0:0,0:0:0:0:
58,200,33975,2,0,L|37:143,1,56.2500021457673,0|0,1:2|0:0,0:0:0:0:
143,245,34436,2,0,L|196:224,1,56.2500021457673,2|2,0:0|1:3,0:0:0:0:
22,296,34898,1,0,1:0:0:0:
118,343,35128,5,0,1:0:0:0:
128,155,35359,1,2,0:0:0:0:
131,128,35474,1,0,0:0:0:0:
267,223,35705,1,2,0:0:0:0:
294,234,35820,1,0,0:0:0:0:
327,236,35935,1,0,0:0:0:0:
360,230,36051,1,2,0:0:0:0:
321,144,36282,1,0,1:3:0:0:
321,144,36398,1,0,0:0:0:0:
305,316,36628,1,0,1:0:0:0:
305,316,36744,1,0,0:0:0:0:
436,303,36975,6,0,P|461:283|476:231,1,75,0|0,3:0|0:0,0:0:0:0:
414,166,37436,2,0,P|418:131|402:86,1,75,8|0,0:0|0:0,0:0:0:0:
316,132,37898,2,0,L|241:113,1,75,0|0,1:0|0:0,0:0:0:0:
146,131,38359,1,8,0:0:0:0:
70,77,38590,1,2,0:0:0:0:
70,77,38705,1,0,0:0:0:0:
70,77,38821,6,0,P|56:106|51:157,1,75,0|0,3:0|0:0,0:0:0:0:
164,211,39282,2,0,P|193:221|225:263,1,75,8|0,0:0|0:0,0:0:0:0:
48,328,39744,2,0,L|33:240,1,75,0|0,1:0|0:0,0:0:0:0:
152,344,40205,1,8,0:0:0:0:
152,344,40667,6,0,B|210:365|246:323|246:323|278:320|299:343,1,150,4|8,3:2|0:0,0:0:0:0:
468,250,41359,2,0,P|463:210|447:163,1,75,2|0,0:0|3:0,0:0:0:0:
319,232,41821,2,0,P|287:232|240:212,1,75,2|8,0:0|0:0,0:0:0:0:
140,114,42282,1,2,0:0:0:0:
238,132,42513,6,0,L|224:56,1,75,0|2,1:0|0:0,0:0:0:0:
216,23,42859,1,0,0:0:0:0:
103,195,43090,1,2,0:0:0:0:
125,198,43205,1,0,0:0:0:0:
147,201,43320,1,0,0:0:0:0:
169,204,43436,1,0,3:2:0:0:
321,269,43667,1,2,0:0:0:0:
309,249,43782,1,0,0:0:0:0:
297,229,43898,2,0,P|298:191|319:147,1,75,8|0,0:0|1:0,0:0:0:0:
411,77,44359,6,0,P|444:107|425:203,1,150,0|8,3:0|0:0,0:0:0:0:
365,267,45052,2,0,P|308:242|224:258,1,150,2|2,0:0|0:0,0:0:0:0:
138,348,45744,2,0,L|129:260,1,75,8|0,0:0|0:0,0:0:0:0:
131,177,46205,6,0,B|86:158|86:158|71:220|12:236,1,150,0|8,1:0|0:0,0:0:0:0:
30,98,46898,1,2,0:0:0:0:
137,10,47128,2,0,P|128:42|124:95,1,75,0|0,3:0|0:0,0:0:0:0:
210,122,47590,2,0,L|293:110,1,75,8|0,0:0|0:0,0:0:0:0:
131,177,48052,5,4,3:2:0:0:
333,40,48513,1,8,0:0:0:0:
400,118,48744,1,2,0:0:0:0:
333,40,48975,2,0,P|320:91|314:155,1,112.5,0|0,3:0|0:0,0:0:0:0:
320,184,49436,1,8,0:0:0:0:
475,157,49667,1,2,0:0:0:0:
455,270,49898,6,0,B|415:241|415:241|379:279|325:280,1,150,0|8,3:0|0:0,0:0:0:0:
251,233,50590,1,2,0:0:0:0:
187,298,50821,2,0,P|182:344|186:373,1,75,2|0,3:2|0:0,0:0:0:0:
187,298,51282,1,8,0:0:0:0:
105,245,51513,1,0,1:0:0:0:
27,301,51744,5,0,1:0:0:0:
27,301,52205,2,0,P|40:259|22:184,1,112.500004291535,2|0,0:0|0:0,0:0:0:0:
31,108,52898,2,0,L|90:91,1,56.2500021457673,0|8,1:0|0:0,0:0:0:0:
85,92,53244,1,0,1:0:0:0:
85,92,53359,1,2,1:2:0:0:
201,55,53590,5,0,1:0:0:0:
201,55,54052,2,0,P|239:82|303:84,1,112.500004291535,8|2,0:0|0:0,0:0:0:0:
391,54,54744,1,0,1:0:0:0:
453,121,54975,2,0,L|463:193,1,56.2500021457673,8|0,0:0|1:0,0:0:0:0:
367,253,55436,5,0,1:0:0:0:
367,253,55898,2,0,P|347:204|367:148,1,112.500004291535,2|0,0:0|0:0,0:0:0:0:
409,330,56590,2,0,L|346:346,1,56.2500021457673,0|8,1:0|0:0,0:0:0:0:
354,343,56936,1,0,1:0:0:0:
354,343,57052,1,2,1:2:0:0:
228,304,57282,5,0,1:0:0:0:
228,304,57744,2,0,B|192:281|192:281|163:298|125:294,1,112.500004291535,8|2,0:0|0:0,0:0:0:0:
95,202,58436,1,0,1:2:0:0:
70,110,58667,1,8,0:0:0:0:
182,32,58898,1,2,0:0:0:0:
182,32,59013,1,0,0:0:0:0:
182,32,59128,6,0,L|185:108,1,75,0|0,3:0|0:0,0:0:0:0:
264,165,59590,1,8,0:2:0:0:
264,165,59705,1,0,0:0:0:0:
363,113,59936,1,0,0:0:0:0:
363,113,60052,1,0,3:0:0:0:
454,176,60282,1,0,0:0:0:0:
282,37,60513,2,0,L|288:97,1,37.5,8|0,0:0|0:0,0:0:0:0:
264,165,60744,2,0,L|270:225,1,37.5
346,272,60975,6,0,L|357:181,1,75,0|0,3:0|0:0,0:0:0:0:
424,322,61436,1,8,0:0:0:0:
424,322,61552,1,0,0:0:0:0:
331,359,61782,1,0,0:0:0:0:
331,359,61898,1,0,3:0:0:0:
259,286,62128,1,0,0:0:0:0:
173,327,62359,1,8,0:0:0:0:
173,327,62475,1,0,0:0:0:0:
94,277,62705,1,0,0:0:0:0:
94,277,62821,6,0,L|72:351,1,75,4|0,3:2|0:0,0:0:0:0:
62,198,63282,1,8,0:0:0:0:
62,198,63398,1,0,0:0:0:0:
178,236,63628,1,0,0:0:0:0:
178,236,63744,2,0,P|212:212|222:166,1,75,0|0,3:0|0:0,0:0:0:0:
128,83,64205,2,0,L|136:164,1,75,8|0,0:0|0:0,0:0:0:0:
216,72,64667,6,0,L|230:31,3,37.5,4|0|0|0,0:0|0:0|0:0|0:0,0:0:0:0:
305,72,65128,2,0,L|338:41,3,37.5,8|0|0|0,0:0|0:0|0:0|0:0,0:0:0:0:
359,143,65590,6,0,L|372:204,1,44.999998626709,4|0,0:0|0:0,0:0:0:0:
312,237,65821,2,0,L|324:298,1,44.999998626709
230,174,66052,2,0,L|238:225,1,44.999998626709,8|0,0:0|0:0,0:0:0:0:
169,249,66283,2,0,L|175:297,1,44.999998626709
92,228,66513,1,0,1:0:0:0:
350,294,67436,6,0,P|357:264|352:215,1,75,2|2,0:0|0:0,0:0:0:0:
350,294,68128,1,0,0:0:0:0:
452,207,68359,6,0,P|435:176|399:146,1,75,4|2,0:0|0:0,0:0:0:0:
278,201,68821,1,8,0:0:0:0:
356,74,69052,1,2,0:0:0:0:
356,74,69167,1,0,0:0:0:0:
356,74,69282,1,0,1:0:0:0:
278,201,69513,1,2,0:0:0:0:
192,137,69744,2,0,P|150:127|97:129,1,75,8|0,0:0|0:0,0:0:0:0:
184,296,70205,6,0,L|201:215,1,75,0|2,1:0|0:0,0:0:0:0:
264,64,70667,1,8,0:0:0:0:
268,82,70782,1,0,0:0:0:0:
273,102,70897,1,2,0:0:0:0:
315,276,71128,2,0,P|338:252|383:239,1,75,0|2,1:0|0:0,0:0:0:0:
199,222,71590,2,0,L|113:232,1,75,8|0,0:0|0:0,0:0:0:0:
273,102,72052,5,4,0:0:0:0:
503,212,72513,1,8,0:0:0:0:
430,162,72744,2,0,L|281:184,1,150,2|2,0:2|0:0,0:0:0:0:
172,147,73436,1,8,0:0:0:0:
186,56,73667,1,0,0:0:0:0:
210,236,73898,6,0,P|220:278|215:332,1,75,0|2,1:0|0:0,0:0:0:0:
219,309,74244,1,0,0:0:0:0:
219,309,74360,1,8,0:0:0:0:
88,261,74590,1,2,0:0:0:0:
103,133,74821,2,0,P|135:115|180:112,1,75,0|2,1:0|0:0,0:0:0:0:
238,14,75282,2,0,P|266:37|284:70,1,75,8|0,0:0|0:0,0:0:0:0:
265,207,75744,6,0,P|323:158|404:168,1,150,4|8,0:0|0:0,0:0:0:0:
496,208,76436,1,2,0:0:0:0:
496,208,76552,1,0,0:0:0:0:
496,208,76667,1,0,1:0:0:0:
353,244,76898,1,2,0:0:0:0:
393,80,77128,1,8,0:0:0:0:
244,168,77359,2,0,L|262:318,1,150,2|2,0:0|0:0,0:0:0:0:
151,276,78052,2,0,P|118:261|75:257,1,75,8|0,0:0|0:0,0:0:0:0:
36,99,78513,6,0,P|67:35|141:32,2,150,0|8|4,1:0|0:0|0:0,0:0:0:0:
72,174,79667,1,2,0:0:0:0:
159,187,79898,2,0,L|245:171,1,75,8|0,0:0|0:0,0:0:0:0:
232,173,80244,1,0,0:0:0:0:
232,173,80359,1,0,1:0:0:0:
287,102,80590,1,2,0:0:0:0:
391,198,80821,2,0,L|305:214,1,75,8|0,0:0|0:0,0:0:0:0:
184,296,81282,6,0,L|270:280,1,75,0|2,1:0|0:0,0:0:0:0:
360,88,81744,1,8,0:0:0:0:
320,96,81859,1,0,0:0:0:0:
287,102,81974,1,2,0:0:0:0:
235,175,82205,1,0,1:0:0:0:
152,179,82436,1,0,1:0:0:0:
81,135,82667,1,8,0:1:0:0:
68,53,82898,1,0,1:2:0:0:
152,179,83128,6,0,P|157:218|151:258,1,75,4|2,0:0|0:0,0:0:0:0:
92,333,83590,1,8,0:0:0:0:
234,278,83821,1,2,0:0:0:0:
234,278,83936,1,0,0:0:0:0:
234,278,84052,1,0,1:0:0:0:
296,354,84282,1,2,0:0:0:0:
381,312,84513,2,0,P|417:298|462:296,1,75,8|0,0:0|0:0,0:0:0:0:
296,354,84975,5,0,1:0:0:0:
268,194,85205,1,2,0:0:0:0:
268,194,85321,1,0,0:0:0:0:
268,194,85436,1,8,0:0:0:0:
387,75,85667,2,0,L|369:230,1,150,2|2,0:2|0:0,0:0:0:0:
184,152,86359,2,0,P|208:120|256:104,1,75,8|0,0:0|0:0,0:0:0:0:
265,290,86821,5,4,0:0:0:0:
64,108,87282,1,8,0:0:0:0:
37,195,87513,2,0,P|92:242|185:229,1,150,2|2,0:0|0:0,0:0:0:0:
262,202,88205,1,8,0:0:0:0:
304,116,88436,1,2,0:0:0:0:
194,51,88667,6,0,P|186:87|200:142,1,75,0|2,1:0|0:0,0:0:0:0:
262,202,89129,1,8,0:0:0:0:
262,202,89244,1,0,0:0:0:0:
262,202,89359,1,2,0:0:0:0:
180,259,89590,2,0,P|144:255|100:226,1,75,0|2,1:0|0:0,0:0:0:0:
296,312,90052,2,0,P|269:335|222:347,1,75,8|0,0:0|0:0,0:0:0:0:
409,295,90513,6,0,P|416:232|417:142,1,150,4|8,0:0|0:0,0:0:0:0:
331,42,91205,1,2,0:0:0:0:
317,56,91320,1,0,0:0:0:0:
306,70,91435,1,0,1:0:0:0:
309,242,91667,1,2,0:0:0:0:
339,153,91898,1,8,0:0:0:0:
104,148,92128,2,0,P|177:173|258:172,1,150,2|0,0:0|0:0,0:0:0:0:
236,20,92821,2,0,P|223:57|226:102,1,75,8|0,0:0|0:0,0:0:0:0:
256,330,93282,6,0,P|308:341|334:254,2,150,0|8|4,1:0|0:0|0:0,0:0:0:0:
178,348,94436,1,2,0:0:0:0:
103,305,94667,2,0,P|61:305|22:319,1,75,8|2,0:0|0:0,0:0:0:0:
29,314,95013,1,0,0:0:0:0:
29,314,95128,1,8,0:0:0:0:
178,348,95359,1,2,0:0:0:0:
214,252,95590,2,0,L|205:161,1,75,8|2,0:0|0:0,0:0:0:0:
147,50,96052,5,0,1:0:0:0:
295,104,96282,1,2,0:0:0:0:
295,104,96397,1,0,0:0:0:0:
295,104,96512,1,8,0:0:0:0:
111,199,96744,1,2,0:0:0:0:
49,118,96975,2,0,P|37:95|40:37,1,75,0|2,1:0|0:0,0:0:0:0:
216,152,97436,2,0,P|218:189|203:223,1,75,8|0,0:0|1:0,0:0:0:0:
247,301,97898,1,4,0:0:0:0:
247,301,98359,5,8,0:1:0:0:
327,339,98590,2,0,P|361:337|401:230,1,150,0|0,1:0|0:0,0:0:0:0:
247,301,99282,1,0,3:0:0:0:
238,289,99744,6,0,L|240:199,1,75,0|2,1:0|0:3,0:0:0:0:
327,253,100205,1,2,3:0:0:0:
149,223,100436,2,0,P|130:151|155:82,1,150,0|0,1:0|0:0,0:0:0:0:
241,30,101128,1,8,0:1:0:0:
251,25,101590,6,0,L|266:192,1,150,0|0,1:0|3:0,0:0:0:0:
374,248,102282,2,0,P|417:225|440:132,1,150,0|0,1:0|0:0,0:0:0:0:
279,275,102975,1,8,0:0:0:0:
271,282,103205,5,0,1:0:0:0:
271,282,103321,1,0,0:0:0:0:
271,282,103436,2,0,L|195:293,1,75,0|2,1:0|0:3,0:0:0:0:
71,260,103898,1,2,3:0:0:0:
136,354,104128,2,0,P|162:292|159:209,1,150,0|0,1:0|1:0,0:0:0:0:
123,75,104821,1,8,0:1:0:0:
228,147,105052,1,0,0:0:0:0:
110,65,105282,6,0,L|92:143,1,75,0|0,1:0|0:0,0:0:0:0:
218,52,105744,1,8,0:1:0:0:
310,103,105975,2,0,P|386:110|463:71,1,150,0|0,1:0|0:0,0:0:0:0:
386,199,106667,1,0,3:0:0:0:
377,209,107128,6,0,L|388:298,1,75,0|2,1:0|0:3,0:0:0:0:
471,235,107590,1,2,3:0:0:0:
304,336,107821,2,0,P|273:304|287:199,1,150,0|0,1:0|1:0,0:0:0:0:
174,330,108513,1,8,0:1:0:0:
161,335,108975,6,0,P|131:323|84:319,1,75,0|0,1:0|0:0,0:0:0:0:
8,350,109436,1,0,3:0:0:0:
135,240,109667,2,0,L|155:80,1,150,0|0,1:0|0:0,0:0:0:0:
96,24,110359,1,8,0:0:0:0:
233,99,110590,1,4,0:2:0:0:
256,192,110821,12,0,112667,0:0:0:0:
256,334,120052,6,0,L|388:352,1,112.500004291535
341,188,120744,2,0,P|322:231|319:301,1,112.500004291535
464,245,121436,2,0,L|406:260,1,56.2500021457673
234,215,121898,6,0,L|221:89,1,112.500004291535
338,40,122590,1,0,0:0:0:0:
352,148,122821,1,0,0:0:0:0:
368,168,123282,2,0,L|300:162,1,56.2500021457673
110,89,123744,6,0,L|233:104,1,112.500004291535
246,237,124436,2,0,P|231:263|206:284,1,56.2500021457673
116,327,124898,1,0,0:0:0:0:
55,213,125128,2,0,L|110:207,1,56.2500021457673
246,237,125590,5,0,0:0:0:0:
224,101,125821,2,0,L|215:134,1,28.1250010728836
342,156,126167,1,0,0:0:0:0:
351,129,126282,1,0,0:0:0:0:
351,101,126397,1,0,0:0:0:0:
341,75,126513,1,0,0:0:0:0:
449,185,126744,1,0,0:0:0:0:
472,199,126859,1,0,0:0:0:0:
446,78,127090,1,0,0:0:0:0:
472,69,127205,1,0,0:0:0:0:
370,241,127436,6,0,P|375:279|385:315,1,75
285,183,127898,2,0,P|273:220|267:258,1,75
183,94,128359,2,0,L|193:183,1,75
161,266,128821,1,0,0:0:0:0:
26,224,129052,1,0,0:0:0:0:
26,224,129167,1,0,0:0:0:0:
26,224,129282,6,0,P|63:209|112:206,1,75
193,341,129744,2,0,L|278:359,1,75
418,304,130205,2,0,L|434:230,1,75
264,182,130667,2,0,P|278:216|301:246,1,75
486,126,131128,6,0,P|426:113|368:200,1,150
279,103,131821,1,0,0:0:0:0:
279,103,131936,1,0,0:0:0:0:
279,103,132052,2,0,L|288:12,1,75
119,145,132513,2,0,P|82:132|51:112,1,75
228,207,132975,5,0,0:0:0:0:
192,75,133205,1,0,0:0:0:0:
192,75,133321,1,0,0:0:0:0:
139,244,133552,1,0,0:0:0:0:
140,255,133667,1,0,0:0:0:0:
142,266,133782,1,0,0:0:0:0:
144,277,133898,1,0,0:0:0:0:
315,193,134128,1,0,0:0:0:0:
315,193,134244,1,0,0:0:0:0:
315,193,134359,2,0,P|354:178|399:177,1,75
322,342,134821,6,0,L|249:301,1,75
271,121,135282,1,0,0:0:0:0:
439,252,135513,2,0,L|355:273,1,75
252,214,135975,1,0,0:0:0:0:
432,51,136205,1,0,0:0:0:0:
432,51,136436,6,0,P|465:95|410:172,1,150
343,134,137128,2,0,P|320:124|261:122,1,75
196,217,137590,2,0,L|194:295,1,75
145,95,138052,2,0,L|147:17,1,75
32,157,138513,6,0,P|88:182|192:169,1,150
273,118,139205,1,0,0:0:0:0:
306,242,139436,2,0,L|296:357,2,112.5
414,200,140359,6,0,P|413:240|401:277,1,75
208,319,140821,2,0,P|196:283|196:245,1,75
164,68,141282,1,0,0:0:0:0:
250,91,141513,1,0,0:0:0:0:
336,115,141744,2,0,P|318:149|287:184,1,75
71,118,142205,5,0,0:0:0:0:
59,114,142667,2,0,L|63:182,1,56.2500021457673
243,223,143359,1,0,0:0:0:0:
144,40,143590,2,0,L|147:92,1,28.1250010728836
152,164,143821,1,0,0:0:0:0:
221,318,144052,6,0,B|267:329|299:305|299:305|330:322,1,112.500004291535
447,169,144975,1,0,2:0:0:0:
434,257,145205,1,0,2:0:0:0:
423,346,145436,1,0,2:0:0:0:
447,169,145667,1,0,2:0:0:0:
290,70,145898,5,0,0:0:0:0:
280,72,146359,2,0,L|217:59,1,56.2500021457673
368,32,147052,1,0,0:0:0:0:
168,128,147282,2,0,L|128:120,1,28.1250010728836
48,104,147513,1,0,0:0:0:0:
189,226,147744,6,0,B|199:270|177:304|177:304|180:331|206:338,1,112.500004291535
275,287,148436,1,0,0:0:0:0:
111,254,148667,2,0,P|79:265|56:294,1,56.2500021457673
266,197,149128,2,0,P|271:169|268:141,1,56.2500021457673
32,151,149590,6,0,L|115:172,1,75
202,91,150052,1,0,0:0:0:0:
172,104,150167,1,0,0:0:0:0:
59,40,150398,1,0,0:0:0:0:
90,48,150513,1,0,0:0:0:0:
250,18,150744,1,0,0:0:0:0:
381,100,150975,2,0,L|385:143,1,37.5
334,212,151205,2,0,L|338:255,1,37.5
243,174,151436,6,0,L|237:273,1,75
414,308,151898,1,0,0:0:0:0:
420,279,152013,1,0,0:0:0:0:
309,339,152244,1,0,0:0:0:0:
315,368,152359,1,0,0:0:0:0:
196,319,152590,1,0,0:0:0:0:
103,353,152821,2,0,L|67:347,1,37.5
150,243,153052,2,0,L|207:225,1,37.5
68,260,153282,6,0,P|60:213|40:176,1,75
153,111,153744,1,0,0:0:0:0:
146,143,153859,1,0,0:0:0:0:
258,196,154090,1,0,0:0:0:0:
251,164,154205,1,0,0:0:0:0:
335,48,154436,1,0,0:0:0:0:
354,65,154551,1,0,0:0:0:0:
363,89,154666,1,0,0:0:0:0:
360,115,154782,1,0,0:0:0:0:
345,136,154897,1,0,0:0:0:0:
409,217,155128,6,0,L|447:213,3,37.5
330,315,155590,2,0,L|367:310,3,37.5
223,286,156052,6,0,L|157:281,1,44.999998626709
56,229,156282,2,0,L|122:234,1,44.999998626709
240,186,156513,2,0,L|174:181,1,44.999998626709
73,129,156743,2,0,L|139:134,1,44.999998626709
183,63,156975,1,0,0:0:0:0:
258,332,157898,5,0,0:0:0:0:
345,352,158128,1,0,0:0:0:0:
345,352,158359,1,0,0:0:0:0:
258,332,158590,1,0,0:0:0:0:
173,305,158821,6,0,L|161:215,1,75
225,160,159282,1,0,0:0:0:0:
86,257,159513,1,0,0:0:0:0:
86,257,159628,1,0,0:0:0:0:
86,257,159744,1,0,0:0:0:0:
225,160,159975,1,0,0:0:0:0:
81,140,160205,2,0,P|54:116|42:63,1,75
163,25,160667,6,0,L|155:116,1,75
267,238,161128,1,0,0:0:0:0:
264,216,161243,1,0,0:0:0:0:
261,195,161358,1,0,0:0:0:0:
384,98,161590,2,0,P|422:94|468:107,1,75
358,184,162052,1,0,0:0:0:0:
231,124,162282,1,0,0:0:0:0:
202,112,162398,1,0,0:0:0:0:
173,102,162513,6,0,P|138:109|100:124,1,75
50,241,162975,1,0,0:0:0:0:
15,76,163205,1,0,0:0:0:0:
15,76,163321,1,0,0:0:0:0:
15,76,163436,2,0,L|30:150,1,75
188,186,163898,1,0,0:0:0:0:
29,149,164128,1,0,0:0:0:0:
264,126,164359,6,0,P|307:116|345:94,1,75
335,102,164705,1,0,0:0:0:0:
335,102,164821,1,0,0:0:0:0:
122,126,165052,1,0,0:0:0:0:
240,302,165282,2,0,P|267:276|283:242,1,75
122,126,165744,2,0,P|149:151|165:185,1,75
123,336,166205,6,0,P|88:350|28:345,1,75
111,246,166667,1,0,0:0:0:0:
262,295,166898,1,0,0:0:0:0:
262,295,167013,1,0,0:0:0:0:
262,295,167128,2,0,L|241:375,1,75
250,199,167590,1,0,0:0:0:0:
415,284,167821,2,0,P|425:332|328:328,1,150
379,155,168513,1,0,0:0:0:0:
148,342,168975,6,0,L|-4:323,2,150
213,278,170128,1,0,0:0:0:0:
156,206,170359,1,0,0:0:0:0:
215,140,170590,1,0,0:0:0:0:
215,140,170705,1,0,0:0:0:0:
215,140,170821,1,0,0:0:0:0:
99,95,171052,1,0,0:0:0:0:
247,48,171282,2,0,L|343:64,1,75
464,224,171744,6,0,P|452:186|464:144,1,75
424,304,172205,1,0,0:0:0:0:
424,304,172320,1,0,0:0:0:0:
424,304,172436,1,0,0:0:0:0:
328,152,172667,1,0,0:0:0:0:
344,240,172897,1,0,0:0:0:0:
296,312,173128,1,0,0:0:0:0:
208,320,173358,1,0,0:0:0:0:
151,144,173590,6,0,P|175:153|214:196,1,75
120,230,174052,1,0,0:0:0:0:
184,64,174282,1,0,0:0:0:0:
184,64,174398,1,0,0:0:0:0:
184,64,174513,1,0,0:0:0:0:
120,230,174744,1,0,0:0:0:0:
291,136,174975,2,0,P|303:169|297:230,1,75
152,320,175436,6,0,P|120:312|77:315,1,75
79,315,175783,1,0,0:0:0:0:
79,315,175898,1,0,0:0:0:0:
240,280,176128,1,0,0:0:0:0:
208,48,176359,2,0,P|187:78|179:115,1,75
96,176,176821,2,0,P|121:202|160:216,1,75
459,177,177282,5,0,0:0:0:0:
365,116,177513,1,0,0:0:0:0:
365,116,177628,1,0,0:0:0:0:
365,116,177744,2,0,L|357:200,1,75
351,278,178205,1,0,0:0:0:0:
128,176,178436,1,0,0:0:0:0:
109,177,178551,1,0,0:0:0:0:
91,183,178666,1,0,0:0:0:0:
208,224,178898,1,0,0:0:0:0:
216,120,179128,6,0,L|226:33,1,75
307,181,179590,1,0,0:0:0:0:
307,181,179705,1,0,0:0:0:0:
307,181,179821,1,0,0:0:0:0:
456,158,180052,2,0,P|425:130|378:126,1,75
348,19,180513,2,0,P|329:40|312:89,1,75
307,181,180975,6,0,L|321:255,1,75
402,311,181436,1,0,0:0:0:0:
226,223,181667,1,0,0:0:0:0:
226,223,181782,1,0,0:0:0:0:
226,223,181898,1,0,0:0:0:0:
408,216,182128,2,0,P|416:179|419:142,1,75
293,345,182590,2,0,P|226:327|124:319,1,150
52,349,183282,1,0,0:0:0:0:
113,54,183744,6,0,P|184:46|223:107,2,150
76,135,184898,1,0,0:0:0:0:
133,209,185128,1,0,0:0:0:0:
219,189,185359,1,0,0:0:0:0:
219,189,185475,1,0,0:0:0:0:
219,189,185590,2,0,P|229:226|222:280,1,75
169,337,186052,1,0,0:0:0:0:
53,272,186282,1,0,0:0:0:0:
53,272,186398,1,0,0:0:0:0:
53,272,186513,6,0,P|89:263|122:246,1,75
119,79,186975,2,0,P|127:115|144:148,1,75
229,220,187436,1,0,0:0:0:0:
318,258,187667,1,0,0:0:0:0:
382,184,187898,1,0,0:0:0:0:
332,100,188128,1,0,0:0:0:0:
237,122,188359,5,0,0:0:0:0:
256,192,198282,12,0,199436,0:0:0:0:
338,149,199667,5,0,0:0:0:0:
205,58,199898,2,0,P|168:60|113:78,1,75
242,145,200359,1,0,0:0:0:0:
118,177,200590,2,0,P|79:198|47:227,1,75
283,223,201052,1,0,0:0:0:0:
137,277,201282,6,0,L|114:335,1,37.5
305,341,201513,2,0,L|256:316,1,37.5
173,246,201744,2,0,L|150:304,1,37.5
341,310,201975,2,0,L|292:285,1,37.5
226,151,202205,6,0,L|231:185,6,18.75
309,209,202667,1,0,0:0:0:0:
347,222,202782,1,0,0:0:0:0:
388,222,202897,1,0,0:0:0:0:
427,209,203013,1,0,0:0:0:0:
465,190,203128,6,0,L|481:115,1,75
335,29,203590,2,0,P|353:62|365:98,1,75
309,209,204052,1,0,0:0:0:0:
200,112,204282,1,0,0:0:0:0:
200,112,204398,1,0,0:0:0:0:
200,112,204513,2,0,P|161:109|111:120,1,75
43,287,204975,6,0,P|75:263|91:223,1,75
125,114,205436,1,0,0:0:0:0:
206,268,205667,2,0,B|246:314|299:312|299:312|349:279,1,150
422,233,206359,2,0,L|431:145,1,75
281,164,206821,6,0,B|220:183|170:149|170:149|127:169,1,150
31,123,207513,1,0,0:0:0:0:
31,123,207628,1,0,0:0:0:0:
31,123,207744,2,0,P|39:159|41:210,1,75
106,339,208205,2,0,P|108:301|116:265,1,75
229,250,208667,5,0,0:0:0:0:
325,328,208898,1,0,0:0:0:0:
325,328,209013,1,0,0:0:0:0:
325,328,209128,2,0,L|404:314,1,75
398,199,209590,2,0,L|324:185,1,75
498,262,210052,1,0,0:0:0:0:
482,71,210282,1,0,0:0:0:0:
482,71,210398,1,0,0:0:0:0:
482,71,210513,6,0,P|466:103|468:154,1,75
498,262,210975,1,0,0:0:0:0:
356,329,211205,2,0,L|351:244,1,75
284,150,211667,5,0,0:0:0:0:
254,147,211782,1,0,0:0:0:0:
225,155,211897,1,0,0:0:0:0:
203,175,212013,1,0,0:0:0:0:
180,200,212128,1,0,0:0:0:0:
154,215,212243,1,0,0:0:0:0:
125,220,212358,1,0,0:0:0:0:
95,212,212474,1,0,0:0:0:0:
72,197,212590,1,0,0:0:0:0:
118,92,212821,6,0,L|124:128,1,37.5
239,300,213052,2,0,L|247:264,1,37.5
401,192,213282,1,0,0:0:0:0:
401,192,213513,5,0,0:0:0:0:
422,161,213628,1,0,0:0:0:0:
427,124,213743,1,0,0:0:0:0:
412,91,213859,1,0,0:0:0:0:
382,69,213974,1,0,0:0:0:0:
345,67,214089,1,0,0:0:0:0:
311,84,214205,2,0,P|277:100|238:100,1,75
109,203,214667,2,0,P|146:196|190:206,1,75
271,310,215128,5,0,0:0:0:0:
290,330,215243,1,0,0:0:0:0:
317,343,215358,1,0,0:0:0:0:
346,342,215474,1,0,0:0:0:0:
375,339,215590,2,0,L|426:313,1,37.5
319,158,215821,2,0,L|262:140,1,37.5
346,247,216052,5,0,0:0:0:0:
370,237,216167,1,0,0:0:0:0:
391,221,216282,1,0,0:0:0:0:
405,200,216398,1,0,0:0:0:0:
414,175,216513,2,0,L|407:123,1,37.5
345,29,216745,2,0,L|334:85,1,37.5
253,139,216975,5,0,0:0:0:0:
219,122,217090,1,0,0:0:0:0:
182,123,217205,1,0,0:0:0:0:
150,141,217321,1,0,0:0:0:0:
129,173,217436,1,0,0:0:0:0:
126,210,217551,1,0,0:0:0:0:
140,244,217667,2,0,L|175:287,1,37.5
362,233,217898,5,0,0:0:0:0:
362,233,218359,2,0,P|377:184|363:106,1,112.500004291535
425,307,219052,2,0,P|446:281|453:235,1,56.2500021457673
452,180,219398,1,0,0:0:0:0:
452,180,219513,1,0,0:0:0:0:
303,78,219744,5,0,0:0:0:0:
303,78,220205,2,0,P|269:122|250:180,1,112.500004291535
232,15,220898,2,0,P|209:38|192:72,1,56.2500021457673
176,139,221359,1,0,0:0:0:0:
330,214,221590,5,0,0:0:0:0:
330,214,222052,2,0,P|296:246|214:246,1,112.500004291535
377,289,222744,2,0,P|354:312|319:323,1,56.2500021457673
257,331,223090,1,0,0:0:0:0:
257,331,223205,1,0,0:0:0:0:
149,241,223436,5,0,0:0:0:0:
149,241,223898,2,0,P|130:270|122:309,1,56.2500021457673
44,196,224359,2,0,P|39:160|25:129,1,56.2500021457673
33,331,224821,1,0,0:0:0:0:
138,145,225282,6,0,P|177:142|229:126,1,75
291,57,225744,1,0,0:0:0:0:
312,75,225859,2,0,P|326:107|325:158,1,75
401,186,226205,2,0,P|372:220|339:230,1,75
381,312,226667,1,0,0:0:0:0:
355,319,226782,1,0,0:0:0:0:
329,318,226897,1,0,0:0:0:0:
305,310,227013,1,0,0:0:0:0:
284,294,227128,6,0,L|254:213,1,75
179,291,227590,1,0,0:0:0:0:
173,267,227705,2,0,L|183:184,1,75
89,193,228052,2,0,L|122:114,1,75
38,61,228513,1,0,0:0:0:0:
63,55,228628,1,0,0:0:0:0:
89,49,228743,1,0,0:0:0:0:
114,43,228859,1,0,0:0:0:0:
140,37,228975,6,0,L|215:59,1,75
292,110,229436,1,0,0:0:0:0:
281,140,229552,1,0,0:0:0:0:
390,87,229782,1,0,0:0:0:0:
385,57,229898,1,0,0:0:0:0:
488,131,230128,1,0,0:0:0:0:
386,181,230359,1,0,0:0:0:0:
372,203,230474,1,0,0:0:0:0:
367,228,230589,1,0,0:0:0:0:
370,254,230705,1,0,0:0:0:0:
383,277,230821,6,0,L|407:317,3,37.5
303,321,231282,2,0,L|294:373,3,37.5
216,312,231744,6,0,L|170:345,1,44.999998626709
141,257,231975,2,0,L|91:260,1,44.999998626709
121,171,232205,2,0,L|70:157,1,44.999998626709
123,78,232436,2,0,L|66:47,1,44.999998626709
197,27,232667,1,0,0:0:0:0:
255,190,233590,6,0,P|266:219|263:260,1,56.2500021457673
256,322,234052,1,0,0:0:0:0:
256,322,234282,1,0,0:0:0:0:
255,190,234513,5,0,0:0:0:0:
259,270,248359,6,0,P|290:285|323:289,1,56.2500021457673
103,207,248821,2,0,P|84:217|46:220,1,56.2500021457673
183,311,249282,6,0,B|156:236|207:236|176:157,1,150
156,69,249975,1,0,0:0:0:0:
156,69,250436,1,0,0:0:0:0:
156,69,250552,1,0,0:0:0:0:
156,69,250667,2,0,L|234:86,1,75
366,55,251128,5,0,0:0:0:0:
366,55,251590,1,0,0:0:0:0:
439,125,251821,2,0,P|411:162|313:138,1,150
467,230,252513,2,0,P|479:257|477:306,1,75
321,255,252975,5,0,0:0:0:0:
321,255,253436,1,0,0:0:0:0:
256,348,253667,2,0,P|205:313|95:321,1,150
69,222,254359,2,0,P|51:248|37:297,1,75
196,204,254821,5,0,0:0:0:0:
196,204,255282,1,0,0:0:0:0:
196,204,255398,1,0,0:0:0:0:
196,204,255513,1,0,0:0:0:0:
99,82,255744,2,0,P|108:120|126:154,1,75
319,109,256205,2,0,P|356:96|408:92,1,75
223,55,256667,5,0,0:0:0:0:
223,55,257128,2,0,L|213:93,3,37.5
263,158,257590,1,0,0:0:0:0:
144,256,258052,2,0,L|130:204,3,37.5
112,336,258513,1,0,0:0:0:0:
394,298,258975,6,0,L|444:289,3,37.5
329,251,259436,1,0,0:0:0:0:
324,228,259551,1,0,0:0:0:0:
320,206,259666,1,0,0:0:0:0:
316,184,259782,1,0,0:0:0:0:
344,128,259898,1,0,0:0:0:0:
348,105,260013,1,0,0:0:0:0:
352,83,260128,1,0,0:0:0:0:
356,61,260244,1,0,0:0:0:0:
261,82,260359,6,0,P|228:99|206:133,1,75
169,258,260821,1,0,0:0:0:0:
136,39,261052,2,0,P|123:74|123:111,1,75
169,258,261513,1,0,0:0:0:0:
33,121,261744,2,0,P|36:157|57:188,1,75
256,192,262090,12,0,263128,0:0:0:0:
377,304,263359,5,0,0:0:0:0:
377,304,263590,2,0,P|379:284|373:253,1,37.5,2|0,0:0|0:0,0:0:0:0:
378,305,264052,6,0,P|398:251|393:188,1,112.5,0|0,1:0|0:0,0:0:0:0:
338,136,264513,2,0,L|255:151,1,75,8|0,0:0|0:0,0:0:0:0:
107,241,264975,2,0,L|185:251,1,75,0|2,1:0|0:0,0:0:0:0:
265,316,265436,1,8,0:0:0:0:
219,144,265667,1,2,0:0:0:0:
219,144,265782,1,0,0:0:0:0:
219,144,265898,2,0,L|200:65,1,75,0|2,1:0|0:0,0:0:0:0:
107,241,266359,2,0,L|96:286,2,37.5,8|0|2,0:0|0:0|0:0,0:0:0:0:
284,200,266821,6,0,P|340:205|402:231,1,112.5,0|0,1:0|0:0,0:0:0:0:
423,249,267282,1,8,0:0:0:0:
353,330,267513,1,2,0:0:0:0:
422,151,267744,1,4,0:0:0:0:
116,93,268205,5,8,0:0:0:0:
116,93,268436,2,0,P|167:105|235:46,1,150,2|0,0:0|0:0,0:0:0:0:
330,85,269128,2,0,L|396:123,1,75,8|0,0:0|0:0,0:0:0:0:
428,138,269475,1,0,0:0:0:0:
428,138,269590,6,0,P|470:126|501:72,1,75,0|2,1:0|0:0,0:0:0:0:
344,184,270052,1,8,0:0:0:0:
356,219,270167,1,0,0:0:0:0:
368,254,270282,1,2,0:0:0:0:
256,200,270513,2,0,P|224:184|176:184,1,75,0|0,1:0|0:0,0:0:0:0:
368,352,270975,2,0,L|456:320,1,75,8|2,0:0|0:0,0:0:0:0:
256,320,271436,5,0,1:0:0:0:
340,105,271782,1,0,0:0:0:0:
340,105,271898,2,0,L|332:187,1,75,8|0,0:0|0:0,0:0:0:0:
177,235,272359,2,0,P|112:236|69:148,1,150,0|8,1:0|0:0,0:0:0:0:
255,125,273052,2,0,L|303:111,2,37.5,2|0|0,0:0|0:0|1:0,0:0:0:0:
155,150,273513,1,2,0:0:0:0:
379,191,273744,1,8,0:0:0:0:
379,191,274205,6,0,P|445:175|454:95,2,150,0|8|4,1:2|0:0|0:0,0:0:0:0:
296,168,275359,1,2,0:0:0:0:
224,216,275590,2,0,P|190:204|139:206,1,75,8|2,0:0|0:0,0:0:0:0:
151,203,275936,1,0,0:0:0:0:
151,203,276052,1,0,1:0:0:0:
316,266,276282,1,0,0:0:0:0:
240,54,276513,2,0,L|225:155,1,75,8|0,0:0|0:0,0:0:0:0:
416,288,276975,6,0,P|415:238|388:188,1,75,0|2,1:0|0:0,0:0:0:0:
213,322,277436,1,8,0:0:0:0:
213,322,277552,1,0,0:0:0:0:
213,322,277667,1,2,0:0:0:0:
316,266,277898,5,0,1:0:0:0:
333,93,278128,1,0,1:0:0:0:
161,75,278359,1,2,1:2:0:0:
143,248,278590,1,2,1:2:0:0:
249,126,278821,6,0,P|207:151|128:162,1,112.5,4|0,0:0|0:0,0:0:0:0:
72,136,279282,2,0,L|62:62,1,75,8|0,0:0|0:0,0:0:0:0:
226,222,279744,2,0,P|255:239|321:249,1,75,0|0,1:0|0:0,0:0:0:0:
91,323,280205,1,8,0:0:0:0:
138,189,280436,1,2,0:0:0:0:
138,189,280552,1,0,0:0:0:0:
138,189,280667,2,0,P|138:229|160:266,1,75,0|2,1:0|0:0,0:0:0:0:
238,108,281128,2,0,L|224:48,2,37.5,8|0|2,0:0|0:0|0:0,0:0:0:0:
355,146,281590,6,0,P|410:148|459:121,1,112.5,0|0,1:0|0:0,0:0:0:0:
476,98,282052,1,8,0:0:0:0:
363,62,282282,1,2,0:0:0:0:
391,230,282513,1,4,0:0:0:0:
101,90,282975,5,8,0:0:0:0:
185,120,283205,2,0,P|224:174|156:234,1,150,2|0,0:0|0:0,0:0:0:0:
76,348,283898,2,0,P|69:310|68:265,1,75,8|0,0:0|0:0,0:0:0:0:
91,247,284244,1,0,0:0:0:0:
91,247,284359,6,0,P|123:258|189:269,1,75,0|2,1:2|0:0,0:0:0:0:
216,88,284821,1,8,0:0:0:0:
200,123,284936,1,0,0:0:0:0:
196,160,285051,1,2,0:0:0:0:
288,304,285282,2,0,P|328:296|352:264,1,75,8|0,0:0|0:0,0:0:0:0:
328,64,285744,2,0,P|320:104|344:152,1,75,0|0,1:0|0:0,0:0:0:0:
172,137,286205,6,0,L|278:224,1,112.5,0|0,1:0|0:0,0:0:0:0:
183,319,286667,2,0,P|173:283|176:236,1,75,8|0,0:0|0:0,0:0:0:0:
209,55,287128,2,0,L|275:104,1,75,0|2,1:0|0:0,0:0:0:0:
68,164,287590,1,8,0:0:0:0:
77,157,288052,1,0,1:2:0:0:
205,169,288282,1,2,0:0:0:0:
324,111,288513,1,8,0:0:0:0:
219,321,288975,6,0,P|161:322|145:232,2,150,0|8|4,1:0|0:0|0:0,0:0:0:0:
273,248,290128,1,2,0:0:0:0:
360,272,290359,2,0,P|372:298|368:351,1,75,8|0,0:0|0:0,0:0:0:0:
370,343,290705,1,0,0:0:0:0:
370,343,290821,1,0,1:0:0:0:
273,248,291052,1,0,0:0:0:0:
394,183,291282,2,0,P|432:199|457:238,1,75,8|0,0:0|0:0,0:0:0:0:
304,157,291744,6,0,L|317:79,1,75,0|2,1:0|0:0,0:0:0:0:
360,272,292205,1,8,0:0:0:0:
360,272,292321,1,0,0:0:0:0:
360,272,292436,1,2,0:0:0:0:
216,200,292667,2,0,L|199:280,1,75,0|0,1:0|0:0,0:0:0:0:
391,153,293128,1,8,0:2:0:0:
83,213,293590,5,2,0:0:0:0:
160,32,294052,1,0,0:0:0:0:
160,32,294282,2,0,P|145:79|141:143,1,112.500004291535,2|0,0:0|0:0,0:0:0:0:
191,214,294975,1,2,0:0:0:0:
274,182,295205,2,0,P|343:182|339:275,1,168.750006437302,2|0,0:0|0:0,0:0:0:0:
256,310,296128,1,2,0:0:0:0:
256,192,296359,12,0,299128,0:0:0:0:
