osu file format v14

[General]
AudioFilename: audio.mp3
AudioLeadIn: 0
PreviewTime: 67632
Countdown: 0
SampleSet: Soft
StackLeniency: 0.7
Mode: 0
LetterboxInBreaks: 0
WidescreenStoryboard: 1

[Editor]
Bookmarks: 18248,64401
DistanceSpacing: 1.1
BeatDivisor: 4
GridSize: 32
TimelineZoom: 1

[Metadata]
Title:KOWAREKAKE NO ORGEL
TitleUnicode:こわれかけのオルゴール
Artist:Hiromi Sato
ArtistUnicode:佐藤 ひろ美
Creator:assassincread
Version:Advanced: Melancholy
Source:こわれかけのオルゴール
Tags:ed ending original anime pop ElectromagneticWave Short ver. ふらわー 敬一郎
BeatmapID:1528803
BeatmapSetID:721057

[Difficulty]
HPDrainRate:4
CircleSize:3
OverallDifficulty:4
ApproachRate:5
SliderMultiplier:1.2
SliderTickRate:1

[Events]
//Background and Video events
0,0,"BG.jpg",0,0
//Break Periods
//Storyboard Layer 0 (Background)
//Storyboard Layer 1 (Fail)
//Storyboard Layer 2 (Pass)
//Storyboard Layer 3 (Foreground)
//Storyboard Sound Samples

[TimingPoints]
248,461.538461538462,4,2,1,70,1,0
7632,-100,4,1,1,60,0,0
7863,-100,4,2,1,70,0,0
15017,-100,4,1,1,60,0,0
15132,-100,4,2,1,70,0,0
20094,-100,4,2,3,70,0,0
21709,-100,4,2,2,50,0,0
22401,-133.333333333333,4,2,2,50,0,0
37171,-100,4,2,2,70,0,0
50555,-100,4,2,1,70,0,0
51940,-100,4,2,2,70,0,0
54478,-100,4,2,1,70,0,0
55632,-100,4,2,2,70,0,0
59324,-100,4,1,1,55,0,0
68555,-80,4,1,1,60,0,1
68671,-80,4,2,3,70,0,1
98094,-100,4,2,3,40,0,0
100632,-100,4,2,3,40,0,0
100748,-100,4,2,3,10,0,0

[Colours]
Combo1 : 181,106,255
Combo2 : 121,255,255
Combo3 : 85,85,255
Combo4 : 234,234,234

[HitObjects]
102,157,248,6,0,L|36:141,2,60,0|2|2,0:0|0:0|0:0,0:0:0:0:
165,171,940,1,4,0:0:0:0:
273,100,1401,1,2,0:0:0:0:
386,167,1863,6,0,P|397:231|383:291,1,120,4|2,0:0|0:0,0:0:0:0:
347,337,2555,1,4,0:0:0:0:
219,303,3017,2,0,L|184:360,2,60,2|2|4,0:0|0:0|0:0,0:0:0:0:
220,236,3709,2,0,P|177:186|123:162,1,120,2|2,0:0|0:0,0:0:0:0:
65,146,4401,5,2,0:0:0:0:
65,146,4632,1,4,0:0:0:0:
141,38,5094,1,2,0:0:0:0:
263,87,5555,6,0,P|328:103|388:96,1,120,4|2,0:0|0:0,0:0:0:0:
442,74,6248,2,0,L|469:132,1,60,4|2,0:0|0:0,0:0:0:0:
478,193,6709,2,0,P|482:257|467:317,1,120,2|0,0:0|0:0,0:0:0:0:
345,356,7632,5,4,0:0:0:0:
231,288,8094,1,2,0:0:0:0:
231,288,8324,1,12,0:0:0:0:
103,324,8786,2,0,L|56:365,2,60,2|8|12,0:0|0:0|0:0,0:0:0:0:
111,192,9709,5,2,0:0:0:0:
111,192,9940,2,0,L|156:152,1,60,4|8,0:0|0:0,0:0:0:0:
202,105,10401,2,0,P|265:114|323:103,1,120,2|8,0:0|0:0,0:0:0:0:
377,71,11094,1,8,0:0:0:0:
432,105,11324,6,0,P|448:168|424:232,1,120,8|2,0:0|0:0,0:0:0:0:
395,274,12017,1,12,0:0:0:0:
280,339,12478,2,0,L|221:318,1,60,2|8,0:0|0:0,0:0:0:0:
160,298,12940,6,0,P|153:236|161:176,1,120,12|10,0:0|0:0,0:0:0:0:
189,119,13632,1,10,0:0:0:0:
301,49,14094,1,2,0:0:0:0:
360,78,14324,1,8,0:0:0:0:
419,49,14555,1,8,0:0:0:0:
493,158,15017,5,4,0:0:0:0:
432,275,15478,1,2,0:0:0:0:
432,275,15709,1,12,0:0:0:0:
326,194,16171,2,0,L|303:136,2,60,2|8|12,0:0|0:0|0:0,0:0:0:0:
265,311,17093,5,2,0:0:0:0:
265,311,17324,2,0,L|198:311,1,60,4|8,0:0|0:0,0:0:0:0:
139,299,17786,2,0,P|125:241|128:177,1,120,2|8,0:0|0:0,0:0:0:0:
156,121,18478,1,8,0:0:0:0:
220,135,18709,2,0,P|290:132|348:104,1,120,8|8,0:0|0:0,0:0:0:0:
395,86,19401,2,0,P|405:151|429:206,1,120,8|0,0:0|0:0,0:0:0:0:
462,256,20094,5,8,0:0:0:0:
418,305,20324,1,12,0:0:0:0:
289,275,20786,1,8,0:0:0:0:
245,324,21017,1,12,0:0:0:0:
75,221,21709,1,8,0:0:0:0:
62,156,21940,2,0,L|114:117,1,60,8|8,0:0|0:0,0:0:0:0:
153,95,22401,6,0,P|201:85|251:87,2,90.0000034332277,10|2|2,0:0|0:0|0:0,0:0:0:0:
207,177,23786,2,0,L|214:241,1,45.0000017166138,10|8,0:0|0:0,0:0:0:0:
193,267,24248,6,0,P|145:277|95:275,2,90.0000034332277,2|2|2,0:0|0:0|0:0,0:0:0:0:
287,239,25632,2,0,L|341:249,1,45.0000017166138,10|8,0:0|0:0,0:0:0:0:
379,259,26094,6,0,P|389:307|387:357,2,90.0000034332277,10|2|2,0:0|0:0|0:0,0:0:0:0:
348,164,27478,2,0,L|379:120,1,45.0000017166138,10|8,0:0|0:0,0:0:0:0:
407,90,27940,6,0,P|453:60|501:45,2,90.0000034332277,10|2|2,0:0|0:0|0:0,0:0:0:0:
357,85,29094,2,0,L|300:65,2,45.0000017166138,8|10|8,0:0|0:0|0:0,0:0:0:0:
376,130,29786,5,10,0:0:0:0:
292,183,30248,2,0,L|235:163,2,45.0000017166138,2|8|2,0:0|0:0|0:0,0:0:0:0:
349,263,31171,2,0,L|391:277,1,45.0000017166138,10|8,0:0|0:0,0:0:0:0:
436,299,31632,6,0,P|398:350|366:376,1,90.0000034332277,10|2,0:0|0:0,0:0:0:0:
331,351,32324,2,0,P|284:339|236:338,1,90.0000034332277,8|0,0:0|0:0,0:0:0:0:
193,347,33017,2,0,L|149:355,1,45.0000017166138,10|8,0:0|0:0,0:0:0:0:
100,365,33478,1,10,0:0:0:0:
94,266,33940,6,0,L|46:230,2,45.0000017166138,2|8|2,0:0|0:0|0:0,0:0:0:0:
192,236,34863,2,0,L|205:192,1,45.0000017166138,10|8,0:0|0:0,0:0:0:0:
215,144,35324,6,0,P|168:149|116:143,1,90.0000034332277,10|2,0:0|0:0,0:0:0:0:
83,119,36017,2,0,P|78:72|84:20,1,90.0000034332277,8|8,0:0|0:0,0:0:0:0:
131,30,36709,2,0,L|194:29,1,45.0000017166138,10|8,0:0|0:0,0:0:0:0:
236,57,37171,6,0,P|296:68|361:53,1,120,4|8,0:0|0:0,0:0:0:0:
416,36,37863,2,0,P|405:96|420:161,1,120
456,205,38555,2,0,L|425:260,1,60,8|0,0:0|0:0,0:0:0:0:
392,314,39017,5,0,0:0:0:0:
277,247,39478,1,8,0:0:0:0:
168,321,39940,2,0,L|107:295,1,60
81,239,40401,2,0,L|107:178,1,60,8|0,0:0|0:0,0:0:0:0:
153,139,40863,6,0,P|220:148|277:138,1,120,0|8,0:0|0:0,0:0:0:0:
329,108,41555,1,0,0:0:0:0:
450,57,42017,2,0,L|487:103,2,60,0|8|0,0:0|0:0|0:0,0:0:0:0:
329,108,42940,1,0,0:0:0:0:
329,108,43171,2,0,P|319:171|332:231,1,120,8|0,0:0|0:0,0:0:0:0:
416,325,44094,1,8,0:0:0:0:
352,309,44324,1,8,0:0:0:0:
288,325,44555,6,0,P|229:334|164:331,1,120,8|8,0:0|0:0,0:0:0:0:
121,285,45248,2,0,P|112:226|115:161,1,120
155,114,45940,2,0,L|204:79,1,60,8|0,0:0|0:0,0:0:0:0:
260,44,46401,5,0,0:0:0:0:
386,83,46863,1,8,0:0:0:0:
429,207,47324,2,0,L|400:259,1,60
335,242,47786,2,0,L|306:294,1,60,8|0,0:0|0:0,0:0:0:0:
242,274,48248,6,0,P|181:264|116:276,1,120,0|8,0:0|0:0,0:0:0:0:
59,288,48940,1,0,0:0:0:0:
59,288,49171,2,0,P|69:227|57:162,1,120,0|8,0:0|0:0,0:0:0:0:
39,107,49863,1,0,0:0:0:0:
39,107,50094,2,0,P|100:117|165:105,1,120,0|8,0:0|0:0,0:0:0:0:
213,74,50786,5,12,0:0:0:0:
278,81,51017,2,0,L|311:141,1,60,10|10,0:0|0:0,0:0:0:0:
372,127,51478,2,0,L|405:187,1,60,12|10,0:0|0:0,0:0:0:0:
463,200,51940,6,0,P|458:259|433:314,1,120,12|0,0:0|0:0,0:0:0:0:
367,314,52632,1,0,0:0:0:0:
235,314,53094,2,0,L|173:314,2,60,8|8|8,0:0|0:0|0:0,0:0:0:0:
301,314,53786,6,0,P|316:251|301:191,1,120,8|0,0:0|0:0,0:0:0:0:
281,136,54478,1,2,0:0:0:0:
238,85,54709,2,0,L|170:85,1,60,4|10,0:0|0:0,0:0:0:0:
174,151,55171,2,0,L|106:151,1,60,2|12,0:0|0:0,0:0:0:0:
51,129,55632,6,0,P|38:194|54:257,1,120,8|0,0:0|0:0,0:0:0:0:
71,307,56324,2,0,L|124:333,1,60
191,333,56786,2,0,L|256:333,2,60,8|8|8,0:0|0:0|0:0,0:0:0:0:
157,276,57478,5,8,0:0:0:0:
251,183,57940,1,8,0:0:0:0:
129,132,58401,1,8,0:0:0:0:
223,39,58863,1,8,0:0:0:0:
335,107,59324,6,0,P|396:112|455:106,1,120
477,168,60017,2,0,P|482:229|476:288,1,120
451,348,60709,1,0,0:0:0:0:
320,327,61171,2,0,P|259:322|200:328,1,120
178,266,61864,2,0,P|173:205|179:146,1,120
204,86,62556,1,0,0:0:0:0:
334,66,63017,2,0,P|405:73|452:91,1,120
479,149,63709,2,0,P|472:220|454:267,1,120
408,312,64401,1,0,0:0:0:0:
281,350,64863,6,0,L|204:328,1,60
191,275,65324,2,0,L|213:198,1,60
261,178,65786,2,0,L|338:200,1,60
350,252,66248,2,0,L|328:329,1,60
281,350,66709,1,4,0:0:0:0:
301,144,68555,6,0,P|225:153|145:143,1,150,4|8,0:0|0:0,0:0:0:0:
81,101,69248,2,0,P|90:177|80:257,1,150,2|2,0:0|0:0,0:0:0:0:
44,323,69940,1,8,0:0:0:0:
126,325,70171,6,0,P|202:316|282:326,1,150,2|2,0:0|0:0,0:0:0:0:
351,353,70863,1,8,0:0:0:0:
351,353,71094,1,2,0:0:0:0:
425,317,71324,2,0,P|458:291|484:263,1,75,0|2,0:0|0:0,0:0:0:0:
424,206,71786,2,0,P|391:232|365:260,1,75,8|2,0:0|0:0,0:0:0:0:
288,236,72248,6,0,P|225:223|136:218,1,150,2|8,0:0|0:0,0:0:0:0:
58,210,72940,1,2,0:0:0:0:
144,66,73401,2,0,P|183:56|220:56,1,75,2|8,0:0|0:0,0:0:0:0:
291,93,73863,6,0,P|309:172|286:241,1,150,2|2,0:0|0:0,0:0:0:0:
236,299,74555,1,8,0:0:0:0:
81,241,75017,2,0,P|118:239|154:231,1,75,2|2,0:0|0:0,0:0:0:0:
144,149,75478,2,0,P|107:157|70:158,1,75,8|2,0:0|0:0,0:0:0:0:
28,86,75940,6,0,P|99:63|178:71,1,150,2|8,0:0|0:0,0:0:0:0:
249,100,76632,2,0,P|323:106|394:83,1,150,2|2,0:0|0:0,0:0:0:0:
465,41,77324,1,8,0:0:0:0:
498,116,77555,6,0,P|509:190|495:272,1,150,2|2,0:0|0:0,0:0:0:0:
434,317,78248,1,8,0:0:0:0:
281,255,78709,2,0,P|244:248|207:255,1,75,2|0,0:0|0:0,0:0:0:0:
207,339,79171,2,0,P|247:345|284:337,1,75,10|0,0:0|0:0,0:0:0:0:
353,300,79632,6,0,P|371:228|351:156,1,150,2|8,0:0|0:0,0:0:0:0:
300,91,80324,2,0,P|217:109|149:85,1,150,2|2,0:0|0:0,0:0:0:0:
87,44,81017,1,8,0:0:0:0:
31,104,81248,6,0,P|11:175|29:247,1,150,2|2,0:0|0:0,0:0:0:0:
77,314,81940,1,8,0:0:0:0:
240,295,82401,2,0,P|282:290|322:292,1,75,10|10,0:0|0:0,0:0:0:0:
397,300,82863,2,0,P|397:262|393:225,1,75,8|10,0:0|0:0,0:0:0:0:
367,146,83324,6,0,P|311:90|240:65,1,150,4|8,0:0|0:0,0:0:0:0:
162,67,84017,2,0,P|92:93|40:147,1,150,2|2,0:0|0:0,0:0:0:0:
7,222,84709,1,8,0:0:0:0:
89,220,84940,6,0,P|158:193|210:139,1,150,2|2,0:0|0:0,0:0:0:0:
249,67,85632,1,8,0:0:0:0:
249,67,85863,2,0,P|208:59|171:68,2,75,2|0|2,0:0|0:0|0:0,0:0:0:0:
322,104,86555,2,0,P|363:112|400:103,1,75,8|2,0:0|0:0,0:0:0:0:
438,34,87017,6,0,P|477:107|448:167,1,150,2|8,0:0|0:0,0:0:0:0:
382,208,87709,2,0,P|315:197|234:208,1,150,2|2,0:0|0:0,0:0:0:0:
165,253,88401,1,8,0:0:0:0:
238,291,88632,6,0,P|305:302|386:291,1,150,2|2,0:0|0:0,0:0:0:0:
457,249,89324,1,8,0:0:0:0:
380,102,89786,2,0,P|328:84|300:80,1,75,2|2,0:0|0:0,0:0:0:0:
225,83,90248,2,0,P|173:101|145:105,1,75,8|2,0:0|0:0,0:0:0:0:
70,109,90709,6,0,P|52:190|72:254,1,150,2|8,0:0|0:0,0:0:0:0:
126,314,91401,2,0,P|197:294|269:312,1,150,2|2,0:0|0:0,0:0:0:0:
346,344,92094,1,8,0:0:0:0:
408,290,92324,6,0,P|427:218|409:146,1,150,2|2,0:0|0:0,0:0:0:0:
361,78,93017,1,8,0:0:0:0:
202,124,93478,2,0,P|164:144|133:171,1,75,2|0,0:0|0:0,0:0:0:0:
185,233,93940,2,0,P|218:216|247:192,1,75,10|0,0:0|0:0,0:0:0:0:
288,120,94401,6,0,P|344:188|364:256,1,150,2|8,0:0|0:0,0:0:0:0:
326,320,95094,2,0,P|243:342|179:340,1,150,2|2,0:0|0:0,0:0:0:0:
101,313,95786,1,8,0:0:0:0:
48,249,96017,6,0,P|37:170|51:98,1,150,2|2,0:0|0:0,0:0:0:0:
97,34,96709,1,8,0:0:0:0:
228,133,97171,1,2,0:0:0:0:
365,41,97632,1,8,0:0:0:0:
425,97,97863,1,8,0:0:0:0:
458,175,98094,6,0,P|447:233|412:281,1,120,4|2,0:0|0:0,0:0:0:0:
346,281,98786,2,0,P|310:233|300:174,1,120,2|0,0:0|0:0,0:0:0:0:
301,108,99478,1,2,0:0:0:0:
256,192,99709,12,0,103632,0:0:0:0:
