osu file format v14

[General]
AudioFilename: audio.mp3
AudioLeadIn: 0
PreviewTime: 62139
Countdown: 0
SampleSet: Soft
StackLeniency: 0.7
Mode: 0
LetterboxInBreaks: 0
WidescreenStoryboard: 1

[Editor]
Bookmarks: 76936,108030
DistanceSpacing: 1.6
BeatDivisor: 4
GridSize: 32
TimelineZoom: 1

[Metadata]
Title:Jiyuu no Hane
TitleUnicode:自由の翅
Artist:Hiromi Sato
ArtistUnicode:佐藤ひろ美
Creator:Xexxar
Version:joker's Hard
Source:月影のシミュラクル-解放の羽-
Tags:eroge visual novel dating sim game meis clauson xr kisses joker- doormat akitoshi corinn Nathan Kiss
BeatmapID:1189269
BeatmapSetID:561640

[Difficulty]
HPDrainRate:5
CircleSize:3.8
OverallDifficulty:6
ApproachRate:8
SliderMultiplier:2.7
SliderTickRate:1

[Events]
//Background and Video events
0,0,"gay.jpg",0,0
//Break Periods
//Storyboard Layer 0 (Background)
//Storyboard Layer 1 (Fail)
//Storyboard Layer 2 (Pass)
//Storyboard Layer 3 (Foreground)
//Storyboard Sound Samples

[TimingPoints]
2999,625,4,2,1,80,1,0
2999,-111.111111111111,4,2,1,80,0,0
22999,-125,4,2,1,60,0,0
27374,-125,4,2,1,60,0,0
42999,-111.111111111111,4,2,1,80,0,0
62999,-100,4,2,1,90,0,1
72374,-100,4,2,1,90,0,0
72999,-100,4,2,1,90,0,1
87999,-111.111111111111,4,2,1,80,0,0
109249,-111.111111111111,4,2,1,70,0,0
110499,-111.111111111111,4,2,1,60,0,0
111749,-111.111111111111,4,2,1,50,0,0
112999,-111.111111111111,4,2,1,40,0,0
114249,-111.111111111111,4,2,1,30,0,0
115499,-111.111111111111,4,2,1,20,0,0
116749,-111.111111111111,4,2,1,10,0,0
117686,-111.111111111111,4,2,1,5,0,0

[Colours]
Combo1 : 0,128,255
Combo2 : 125,242,113
Combo3 : 226,63,63
Combo4 : 107,228,228

[HitObjects]
232,82,2999,6,0,P|254:144|228:219,1,121.499996292114,6|0,1:2|2:0,0:0:0:0:
165,147,3467,1,2,0:0:0:0:
121,234,3624,2,0,B|131:326|131:326|163:290,1,121.499996292114,8|2,0:0|2:2,0:0:0:0:
227,350,4092,2,0,P|286:368|354:349,2,121.499996292114,0|8|0,0:0|2:0|3:0,0:0:0:0:
211,259,4874,1,10,2:0:0:0:
390,291,5186,1,2,2:0:0:0:
390,291,5499,6,0,P|409:240|408:169,1,121.499996292114,6|0,2:0|2:0,0:0:0:0:
380,87,5967,1,2,0:0:0:0:
301,144,6124,2,0,P|282:93|283:22,1,121.499996292114,8|2,0:0|0:0,0:0:0:0:
185,13,6592,2,0,P|178:87|190:149,1,121.499996292114,2|8,0:0|2:0,0:0:0:0:
202,221,7061,1,0,3:0:0:0:
202,221,7217,1,0,3:0:0:0:
109,286,7374,2,0,L|88:150,1,121.499996292114,8|2,2:0|2:0,0:0:0:0:
217,313,7999,6,0,P|275:302|343:323,1,121.499996292114,6|0,2:0|2:0,0:0:0:0:
417,367,8467,1,2,2:0:0:0:
432,270,8624,2,0,L|446:141,1,121.499996292114,8|2,2:0|2:0,0:0:0:0:
372,85,9092,2,0,P|313:62|255:70,2,121.499996292114,2|8|0,2:0|2:0|2:0,0:0:0:0:
304,156,9874,1,10,2:0:0:0:
130,69,10186,1,2,2:0:0:0:
130,69,10499,6,0,L|139:204,1,121.499996292114,6|0,2:0|2:0,0:0:0:0:
97,277,10967,1,2,2:0:0:0:
160,350,11124,2,0,P|231:354|276:320,1,121.499996292114,8|2,2:0|2:0,0:0:0:0:
343,262,11592,2,0,P|394:231|453:238,1,121.499996292114,2|8,2:0|2:0,0:0:0:0:
500,152,12061,2,0,P|463:142|416:145,1,60.7499981460572,0|0,3:0|3:0,0:0:0:0:
345,164,12374,2,0,P|314:161|284:155,1,60.7499981460572,8|0,3:2|3:2,0:0:0:0:
205,100,12686,1,8,3:2:0:0:
205,100,12842,1,0,3:2:0:0:
116,186,12999,6,0,P|112:249|133:315,1,121.499996292114,4|0,0:0|0:0,0:0:0:0:
191,377,13467,1,2,0:0:0:0:
236,290,13624,2,0,L|368:307,1,121.499996292114,8|2,0:0|0:0,0:0:0:0:
424,236,14092,2,0,P|453:189|443:105,2,121.499996292114,2|8|0,0:0|0:0|3:0,0:0:0:0:
360,160,14874,1,10,0:0:0:0:
209,245,15186,1,2,0:0:0:0:
209,245,15499,6,0,L|202:110,1,121.499996292114,4|0,0:0|0:0,0:0:0:0:
114,100,15967,1,2,0:0:0:0:
79,191,16124,2,0,B|62:269|62:269|89:329,1,121.499996292114,8|2,0:0|0:0,0:0:0:0:
162,357,16592,2,0,P|230:369|279:328,1,121.499996292114,2|8,0:0|0:0,0:0:0:0:
325,260,17061,1,0,3:0:0:0:
325,260,17217,1,0,3:0:0:0:
269,179,17374,2,0,P|212:203|141:185,1,121.499996292114,10|2,0:0|0:0,0:0:0:0:
314,82,17999,6,0,P|371:58|442:76,1,121.499996292114,4|0,0:0|0:0,0:0:0:0:
503,132,18467,1,2,0:0:0:0:
434,201,18624,2,0,L|448:331,1,121.499996292114,8|2,0:0|0:0,0:0:0:0:
358,360,19092,2,0,P|293:366|239:321,2,121.499996292114,0|8|0,0:0|0:0|3:0,0:0:0:0:
318,269,19874,1,10,0:0:0:0:
141,303,20186,1,2,0:0:0:0:
141,303,20499,6,0,L|153:176,1,121.499996292114,4|0,0:0|0:0,0:0:0:0:
163,91,20967,1,2,0:0:0:0:
58,129,21124,2,0,L|43:259,1,121.499996292114,8|2,0:0|0:0,0:0:0:0:
72,336,21592,2,0,P|120:376|191:362,1,121.499996292114,2|8,0:0|0:0,0:0:0:0:
246,313,22061,2,0,L|249:238,1,60.7499981460572,0|0,3:0|3:0,0:0:0:0:
193,171,22374,2,0,P|250:151|315:181,1,121.499996292114,8|8,3:2|3:2,0:0:0:0:
391,215,22842,1,0,3:2:0:0:
434,121,22999,5,4,0:0:0:0:
287,30,23311,2,0,P|233:28|180:41,2,108,0|0|0,0:0|3:0|0:0,0:0:0:0:
302,115,24092,2,0,L|308:248,1,108
264,298,24561,2,0,B|246:349|184:363|184:363|117:337|103:252,1,216
88,204,25342,6,0,L|78:95,1,108
145,41,25811,2,0,B|202:81|260:49|260:49|337:6|409:60,1,270,0|0,0:0|3:0,0:0:0:0:
461,107,26749,1,0,0:0:0:0:
384,249,27061,1,0,3:0:0:0:
384,249,27374,2,0,L|397:372,1,108,2|2,0:0|0:0,0:0:0:0:
275,247,27999,5,2,3:2:0:0:
133,324,28311,2,0,P|72:337|6:319,2,108,0|0|0,0:0|3:0|0:0,0:0:0:0:
176,255,29092,2,0,L|168:134,1,108,0|0,0:0|0:0,0:0:0:0:
213,84,29561,2,0,B|253:49|253:49|369:41|369:41|324:89,1,216,0|0,0:0|0:0,0:0:0:0:
298,146,30342,6,0,B|287:198|287:198|308:256,1,108,0|0,0:0|0:0,0:0:0:0:
358,311,30811,2,0,P|444:329|373:238,1,270,0|0,0:0|3:0,0:0:0:0:
305,249,31749,1,0,0:0:0:0:
226,107,32061,1,0,3:0:0:0:
226,107,32374,2,0,L|350:115,1,108,2|2,0:0|0:0,0:0:0:0:
210,235,32999,5,4,2:0:0:0:
129,82,33311,2,0,L|5:90,2,108,0|0|0,0:0|3:0|0:0,0:0:0:0:
211,58,34092,2,0,P|260:75|335:63,1,108
400,55,34561,2,0,B|375:139|426:203|426:203|399:282,1,216
375,340,35342,6,0,P|318:341|259:308,1,108
245,237,35811,2,0,B|272:163|272:163|210:79|210:79|169:179,1,270,0|0,0:0|3:0,0:0:0:0:
147,240,36749,1,0,0:0:0:0:
18,148,37061,1,0,3:0:0:0:
18,148,37374,2,0,L|31:265,1,108,2|2,0:0|0:0,0:0:0:0:
104,111,37999,5,2,3:2:0:0:
250,179,38311,2,0,P|307:188|367:164,2,108,0|0|0,0:0|3:0|0:0,0:0:0:0:
188,231,39092,2,0,L|199:343,1,108,0|0,0:0|0:0,0:0:0:0:
279,348,39561,2,0,B|323:321|383:341|383:341|424:298|420:231,1,216,0|0,0:0|0:0,0:0:0:0:
405,163,40342,6,0,L|289:153,1,108,0|0,0:0|0:0,0:0:0:0:
216,146,40811,2,0,B|174:135|124:149|124:149|86:88|86:88|141:48|209:66,1,270,0|0,0:0|3:0,0:0:0:0:
263,69,41749,1,0,0:0:0:0:
233,228,42061,1,0,3:0:0:0:
233,228,42374,2,0,L|237:292,1,54,8|8,3:2|0:0,0:0:0:0:
146,337,42686,1,0,3:0:0:0:
57,177,42999,6,0,L|67:54,1,121.499996292114,4|2,0:0|0:0,0:0:0:0:
253,112,43624,2,0,P|306:124|379:92,1,121.499996292114,10|2,0:0|0:0,0:0:0:0:
436,170,44092,2,0,L|429:298,1,121.499996292114,2|0,3:2|3:0,0:0:0:0:
330,324,44561,2,0,B|271:341|271:341|202:312,2,121.499996292114,0|8|0,3:0|0:0|0:0,0:0:0:0:
164,221,45499,6,0,L|290:229,1,121.499996292114,0|2,3:0|0:0,0:0:0:0:
126,115,46124,2,0,B|185:98|185:98|240:121,1,121.499996292114,10|2,0:0|0:0,0:0:0:0:
325,168,46592,2,0,L|341:40,1,121.499996292114,2|0,3:2|3:3,0:0:0:0:
433,19,47061,1,0,3:0:0:0:
240,49,47374,1,8,0:0:0:0:
420,119,47686,1,0,0:0:0:0:
231,168,47999,6,0,P|168:179|95:155,1,121.499996292114,0|2,3:0|0:0,0:0:0:0:
20,336,48624,2,0,B|3:260|3:260|13:217,1,121.499996292114,10|2,0:0|0:0,0:0:0:0:
91,275,49092,2,0,P|147:265|208:305,1,121.499996292114,2|0,3:2|3:0,0:0:0:0:
294,268,49561,2,0,L|307:147,2,121.499996292114,0|8|2,3:0|0:0|0:0,0:0:0:0:
367,340,50342,6,0,P|429:351|489:317,1,121.499996292114,2|2,0:0|0:0,0:0:0:0:
418,250,50811,2,0,L|431:129,2,121.499996292114,2|8|0,0:0|0:0|0:0,0:0:0:0:
325,278,51592,2,0,P|286:296|197:272,1,121.499996292114,0|0,3:0|3:0,0:0:0:0:
122,241,52061,1,0,3:0:0:0:
213,69,52374,2,0,L|221:149,1,60.7499981460572,8|0,0:0|3:0,0:0:0:0:
237,216,52686,1,8,0:0:0:0:
237,216,52842,1,8,0:0:0:0:
334,145,52999,6,0,P|407:140|457:189,1,121.499996292114,4|2,0:0|0:0,0:0:0:0:
474,358,53624,2,0,L|347:354,1,121.499996292114,10|2,0:0|0:0,0:0:0:0:
260,324,54092,2,0,B|203:344|203:344|142:315,1,121.499996292114,2|0,3:2|3:0,0:0:0:0:
79,248,54561,2,0,L|63:107,2,121.499996292114,0|8|0,3:0|0:0|0:0,0:0:0:0:
161,71,55499,6,0,L|179:213,1,121.499996292114,0|2,3:0|0:0,0:0:0:0:
370,272,56124,2,0,P|316:281|252:240,1,121.499996292114,10|2,0:0|0:0,0:0:0:0:
329,183,56592,2,0,L|471:175,1,121.499996292114,2|0,3:2|3:0,0:0:0:0:
483,84,57061,1,0,3:0:0:0:
448,275,57374,1,8,0:0:0:0:
383,91,57686,1,0,0:0:0:0:
322,276,57999,6,0,P|265:296|184:274,1,121.499996292114,0|2,3:0|0:0,0:0:0:0:
110,116,58624,2,0,B|92:150|92:150|104:248,1,121.499996292114,10|2,0:0|0:0,0:0:0:0:
172,165,59092,2,0,P|219:146|296:160,1,121.499996292114,2|0,3:2|3:0,0:0:0:0:
378,191,59561,2,0,P|463:190|507:154,2,121.499996292114,0|8|2,3:0|0:0|0:0,0:0:0:0:
166,128,60499,5,2,3:2:0:0:
290,297,60811,1,2,3:2:0:0:
290,88,61124,1,2,3:2:0:0:
166,257,61436,1,2,3:2:0:0:
364,191,61749,1,2,3:2:0:0:
166,128,62061,1,2,3:2:0:0:
258,225,62217,5,2,3:2:0:0:
258,225,62295,1,2,3:2:0:0:
258,225,62374,2,0,L|249:306,1,60.7499981460572,8|8,3:2|3:2,0:0:0:0:
162,348,62686,1,8,3:2:0:0:
162,348,62842,1,8,3:2:0:0:
104,248,62999,6,0,B|85:211|85:211|110:112,1,135,4|2,0:0|3:2,0:0:0:0:
143,18,63467,1,2,3:2:0:0:
249,76,63624,2,0,P|291:86|386:42,1,135,8|2,0:0|3:2,0:0:0:0:
465,112,64092,2,0,L|452:253,2,135,2|8|2,3:2|0:0|3:2,0:0:0:0:
374,54,64874,2,0,L|367:131,1,67.5,10|2,0:0|0:0,0:0:0:0:
303,207,65186,2,0,L|296:284,1,67.5,2|2,3:2|0:0,0:0:0:0:
216,163,65499,6,0,B|146:157|146:157|83:199,1,135,4|2,0:0|3:2,0:0:0:0:
33,283,65967,1,2,3:2:0:0:
110,358,66124,2,0,L|256:338,1,135,8|2,0:0|3:2,0:0:0:0:
343,303,66592,2,0,P|364:241|353:158,1,135,2|8,3:2|0:0,0:0:0:0:
255,140,67061,2,0,P|255:103|274:50,1,67.5,0|0,3:0|3:0,0:0:0:0:
366,37,67374,2,0,L|356:195,1,135,8|2,0:0|0:0,0:0:0:0:
172,283,67999,6,0,B|156:218|156:218|188:142,1,135,4|2,0:0|3:2,0:0:0:0:
226,56,68467,1,2,3:2:0:0:
123,92,68624,2,0,P|91:102|42:107,1,67.5,8|0,0:0|0:0,0:0:0:0:
0,198,68936,1,2,3:2:0:0:
48,293,69092,2,0,P|106:311|182:271,1,135,2|8,3:2|0:0,0:0:0:0:
271,239,69561,2,0,P|317:254|357:255,1,67.5,2|0,3:2|3:0,0:0:0:0:
454,186,69874,2,0,P|418:218|397:252,1,67.5,10|0,0:0|0:0,0:0:0:0:
408,370,70186,2,0,P|397:322|378:287,1,67.5,2|0,0:0|0:0,0:0:0:0:
352,185,70499,6,0,L|367:49,2,135,4|0|8,0:0|3:0|0:0,0:0:0:0:
173,63,71436,1,2,3:2:0:0:
125,159,71592,2,0,P|207:163|265:115,1,135,4|8,0:0|0:0,0:0:0:0:
293,234,72061,2,0,L|285:320,1,67.5,0|0,3:2|3:2,0:0:0:0:
201,368,72374,1,8,3:2:0:0:
201,368,72530,1,8,3:2:0:0:
141,278,72686,1,8,3:2:0:0:
141,278,72842,1,8,3:2:0:0:
25,342,72999,6,0,P|8:280|41:204,1,135,4|2,0:0|3:2,0:0:0:0:
92,126,73467,1,2,3:2:0:0:
170,201,73624,2,0,L|308:188,1,135,8|0,0:0|3:0,0:0:0:0:
358,94,74092,2,0,L|217:105,2,135,2|8|2,3:2|0:0|3:2,0:0:0:0:
450,150,74874,2,0,P|452:192|440:237,1,67.5,10|2,0:0|0:0,0:0:0:0:
357,276,75186,2,0,P|355:318|367:363,1,67.5,2|2,3:2|0:0,0:0:0:0:
254,373,75499,6,0,P|243:308|264:218,1,135,4|2,0:0|3:2,0:0:0:0:
179,162,75967,1,2,3:2:0:0:
79,208,76124,2,0,B|60:145|60:145|82:64,1,135,8|2,0:0|3:2,0:0:0:0:
169,20,76592,2,0,P|237:49|319:29,1,135,2|8,3:2|0:0,0:0:0:0:
357,130,77061,2,0,L|350:197,1,67.5,0|0,3:0|3:0,0:0:0:0:
456,174,77374,2,0,L|469:34,1,135,10|2,0:0|0:0,0:0:0:0:
421,250,77999,6,0,B|428:359|428:359|380:331,1,135,4|2,0:0|3:2,0:0:0:0:
311,297,78467,1,2,3:2:0:0:
218,354,78624,2,0,P|212:319|218:264,1,67.5,8|0,0:0|0:0,0:0:0:0:
216,179,78936,1,2,3:2:0:0:
317,211,79092,2,0,B|336:149|336:149|303:62,1,135,2|8,3:2|0:0,0:0:0:0:
218,21,79561,2,0,P|190:35|142:39,1,67.5,2|0,3:2|3:0,0:0:0:0:
186,143,79874,2,0,P|154:143|109:125,1,67.5,10|0,0:0|0:0,0:0:0:0:
85,234,80186,2,0,P|56:220|24:185,1,67.5,2|0,0:0|0:0,0:0:0:0:
26,304,80499,6,0,P|78:323|164:288,2,135,4|0|8,0:0|3:0|0:0,0:0:0:0:
234,248,81436,1,2,3:2:0:0:
185,151,81592,2,0,B|170:107|170:107|192:9,1,135,2|8,3:2|0:0,0:0:0:0:
297,19,82061,2,0,L|284:87,1,67.5,0|0,3:3|3:3,0:0:0:0:
360,162,82374,1,8,3:2:0:0:
360,162,82530,1,0,3:2:0:0:
451,105,82686,1,8,3:2:0:0:
451,105,82842,1,0,3:2:0:0:
512,231,82999,6,0,L|376:247,2,135,4|0|8,0:0|3:0|0:0,0:0:0:0:
319,328,83936,1,0,3:0:0:0:
319,328,84092,1,2,3:2:0:0:
249,244,84249,2,0,P|234:199|251:110,1,135,2|2,0:0|0:0,0:0:0:0:
321,35,84717,2,0,L|463:46,1,135,2|0,3:2|0:0,0:0:0:0:
492,149,85186,1,2,0:0:0:0:
492,149,85342,1,2,0:0:0:0:
429,237,85499,6,0,B|367:257|299:215|299:215|260:228|227:262,1,202.5,2|0,3:2|3:3,0:0:0:0:
160,319,86124,2,0,L|150:178,1,135,10|12,3:2|0:0,0:0:0:0:
205,91,86592,1,2,3:2:0:0:
300,143,86749,2,0,P|379:133|440:180,1,135,2|2,3:2|3:2,0:0:0:0:
490,244,87217,1,2,3:2:0:0:
438,339,87374,1,10,3:2:0:0:
438,339,87530,1,8,3:2:0:0:
344,284,87686,1,8,3:2:0:0:
344,284,87842,1,8,3:2:0:0:
230,351,87999,6,0,P|183:321|106:325,1,121.499996292114,6|0,0:0|0:0,0:0:0:0:
26,349,88467,1,2,0:0:0:0:
11,252,88624,2,0,L|25:129,1,121.499996292114,8|2,0:0|0:0,0:0:0:0:
111,87,89092,2,0,P|165:115|244:98,2,121.499996292114,2|8|0,0:0|0:0|0:0,0:0:0:0:
184,22,89874,1,10,0:0:0:0:
264,197,90186,1,2,0:0:0:0:
264,197,90499,6,0,L|397:190,1,121.499996292114,6|0,0:0|0:0,0:0:0:0:
481,180,90967,1,2,0:0:0:0:
451,273,91124,2,0,P|407:293|322:276,1,121.499996292114,8|2,0:0|0:0,0:0:0:0:
240,265,91592,2,0,L|108:272,1,121.499996292114,2|8,0:0|0:0,0:0:0:0:
44,208,92061,1,0,3:0:0:0:
44,208,92217,1,0,3:0:0:0:
125,143,92374,2,0,B|181:118|181:118|259:142,1,121.499996292114,10|2,0:0|0:0,0:0:0:0:
338,302,92999,6,0,P|352:243|349:165,1,121.499996292114,6|0,0:0|0:0,0:0:0:0:
342,85,93467,1,0,0:0:0:0:
260,29,93624,2,0,L|121:39,1,121.499996292114,8|2,0:0|0:0,0:0:0:0:
150,134,94092,2,0,P|218:143|274:122,2,121.499996292114,2|8|0,0:0|2:2|3:0,0:0:0:0:
57,100,94874,1,10,0:0:0:0:
139,275,95186,1,2,0:0:0:0:
267,126,95499,6,0,L|404:132,1,121.499996292114,6|0,0:0|0:0,0:0:0:0:
485,135,95967,1,2,2:0:0:0:
434,218,96124,2,0,P|367:251|313:245,1,121.499996292114,8|2,2:0|2:0,0:0:0:0:
226,228,96592,2,0,P|165:227|113:257,1,121.499996292114,2|8,2:0|2:0,0:0:0:0:
46,185,97061,2,0,B|33:150|33:150|54:57,1,121.499996292114,8|8,2:0|3:2,0:0:0:0:
131,11,97530,1,0,3:2:0:0:
224,36,97686,2,0,P|257:36|297:24,1,60.7499981460572,8|0,3:2|3:2,0:0:0:0:
275,149,97999,6,0,L|267:288,1,121.499996292114,6|0,0:0|0:0,0:0:0:0:
364,284,98467,1,2,0:0:0:0:
417,200,98624,2,0,L|409:67,1,121.499996292114,8|2,0:0|0:0,0:0:0:0:
330,14,99092,2,0,P|271:5|209:36,2,121.499996292114,2|8|0,0:0|0:0|3:0,0:0:0:0:
284,100,99874,1,10,0:0:0:0:
98,43,100186,1,2,0:0:0:0:
98,43,100499,6,0,L|107:173,1,121.499996292114,6|0,0:0|0:0,0:0:0:0:
120,263,100967,1,2,0:0:0:0:
195,324,101124,2,0,P|267:319|316:276,1,121.499996292114,8|2,0:0|0:0,0:0:0:0:
381,224,101592,2,0,P|462:230|509:276,1,121.499996292114,2|8,0:0|0:0,0:0:0:0:
418,316,102061,1,0,3:0:0:0:
418,316,102217,1,0,3:0:0:0:
381,224,102374,2,0,L|394:85,1,121.499996292114,10|2,0:0|0:0,0:0:0:0:
206,44,102999,6,0,P|138:36|80:78,1,121.499996292114,6|0,0:0|0:0,0:0:0:0:
45,145,103467,1,2,0:0:0:0:
110,217,103624,2,0,L|231:201,1,121.499996292114,8|2,0:0|0:0,0:0:0:0:
309,144,104092,2,0,P|325:86|312:19,2,121.499996292114,2|8|0,0:0|0:0|3:0,0:0:0:0:
230,201,104874,1,10,0:0:0:0:
422,156,105186,1,2,0:0:0:0:
373,344,105499,6,0,L|367:207,1,121.499996292114,6|0,0:0|0:0,0:0:0:0:
319,138,105967,1,2,0:0:0:0:
249,68,106124,2,0,P|184:50|121:91,1,121.499996292114,8|2,0:0|0:0,0:0:0:0:
97,160,106592,2,0,B|107:254|107:254|138:220,1,121.499996292114,2|8,0:0|0:0,0:0:0:0:
215,213,107061,2,0,P|253:224|285:224,1,60.7499981460572,0|0,3:0|3:0,0:0:0:0:
304,120,107374,2,0,P|266:131|234:131,1,60.7499981460572,8|0,3:2|3:2,0:0:0:0:
250,38,107686,1,8,3:2:0:0:
250,38,107842,1,0,3:2:0:0:
374,72,107999,5,6,3:2:0:0:
256,192,108155,12,2,112686,0:0:0:0:
