osu file format v14

[General]
AudioFilename: audio.mp3
AudioLeadIn: 0
PreviewTime: 62139
Countdown: 0
SampleSet: Soft
StackLeniency: 0.7
Mode: 0
LetterboxInBreaks: 0
WidescreenStoryboard: 1

[Editor]
Bookmarks: 12999,97999
DistanceSpacing: 1.2
BeatDivisor: 4
GridSize: 32
TimelineZoom: 1.6

[Metadata]
Title:Jiyuu no Hane
TitleUnicode:自由の翅
Artist:Hiromi Sato
ArtistUnicode:佐藤ひろ美
Creator:Xexxar
Version:NK's Extra
Source:月影のシミュラクル-解放の羽-
Tags:eroge visual novel dating sim game meis clauson xr kisses joker- doormat akitoshi corinn Nathan Kiss
BeatmapID:1229675
BeatmapSetID:561640

[Difficulty]
HPDrainRate:5
CircleSize:4
OverallDifficulty:8
ApproachRate:9.3
SliderMultiplier:3.59999990463257
SliderTickRate:1

[Events]
//Background and Video events
0,0,"gay.jpg",0,0
//Break Periods
//Storyboard Layer 0 (Background)
//Storyboard Layer 1 (Fail)
//Storyboard Layer 2 (Pass)
//Storyboard Layer 3 (Foreground)
//Storyboard Sound Samples

[TimingPoints]
2999,625,4,2,1,80,1,0
2999,-100,4,2,1,80,0,0
22999,-200,4,2,1,60,0,0
27374,-200,4,2,1,60,0,0
27999,-200,4,2,1,60,0,0
32374,-200,4,2,1,60,0,0
32999,-166.666666666667,4,2,1,60,0,0
37374,-166.666666666667,4,2,1,60,0,0
37999,-166.666666666667,4,2,1,60,0,0
42999,-125,4,2,1,80,0,0
62999,-100,4,2,1,90,0,1
72374,-100,4,2,1,90,0,0
72999,-100,4,2,1,90,0,1
82999,-100,4,2,1,90,0,1
87999,-100,4,2,1,80,0,0
107999,-76.9230769230769,4,2,1,80,0,0
109249,-76.9230769230769,4,2,1,70,0,0
110499,-76.9230769230769,4,2,1,60,0,0
111749,-76.9230769230769,4,2,1,50,0,0
112999,-76.9230769230769,4,2,1,40,0,0
114249,-76.9230769230769,4,2,1,30,0,0
115499,-76.9230769230769,4,2,1,20,0,0
116749,-76.9230769230769,4,2,1,10,0,0
117686,-76.9230769230769,4,2,1,5,0,0

[Colours]
Combo1 : 0,128,255
Combo2 : 125,242,113
Combo3 : 226,63,63
Combo4 : 107,228,228

[HitObjects]
199,103,2999,6,0,P|289:89|389:81,1,179.999995231628,6|0,1:2|2:0,0:0:0:0:
455,182,3467,1,2,0:0:0:0:
348,290,3624,2,0,P|332:250|337:192,1,89.9999976158142,8|0,0:0|0:0,0:0:0:0:
239,22,3936,1,2,2:2:0:0:
239,22,4092,6,0,P|194:36|138:44,1,89.9999976158142,0|0,0:0|0:0,0:0:0:0:
253,164,4405,1,8,2:0:0:0:
253,164,4561,2,0,P|210:151|151:140,1,89.9999976158142,0|0,3:0|3:0,0:0:0:0:
340,256,4874,2,0,P|371:221|379:169,1,89.9999976158142,10|0,2:0|2:0,0:0:0:0:
229,267,5186,2,0,P|239:310|268:343,1,89.9999976158142,2|0,2:0|2:0,0:0:0:0:
487,155,5499,6,0,P|468:245|455:335,1,179.999995231628,6|0,2:0|2:0,0:0:0:0:
341,379,5967,1,2,0:0:0:0:
229,267,6124,2,0,P|279:259|329:254,1,89.9999976158143,8|0,0:0|0:0,0:0:0:0:
399,158,6436,1,2,0:0:0:0:
300,45,6592,6,0,P|286:86|297:149,1,89.9999976158143,2|0,0:0|0:0,0:0:0:0:
229,267,6905,1,8,2:0:0:0:
429,336,7061,1,0,3:0:0:0:
292,370,7217,1,0,3:0:0:0:
400,175,7374,2,0,P|446:248|424:342,1,179.999995231629,8|2,2:0|2:0,0:0:0:0:
328,271,7842,1,0,2:0:0:0:
467,118,7999,6,0,P|378:131|289:140,1,179.999995231629,6|0,2:0|2:0,0:0:0:0:
191,213,8467,1,2,2:0:0:0:
80,88,8624,2,0,P|126:88|182:106,1,89.9999976158143,8|0,2:0|2:0,0:0:0:0:
320,244,8936,1,2,2:0:0:0:
320,244,9092,6,0,L|312:143,1,89.9999976158143,2|0,2:0|2:0,0:0:0:0:
420,383,9405,2,0,P|432:294|449:206,1,179.999995231629,8|0,2:0|2:0,0:0:0:0:
283,344,9874,2,0,P|228:301|229:191,1,179.999995231629,10|2,2:0|2:0,0:0:0:0:
392,146,10342,1,0,2:0:0:0:
201,20,10499,6,0,P|111:35|23:39,1,179.999995231629,6|0,2:0|2:0,0:0:0:0:
118,124,10967,1,2,2:0:0:0:
23,247,11124,2,0,P|15:193|31:146,1,90.9999958343508,8|0,2:0|2:0,0:0:0:0:
104,42,11436,1,2,2:0:0:0:
221,193,11592,6,0,P|176:200|132:207,1,89.9999976158143,2|0,2:0|2:0,0:0:0:0:
187,327,11905,1,8,2:0:0:0:
23,247,12061,1,0,3:0:0:0:
66,353,12217,1,0,3:0:0:0:
154,131,12374,5,8,3:2:0:0:
210,352,12530,1,0,3:2:0:0:
252,87,12686,5,8,3:2:0:0:
135,279,12842,1,0,3:2:0:0:
0,17,12999,6,0,P|91:24|177:38,1,179.999995231629,4|0,0:0|0:0,0:0:0:0:
280,132,13467,1,2,0:0:0:0:
405,6,13624,2,0,P|362:18|316:22,1,89.9999976158143,8|0,0:0|0:0,0:0:0:0:
386,199,13936,1,2,0:0:0:0:
386,199,14092,6,0,P|401:151|421:110,1,89.9999976158143,2|0,0:0|0:0,0:0:0:0:
266,281,14405,1,8,0:0:0:0:
266,281,14561,2,0,P|258:235|244:183,1,89.9999976158143,0|0,3:0|3:0,0:0:0:0:
440,24,14874,2,0,P|395:24|356:45,1,89.9999976158143,10|0,0:0|0:0,0:0:0:0:
157,38,15186,2,0,P|188:69|230:83,1,89.9999976158143,2|0,0:0|0:0,0:0:0:0:
55,249,15499,6,0,P|14:173|43:86,1,179.999995231629,4|0,0:0|0:0,0:0:0:0:
135,25,15967,1,2,0:0:0:0:
226,150,16124,2,0,P|182:153|136:159,1,89.9999976158143,8|0,0:0|0:0,0:0:0:0:
216,275,16436,1,2,0:0:0:0:
307,95,16592,6,0,P|324:148|314:191,1,90.9999958343508,2|0,0:0|0:0,0:0:0:0:
412,343,16905,1,8,0:0:0:0:
216,275,17061,1,0,3:0:0:0:
272,364,17217,1,0,3:0:0:0:
497,235,17374,2,0,P|412:203|325:236,1,179.999995231629,10|2,0:0|0:0,0:0:0:0:
216,275,17842,1,0,0:0:0:0:
90,69,17999,6,0,P|183:61|282:49,1,179.999995231629,4|0,0:0|0:0,0:0:0:0:
359,133,18467,1,2,0:0:0:0:
460,10,18624,2,0,P|469:57|459:104,1,90.9999958343508,8|0,0:0|0:0,0:0:0:0:
200,19,18936,1,2,0:0:0:0:
200,19,19092,6,0,P|248:26|293:34,1,89.9999976158143,0|0,0:0|0:0,0:0:0:0:
65,154,19405,2,0,P|158:143|262:125,1,179.999995231629,8|0,0:0|3:0,0:0:0:0:
332,362,19874,2,0,P|372:281|338:203,1,179.999995231629,10|2,0:0|0:0,0:0:0:0:
249,281,20342,1,0,0:0:0:0:
471,218,20499,6,0,P|480:131|494:31,1,179.999995231629,4|0,0:0|0:0,0:0:0:0:
383,0,20967,1,2,0:0:0:0:
298,137,21124,2,0,P|283:96|285:39,1,89.9999976158143,8|0,0:0|0:0,0:0:0:0:
179,139,21436,1,2,0:0:0:0:
84,2,21592,6,0,P|128:7|173:15,1,89.9999976158143,2|0,0:0|0:0,0:0:0:0:
47,119,21905,1,8,0:0:0:0:
195,256,22061,1,0,3:0:0:0:
85,286,22217,1,0,3:0:0:0:
176,96,22374,5,8,3:2:0:0:
276,306,22530,1,0,3:2:0:0:
312,131,22686,5,8,3:2:0:0:
156,338,22842,1,0,3:2:0:0:
47,119,22999,5,4,0:0:0:0:
241,47,23624,2,0,P|200:31|147:34,1,89.9999976158143,0|0,3:0|0:0,0:0:0:0:
445,24,24249,5,0,3:0:0:0:
318,183,24874,2,0,P|363:169|415:171,1,89.9999976158143,0|0,3:0|0:0,0:0:0:0:
228,356,25499,5,0,3:0:0:0:
139,205,26124,2,0,P|143:228|145:249,1,44.9999988079071,0|0,3:0|0:0,0:0:0:0:
204,129,26436,1,0,0:0:0:0:
63,319,26749,6,0,P|40:282|38:237,1,89.9999976158143,0|0,0:0|3:0,0:0:0:0:
245,97,27374,2,0,L|147:106,1,89.9999976158143,2|2,0:0|0:0,0:0:0:0:
118,227,27842,1,0,0:0:0:0:
17,8,27999,5,2,3:2:0:0:
31,200,28624,2,0,P|41:156|46:111,1,89.9999976158143,0|0,3:0|0:0,0:0:0:0:
355,77,29249,5,0,3:0:0:0:
307,250,29874,2,0,P|296:206|291:161,1,89.9999976158143,0|0,3:0|0:0,0:0:0:0:
32,138,30499,5,0,3:0:0:0:
200,35,31124,2,0,P|178:27|156:23,1,44.9999988079071,0|0,3:0|0:0,0:0:0:0:
310,8,31436,1,0,0:0:0:0:
73,92,31749,6,0,P|51:53|50:9,1,89.9999976158143,0|0,0:0|3:0,0:0:0:0:
226,130,32374,2,0,P|202:133|176:138,1,44.9999988079071,2|0,0:0|0:0,0:0:0:0:
373,103,32686,2,0,P|351:95|330:88,1,44.9999988079071,2|0,0:0|0:0,0:0:0:0:
366,262,32999,6,0,P|411:233|464:237,1,107.999993843079,4|0,2:0|0:0,0:0:0:0:
309,44,33624,2,0,L|317:122,1,53.9999969215394,0|0,3:0|0:0,0:0:0:0:
418,13,33936,2,0,L|410:92,1,53.9999969215394,0|0,0:0|0:0,0:0:0:0:
169,26,34249,6,0,P|119:6|65:11,1,107.999993843079,0|0,3:0|0:0,0:0:0:0:
113,202,34874,2,0,L|108:148,1,53.9999969215394,0|0,3:0|0:0,0:0:0:0:
12,258,35186,2,0,L|19:205,1,53.9999969215394,0|0,0:0|0:0,0:0:0:0:
201,329,35499,6,0,P|250:314|316:314,1,107.999993843079,0|0,3:3|0:0,0:0:0:0:
487,151,36124,1,0,3:0:0:0:
361,170,36280,1,0,0:0:0:0:
458,299,36436,2,0,L|453:237,1,53.9999969215394,0|0,0:0|3:0,0:0:0:0:
503,44,36749,6,0,P|494:99|484:172,1,107.999993843079,0|0,0:0|3:0,0:0:0:0:
387,75,37217,1,0,0:0:0:0:
331,146,37374,2,0,P|301:103|305:42,1,107.999993843079,2|2,0:0|0:0,0:0:0:0:
63,98,37999,6,0,L|171:112,1,107.999993843079,2|0,3:2|0:0,0:0:0:0:
230,277,38624,2,0,P|239:251|243:225,1,53.9999969215394,0|0,3:0|0:0,0:0:0:0:
330,364,38936,2,0,P|321:338|317:311,1,53.9999969215394,0|0,0:0|0:0,0:0:0:0:
144,359,39249,6,0,P|91:362|36:371,1,107.999993843079,0|0,3:0|0:0,0:0:0:0:
68,119,39874,2,0,P|79:152|88:189,1,53.9999969215394,0|0,3:0|0:0,0:0:0:0:
163,266,40186,2,0,P|174:232|183:196,1,53.9999969215394,0|0,0:0|0:0,0:0:0:0:
156,14,40499,6,0,P|102:17|45:23,2,107.999993843079,0|0|0,3:0|0:0|3:0,0:0:0:0:
262,90,41280,1,0,0:0:0:0:
160,183,41436,2,0,L|147:115,1,53.9999969215394,0|0,0:0|3:0,0:0:0:0:
319,15,41749,5,0,0:0:0:0:
397,125,42061,2,0,P|414:130|431:135,2,35.999997947693,0|0|0,3:0|3:0|3:0,0:0:0:0:
376,169,42374,1,8,3:2:0:0:
268,115,42530,1,8,0:0:0:0:
176,189,42686,2,0,P|180:215|183:242,1,53.9999969215394,0|0,3:0|0:0,0:0:0:0:
17,369,42999,6,0,P|74:341|156:356,2,143.999996185303,4|2|10,0:0|0:0|0:0,0:0:0:0:
43,157,43936,1,2,0:0:0:0:
138,244,44092,6,0,L|209:235,1,71.9999980926514,2|0,3:2|0:0,0:0:0:0:
311,103,44405,1,0,3:0:0:0:
311,103,44561,2,0,P|319:137|305:188,1,71.9999980926514,0|0,3:0|0:0,0:0:0:0:
512,21,44874,2,0,L|368:7,1,143.999996185303,8|0,0:0|0:0,0:0:0:0:
192,271,45499,6,0,P|162:215|167:131,1,143.999996185303,0|2,3:0|0:0,0:0:0:0:
286,153,45967,1,0,0:0:0:0:
331,55,46124,2,0,L|255:44,1,71.9999980926514,10|0,0:0|0:0,0:0:0:0:
391,208,46436,1,2,0:0:0:0:
391,208,46592,6,0,P|404:173|393:127,1,71.9999980926514,2|0,3:2|0:0,0:0:0:0:
188,53,46905,1,0,3:3:0:0:
188,53,47061,2,0,L|260:44,1,71.9999980926514,0|0,3:0|0:0,0:0:0:0:
305,293,47374,2,0,P|271:237|286:155,1,143.999996185303,8|0,0:0|0:0,0:0:0:0:
399,72,47842,1,0,0:0:0:0:
102,17,47999,5,0,3:0:0:0:
102,17,48311,2,0,L|119:180,2,143.999996185303,2|10|2,0:0|0:0|0:0,0:0:0:0:
221,146,49092,6,0,P|221:187|202:225,1,71.9999980926514,2|0,3:2|0:0,0:0:0:0:
13,307,49405,1,0,3:0:0:0:
13,307,49561,2,0,P|29:275|57:253,1,71.9999980926514,0|0,3:0|0:0,0:0:0:0:
142,71,49874,2,0,L|-13:97,1,143.999996185303,8|2,0:0|0:0,0:0:0:0:
62,0,50342,1,2,0:0:0:0:
235,153,50499,6,0,P|265:89|253:18,1,143.999996185303,0|2,3:3|0:0,0:0:0:0:
399,187,51124,2,0,L|411:262,2,71.9999980926514,8|0|0,0:0|0:0|0:0,0:0:0:0:
235,153,51592,6,0,P|268:138|306:133,1,71.9999980926514,0|0,3:0|0:0,0:0:0:0:
86,238,51905,1,0,3:0:0:0:
86,238,52061,2,0,P|50:232|17:217,1,71.9999980926514,0|0,3:0|0:0,0:0:0:0:
204,269,52374,5,8,0:0:0:0:
177,89,52530,1,0,3:0:0:0:
330,184,52686,1,8,0:0:0:0:
373,64,52842,1,8,0:0:0:0:
386,314,52999,5,4,0:0:0:0:
386,314,53311,2,0,L|468:304,1,71.9999980926514,2|0,0:0|0:0,0:0:0:0:
295,236,53624,2,0,L|150:220,1,143.999996185303,10|2,0:0|0:0,0:0:0:0:
0,309,54092,6,0,P|35:312|69:301,1,71.9999980926514,2|0,3:2|0:0,0:0:0:0:
33,119,54405,1,0,3:0:0:0:
33,119,54561,2,0,L|22:190,1,71.9999980926514,0|0,3:0|0:0,0:0:0:0:
167,363,54874,2,0,B|152:220,1,143.999996185303,8|0,0:0|0:0,0:0:0:0:
411,70,55499,6,0,P|354:105|274:95,1,143.999996185303,0|2,3:0|0:0,0:0:0:0:
326,0,55967,1,0,0:0:0:0:
187,13,56124,2,0,L|197:85,1,71.9999980926514,10|0,0:0|0:0,0:0:0:0:
398,220,56436,1,2,0:0:0:0:
398,220,56592,6,0,L|321:233,1,71.9999980926514,2|0,3:2|0:0,0:0:0:0:
108,270,56905,1,0,3:0:0:0:
108,270,57061,2,0,P|151:272|200:298,1,71.9999980926514,0|0,3:0|0:0,0:0:0:0:
30,188,57374,2,0,P|-4:249|8:319,1,143.999996185303,8|0,0:0|0:0,0:0:0:0:
172,117,57999,6,0,L|161:33,1,71.9999980926514,0|0,3:0|0:0,0:0:0:0:
241,210,58311,2,0,P|269:185|285:145,1,71.9999980926514,2|0,0:0|0:0,0:0:0:0:
70,159,58624,2,0,P|85:191|112:214,1,71.9999980926514,10|0,0:0|0:0,0:0:0:0:
281,314,58936,1,2,0:0:0:0:
281,314,59092,6,0,L|181:326,1,71.9999980926514,2|0,3:2|0:0,0:0:0:0:
440,228,59405,1,0,3:0:0:0:
440,228,59561,2,0,L|510:237,1,71.9999980926514,0|0,3:0|0:0,0:0:0:0:
371,80,59874,2,0,P|355:114|351:159,1,71.9999980926514,8|0,0:0|0:0,0:0:0:0:
198,230,60186,2,0,P|189:195|191:159,1,71.9999980926514,2|0,0:0|0:0,0:0:0:0:
327,246,60499,5,2,3:2:0:0:
263,89,60811,1,2,3:2:0:0:
272,310,61124,1,2,3:2:0:0:
193,24,61436,1,2,3:2:0:0:
196,353,61749,1,2,3:2:0:0:
335,37,62061,5,2,3:2:0:0:
383,226,62217,1,2,3:2:0:0:
383,226,62295,1,2,3:2:0:0:
383,226,62374,1,8,3:2:0:0:
158,264,62530,1,8,3:2:0:0:
251,160,62686,1,8,3:2:0:0:
286,356,62842,1,8,3:2:0:0:
71,171,62999,6,0,L|260:159,1,179.999995231629,4|2,0:0|3:2,0:0:0:0:
358,277,63467,1,2,3:2:0:0:
198,338,63624,2,0,P|157:328|109:323,1,89.9999976158143,8|0,0:0|0:0,0:0:0:0:
151,190,63936,1,2,3:2:0:0:
0,37,64092,6,0,L|11:140,1,89.9999976158143,2|0,0:0|0:0,0:0:0:0:
197,337,64405,2,0,L|207:248,1,89.9999976158143,8|0,0:0|0:0,0:0:0:0:
306,140,64717,1,2,3:2:0:0:
126,98,64874,1,10,0:0:0:0:
243,41,65030,1,2,0:0:0:0:
322,239,65186,1,2,3:2:0:0:
295,106,65342,1,2,0:0:0:0:
145,253,65499,6,0,P|98:182|147:80,1,179.999995231629,4|2,0:0|3:2,0:0:0:0:
248,17,65967,1,2,3:2:0:0:
367,142,66124,2,0,L|377:39,1,89.9999976158143,8|0,0:0|0:0,0:0:0:0:
484,187,66436,1,2,3:2:0:0:
287,232,66592,6,0,P|270:195|261:142,1,89.9999976158143,2|0,3:2|0:0,0:0:0:0:
406,247,66905,1,8,0:0:0:0:
286,351,67061,2,0,L|196:363,1,89.9999976158143,0|0,3:0|3:0,0:0:0:0:
148,94,67374,2,0,P|133:135|140:179,1,89.9999976158143,8|0,0:0|0:0,0:0:0:0:
377,234,67686,2,0,P|391:192|384:148,1,89.9999976158143,2|0,0:0|0:0,0:0:0:0:
167,351,67999,6,0,P|243:323|354:341,1,179.999995231629,4|2,0:0|3:2,0:0:0:0:
498,244,68467,1,2,3:2:0:0:
359,53,68624,2,0,L|379:253,1,179.999995231629,8|2,0:0|3:2,0:0:0:0:
157,255,69092,6,0,P|194:236|248:233,1,89.9999976158143,2|0,3:2|0:0,0:0:0:0:
181,371,69405,1,8,0:0:0:0:
48,288,69561,2,0,L|57:195,1,89.9999976158143,2|0,3:2|3:0,0:0:0:0:
203,75,69874,2,0,P|159:75|106:94,1,89.9999976158143,10|0,0:0|0:0,0:0:0:0:
274,213,70186,2,0,P|316:227|361:229,1,89.9999976158143,2|0,0:0|0:0,0:0:0:0:
493,3,70499,6,0,P|508:90|471:170,1,179.999995231629,4|0,0:0|3:0,0:0:0:0:
361,229,70967,1,0,3:0:0:0:
288,82,71124,2,0,L|386:73,1,89.9999976158143,8|0,0:0|0:0,0:0:0:0:
471,170,71436,1,2,3:2:0:0:
332,354,71592,6,0,L|315:163,1,179.999995231629,4|8,0:0|0:0,0:0:0:0:
181,103,72061,1,0,3:2:0:0:
164,247,72217,1,0,3:2:0:0:
345,58,72374,5,8,3:2:0:0:
436,271,72530,1,8,3:2:0:0:
512,85,72686,1,8,3:2:0:0:
316,174,72843,1,8,3:2:0:0:
451,361,72999,6,0,P|365:351|262:344,1,179.999995231629,4|2,0:0|3:2,0:0:0:0:
113,319,73467,1,2,3:2:0:0:
223,148,73624,2,0,P|229:191|210:246,1,89.9999976158143,8|0,0:0|0:0,0:0:0:0:
69,83,73936,1,0,3:0:0:0:
15,192,74092,6,0,L|105:183,1,89.9999976158143,2|0,3:2|0:0,0:0:0:0:
327,47,74405,2,0,L|237:36,1,89.9999976158143,8|0,0:0|3:0,0:0:0:0:
304,204,74717,1,2,3:2:0:0:
432,40,74874,1,10,0:0:0:0:
466,161,75030,1,2,0:0:0:0:
318,100,75186,1,2,3:2:0:0:
453,34,75342,1,2,0:0:0:0:
288,24,75499,6,0,L|303:203,1,179.999995231629,4|2,0:0|3:2,0:0:0:0:
175,316,75967,1,2,3:2:0:0:
67,197,76124,2,0,P|111:195|169:214,1,89.9999976158143,8|0,0:0|0:0,0:0:0:0:
308,306,76436,1,2,3:2:0:0:
425,191,76592,6,0,L|414:299,1,89.9999976158143,2|0,3:2|0:0,0:0:0:0:
303,203,76905,1,8,0:0:0:0:
412,77,77061,2,0,P|460:80|504:104,1,89.9999976158143,0|0,3:0|3:0,0:0:0:0:
264,107,77374,2,0,L|275:18,1,89.9999976158143,10|0,0:0|0:0,0:0:0:0:
106,157,77686,2,0,L|114:246,1,89.9999976158143,2|0,0:0|0:0,0:0:0:0:
0,61,77999,6,0,P|78:20|165:35,1,179.999995231629,4|2,0:0|3:2,0:0:0:0:
216,213,78467,1,2,3:2:0:0:
292,103,78624,2,0,P|210:120|114:133,1,179.999995231629,8|2,0:0|3:2,0:0:0:0:
46,302,79092,6,0,P|31:261|37:213,1,89.9999976158143,2|0,3:2|0:0,0:0:0:0:
207,154,79405,1,8,0:0:0:0:
268,313,79561,2,0,L|178:322,1,89.9999976158143,2|0,3:2|3:0,0:0:0:0:
389,246,79874,2,0,P|405:286|404:336,1,89.9999976158143,10|0,0:0|0:0,0:0:0:0:
310,136,80186,2,0,P|309:91|325:49,1,89.9999976158143,2|0,0:0|0:0,0:0:0:0:
258,273,80499,6,0,L|78:253,1,179.999995231629,4|0,0:0|3:0,0:0:0:0:
43,131,80967,1,0,3:0:0:0:
174,54,81124,2,0,P|215:77|270:81,1,89.9999976158143,8|0,0:0|0:0,0:0:0:0:
388,36,81436,1,2,3:2:0:0:
286,181,81592,6,0,L|259:3,1,179.999995231629,2|8,3:2|0:0,0:0:0:0:
180,125,82061,1,0,3:3:0:0:
353,86,82217,1,0,3:3:0:0:
128,223,82374,5,8,3:2:0:0:
387,275,82530,1,0,3:2:0:0:
261,83,82686,5,8,3:2:0:0:
295,342,82842,1,0,3:2:0:0:
21,170,82999,6,0,P|84:111|187:121,1,179.999995231629,4|0,0:0|3:0,0:0:0:0:
270,219,83467,1,0,3:2:0:0:
416,70,83624,2,0,L|319:86,1,89.9999976158143,8|0,0:0|0:0,0:0:0:0:
173,113,83936,1,0,3:0:0:0:
270,219,84092,1,2,3:2:0:0:
72,288,84249,6,0,L|86:185,2,89.9999976158143,2|8|2,0:0|0:0|0:0,0:0:0:0:
215,372,84717,1,2,3:2:0:0:
345,251,84874,2,0,L|248:265,1,89.9999976158143,8|0,0:0|0:0,0:0:0:0:
471,187,85186,2,0,P|490:223|484:283,1,89.9999976158143,2|2,0:0|0:0,0:0:0:0:
335,163,85499,5,2,3:2:0:0:
372,335,85655,1,10,0:0:0:0:
255,263,85811,1,0,3:3:0:0:
424,208,85967,1,0,3:3:0:0:
287,85,86124,2,0,L|302:189,1,89.9999976158143,10|0,3:2|2:2,0:0:0:0:
167,312,86436,1,12,0:0:0:0:
342,282,86592,1,2,3:2:0:0:
217,194,86749,5,2,3:2:0:0:
265,374,86905,1,8,0:0:0:0:
357,262,87061,1,2,3:2:0:0:
121,224,87217,5,2,3:2:0:0:
121,224,87295,1,2,3:2:0:0:
121,224,87374,1,10,3:2:0:0:
314,165,87530,1,8,3:2:0:0:
179,75,87686,1,8,3:2:0:0:
235,263,87843,1,8,3:2:0:0:
0,94,87999,6,0,P|85:82|194:73,1,179.999995231629,6|0,0:0|0:0,0:0:0:0:
289,115,88467,1,2,0:0:0:0:
424,26,88624,2,0,P|381:11|336:16,1,90.9999958343508,8|0,0:0|0:0,0:0:0:0:
102,147,88936,1,2,0:0:0:0:
102,147,89092,6,8,P|77:105|75:55,1,89.9999976158143,2|0,0:0|0:0,0:0:0:0:
197,300,89405,1,8,0:0:0:0:
197,300,89561,2,0,P|194:251|167:208,1,89.9999976158143,2|0,0:0|0:0,0:0:0:0:
248,57,89874,2,0,B|363:45,1,89.9999976158143,10|0,0:0|0:0,0:0:0:0:
467,243,90186,2,0,B|377:233,1,89.9999976158143,2|0,0:0|0:0,0:0:0:0:
125,122,90499,6,0,P|72:191|90:279,1,179.999995231629,6|0,0:0|0:0,0:0:0:0:
203,344,90967,1,2,0:0:0:0:
262,206,91124,2,0,L|173:214,1,89.9999976158143,8|0,0:0|0:0,0:0:0:0:
313,307,91436,1,2,0:0:0:0:
396,122,91592,6,0,P|419:160|419:220,1,89.9999976158143,2|0,0:0|0:0,0:0:0:0:
325,351,91905,1,8,0:0:0:0:
255,175,92061,1,0,3:0:0:0:
192,293,92217,1,0,3:0:0:0:
75,191,92374,2,0,L|291:171,1,179.999995231629,10|2,0:0|0:0,0:0:0:0:
338,267,92842,1,0,0:0:0:0:
476,82,92999,6,0,P|388:87|303:38,1,179.999995231629,6|0,0:0|0:0,0:0:0:0:
140,80,93467,1,0,0:0:0:0:
254,174,93624,2,0,P|269:210|265:274,1,89.9999976158143,8|0,0:0|0:0,0:0:0:0:
55,258,93936,1,2,0:0:0:0:
55,258,94092,6,0,L|146:242,1,89.9999976158143,2|0,0:0|0:0,0:0:0:0:
3,101,94405,2,0,L|216:133,1,179.999995231629,8|0,2:2|3:0,0:0:0:0:
455,49,94874,2,0,P|372:25|287:76,1,179.999995231629,10|2,0:0|0:0,0:0:0:0:
384,136,95342,1,0,0:0:0:0:
198,306,95499,6,0,L|179:113,1,179.999995231629,6|0,0:0|0:0,0:0:0:0:
86,75,95967,1,2,2:0:0:0:
286,123,96124,2,0,P|309:85|310:28,1,89.9999976158143,8|0,2:0|2:0,0:0:0:0:
198,16,96436,1,2,2:0:0:0:
239,164,96592,6,0,L|349:151,1,89.9999976158143,2|0,2:0|2:0,0:0:0:0:
456,200,96905,1,8,2:0:0:0:
389,351,97061,1,8,2:0:0:0:
317,247,97217,1,0,2:0:0:0:
497,343,97374,5,8,3:2:0:0:
379,114,97530,1,0,3:2:0:0:
291,347,97686,5,8,3:2:0:0:
479,179,97842,1,0,3:2:0:0:
199,87,97999,6,0,P|210:182|222:286,1,179.999995231629,6|0,0:0|0:0,0:0:0:0:
317,353,98467,1,2,0:0:0:0:
456,256,98624,2,0,P|416:240|359:247,1,89.9999976158143,8|0,0:0|0:0,0:0:0:0:
118,292,98936,1,2,0:0:0:0:
118,292,99092,6,0,P|162:299|207:291,1,90.9999958343508,2|0,0:0|0:0,0:0:0:0:
270,75,99405,1,8,0:0:0:0:
270,75,99561,2,0,L|263:179,1,89.9999976158143,0|0,3:0|3:0,0:0:0:0:
127,113,99874,2,0,P|114:67|145:-1,1,90.9999958343508,10|0,0:0|0:0,0:0:0:0:
405,10,100186,2,0,P|418:56|387:124,1,90.9999958343508,2|0,0:0|0:0,0:0:0:0:
181,226,100499,6,0,P|268:214|361:206,1,179.999995231629,6|0,0:0|0:0,0:0:0:0:
443,310,100967,1,2,0:0:0:0:
280,355,101124,2,0,P|239:342|191:337,1,89.9999976158143,8|0,0:0|0:0,0:0:0:0:
54,277,101436,1,2,0:0:0:0:
168,136,101592,6,0,P|185:177|181:230,1,89.9999976158143,2|0,0:0|0:0,0:0:0:0:
53,88,101905,1,8,0:0:0:0:
283,61,102061,1,0,3:0:0:0:
190,14,102217,1,0,3:0:0:0:
348,160,102374,2,0,P|395:100|385:0,1,179.999995231629,10|2,0:0|0:0,0:0:0:0:
283,61,102842,1,0,0:0:0:0:
280,293,102999,6,0,P|375:272|475:266,1,179.999995231629,6|0,0:0|0:0,0:0:0:0:
509,170,103467,1,2,0:0:0:0:
402,42,103624,2,0,P|394:86|403:130,1,90.9999958343508,8|0,0:0|0:0,0:0:0:0:
240,236,103936,1,2,0:0:0:0:
240,236,104092,6,0,L|328:251,1,89.9999976158143,2|0,0:0|0:0,0:0:0:0:
186,115,104405,2,0,P|97:128|7:136,1,179.999995231629,8|0,0:0|3:0,0:0:0:0:
325,163,104874,2,0,P|327:68|273:-3,1,179.999995231629,10|2,0:0|0:0,0:0:0:0:
443,59,105342,1,0,0:0:0:0:
186,115,105499,6,0,L|203:323,1,179.999995231629,6|0,0:0|0:0,0:0:0:0:
316,375,105967,1,2,0:0:0:0:
447,242,106124,2,0,L|435:337,1,89.9999976158143,8|0,0:0|0:0,0:0:0:0:
297,278,106436,1,2,0:0:0:0:
401,145,106592,6,0,P|448:132|500:148,1,89.9999976158143,2|0,0:0|0:0,0:0:0:0:
307,241,106905,1,8,0:0:0:0:
255,41,107061,1,0,3:0:0:0:
197,136,107217,1,0,3:0:0:0:
427,64,107374,5,8,3:2:0:0:
153,34,107530,1,0,3:2:0:0:
379,196,107686,5,8,3:2:0:0:
143,255,107842,1,0,3:2:0:0:
455,337,107999,5,6,3:2:0:0:
256,192,108155,12,2,112686,0:0:0:0:
