osu file format v14

[General]
AudioFilename: audio.mp3
AudioLeadIn: 0
PreviewTime: 62139
Countdown: 0
SampleSet: Soft
StackLeniency: 0.7
Mode: 0
LetterboxInBreaks: 0
WidescreenStoryboard: 0

[Editor]
DistanceSpacing: 0.9
BeatDivisor: 8
GridSize: 32
TimelineZoom: 1

[Metadata]
Title:Jiyuu no Hane
TitleUnicode:自由の翅
Artist:Hiromi Sato
ArtistUnicode:佐藤ひろ美
Creator:Xexxar
Version:Easy
Source:月影のシミュラクル-解放の羽-
Tags:eroge visual novel dating sim game meis clauson xr kisses joker- doormat akitoshi corinn Nathan Kiss
BeatmapID:1204086
BeatmapSetID:561640

[Difficulty]
HPDrainRate:2
CircleSize:2.8
OverallDifficulty:2
ApproachRate:2
SliderMultiplier:1.8
SliderTickRate:2

[Events]
//Background and Video events
0,0,"gay.jpg",0,0
//Break Periods
//Storyboard Layer 0 (Background)
//Storyboard Layer 1 (Fail)
//Storyboard Layer 2 (Pass)
//Storyboard Layer 3 (Foreground)
//Storyboard Sound Samples

[TimingPoints]
2999,625,4,2,1,80,1,0
2999,-100,4,2,1,80,0,0
22999,-111.111111111111,4,2,1,60,0,0
37999,-111.111111111111,4,2,1,60,0,0
42999,-100,4,2,1,80,0,0
62999,-90.9090909090909,4,2,1,90,0,1
72374,-90.9090909090909,4,2,1,90,0,0
72999,-90.9090909090909,4,2,1,90,0,1
82999,-90.9090909090909,4,2,1,90,0,1
87999,-100,4,2,1,80,0,0
107999,-100,4,2,1,80,0,0
109249,-100,4,2,1,70,0,0
110499,-100,4,2,1,60,0,0
111749,-100,4,2,1,50,0,0
112999,-100,4,2,1,40,0,0
114249,-100,4,2,1,30,0,0
115499,-100,4,2,1,20,0,0
116749,-100,4,2,1,10,0,0
117686,-100,4,2,1,5,0,0

[Colours]
Combo1 : 0,128,255
Combo2 : 125,242,113
Combo3 : 226,63,63
Combo4 : 107,228,228

[HitObjects]
200,34,2999,6,0,B|221:96|221:96|206:215,1,180,6|8,1:2|0:0,0:0:0:0:
134,262,3936,2,0,L|-6:266,2,135,2|8|10,2:2|2:0|2:0,0:0:0:0:
216,297,5186,1,2,2:0:0:0:
291,247,5499,6,0,B|373:283|373:283|471:280,1,180,6|8,2:0|0:0,0:0:0:0:
502,199,6436,2,0,P|521:150|500:60,2,135,2|8|8,0:0|2:0|2:0,0:0:0:0:
412,191,7686,1,2,2:0:0:0:
344,131,7999,6,0,B|262:95|262:95|164:98,1,180,6|8,2:0|2:0,0:0:0:0:
100,152,8936,2,0,P|82:223|107:297,2,135,2|8|10,2:0|2:0|2:0,0:0:0:0:
85,63,10186,1,2,2:0:0:0:
14,119,10499,6,0,P|-8:196|18:326,1,180,6|8,2:0|2:0,0:0:0:0:
72,352,11436,2,0,L|245:352,2,135,2|8|8,2:0|2:0|3:2,0:0:0:0:
91,264,12686,1,8,3:2:0:0:
118,178,12999,6,0,B|211:179|211:179|321:144,1,180,4|8,0:0|0:0,0:0:0:0:
373,193,13936,2,0,P|394:259|380:331,2,135,2|8|10,0:0|0:0|0:0,0:0:0:0:
371,102,15186,1,2,0:0:0:0:
290,62,15499,6,0,B|207:88|207:88|114:87,1,180,4|8,0:0|0:0,0:0:0:0:
38,136,16436,2,0,P|20:195|38:293,2,135,2|8|10,0:0|0:0|0:0,0:0:0:0:
118,176,17686,1,2,0:0:0:0:
203,203,17999,6,0,P|309:221|396:188,1,180,4|8,0:0|0:0,0:0:0:0:
446,144,18936,2,0,B|463:81|463:81|450:9,2,135,2|8|10,0:0|0:0|0:0,0:0:0:0:
459,233,20186,1,2,0:0:0:0:
448,322,20499,6,0,B|369:359|369:359|252:357,1,180,4|8,0:0|0:0,0:0:0:0:
190,330,21436,2,0,L|30:325,2,135,2|8|8,0:0|0:0|3:2,0:0:0:0:
258,271,22686,1,8,3:2:0:0:
262,180,22999,5,4,0:0:0:0:
439,164,23624,2,0,P|459:235|426:346,2,161.999995056153,0|0|0,3:0|3:0|3:0,0:0:0:0:
315,34,25499,1,0,3:0:0:0:
212,179,26124,2,0,B|129:199|129:199|34:185,1,161.999995056153,0|0,3:0|0:0,0:0:0:0:
210,272,27374,2,0,L|305:247,1,80.9999975280763,2|2,0:0|0:0,0:0:0:0:
377,248,27999,5,2,3:2:0:0:
212,179,28624,2,0,P|190:111|214:17,2,161.999995056153,0|0|0,3:0|3:0|3:0,0:0:0:0:
151,346,30499,1,0,3:0:0:0:
290,234,31124,2,0,B|376:216|376:216|462:235,1,161.999995056153,0|0,3:0|0:0,0:0:0:0:
298,328,32374,2,0,L|185:350,1,80.9999975280763,2|2,0:0|0:0,0:0:0:0:
133,316,32999,5,4,2:0:0:0:
290,234,33624,2,0,P|311:149|278:60,2,161.999995056153,0|0|0,3:0|3:0|3:0,0:0:0:0:
116,275,35499,1,0,3:3:0:0:
286,325,36124,2,0,B|368:339|368:339|462:321,1,161.999995056153,0|0,3:0|0:0,0:0:0:0:
289,233,37374,2,0,L|184:211,1,80.9999975280763,2|2,0:0|0:0,0:0:0:0:
124,242,37999,5,2,3:2:0:0:
286,325,38624,2,0,P|369:342|455:318,2,161.999995056153,0|0|0,3:0|3:0|3:0,0:0:0:0:
114,276,40499,1,0,3:0:0:0:
289,233,41124,2,0,P|316:149|279:49,1,161.999995056153,0|0,3:0|0:0,0:0:0:0:
152,9,42374,2,0,L|39:6,1,80.9999975280763,8|0,3:2|3:0,0:0:0:0:
8,72,42999,6,0,P|-4:114|12:190,1,90,4|2,0:0|0:0,0:0:0:0:
82,196,43624,2,0,L|223:200,2,135,10|2|0,0:0|3:2|3:0,0:0:0:0:
7,246,44874,2,0,P|-3:288|3:335,1,90,8|0,0:0|0:0,0:0:0:0:
84,372,45499,6,0,L|190:374,1,90,0|2,3:0|0:0,0:0:0:0:
252,329,46124,2,0,P|327:319|398:338,2,135,10|2|0,0:0|3:2|3:0,0:0:0:0:
174,282,47374,2,0,P|163:236|180:178,1,90,8|0,0:0|0:0,0:0:0:0:
230,126,47999,6,0,P|243:79|230:14,1,90,0|2,3:0|0:0,0:0:0:0:
151,17,48624,2,0,B|77:15|77:15|9:47,2,135,10|2|0,0:0|3:2|3:0,0:0:0:0:
239,38,49874,2,0,L|333:33,1,90,8|2,0:0|0:0,0:0:0:0:
409,72,50499,6,0,P|424:125|413:181,1,90,0|2,3:3|0:0,0:0:0:0:
387,242,51124,2,0,B|371:306|371:306|391:383,2,135,8|0|0,0:0|3:0|3:0,0:0:0:0:
334,168,52374,1,8,0:0:0:0:
245,151,52686,1,8,0:0:0:0:
182,216,52999,6,0,P|124:229|66:223,1,90,4|2,0:0|0:0,0:0:0:0:
28,165,53624,2,0,L|14:-4,2,135,10|2|0,0:0|3:2|3:0,0:0:0:0:
5,252,54874,2,0,P|-2:303|15:363,1,90,8|0,0:0|0:0,0:0:0:0:
86,380,55499,6,0,L|189:381,1,90,0|2,3:0|0:0,0:0:0:0:
257,343,56124,2,0,B|287:282|287:282|288:208,2,135,10|2|0,0:0|3:2|3:0,0:0:0:0:
340,375,57374,2,0,L|437:373,1,90,8|0,0:0|0:0,0:0:0:0:
495,311,57999,6,0,P|505:267|498:223,1,90,0|2,3:0|0:0,0:0:0:0:
464,140,58624,2,0,P|446:76|466:-16,2,135,10|2|0,0:0|3:2|3:0,0:0:0:0:
413,214,59874,2,0,L|297:223,1,90,8|2,0:0|0:0,0:0:0:0:
268,292,60499,6,0,P|261:344|271:391,2,90,2|2|2,3:2|3:2|3:2,0:0:0:0:
196,237,61436,2,0,P|149:237|85:256,2,90,2|2|2,3:2|3:2|3:2,0:0:0:0:
251,166,62374,2,0,L|247:52,1,90,8|8,3:2|3:2,0:0:0:0:
327,36,62999,6,0,L|445:33,1,99.0000030212403,4|2,0:0|3:2,0:0:0:0:
494,95,63624,2,0,P|515:154|500:256,2,148.50000453186,8|2|0,0:0|3:2|0:0,0:0:0:0:
414,135,64874,2,0,L|285:138,1,99.0000030212403,10|2,0:0|3:2,0:0:0:0:
252,201,65499,6,0,L|140:204,1,99.0000030212403,4|2,0:0|3:2,0:0:0:0:
69,172,66124,2,0,B|49:101|49:101|62:13,2,148.50000453186,8|2|0,0:0|3:2|3:0,0:0:0:0:
82,260,67374,2,0,P|89:311|80:360,1,99.0000030212403,8|2,0:0|0:0,0:0:0:0:
169,370,67999,6,0,L|274:373,1,99.0000030212403,4|2,0:0|3:2,0:0:0:0:
350,339,68624,2,0,P|374:266|360:186,2,148.50000453186,8|2|2,0:0|3:2|3:2,0:0:0:0:
278,285,69874,2,0,L|135:282,1,99.0000030212403,10|2,0:0|0:0,0:0:0:0:
106,230,70499,6,0,P|80:150|120:8,2,198.000006042481,4|8|0,0:0|0:0|0:0,0:0:0:0:
98,318,72061,1,0,3:2:0:0:
167,373,72374,2,0,L|271:376,1,99.0000030212403,8|8,3:2|3:2,0:0:0:0:
340,327,72999,6,0,P|355:252|340:201,1,99.0000030212403,4|2,0:0|3:2,0:0:0:0:
290,165,73624,2,0,P|274:82|297:8,2,148.50000453186,8|2|0,0:0|3:2|3:0,0:0:0:0:
377,145,74874,2,0,P|426:132|496:151,1,99.0000030212403,10|2,0:0|3:2,0:0:0:0:
510,220,75499,6,0,L|512:333,1,99.0000030212403,4|2,0:0|3:2,0:0:0:0:
426,345,76124,2,0,B|351:334|351:334|265:355,2,148.50000453186,8|2|0,0:0|3:2|3:0,0:0:0:0:
421,255,77374,2,0,L|419:156,1,99.0000030212403,10|2,0:0|0:0,0:0:0:0:
366,84,77999,6,0,P|316:72|264:80,1,99.0000030212403,4|2,0:0|3:2,0:0:0:0:
189,118,78624,2,0,P|107:137|32:120,2,148.50000453186,8|2|2,0:0|3:2|3:2,0:0:0:0:
263,167,79874,2,0,P|282:227|272:290,1,99.0000030212403,10|2,0:0|0:0,0:0:0:0:
212,321,80499,6,0,B|158:344|114:317|114:317|66:289|4:311,2,198.000006042481,4|8|0,0:0|0:0|0:0,0:0:0:0:
295,351,82061,1,0,3:3:0:0:
365,295,82374,2,0,P|417:301|483:279,1,99.0000030212403,8|8,3:2|3:2,0:0:0:0:
507,213,82999,6,0,L|502:98,1,99.0000030212403,4|0,0:0|3:0,0:0:0:0:
460,35,83624,2,0,B|396:12|396:12|291:16,2,148.50000453186,8|2|2,0:0|3:2|0:0,0:0:0:0:
414,111,84874,2,0,L|419:226,1,99.0000030212403,8|2,0:0|0:0,0:0:0:0:
384,292,85499,6,0,P|320:327|191:309,2,198.000006042481,2|10|2,3:2|3:2|3:2,0:0:0:0:
418,209,87061,1,2,3:2:0:0:
376,129,87374,2,0,P|362:81|372:23,1,99.0000030212403,10|8,3:2|3:2,0:0:0:0:
280,11,87999,6,0,L|87:25,1,180,6|8,0:0|0:0,0:0:0:0:
36,87,88936,2,0,B|13:152|13:152|36:252,2,135,2|8|10,0:0|0:0|0:0,0:0:0:0:
122,113,90186,1,2,0:0:0:0:
208,136,90499,6,0,P|303:154|396:111,1,180,6|8,0:0|0:0,0:0:0:0:
461,159,91436,2,0,P|480:216|463:306,2,135,2|8|10,0:0|0:0|0:0,0:0:0:0:
453,69,92686,1,2,0:0:0:0:
368,36,92999,6,0,B|284:59|284:59|181:36,1,180,6|8,0:0|0:0,0:0:0:0:
122,94,93936,2,0,P|37:111|-24:93,2,135,2|8|10,0:0|2:2|0:0,0:0:0:0:
203,133,95186,1,2,0:0:0:0:
292,143,95499,6,0,P|318:203|299:318,1,180,6|8,0:0|2:0,0:0:0:0:
223,357,96436,2,0,L|70:361,2,135,2|8|8,2:0|2:0|3:2,0:0:0:0:
222,266,97686,1,8,3:2:0:0:
224,175,97999,6,0,B|322:172|322:172|427:209,1,180,6|8,0:0|0:0,0:0:0:0:
469,255,98936,2,0,P|490:321|476:393,2,135,2|8|10,0:0|0:0|0:0,0:0:0:0:
483,166,100186,1,2,0:0:0:0:
447,83,100499,6,0,B|364:57|364:57|271:58,1,180,6|8,0:0|0:0,0:0:0:0:
211,125,101436,2,0,P|193:184|211:282,2,135,2|8|10,0:0|0:0|0:0,0:0:0:0:
298,148,102686,1,2,0:0:0:0:
337,229,102999,6,0,P|443:247|530:214,1,180,6|8,0:0|0:0,0:0:0:0:
470,145,103936,2,0,B|453:82|453:82|466:10,2,135,2|8|10,0:0|0:0|0:0,0:0:0:0:
510,225,105186,1,2,0:0:0:0:
505,315,105499,6,0,P|416:343|311:309,1,180,6|8,0:0|0:0,0:0:0:0:
271,259,106436,2,0,B|261:192|261:192|275:126,2,135,2|8|8,0:0|0:0|3:2,0:0:0:0:
247,345,107686,1,8,3:2:0:0:
157,353,107999,5,6,3:2:0:0:
256,192,108311,12,2,112686,0:0:0:0:
