osu file format v14

[General]
AudioFilename: audio.mp3
AudioLeadIn: 0
PreviewTime: 62139
Countdown: 0
SampleSet: Soft
StackLeniency: 0.7
Mode: 0
LetterboxInBreaks: 0
WidescreenStoryboard: 0

[Editor]
Bookmarks: 102717
DistanceSpacing: 1
BeatDivisor: 4
GridSize: 32
TimelineZoom: 0.9999999

[Metadata]
Title:Jiyuu no Hane
TitleUnicode:自由の翅
Artist:Hiromi Sato
ArtistUnicode:佐藤ひろ美
Creator:Xexxar
Version:Doormat's Insane
Source:月影のシミュラクル-解放の羽-
Tags:eroge visual novel dating sim game meis clauson xr kisses joker- doormat akitoshi corinn Nathan Kiss
BeatmapID:1204198
BeatmapSetID:561640

[Difficulty]
HPDrainRate:5
CircleSize:4
OverallDifficulty:7.5
ApproachRate:8.5
SliderMultiplier:2.69999990463257
SliderTickRate:1

[Events]
//Background and Video events
0,0,"gay.jpg",0,0
//Break Periods
//Storyboard Layer 0 (Background)
//Storyboard Layer 1 (Fail)
//Storyboard Layer 2 (Pass)
//Storyboard Layer 3 (Foreground)
//Storyboard Sound Samples

[TimingPoints]
2999,625,4,2,1,80,1,0
2999,-100,4,2,1,80,0,0
22999,-125,4,2,1,60,0,0
27374,-125,4,2,1,60,0,0
27999,-125,4,2,1,60,0,0
32374,-125,4,2,1,60,0,0
32999,-125,4,2,1,60,0,0
37374,-125,4,2,1,60,0,0
37999,-125,4,2,1,60,0,0
42999,-100,4,2,1,80,0,0
62999,-90.9090909090909,4,2,1,90,0,1
72374,-90.9090909090909,4,2,1,90,0,0
72999,-90.9090909090909,4,2,1,90,0,1
82999,-90.9090909090909,4,2,1,90,0,1
87999,-100,4,2,1,80,0,0
107999,-100,4,2,1,80,0,0
109249,-100,4,2,1,60,0,0
110499,-100,4,2,1,40,0,0
111749,-100,4,2,1,20,0,0
112686,-100,4,2,1,5,0,0

[Colours]
Combo1 : 0,128,255
Combo2 : 125,242,113
Combo3 : 226,63,63
Combo4 : 107,228,228

[HitObjects]
144,112,2999,6,0,L|136:252,1,134.999995231628,6|0,1:2|2:0,0:0:0:0:
244,200,3467,1,2,0:0:0:0:
208,48,3624,2,0,P|168:24|72:64,1,134.999995231628,8|2,0:0|2:2,0:0:0:0:
88,212,4092,6,0,P|128:236|224:196,1,134.999995231628,0|8,0:0|2:0,0:0:0:0:
292,132,4561,1,0,3:0:0:0:
396,185,4717,1,0,3:0:0:0:
377,300,4874,2,0,P|376:344|380:380,1,67.4999976158142,10|0,2:0|2:0,0:0:0:0:
244,288,5186,2,0,P|245:244|241:208,1,67.4999976158142,2|0,2:0|2:0,0:0:0:0:
182,358,5499,6,0,P|248:381|306:356,1,134.999995231628,6|0,2:0|2:0,0:0:0:0:
368,260,5967,1,2,0:0:0:0:
233,153,6124,2,0,L|243:287,1,134.999995231628,8|2,0:0|0:0,0:0:0:0:
392,232,6592,6,0,L|381:97,1,134.999995231628,2|8,0:0|2:0,0:0:0:0:
280,40,7061,1,0,3:0:0:0:
194,118,7217,1,0,3:0:0:0:
242,224,7374,2,0,P|247:257|245:290,1,67.4999976158142,8|0,2:0|2:0,0:0:0:0:
104,224,7686,2,0,P|102:190|107:157,1,67.4999976158142,2|0,2:0|2:0,0:0:0:0:
211,35,7999,6,0,P|267:69|332:55,1,134.999995231628,6|0,2:0|2:0,0:0:0:0:
436,4,8467,1,2,2:0:0:0:
512,152,8624,2,0,L|377:136,1,134.999995231628,8|2,2:0|2:0,0:0:0:0:
212,236,9092,6,0,L|346:251,1,134.999995231628,2|8,2:0|2:0,0:0:0:0:
232,344,9561,2,0,P|184:344|152:328,1,67.4999976158142,0|0,0:0|2:0,0:0:0:0:
76,248,9874,2,0,P|71:314|40:374,1,134.999995231628,10|2,2:0|2:0,0:0:0:0:
140,92,10499,6,0,L|274:107,1,134.999995231628,6|0,2:0|2:0,0:0:0:0:
228,0,10967,1,2,2:0:0:0:
76,27,11124,2,0,P|47:89|73:154,1,134.999995231628,8|2,2:0|2:0,0:0:0:0:
248,160,11592,6,0,P|276:100|255:38,2,134.999995231628,2|8|0,2:0|2:0|3:0,0:0:0:0:
116,220,12374,5,8,3:2:0:0:
140,344,12530,1,0,3:2:0:0:
240,184,12686,1,8,3:2:0:0:
264,308,12842,1,0,3:2:0:0:
113,187,12999,6,0,P|177:206|240:183,1,134.999995231628,4|0,0:0|0:0,0:0:0:0:
176,100,13467,1,2,0:0:0:0:
24,172,13624,2,0,L|38:306,1,134.999995231628,8|2,0:0|0:0,0:0:0:0:
192,368,14092,6,0,L|177:233,1,134.999995231628,2|8,0:0|0:0,0:0:0:0:
240,148,14561,1,0,3:0:0:0:
345,159,14717,1,0,3:0:0:0:
387,256,14874,2,0,L|380:336,1,67.4999976158142,10|0,0:0|0:0,0:0:0:0:
234,215,15186,2,0,L|240:148,1,67.4999976158142,2|0,0:0|0:0,0:0:0:0:
292,312,15499,6,0,L|152:296,1,134.999995231628,4|0,0:0|0:0,0:0:0:0:
88,216,15967,1,2,0:0:0:0:
188,69,16124,2,0,P|211:131|192:195,1,134.999995231628,8|2,0:0|0:0,0:0:0:0:
8,204,16592,6,0,P|-14:141|4:78,1,134.999995231628,2|8,0:0|0:0,0:0:0:0:
94,21,17061,1,0,3:0:0:0:
188,69,17217,1,0,3:0:0:0:
277,11,17374,2,0,L|356:20,1,67.4999976158142,10|0,0:0|0:0,0:0:0:0:
264,160,17686,2,0,L|185:151,1,67.4999976158142,2|0,0:0|0:0,0:0:0:0:
368,120,17999,6,0,L|353:254,1,134.999995231628,4|0,0:0|0:0,0:0:0:0:
456,224,18467,1,2,0:0:0:0:
440,60,18624,2,0,P|382:27|317:41,1,134.999995231628,8|2,0:0|0:0,0:0:0:0:
292,216,19092,6,0,P|349:248|414:234,1,134.999995231628,0|8,0:0|0:0,0:0:0:0:
504,160,19561,2,0,L|511:227,1,67.4999976158142,0|0,3:0|3:0,0:0:0:0:
360,160,19874,2,0,L|345:25,1,134.999995231628,10|2,0:0|0:0,0:0:0:0:
104,208,20499,6,0,P|168:221|229:189,1,134.999995231628,4|0,0:0|0:0,0:0:0:0:
152,116,20967,1,2,0:0:0:0:
8,168,21124,2,0,L|22:302,1,134.999995231628,8|2,0:0|0:0,0:0:0:0:
184,384,21592,6,0,L|199:249,1,134.999995231628,2|8,0:0|0:0,0:0:0:0:
80,124,22061,2,0,L|89:212,1,67.4999976158142,0|0,3:0|3:0,0:0:0:0:
326,146,22373,5,8,3:2:0:0:
208,123,22530,1,0,3:2:0:0:
185,241,22686,1,8,3:2:0:0:
303,263,22842,1,0,3:2:0:0:
400,88,22999,5,4,0:0:0:0:
400,88,23311,2,0,P|420:136|400:204,2,107.999996185303,0|0|0,0:0|3:0|0:0,0:0:0:0:
308,48,24092,1,0,0:0:0:0:
273,151,24249,6,0,L|327:146,1,53.9999980926514,0|0,3:0|0:0,0:0:0:0:
212,220,24561,2,0,L|180:176,1,53.9999980926514,0|0,0:0|0:0,0:0:0:0:
300,238,24874,2,0,P|284:289|238:315,1,107.999996185303,0|0,3:0|0:0,0:0:0:0:
124,202,25499,6,0,P|140:151|186:125,1,107.999996185303,0|0,3:0|0:0,0:0:0:0:
300,238,26124,2,0,P|345:264|397:252,1,107.999996185303,0|0,3:0|0:0,0:0:0:0:
212,220,26592,2,0,L|228:396,1,161.999994277954,0|0,3:0|3:0,0:0:0:0:
226,381,27374,6,0,L|156:368,1,53.9999980926514,2|0,0:0|0:0,0:0:0:0:
312,312,27686,2,0,L|382:298,1,53.9999980926514,2|0,0:0|0:0,0:0:0:0:
444,204,27999,5,2,3:2:0:0:
444,204,28311,2,0,P|424:160|448:92,2,107.999996185303,0|0|0,0:0|3:0|0:0,0:0:0:0:
512,276,29092,1,0,0:0:0:0:
384,340,29249,6,0,L|440:336,1,53.9999980926514,0|0,3:0|0:0,0:0:0:0:
344,248,29561,2,0,L|286:252,1,53.9999980926514,0|0,0:0|0:0,0:0:0:0:
376,152,29874,2,0,L|504:144,1,107.999996185303,0|0,3:0|0:0,0:0:0:0:
260,104,30499,6,0,L|268:232,1,107.999996185303,0|0,3:0|0:0,0:0:0:0:
64,296,31124,2,0,L|56:168,1,107.999996185303,0|0,3:0|0:0,0:0:0:0:
121,352,31592,1,0,3:0:0:0:
121,352,31748,2,0,P|73:376|7:349,1,107.999996185303,0|0,0:0|3:0,0:0:0:0:
22,364,32374,6,0,L|26:293,1,53.9999980926514,2|0,0:0|0:0,0:0:0:0:
108,168,32686,2,0,L|110:221,1,53.9999980926514,2|0,0:0|0:0,0:0:0:0:
48,60,32999,5,4,2:0:0:0:
48,59,33311,2,0,P|98:42|150:54,1,107.999996185303,0|0,0:0|3:0,0:0:0:0:
224,140,33780,1,0,0:0:0:0:
104,190,33936,2,0,L|104:136,1,53.9999980926514,0|0,0:0|0:0,0:0:0:0:
200,256,34249,6,0,L|200:310,1,53.9999980926514,0|0,3:0|0:0,0:0:0:0:
272,180,34561,2,0,P|236:152|168:152,2,107.999996185303,0|0|0,0:0|3:0|0:0,0:0:0:0:
435,280,35499,6,0,P|484:257|510:211,1,107.999996185303,0|0,3:3|0:0,0:0:0:0:
392,80,36123,2,0,P|343:102|317:148,1,107.999996185303,0|0,3:0|0:0,0:0:0:0:
456,128,36592,2,0,P|467:53|392:0,1,161.999994277954,0|0,3:0|3:0,0:0:0:0:
406,1,37374,6,0,L|474:-1,1,53.9999980926514,2|0,0:0|0:0,0:0:0:0:
336,108,37686,2,0,L|268:110,1,53.9999980926514,2|0,0:0|0:0,0:0:0:0:
136,24,37999,5,2,3:2:0:0:
136,24,38311,2,0,P|148:64|124:140,1,107.999996185303,0|0,0:0|3:0,0:0:0:0:
40,196,38780,1,0,0:0:0:0:
148,280,38936,2,0,L|142:226,1,53.9999980926514,0|0,0:0|0:0,0:0:0:0:
16,328,39249,6,0,L|65:349,1,53.9999980926514,0|0,3:0|0:0,0:0:0:0:
227,324,39561,2,0,P|240:272|223:221,2,107.999996185303,0|0|0,0:0|3:0|0:0,0:0:0:0:
24,208,40499,6,0,P|59:168|110:153,1,107.999996185303,0|0,3:0|0:0,0:0:0:0:
312,200,41124,2,0,P|363:185|398:145,1,107.999996185303,0|0,3:0|0:0,0:0:0:0:
236,152,41592,2,0,P|223:203|240:254,1,107.999996185303,0|0,3:0|0:0,0:0:0:0:
315,110,42061,6,0,L|312:68,3,35.9999987284343,0|0|0|8,3:0|3:0|3:0|3:2,0:0:0:0:
164,192,42530,1,8,0:0:0:0:
339,261,42686,1,0,3:0:0:0:
88,128,42999,6,0,P|63:189|85:251,1,134.999995231628,4|2,0:0|0:0,0:0:0:0:
240,256,43467,1,0,0:0:0:0:
240,256,43624,2,0,P|265:195|243:133,1,134.999995231628,10|2,0:0|0:0,0:0:0:0:
180,336,44092,6,0,L|334:324,1,134.999995231628,2|0,3:2|3:0,0:0:0:0:
392,220,44561,1,0,3:0:0:0:
392,220,44717,1,0,0:0:0:0:
299,95,44874,2,0,P|262:150|276:214,1,134.999995231628,8|0,0:0|0:0,0:0:0:0:
275,213,45499,6,0,P|210:199|156:236,1,134.999995231628,0|2,3:0|0:0,0:0:0:0:
180,356,45967,1,0,0:0:0:0:
180,356,46123,2,0,P|244:369|298:332,1,134.999995231628,10|2,0:0|0:0,0:0:0:0:
72,200,46592,6,0,L|82:334,1,134.999995231628,2|0,3:2|3:3,0:0:0:0:
228,284,47061,2,0,L|224:212,1,67.4999976158142,0|0,3:0|0:0,0:0:0:0:
175,361,47374,2,0,P|247:376|300:345,1,134.999995231628,8|0,0:0|0:0,0:0:0:0:
396,232,47842,1,0,0:0:0:0:
396,232,47920,1,0,0:0:0:0:
396,232,47999,1,0,3:0:0:0:
152,120,48311,6,0,L|144:208,1,67.4999976158142,2|0,0:0|0:0,0:0:0:0:
280,104,48624,2,0,L|207:53,1,67.4999976158142,10|0,0:0|0:0,0:0:0:0:
229,222,48936,1,2,0:0:0:0:
76,76,49092,6,0,L|64:220,1,134.999995231628,2|0,3:2|3:0,0:0:0:0:
229,222,49561,2,0,L|222:154,1,67.4999976158142,0|0,3:0|0:0,0:0:0:0:
174,312,49874,2,0,P|237:329|298:302,1,134.999995231628,8|2,0:0|0:0,0:0:0:0:
356,196,50342,1,2,0:0:0:0:
222,154,50499,6,0,L|229:222,1,67.4999976158142,0|2,3:3|0:0,0:0:0:0:
284,56,50811,2,0,L|149:68,2,134.999995231628,2|8|0,0:0|0:0|0:0,0:0:0:0:
404,148,51592,6,0,P|380:209|405:270,1,134.999995231628,0|0,3:0|3:0,0:0:0:0:
511,176,52061,2,0,L|503:84,1,67.4999976158142,0|0,3:0|0:0,0:0:0:0:
340,12,52374,5,8,0:0:0:0:
448,0,52530,1,0,3:0:0:0:
344,120,52686,1,8,0:0:0:0:
479,105,52842,1,8,0:0:0:0:
264,71,52998,6,0,P|253:137|285:195,1,134.999995231628,4|2,0:0|0:0,0:0:0:0:
423,168,53467,1,0,0:0:0:0:
423,168,53624,2,0,P|433:102|401:44,1,134.999995231628,10|2,0:0|0:0,0:0:0:0:
368,256,54092,6,0,L|501:238,1,134.999995231628,2|0,3:2|3:0,0:0:0:0:
432,356,54561,1,0,3:0:0:0:
292,200,54717,1,0,0:0:0:0:
292,200,54795,1,0,0:0:0:0:
292,199,54874,2,0,P|271:263|296:324,1,134.999995231628,8|0,0:0|0:0,0:0:0:0:
452,28,55499,6,0,L|304:16,1,134.999995231628,0|2,3:0|0:0,0:0:0:0:
376,188,55967,1,0,0:0:0:0:
376,188,56124,2,0,L|524:200,1,134.999995231628,10|2,0:0|0:0,0:0:0:0:
310,120,56592,6,0,P|282:181|301:244,1,134.999995231628,2|0,3:2|3:0,0:0:0:0:
445,254,57061,2,0,P|472:193|453:130,2,134.999995231628,0|8|0,3:0|0:0|0:0,0:0:0:0:
301,338,57842,1,0,0:0:0:0:
301,338,57920,1,0,0:0:0:0:
301,338,57999,1,0,3:0:0:0:
156,96,58311,6,0,L|232:116,1,67.4999976158142,2|0,0:0|0:0,0:0:0:0:
100,228,58624,2,0,L|79:152,1,67.4999976158142,10|0,0:0|0:0,0:0:0:0:
242,210,58936,1,2,0:0:0:0:
144,16,59092,6,0,L|296:56,1,134.999995231628,2|0,3:2|3:0,0:0:0:0:
336,176,59561,1,0,3:0:0:0:
336,176,59717,1,0,0:0:0:0:
190,271,59874,2,0,P|163:208|192:148,1,134.999995231628,8|2,0:0|0:0,0:0:0:0:
396,348,60499,5,2,3:2:0:0:
404,180,60811,1,2,3:2:0:0:
252,360,61124,5,2,3:2:0:0:
262,150,61436,1,2,3:2:0:0:
71,375,61749,5,2,3:2:0:0:
84,112,62061,1,2,3:2:0:0:
236,248,62217,5,2,3:2:0:0:
236,248,62295,1,2,3:2:0:0:
236,248,62374,1,8,3:2:0:0:
224,100,62530,1,8,3:2:0:0:
96,260,62686,1,8,3:2:0:0:
84,112,62842,1,8,3:2:0:0:
295,43,62999,6,0,P|315:113|280:176,1,148.499999286652,4|2,0:0|3:2,0:0:0:0:
148,184,63467,1,2,3:2:0:0:
76,84,63624,2,0,L|224:100,1,148.499999286652,8|2,0:0|3:2,0:0:0:0:
168,280,64092,6,0,L|20:295,1,148.499999286652,2|8,3:2|0:0,0:0:0:0:
160,372,64561,1,0,0:0:0:0:
64,204,64717,1,2,3:2:0:0:
224,96,64874,2,0,L|216:180,1,74.2499996433258,10|2,0:0|0:0,0:0:0:0:
44,84,65186,1,2,3:2:0:0:
4,288,65342,1,2,0:0:0:0:
4,288,65499,6,0,P|55:307|143:264,1,148.499999286652,4|2,0:0|3:2,0:0:0:0:
188,144,65967,1,2,3:2:0:0:
284,312,66124,2,0,L|291:163,1,148.499999286652,8|2,0:0|3:2,0:0:0:0:
92,40,66592,6,0,L|99:188,1,148.499999286652,2|8,3:2|0:0,0:0:0:0:
180,312,67061,1,0,3:0:0:0:
180,312,67217,1,0,3:0:0:0:
328,204,67374,2,0,P|259:179|194:210,1,148.499999286652,8|2,0:0|0:0,0:0:0:0:
407,268,67842,1,0,0:0:0:0:
407,268,67998,6,0,P|432:199|403:133,1,148.499999286652,4|2,0:0|3:2,0:0:0:0:
292,60,68467,1,2,3:2:0:0:
253,207,68624,2,0,L|328:204,1,74.2499996433258,8|0,0:0|0:0,0:0:0:0:
184,100,68936,1,2,3:2:0:0:
28,196,69092,6,0,L|44:348,1,148.499999286652,2|8,3:2|0:0,0:0:0:0:
156,236,69561,1,2,3:2:0:0:
156,236,69717,1,0,3:0:0:0:
80,120,69874,2,0,P|33:104|-16:116,1,74.2499996433258,10|0,0:0|0:0,0:0:0:0:
192,136,70186,2,0,P|228:136|263:122,1,74.2499996433258,2|0,0:0|0:0,0:0:0:0:
424,36,70499,6,0,P|401:106|432:173,1,148.499999286652,4|0,0:0|3:0,0:0:0:0:
384,313,70967,1,0,3:0:0:0:
184,217,71124,2,0,P|250:187|319:210,1,148.499999286652,8|2,0:0|3:2,0:0:0:0:
96,249,71592,6,0,L|100:157,1,74.2499996433258,4|0,0:0|0:0,0:0:0:0:
256,285,71905,2,0,L|252:377,1,74.2499996433258,8|0,0:0|3:2,0:0:0:0:
96,249,72217,1,0,3:2:0:0:
325,207,72374,5,8,3:2:0:0:
336,355,72530,1,8,3:2:0:0:
184,217,72686,1,8,3:2:0:0:
196,365,72842,1,8,3:2:0:0:
400,256,72999,6,0,P|416:200|360:124,1,148.499999286652,4|2,0:0|3:2,0:0:0:0:
232,88,73467,1,2,3:2:0:0:
178,232,73624,2,0,L|325:207,1,148.499999286652,8|0,0:0|3:0,0:0:0:0:
408,352,74092,6,0,L|261:377,2,148.499999286652,2|8|2,3:2|0:0|3:2,0:0:0:0:
500,256,74874,1,10,0:0:0:0:
368,240,75030,1,2,0:0:0:0:
488,377,75186,1,2,3:2:0:0:
356,361,75342,1,2,0:0:0:0:
418,166,75499,6,0,P|348:150|292:194,1,148.499999286652,4|2,0:0|3:2,0:0:0:0:
204,308,75967,1,2,3:2:0:0:
104,160,76124,2,0,L|97:307,1,148.499999286652,8|2,0:0|3:2,0:0:0:0:
312,384,76592,6,0,L|305:236,1,148.499999286652,2|8,3:2|0:0,0:0:0:0:
420,328,77061,1,0,3:0:0:0:
420,328,77217,1,0,3:0:0:0:
508,200,77374,2,0,L|434:193,1,74.2499996433258,10|0,0:0|0:0,0:0:0:0:
336,80,77686,2,0,L|409:86,1,74.2499996433258,2|0,0:0|0:0,0:0:0:0:
260,15,77998,6,0,P|233:83|268:156,1,148.499999286652,4|2,0:0|3:2,0:0:0:0:
372,232,78467,1,2,3:2:0:0:
212,336,78624,2,0,P|278:308|346:335,1,148.499999286652,8|2,0:0|3:2,0:0:0:0:
120,384,79092,6,0,L|127:235,1,148.499999286652,2|8,3:2|0:0,0:0:0:0:
228,104,79561,1,2,3:2:0:0:
228,104,79717,1,0,3:0:0:0:
332,248,79874,2,0,L|257:248,1,74.2499996433258,10|0,0:0|0:0,0:0:0:0:
92,148,80186,2,0,L|166:148,1,74.2499996433258,2|0,0:0|0:0,0:0:0:0:
300,24,80499,6,0,P|274:91|306:155,1,148.499999286652,4|0,0:0|3:0,0:0:0:0:
428,232,80967,1,0,3:0:0:0:
512,84,81123,2,0,L|364:88,1,148.499999286652,8|2,0:0|3:2,0:0:0:0:
188,248,81592,6,0,L|336:251,1,148.499999286652,2|8,3:2|0:0,0:0:0:0:
228,104,82061,2,0,L|135:102,1,74.2499996433258,0|0,3:3|3:3,0:0:0:0:
20,256,82374,5,8,3:2:0:0:
4,120,82530,1,0,3:2:0:0:
144,240,82686,1,8,3:2:0:0:
128,104,82842,1,0,3:2:0:0:
95,323,82999,6,0,P|168:336|228:280,1,148.499999286652,4|0,0:0|3:0,0:0:0:0:
264,152,83467,1,0,3:2:0:0:
416,248,83624,2,0,L|316:252,1,74.2499996433258,8|0,0:0|0:0,0:0:0:0:
112,204,83936,2,0,L|212:200,1,74.2499996433258,0|2,3:0|3:2,0:0:0:0:
80,112,84249,5,2,0:0:0:0:
44,272,84405,1,8,0:0:0:0:
120,112,84561,2,0,P|127:75|122:39,1,74.2499996433258,2|2,0:0|3:2,0:0:0:0:
0,196,84874,2,0,P|-5:232|2:268,1,74.2499996433258,8|0,0:0|0:0,0:0:0:0:
176,348,85186,2,0,P|181:311|173:275,1,74.2499996433258,2|2,0:0|0:0,0:0:0:0:
120,112,85499,5,2,3:2:0:0:
280,164,85655,1,10,0:0:0:0:
119,75,85811,2,0,P|83:68|47:73,1,74.2499996433258,0|0,3:3|3:3,0:0:0:0:
208,200,86124,2,0,P|244:205|280:197,1,74.2499996433258,10|0,3:2|2:2,0:0:0:0:
436,72,86436,1,12,0:0:0:0:
288,28,86592,1,2,3:2:0:0:
444,160,86749,5,2,3:2:0:0:
499,23,86905,2,0,P|428:-6|369:32,1,148.499999286652,8|2,0:0|3:2,0:0:0:0:
372,27,87295,1,2,3:2:0:0:
372,27,87374,5,10,3:2:0:0:
444,160,87530,1,8,3:2:0:0:
248,84,87686,1,8,3:2:0:0:
319,216,87842,1,8,3:2:0:0:
496,92,87999,6,0,P|433:71|375:102,1,134.999995231628,6|0,0:0|0:0,0:0:0:0:
319,216,88467,1,2,0:0:0:0:
447,294,88624,2,0,L|444:160,1,134.999995231628,8|2,0:0|0:0,0:0:0:0:
292,244,89092,6,0,L|295:378,1,134.999995231628,2|8,0:0|0:0,0:0:0:0:
360,176,89561,2,0,P|333:155|300:147,1,67.4999976158142,2|0,0:0|0:0,0:0:0:0:
388,268,89874,2,0,P|432:280|520:240,1,134.999995231628,10|2,0:0|0:0,0:0:0:0:
280,84,90499,6,0,L|128:92,1,134.999995231628,6|0,0:0|0:0,0:0:0:0:
224,188,90967,1,2,0:0:0:0:
355,136,91124,2,0,P|371:92|331:8,1,134.999995231628,8|2,0:0|0:0,0:0:0:0:
205,32,91592,6,0,P|189:76|229:160,1,134.999995231628,2|8,0:0|0:0,0:0:0:0:
324,268,92061,2,0,L|228:276,1,67.4999976158142,0|0,3:0|3:0,0:0:0:0:
332,164,92374,2,0,L|488:152,1,134.999995231628,10|2,0:0|0:0,0:0:0:0:
288,348,92999,6,0,P|240:336|144:356,1,134.999995231628,6|0,0:0|0:0,0:0:0:0:
0,284,93467,1,0,0:0:0:0:
120,140,93624,2,0,L|113:274,1,134.999995231628,8|2,0:0|0:0,0:0:0:0:
296,212,94092,6,0,L|289:77,1,134.999995231628,2|8,0:0|2:2,0:0:0:0:
387,248,94561,2,0,P|372:278|347:300,1,67.4999976158142,0|0,3:0|3:0,0:0:0:0:
376,152,94874,2,0,P|416:132|512:152,1,134.999995231628,10|2,0:0|0:0,0:0:0:0:
512,360,95342,1,0,0:0:0:0:
512,360,95420,1,0,0:0:0:0:
512,360,95499,6,0,P|472:380|376:360,1,134.999995231628,6|0,0:0|0:0,0:0:0:0:
308,252,95967,1,2,2:0:0:0:
445,149,96124,2,0,P|467:212|439:272,1,134.999995231628,8|2,2:0|2:0,0:0:0:0:
265,185,96592,6,0,P|247:121|278:63,2,134.999995231628,2|8|0,2:0|2:0|2:0,0:0:0:0:
408,248,97374,5,8,3:2:0:0:
284,272,97530,1,0,3:2:0:0:
432,356,97686,1,8,3:2:0:0:
308,380,97842,1,0,3:2:0:0:
408,248,97999,6,0,P|424:200|388:112,1,134.999995231628,6|0,0:0|0:0,0:0:0:0:
272,72,98467,1,2,0:0:0:0:
187,180,98624,2,0,L|322:192,1,134.999995231628,8|2,0:0|0:0,0:0:0:0:
252,40,99092,6,0,L|117:51,1,134.999995231628,2|8,0:0|0:0,0:0:0:0:
48,136,99561,1,0,3:0:0:0:
106,228,99717,1,0,3:0:0:0:
211,199,99874,2,0,P|242:189|276:188,1,67.4999976158142,10|0,0:0|0:0,0:0:0:0:
248,336,100186,2,0,P|214:334|182:324,1,67.4999976158142,2|0,0:0|0:0,0:0:0:0:
352,248,100499,6,0,L|337:382,1,134.999995231628,6|0,0:0|0:0,0:0:0:0:
448,320,100967,1,2,0:0:0:0:
414,183,101124,2,0,P|354:156|292:179,1,134.999995231628,8|2,0:0|0:0,0:0:0:0:
289,312,101592,6,0,P|349:338|410:316,1,134.999995231628,2|8,0:0|0:0,0:0:0:0:
480,232,102061,1,0,3:0:0:0:
469,123,102217,1,0,3:0:0:0:
384,53,102374,2,0,L|296:64,1,67.4999976158142,10|0,0:0|0:0,0:0:0:0:
280,204,102686,2,0,L|368:193,1,67.4999976158142,2|0,0:0|0:0,0:0:0:0:
168,156,102999,6,0,L|188:300,1,134.999995231628,6|0,0:0|0:0,0:0:0:0:
44,248,103467,1,2,0:0:0:0:
94,101,103624,2,0,P|151:67|217:78,1,134.999995231628,8|2,0:0|0:0,0:0:0:0:
241,210,104092,6,0,P|184:243|118:232,1,134.999995231628,2|8,0:0|0:0,0:0:0:0:
52,144,104561,1,0,3:0:0:0:
115,53,104717,1,0,3:0:0:0:
220,85,104874,2,0,P|276:118|342:107,1,134.999995231628,10|2,0:0|0:0,0:0:0:0:
480,24,105342,1,0,0:0:0:0:
480,24,105420,1,0,0:0:0:0:
480,24,105499,6,0,L|492:184,1,134.999995231628,6|0,0:0|0:0,0:0:0:0:
404,272,105967,1,2,0:0:0:0:
252,168,106124,2,0,L|412:156,1,134.999995231628,8|2,0:0|0:0,0:0:0:0:
328,328,106592,6,0,L|193:317,1,134.999995231628,2|8,0:0|0:0,0:0:0:0:
304,200,107061,1,0,3:0:0:0:
304,200,107217,1,0,3:0:0:0:
88,192,107374,5,8,3:2:0:0:
112,316,107530,1,0,3:2:0:0:
196,168,107686,1,8,3:2:0:0:
220,292,107842,1,0,3:2:0:0:
0,272,107999,5,6,3:2:0:0:
256,192,108077,12,2,112686,0:0:0:0:
