osu file format v14

[General]
AudioFilename: audio.mp3
AudioLeadIn: 0
PreviewTime: 62139
Countdown: 0
SampleSet: Soft
StackLeniency: 0.7
Mode: 0
LetterboxInBreaks: 0
WidescreenStoryboard: 0

[Editor]
DistanceSpacing: 1.3
BeatDivisor: 8
GridSize: 32
TimelineZoom: 1

[Metadata]
Title:Jiyuu no Hane
TitleUnicode:自由の翅
Artist:Hiromi Sato
ArtistUnicode:佐藤ひろ美
Creator:Xexxar
Version:A Feather
Source:月影のシミュラクル-解放の羽-
Tags:eroge visual novel dating sim game meis clauson xr kisses joker- doormat akitoshi corinn Nathan Kiss
BeatmapID:1187393
BeatmapSetID:561640

[Difficulty]
HPDrainRate:5
CircleSize:4
OverallDifficulty:9
ApproachRate:9.3
SliderMultiplier:2.8
SliderTickRate:1

[Events]
//Background and Video events
0,0,"gay.jpg",0,0
//Break Periods
//Storyboard Layer 0 (Background)
//Storyboard Layer 1 (Fail)
//Storyboard Layer 2 (Pass)
//Storyboard Layer 3 (Foreground)
//Storyboard Sound Samples

[TimingPoints]
2999,625,4,2,1,80,1,0
2999,-76.9230769230769,4,2,1,80,0,0
22999,-166.666666666667,4,2,1,60,0,0
27374,-117.647058823529,4,2,1,60,0,0
27999,-166.666666666667,4,2,1,60,0,0
32374,-117.647058823529,4,2,1,60,0,0
32999,-166.666666666667,4,2,1,60,0,0
37374,-117.647058823529,4,2,1,60,0,0
37999,-166.666666666667,4,2,1,60,0,0
42999,-86.9565217391304,4,2,1,80,0,0
62999,-72.992700729927,4,2,1,90,0,1
72374,-72.992700729927,4,2,1,90,0,0
72999,-72.992700729927,4,2,1,90,0,1
82999,-76.9230769230769,4,2,1,90,0,1
87999,-76.9230769230769,4,2,1,80,0,0
107999,-76.9230769230769,4,2,1,80,0,0
109249,-76.9230769230769,4,2,1,60,0,0
110499,-76.9230769230769,4,2,1,40,0,0
111749,-76.9230769230769,4,2,1,20,0,0
112686,-76.9230769230769,4,2,1,5,0,0

[Colours]
Combo1 : 0,128,255
Combo2 : 125,242,113
Combo3 : 226,63,63
Combo4 : 107,228,228

[HitObjects]
98,22,2999,6,0,B|70:74|70:74|70:229,1,181.999991668702,6|0,1:2|2:0,2:0:0:0:
71,371,3467,1,2,0:0:0:0:
208,262,3624,2,0,P|217:213|208:156,1,90.9999958343508,8|0,0:0|0:0,0:0:0:0:
71,74,3936,1,2,2:2:0:0:
71,280,4092,6,0,L|71:385,1,90.9999958343508
212,172,4405,1,8,2:0:0:0:
213,361,4561,1,0,3:0:0:0:
170,267,4717,1,0,3:0:0:0:
387,351,4874,2,0,P|430:359|479:349,1,90.9999958343508,10|0,2:0|2:0,2:0:0:0:
212,172,5186,2,0,P|169:164|120:174,1,90.9999958343508,2|0,2:0|2:0,2:0:0:0:
431,244,5499,6,0,P|452:150|425:55,1,181.999991668702,6|0,2:0|2:0,2:0:0:0:
308,274,5967,1,2,0:0:0:0:
308,111,6124,2,0,L|308:8,1,90.9999958343508,8|0,0:0|0:0,0:0:0:0:
178,315,6436,1,2,0:0:0:0:
431,244,6592,6,0,P|442:295|430:348,1,90.9999958343508,2|0,0:0|0:0,0:0:0:0:
309,374,6905,1,8,2:0:0:0:
249,194,7061,1,0,3:0:0:0:
374,162,7217,1,0,3:0:0:0:
178,315,7374,2,0,P|130:325|73:309,1,90.9999958343508,8|0,2:0|2:0,2:0:0:0:
354,274,7686,2,0,L|456:274,1,90.9999958343508,2|0,2:0|2:0,2:0:0:0:
132,231,7999,6,0,B|105:180|105:180|105:34,1,181.999991668702,6|0,2:0|2:0,2:0:0:0:
29,258,8467,1,2,2:0:0:0:
206,154,8624,2,0,P|271:148|328:169,1,90.9999958343508,8|0,2:0|2:0,2:0:0:0:
29,338,8936,1,2,2:0:0:0:
29,115,9092,6,0,L|29:9,1,90.9999958343508,2|0,2:0|2:0,2:0:0:0:
161,252,9405,2,0,P|223:272|353:241,1,181.999991668702,8|0,2:0|2:0,2:0:0:0:
477,161,9874,2,0,P|488:114|471:44,1,90.9999958343508,10|0,2:0|2:0,2:0:0:0:
418,281,10186,2,0,L|418:399,1,90.9999958343508,2|0,2:0|2:0,2:0:0:0:
265,177,10499,6,0,B|233:124|233:124|233:-2,1,181.999991668702,6|0,2:0|2:0,2:0:0:0:
370,127,10967,1,2,2:0:0:0:
167,223,11124,2,0,P|113:231|66:215,1,90.9999958343508,8|0,2:0|2:0,2:0:0:0:
79,59,11436,1,2,2:0:0:0:
265,177,11592,6,0,P|276:228|253:288,1,90.9999958343508,2|0,2:0|2:0,2:0:0:0:
120,320,11905,1,8,2:0:0:0:
345,355,12061,1,0,3:0:0:0:
451,281,12217,1,0,3:0:0:0:
172,197,12374,5,8,3:2:0:0:
364,162,12530,1,0,3:2:0:0:
140,95,12686,5,8,3:2:0:0:
398,154,12842,1,0,3:2:0:0:
72,173,12999,6,0,B|43:223|43:223|43:353,1,181.999991668702,4|0,0:0|0:0,0:0:0:0:
172,197,13467,1,2,0:0:0:0:
0,101,13624,2,0,P|-9:58|12:-9,1,90.9999958343508,8|0,0:0|0:0,0:0:0:0:
225,50,13936,1,2,0:0:0:0:
72,173,14092,6,0,L|72:280,1,90.9999958343508,2|0,0:0|0:0,0:0:0:0:
308,290,14405,1,8,0:0:0:0:
117,365,14561,1,0,3:0:0:0:
273,381,14717,1,0,3:0:0:0:
161,263,14874,2,0,P|114:256|36:280,1,90.9999958343508,10|0,0:0|0:0,0:0:0:0:
380,366,15186,2,0,P|427:373|505:349,1,90.9999958343508,2|0,0:0|0:0,0:0:0:0:
249,185,15499,6,0,P|225:108|267:-16,1,181.999991668702,4|0,0:0|0:0,0:0:0:0:
324,239,15967,1,2,0:0:0:0:
394,97,16124,2,0,L|393:-6,1,90.9999958343508,8|0,0:0|0:0,0:0:0:0:
512,212,16436,1,2,0:0:0:0:
249,185,16592,6,0,P|232:238|242:281,1,90.9999958343508,2|0,0:0|0:0,0:0:0:0:
393,338,16905,1,8,0:0:0:0:
434,178,17061,1,0,3:0:0:0:
309,126,17217,1,0,3:0:0:0:
475,291,17374,2,0,P|487:336|477:381,1,90.9999958343508,10|0,0:0|0:0,0:0:0:0:
394,97,17686,2,0,L|394:0,1,90.9999958343508,2|0,0:0|0:0,0:0:0:0:
308,314,17999,6,0,B|257:344|257:344|112:344,1,181.999991668702,4|0,0:0|0:0,0:0:0:0:
316,219,18467,1,2,0:0:0:0:
189,121,18624,2,0,P|180:74|190:27,1,90.9999958343508,8|0,0:0|0:0,0:0:0:0:
434,178,18936,1,2,0:0:0:0:
234,265,19092,6,0,L|143:265,1,90.9999958343508
0,186,19405,1,8,0:0:0:0:
0,348,19561,1,0,3:0:0:0:
143,265,19717,1,0,3:0:0:0:
81,89,19874,2,0,P|69:33|84:-17,1,90.9999958343508,10|0,0:0|0:0,0:0:0:0:
143,265,20186,2,0,L|143:360,1,90.9999958343508,2|0,0:0|0:0,0:0:0:0:
210,89,20499,6,0,B|262:61|262:61|404:61,1,181.999991668702,4|0,0:0|0:0,0:0:0:0:
512,163,20967,1,2,0:0:0:0:
392,273,21124,2,0,P|381:320|404:386,1,90.9999958343508,8|0,0:0|0:0,0:0:0:0:
282,139,21436,1,2,0:0:0:0:
230,318,21592,6,0,P|177:327|131:312,1,90.9999958343508,2|0,0:0|0:0,0:0:0:0:
1,75,21905,1,8,0:0:0:0:
67,260,22061,1,0,3:0:0:0:
0,371,22217,1,0,3:0:0:0:
300,214,22374,5,8,3:2:0:0:
69,162,22530,1,0,3:2:0:0:
312,109,22686,5,8,3:2:0:0:
35,169,22842,1,0,3:2:0:0:
400,176,22999,5,4,0:0:0:0:
400,176,23311,1,0,0:0:0:0:
436,263,23624,2,0,P|440:309|434:359,1,83.9999974365235,0|0,3:0|0:0,0:0:0:0:
370,383,24092,2,0,L|318:383,1,41.9999987182618,0|0,0:0|3:0,0:0:0:0:
253,322,24405,1,0,0:0:0:0:
299,258,24561,2,0,P|306:209|293:163,1,83.9999974365235,0|0,0:0|3:0,0:0:0:0:
212,27,25186,5,0,0:0:0:0:
155,81,25342,2,0,P|126:82|101:78,1,41.9999987182618,0|0,0:0|3:0,0:0:0:0:
30,33,25655,1,0,0:0:0:0:
30,33,25811,1,0,0:0:0:0:
131,228,26124,2,0,P|143:284|124:361,2,125.999996154785,0|0|0,3:0|3:0|3:0,0:0:0:0:
131,228,27374,6,0,L|55:228,1,59.5000011348725,2|0,0:0|0:0,0:0:0:0:
290,167,27686,2,0,P|298:137|288:92,1,59.5000011348725,2|0,0:0|0:0,0:0:0:0:
264,322,27999,5,2,3:2:0:0:
264,322,28311,1,0,0:0:0:0:
347,280,28624,2,0,L|432:280,1,83.9999974365235,0|0,3:0|0:0,0:0:0:0:
480,223,29092,2,0,P|485:193|482:170,1,41.9999987182618,0|0,0:0|3:0,0:0:0:0:
431,102,29405,1,0,0:0:0:0:
367,139,29561,2,0,P|319:146|273:136,1,83.9999974365235,0|0,0:0|3:0,0:0:0:0:
133,26,30186,5,0,0:0:0:0:
111,97,30342,2,0,L|111:151,1,41.9999987182618,0|0,0:0|3:0,0:0:0:0:
137,235,30655,1,0,0:0:0:0:
137,235,30811,1,0,0:0:0:0:
284,140,31124,2,0,P|340:127|409:143,2,125.999996154785,0|0|0,3:0|3:0|3:0,2:0:0:0:
284,140,32374,6,0,L|284:215,1,59.5000011348725,2|0,0:0|0:0,0:0:0:0:
204,21,32686,2,0,P|171:12|131:15,1,59.5000011348725,2|0,0:0|0:0,0:0:0:0:
431,68,32999,5,4,2:0:0:0:
431,68,33311,1,0,0:0:0:0:
394,155,33624,2,0,L|394:256,1,83.9999974365235,0|0,3:0|0:0,0:0:0:0:
442,296,34092,2,0,P|446:323|441:348,1,41.9999987182618,0|0,0:0|3:0,0:0:0:0:
360,384,34405,1,0,0:0:0:0:
298,340,34561,2,0,P|253:332|212:341,1,83.9999974365235,0|0,0:0|3:0,0:0:0:0:
7,261,35186,5,0,0:0:0:0:
45,195,35342,2,0,L|45:148,1,41.9999987182618,0|0,0:0|3:3,0:0:0:0:
25,56,35655,1,0,0:0:0:0:
25,56,35811,1,0,0:0:0:0:
85,263,36124,2,0,P|135:275|211:262,2,125.999996154785,0|0|0,3:0|3:0|3:0,2:0:0:0:
85,263,37374,6,0,L|85:322,1,59.5000011348725,2|0,0:0|0:0,0:0:0:0:
211,132,37686,2,0,P|218:98|214:59,1,59.5000011348725,2|0,0:0|0:0,0:0:0:0:
10,184,37999,5,2,3:2:0:0:
10,184,38311,1,0,0:0:0:0:
96,141,38624,2,0,L|188:141,1,83.9999974365235,0|0,3:0|0:0,0:0:0:0:
241,185,39092,2,0,P|247:211|246:233,1,41.9999987182618,0|0,0:0|3:0,0:0:0:0:
208,322,39405,1,0,0:0:0:0:
143,358,39561,2,0,P|98:365|55:358,1,83.9999974365235,0|0,0:0|3:0,0:0:0:0:
307,309,40186,5,0,0:0:0:0:
336,239,40342,2,0,P|339:213|335:178,1,41.9999987182618,0|0,0:0|3:0,0:0:0:0:
308,105,40655,1,0,0:0:0:0:
308,105,40811,1,0,0:0:0:0:
392,305,41124,2,0,P|451:321|517:303,1,125.999996154785,0|0,3:0|3:0,2:0:0:0:
211,193,42061,5,0,3:0:0:0:
178,192,42165,5,0,3:0:0:0:
145,193,42269,5,0,3:0:0:0:
112,193,42374,5,8,3:2:0:0:
229,321,42530,5,8,0:0:0:0:
316,106,42686,1,0,3:0:0:0:
316,106,42999,6,0,P|358:98|416:115,1,80.5000015354157,4|0,0:0|0:0,0:0:0:0:
447,221,43311,2,0,L|448:313,1,80.5000015354157,2|0,0:0|0:0,0:0:0:0:
512,118,43624,2,0,L|512:20,1,80.5000015354157,10|0,0:0|0:0,0:0:0:0:
357,193,43936,1,2,0:0:0:0:
227,119,44092,6,0,P|172:115|121:132,1,80.5000015354157,2|0,3:2|0:0,0:0:0:0:
88,201,44405,1,0,3:0:0:0:
227,119,44561,2,0,P|244:62|237:24,1,80.5000015354157,0|0,3:0|0:0,0:0:0:0:
187,219,44874,2,0,P|166:305|203:397,1,161.000003070831,8|0,0:0|0:0,0:0:0:0:
185,372,45499,6,0,P|226:382|271:371,1,80.5000015354157,0|0,3:0|0:0,0:0:0:0:
385,335,45811,2,0,L|473:335,1,80.5000015354157,2|0,0:0|0:0,0:0:0:0:
284,246,46124,2,0,P|271:188|284:152,1,80.5000015354157,10|0,0:0|0:0,0:0:0:0:
312,317,46436,1,2,0:0:0:0:
483,247,46592,6,0,P|496:189|483:153,1,80.5000015354157,2|0,3:2|0:0,0:0:0:0:
384,95,46905,1,0,3:3:0:0:
385,254,47061,2,0,L|385:347,1,80.5000015354157,0|0,3:0|0:0,0:0:0:0:
275,168,47374,2,0,P|202:149|106:176,1,161.000003070831,8|0,0:0|0:0,0:0:0:0:
120,167,47999,6,0,L|119:255,1,80.5000015354157,0|0,3:0|0:0,0:0:0:0:
223,328,48311,2,0,P|263:336|309:324,1,80.5000015354157,2|0,0:0|0:0,0:0:0:0:
104,360,48624,2,0,L|18:360,1,80.5000015354157,10|0,0:0|0:0,0:0:0:0:
208,239,48936,1,2,0:0:0:0:
120,167,49092,6,0,P|113:118|128:73,1,80.5000015354157,2|0,3:2|0:0,0:0:0:0:
190,23,49405,1,0,3:0:0:0:
120,167,49561,2,0,P|78:176|37:165,1,80.5000015354157,0|0,3:0|0:0,0:0:0:0:
208,239,49874,2,0,B|243:288|243:288|243:384,1,120.750002303124,8|0,0:0|0:0,0:0:0:0:
244,384,50186,1,2,0:0:0:0:
305,201,50342,2,0,L|305:120,1,80.5000015354157,2|0,0:0|3:3,0:0:0:0:
347,306,50655,1,2,0:0:0:0:
423,251,50811,6,0,P|461:245|512:254,1,80.5000015354157,2|0,0:0|0:0,0:0:0:0:
305,201,51124,1,8,0:0:0:0:
463,156,51280,2,0,P|473:111|468:71,1,80.5000015354157
305,201,51592,2,0,P|230:221|148:200,1,161.000003070831,0|0,3:0|3:0,0:0:0:0:
63,106,52061,2,0,L|63:12,1,80.5000015354157,0|0,3:0|0:0,0:0:0:0:
63,285,52374,5,8,0:0:0:0:
16,204,52530,1,0,3:0:0:0:
155,285,52686,1,8,0:0:0:0:
16,365,52842,1,8,0:0:0:0:
157,149,52999,6,0,P|167:115|152:47,1,80.5000015354157,4|0,0:0|0:0,0:0:0:0:
16,204,53311,2,0,L|15:309,1,80.5000015354157,2|0,0:0|0:0,0:0:0:0:
63,106,53624,2,0,L|64:1,1,80.5000015354157,10|0,0:0|0:0,0:0:0:0:
104,219,53936,1,2,0:0:0:0:
261,124,54092,6,0,P|309:117|355:131,1,80.5000015354157,2|0,3:2|0:0,0:0:0:0:
211,221,54405,1,0,3:0:0:0:
339,123,54561,2,0,P|351:67|338:32,1,80.5000015354157,0|0,3:0|0:0,0:0:0:0:
297,269,54874,2,0,B|345:298|345:298|481:298,1,161.000003070831,8|0,0:0|0:0,0:0:0:0:
449,297,55499,6,0,P|456:258|449:216,1,80.5000015354157,0|0,3:0|0:0,0:0:0:0:
389,111,55811,2,0,P|382:71|390:32,1,80.5000015354157,2|0,0:0|0:0,0:0:0:0:
358,257,56124,2,0,P|304:262|256:247,1,80.5000015354157,10|0,0:0|0:0,0:0:0:0:
450,219,56436,1,2,0:0:0:0:
273,138,56592,6,0,L|273:48,1,80.5000015354157,2|0,3:2|0:0,0:0:0:0:
400,19,56905,1,0,3:0:0:0:
273,138,57061,2,0,P|230:147|176:134,1,80.5000015354157,0|0,3:0|0:0,0:0:0:0:
87,64,57374,2,0,P|61:141|86:216,1,161.000003070831,8|0,0:0|0:0,0:0:0:0:
85,214,57999,6,0,L|85:304,1,80.5000015354157,0|0,3:0|0:0,0:0:0:0:
194,369,58311,2,0,P|237:376|289:360,1,80.5000015354157,2|0,0:0|0:0,0:0:0:0:
85,294,58624,2,0,P|42:287|-10:303,1,80.5000015354157,10|0,0:0|0:0,0:0:0:0:
232,284,58936,1,2,0:0:0:0:
142,141,59092,6,0,P|135:105|148:46,1,80.5000015354157,2|0,3:2|0:0,0:0:0:0:
263,4,59405,1,0,3:0:0:0:
142,141,59561,2,0,P|102:149|50:136,1,80.5000015354157,0|0,3:0|0:0,0:0:0:0:
265,97,59874,2,0,L|370:97,1,80.5000015354157,8|0,0:0|0:0,0:0:0:0:
105,238,60186,2,0,P|99:277|107:316,1,80.5000015354157,2|0,0:0|0:0,0:0:0:0:
430,191,60499,5,2,3:2:0:0:
93,155,60811,1,2,3:2:0:0:
344,382,61124,1,2,3:2:0:0:
274,50,61436,1,2,3:2:0:0:
136,360,61749,1,2,3:2:0:0:
430,191,62061,5,2,3:2:0:0:
101,162,62217,1,2,3:2:0:0:
101,162,62295,1,2,3:2:0:0:
101,162,62374,1,8,3:2:0:0:
344,382,62530,1,8,3:2:0:0:
274,50,62686,1,8,3:2:0:0:
136,360,62842,1,8,3:2:0:0:
430,191,62999,6,0,P|448:137|417:27,1,143.850004060707,4|0,0:0|0:0,0:0:0:0:
411,18,63311,1,2,3:2:0:0:
360,300,63467,1,2,3:2:0:0:
277,142,63624,2,0,P|265:94|277:42,1,95.9000027071381,8|0,0:0|0:0,0:0:0:0:
359,224,63936,1,2,3:2:0:0:
181,299,64092,6,0,L|73:299,1,95.9000027071381,2|0,3:2|0:0,0:0:0:0:
314,378,64405,2,0,P|359:389|428:365,1,95.9000027071381,8|0,0:0|0:0,0:0:0:0:
510,185,64717,1,2,3:2:0:0:
269,303,64874,1,10,0:0:0:0:
455,305,65030,1,2,0:0:0:0:
362,75,65186,1,2,3:2:0:0:
360,300,65342,1,2,0:0:0:0:
239,102,65499,6,0,B|199:80|199:80|64:80,1,143.850004060707,4|0,0:0|0:0,0:0:0:0:
59,80,65811,1,2,3:2:0:0:
283,19,65967,1,2,3:2:0:0:
172,174,66124,2,0,P|163:222|176:274,1,95.9000027071381,8|0,0:0|0:0,0:0:0:0:
356,320,66436,1,2,3:2:0:0:
174,365,66592,6,0,L|58:365,1,95.9000027071381,2|0,3:2|0:0,0:0:0:0:
292,215,66905,1,8,0:0:0:0:
291,377,67061,1,0,3:0:0:0:
172,267,67217,1,0,3:0:0:0:
435,266,67374,2,0,P|448:314|442:361,1,95.9000027071381,8|0,0:0|0:0,0:0:0:0:
375,134,67686,2,0,L|375:38,1,95.9000027071381,2|0,0:0|0:0,0:0:0:0:
292,296,67999,6,0,B|245:326|245:326|118:326,1,143.850004060707,4|0,0:0|0:0,0:0:0:0:
116,325,68311,1,2,3:2:0:0:
346,368,68467,1,2,3:2:0:0:
219,236,68624,2,0,P|209:189|221:141,1,95.9000027071381,8|0,0:0|0:0,0:0:0:0:
346,20,68936,1,2,3:2:0:0:
346,272,69092,6,0,L|346:386,1,95.9000027071381,2|0,3:2|0:0,0:0:0:0:
416,138,69405,1,8,0:0:0:0:
219,236,69561,2,0,P|166:245|111:229,1,95.9000027071381,2|0,3:2|3:0,2:0:0:0:
58,130,69874,2,0,L|58:35,1,95.9000027071381,10|0,0:0|0:0,0:0:0:0:
0,240,70186,2,0,P|-11:286|0:333,1,95.9000027071381,2|0,0:0|0:0,0:0:0:0:
176,148,70499,6,0,P|225:119|140:95,1,191.800005414276,4|0,0:0|3:0,0:0:0:0:
72,287,70967,1,0,3:0:0:0:
273,192,71124,2,0,P|308:116|283:28,1,143.850004060707,8|0,0:0|0:0,0:0:0:0:
276,21,71436,1,2,3:2:0:0:
184,261,71592,6,0,B|229:291|229:291|361:291,1,143.850004060707,4|0,0:0|0:0,0:0:0:0:
360,290,71905,1,8,0:0:0:0:
107,218,72061,2,0,P|94:263|108:308,1,95.9000027071381,0|0,3:2|3:2,2:2:0:0:
499,259,72374,5,8,3:2:0:0:
184,261,72530,1,8,3:2:0:0:
437,76,72686,1,8,3:2:0:0:
348,378,72843,1,8,3:2:0:0:
244,76,72999,6,0,B|189:49|189:49|60:49,1,143.850004060707,4|0,0:0|0:0,0:0:0:0:
67,48,73311,1,2,3:2:0:0:
286,0,73467,1,2,3:2:0:0:
165,140,73624,2,0,L|167:261,1,95.9000027071381,8|0,0:0|0:0,0:0:0:0:
92,378,73936,1,0,3:0:0:0:
329,379,74092,6,0,L|465:379,1,95.9000027071381,2|0,3:2|0:0,0:0:0:0:
250,240,74405,2,0,P|238:183|268:124,1,95.9000027071381,8|0,0:0|3:0,0:0:0:0:
496,326,74717,1,2,3:2:0:0:
252,326,74874,1,10,0:0:0:0:
330,96,75030,1,2,0:0:0:0:
329,379,75186,1,2,3:2:0:0:
159,197,75342,1,2,0:0:0:0:
418,197,75499,6,0,B|447:156|447:156|448:26,1,143.850004060707,4|0,0:0|0:0,0:0:0:0:
448,18,75811,1,2,3:2:0:0:
501,224,75967,1,2,3:2:0:0:
330,96,76124,2,0,L|330:1,1,95.9000027071381,8|0,0:0|0:0,0:0:0:0:
501,125,76436,1,2,3:2:0:0:
333,243,76592,6,0,P|274:253|222:233,1,95.9000027071381,2|0,3:2|0:0,0:0:0:0:
136,75,76905,1,8,0:0:0:0:
138,297,77061,1,0,3:0:0:0:
70,164,77217,1,0,3:0:0:0:
240,243,77374,2,0,P|254:297|237:354,1,95.9000027071381,10|0,0:0|0:0,0:0:0:0:
338,128,77686,2,0,L|338:8,1,95.9000027071381,2|0,0:0|0:0,0:0:0:0:
477,201,77999,6,0,B|501:251|501:251|501:340,1,143.850004060707,4|0,0:0|0:0,0:0:0:0:
501,384,78311,1,2,3:2:0:0:
329,313,78467,1,2,3:2:0:0:
417,111,78624,2,0,L|417:4,1,95.9000027071381,8|0,0:0|0:0,0:0:0:0:
418,275,78936,1,2,3:2:0:0:
324,64,79092,6,0,P|271:53|218:68,1,95.9000027071381,2|0,3:2|0:0,0:0:0:0:
501,117,79405,1,8,0:0:0:0:
276,169,79561,2,0,P|261:213|276:293,1,95.9000027071381,2|0,3:2|3:0,0:0:0:0:
146,110,79874,2,0,P|133:64|149:7,1,95.9000027071381,10|0,0:0|0:0,0:0:0:0:
264,261,80186,2,0,L|264:358,1,95.9000027071381,2|0,0:0|0:0,0:0:0:0:
366,85,80499,6,0,P|366:37|303:98,1,191.800005414276,4|0,0:0|3:0,0:0:0:0:
501,66,80967,1,0,3:0:0:0:
395,213,81124,2,0,P|374:282|396:361,1,143.850004060707,8|0,0:0|0:0,0:0:0:0:
412,383,81436,1,2,3:2:0:0:
245,179,81592,6,0,B|193:147|193:147|68:147,1,143.850004060707,2|0,3:2|0:0,0:0:0:0:
67,147,81905,1,8,0:0:0:0:
258,267,82061,1,0,3:3:0:0:
261,46,82217,1,0,3:3:0:0:
167,312,82374,5,8,3:2:0:0:
365,346,82530,1,0,3:2:0:0:
88,365,82686,5,8,3:2:0:0:
401,353,82842,1,0,3:2:0:0:
80,270,82999,6,0,B|47:218|47:218|47:66,1,181.999991668702,4|0,0:0|3:0,0:0:0:0:
166,20,83467,1,0,3:2:0:0:
166,221,83624,2,0,L|167:318,1,90.9999958343508,8|0,0:0|0:0,0:0:0:0:
247,129,83936,1,0,3:0:0:0:
87,90,84092,1,2,3:2:0:0:
313,25,84249,6,0,P|356:17|419:35,1,90.9999958343508,2|8,0:0|0:0,0:0:0:0:
449,191,84561,1,2,0:0:0:0:
494,39,84717,1,2,3:2:0:0:
357,149,84874,2,0,P|348:190|370:263,1,90.9999958343508,8|0,0:0|0:0,0:0:0:0:
471,314,85186,1,2,0:0:0:0:
470,114,85342,1,2,0:0:0:0:
234,272,85499,5,2,3:2:0:0:
449,191,85655,1,10,0:0:0:0:
330,74,85811,1,0,3:3:0:0:
332,329,85967,1,0,3:3:0:0:
470,114,86124,2,0,P|478:59|468:19,1,90.9999958343508,10|0,3:2|2:2,2:2:0:0:
245,368,86436,5,12,0:0:0:0:
245,137,86592,1,2,3:2:0:0:
103,313,86749,1,2,3:2:0:0:
329,251,86905,1,8,0:0:0:0:
108,172,87061,1,2,3:2:0:0:
397,150,87217,5,2,3:2:0:0:
397,150,87295,1,2,3:2:0:0:
397,150,87374,1,10,3:2:0:0:
156,369,87531,1,8,3:2:0:0:
219,51,87687,1,8,3:2:0:0:
357,352,87843,1,8,3:2:0:0:
64,190,87999,6,0,P|32:103|72:15,1,181.999991668702,6|0,0:0|0:0,0:0:0:0:
264,147,88467,1,2,0:0:0:0:
108,269,88624,2,0,P|44:277|-1:255,1,90.9999958343508,8|0,0:0|0:0,0:0:0:0:
164,137,88936,1,2,0:0:0:0:
240,295,89092,6,0,P|253:344|236:394,1,90.9999958343508,2|0,0:0|0:0,0:0:0:0:
64,190,89405,1,8,0:0:0:0:
240,89,89561,2,0,P|250:41|239:-7,1,90.9999958343508,2|0,0:0|0:0,0:0:0:0:
366,261,89874,2,0,P|409:271|478:247,1,90.9999958343508,10|0,0:0|0:0,0:0:0:0:
240,89,90186,2,0,P|191:80|135:98,1,90.9999958343508,2|0,0:0|0:0,0:0:0:0:
410,179,90499,6,0,P|433:105|399:-2,1,181.999991668702,6|0,0:0|0:0,0:0:0:0:
366,261,90967,1,2,0:0:0:0:
240,89,91124,2,0,P|194:80|127:102,1,90.9999958343508,8|0,0:0|0:0,0:0:0:0:
320,181,91436,1,2,0:0:0:0:
40,136,91592,6,0,P|22:179|40:243,1,90.9999958343508,2|0,0:0|0:0,0:0:0:0:
121,363,91905,1,8,0:0:0:0:
121,192,92061,1,0,3:0:0:0:
47,311,92217,1,0,3:0:0:0:
202,152,92374,2,0,L|202:46,1,90.9999958343508,10|0,0:0|0:0,0:0:0:0:
260,270,92686,2,0,P|273:316|264:369,1,90.9999958343508,2|0,0:0|0:0,0:0:0:0:
300,108,92999,6,0,P|362:83|483:117,1,181.999991668702,6|0,0:0|0:0,0:0:0:0:
202,152,93467,1,0,0:0:0:0:
384,231,93624,2,0,P|397:281|374:341,1,90.9999958343508,8|0,0:0|0:0,0:0:0:0:
300,108,93936,1,2,0:0:0:0:
253,292,94092,6,0,L|253:386,1,90.9999958343508,2|0,0:0|0:0,0:0:0:0:
202,152,94405,2,0,P|190:99|221:40,1,90.9999958343508,8|0,2:2|3:0,3:0:0:0:
364,17,94717,1,0,3:0:0:0:
202,152,94874,2,0,P|156:163|102:148,1,90.9999958343508,10|0,0:0|0:0,0:0:0:0:
300,108,95186,2,0,L|404:109,1,90.9999958343508,2|0,0:0|0:0,0:0:0:0:
113,154,95499,6,0,B|80:204|80:204|80:347,1,181.999991668702,6|0,0:0|0:0,0:0:0:0:
33,107,95967,1,2,2:0:0:0:
183,260,96124,2,0,P|237:268|284:252,1,90.9999958343508,8|0,2:0|2:0,2:0:0:0:
269,71,96436,1,2,2:0:0:0:
358,211,96592,6,0,P|369:262|346:322,1,90.9999958343508,2|0,2:0|2:0,2:0:0:0:
201,345,96905,1,8,2:0:0:0:
390,374,97061,1,8,2:0:0:0:
476,284,97217,1,0,2:0:0:0:
170,164,97374,5,8,3:2:0:0:
358,211,97530,1,0,3:2:0:0:
137,252,97686,5,8,3:2:0:0:
397,201,97842,1,0,3:2:0:0:
74,180,97999,6,0,B|45:130|45:130|45:5,1,181.999991668702,6|0,0:0|0:0,0:0:0:0:
256,78,98467,1,2,0:0:0:0:
137,252,98624,2,0,L|136:363,1,90.9999958343508,8|0,0:0|0:0,0:0:0:0:
46,99,98936,1,2,0:0:0:0:
228,299,99092,6,0,P|272:306|317:298,1,90.9999958343508,2|0,0:0|0:0,0:0:0:0:
393,152,99405,1,8,0:0:0:0:
391,373,99561,1,0,3:0:0:0:
469,289,99717,1,0,3:0:0:0:
319,198,99874,2,0,P|306:152|337:84,1,90.9999958343508,10|0,0:0|0:0,0:0:0:0:
469,289,100186,2,0,L|469:379,1,90.9999958343508,2|0,0:0|0:0,0:0:0:0:
319,198,100499,6,0,P|242:174|118:216,1,181.999991668702,6|0,0:0|0:0,0:0:0:0:
55,322,100967,1,2,0:0:0:0:
53,97,101124,2,0,L|54:-6,1,90.9999958343508,8|0,0:0|0:0,0:0:0:0:
54,231,101436,1,2,0:0:0:0:
319,198,101592,6,0,P|335:240|330:284,1,90.9999958343508,2|0,0:0|0:0,0:0:0:0:
199,384,101905,1,8,0:0:0:0:
199,165,102061,1,0,3:0:0:0:
248,252,102217,1,0,3:0:0:0:
88,92,102374,2,0,P|41:83|-11:96,1,90.9999958343508,10|0,0:0|0:0,0:0:0:0:
105,274,102686,2,0,L|105:371,1,90.9999958343508,2|0,0:0|0:0,0:0:0:0:
275,122,102999,6,0,B|326:92|326:92|471:92,1,181.999991668702,6|0,0:0|0:0,0:0:0:0:
196,45,103467,1,2,0:0:0:0:
328,199,103624,2,0,P|337:246|327:293,1,90.9999958343508,8|0,0:0|0:0,0:0:0:0:
72,138,103936,1,2,0:0:0:0:
308,17,104092,6,0,L|399:17,1,90.9999958343508,2|0,0:0|0:0,0:0:0:0:
512,198,104405,1,8,0:0:0:0:
512,36,104561,1,0,3:0:0:0:
399,107,104717,1,0,3:0:0:0:
476,269,104874,2,0,P|488:325|473:375,1,90.9999958343508,10|0,0:0|0:0,0:0:0:0:
399,107,105186,2,0,L|399:12,1,90.9999958343508,2|0,0:0|0:0,0:0:0:0:
325,270,105499,6,0,P|234:292|137:261,1,181.999991668702,6|0,0:0|0:0,0:0:0:0:
349,362,105967,1,2,0:0:0:0:
238,174,106124,2,0,L|238:55,1,90.9999958343508,8|0,0:0|0:0,0:0:0:0:
414,224,106436,1,2,0:0:0:0:
199,370,106592,6,0,P|149:380|96:364,1,90.9999958343508,2|0,0:0|0:0,0:0:0:0:
4,299,106905,1,8,0:0:0:0:
81,121,107061,1,0,3:0:0:0:
19,8,107217,1,0,3:0:0:0:
334,163,107374,5,8,3:2:0:0:
78,220,107530,1,0,3:2:0:0:
360,275,107686,5,8,3:2:0:0:
44,213,107842,1,0,3:2:0:0:
444,195,107999,5,6,3:2:0:0:
256,192,108155,12,2,112686,0:0:0:0:
