osu file format v14

[General]
AudioFilename: audio.mp3
AudioLeadIn: 0
PreviewTime: 146986
Countdown: 0
SampleSet: Soft
StackLeniency: 0.2
Mode: 0
LetterboxInBreaks: 0
WidescreenStoryboard: 0

[Editor]
Bookmarks: 22846,32846,42846,62846,87846,107846,117846,127846,147846,172846,192846,201439,203236,217846,242846,252846,262846,272846
DistanceSpacing: 1.2
BeatDivisor: 4
GridSize: 32
TimelineZoom: 1.5

[Metadata]
Title:Jiyuu no Hane
TitleUnicode:自由の翅
Artist:Hiromi Sato
ArtistUnicode:佐藤ひろ美
Creator:Lasse
Version:Twilight
Source:月影のシミュラクル-解放の羽-
Tags:Tsukikage no Simulacre -Kaihou no Hane- Opening Eroge Visual Novel Applique Meis Clauson Full Version Komore schoolboy
BeatmapID:1488810
BeatmapSetID:703718

[Difficulty]
HPDrainRate:6
CircleSize:4.3
OverallDifficulty:8.7
ApproachRate:9.2
SliderMultiplier:2
SliderTickRate:1

[Events]
//Background and Video events
0,0,"a.jpg",0,0
//Break Periods
2,193046,200869
//Storyboard Layer 0 (Background)
//Storyboard Layer 1 (Fail)
//Storyboard Layer 2 (Pass)
//Storyboard Layer 3 (Foreground)
//Storyboard Sound Samples

[TimingPoints]
2846,625,4,2,1,70,1,0
2846,-62.5,4,2,1,70,0,0
4174,-62.5,4,2,99,5,0,0
4252,-62.5,4,2,1,70,0,0
6674,-62.5,4,2,99,5,0,0
6752,-62.5,4,2,1,70,0,0
9174,-62.5,4,2,99,5,0,0
9252,-62.5,4,2,1,70,0,0
11674,-62.5,4,2,99,5,0,0
11752,-62.5,4,2,1,70,0,0
12533,-62.5,4,2,2,70,0,0
12846,-62.5,4,2,1,70,0,0
14174,-62.5,4,2,99,5,0,0
14252,-62.5,4,2,1,70,0,0
16674,-62.5,4,2,99,5,0,0
16752,-62.5,4,2,1,70,0,0
19174,-62.5,4,2,99,5,0,0
19252,-62.5,4,2,1,70,0,0
21674,-62.5,4,2,99,5,0,0
21752,-62.5,4,2,1,70,0,0
22846,-166.666666666667,4,2,75,50,0,0
27846,-153.846153846154,4,2,75,50,0,0
32846,-142.857142857143,4,2,75,50,0,0
37846,-133.333333333333,4,2,75,50,0,0
41908,-133.333333333333,4,2,75,51,0,0
42012,-133.333333333333,4,2,75,52,0,0
42116,-133.333333333333,4,2,75,53,0,0
42221,-133.333333333333,4,2,75,54,0,0
42377,-133.333333333333,4,2,75,50,0,0
42533,-133.333333333333,4,2,76,54,0,0
42689,-133.333333333333,4,2,76,50,0,0
42846,-100,4,2,1,56,0,0
47846,-90.9090909090909,4,2,1,58,0,0
52846,-83.3333333333333,4,2,1,60,0,0
57846,-76.9230769230769,4,2,1,62,0,0
60033,-100,4,2,1,50,0,0
60189,-100,4,2,75,30,0,0
60346,-100,4,2,1,54,0,0
60658,-100,4,2,1,56,0,0
60971,-100,4,2,1,58,0,0
61283,-100,4,2,1,62,0,0
61596,-100,4,2,1,64,0,0
61908,-100,4,2,1,66,0,0
62064,-100,4,2,1,68,0,0
62142,-100,4,2,1,69,0,0
62221,-100,4,2,1,70,0,0
62377,-100,4,2,1,71,0,0
62533,-100,4,2,2,72,0,0
62689,-100,4,2,2,73,0,0
62846,-58.8235294117647,4,2,1,74,0,1
63080,-58.8235294117647,4,2,99,5,0,1
63158,-58.8235294117647,4,2,1,74,0,1
65580,-58.8235294117647,4,2,99,5,0,1
65658,-58.8235294117647,4,2,1,74,0,1
68080,-58.8235294117647,4,2,99,5,0,1
68158,-58.8235294117647,4,2,1,74,0,1
71908,-58.8235294117647,4,2,1,68,0,1
72221,-58.8235294117647,4,2,1,70,0,0
72377,-58.8235294117647,4,2,1,71,0,0
72533,-58.8235294117647,4,2,2,72,0,0
72689,-58.8235294117647,4,2,2,73,0,0
72846,-58.8235294117647,4,2,1,74,0,1
73080,-58.8235294117647,4,2,99,5,0,1
73158,-58.8235294117647,4,2,1,74,0,1
75580,-58.8235294117647,4,2,99,5,0,1
75658,-58.8235294117647,4,2,1,74,0,1
78080,-58.8235294117647,4,2,99,5,0,1
78158,-58.8235294117647,4,2,1,74,0,1
81908,-58.8235294117647,4,2,1,70,0,1
82221,-58.8235294117647,4,2,1,73,0,0
82533,-58.8235294117647,4,2,1,72,0,0
82846,-62.5,4,2,1,70,0,1
87846,-62.5,4,2,1,70,0,0
89174,-62.5,4,2,99,5,0,0
89252,-62.5,4,2,1,70,0,0
91674,-62.5,4,2,99,5,0,0
91752,-62.5,4,2,1,70,0,0
94174,-62.5,4,2,99,5,0,0
94252,-62.5,4,2,1,70,0,0
96674,-62.5,4,2,99,5,0,0
96752,-62.5,4,2,1,70,0,0
97533,-62.5,4,2,2,70,0,0
97846,-62.5,4,2,1,70,0,0
99174,-62.5,4,2,99,5,0,0
99252,-62.5,4,2,1,70,0,0
101674,-62.5,4,2,99,5,0,0
101752,-62.5,4,2,1,70,0,0
104174,-62.5,4,2,99,5,0,0
104252,-62.5,4,2,1,70,0,0
106674,-62.5,4,2,99,5,0,0
106752,-62.5,4,2,1,70,0,0
107846,-200,4,2,75,44,0,0
110033,-200,4,2,75,38,0,0
110346,-200,4,2,75,44,0,0
112846,-181.818181818182,4,2,75,46,0,0
116908,-181.818181818182,4,2,75,48,0,0
117012,-181.818181818182,4,2,75,49,0,0
117116,-181.818181818182,4,2,75,50,0,0
117221,-142.857142857143,4,2,75,52,0,0
117377,-142.857142857143,4,2,75,48,0,0
117533,-142.857142857143,4,2,75,52,0,0
117689,-142.857142857143,4,2,75,48,0,0
117846,-125,4,2,1,52,0,0
122846,-111.111111111111,4,2,1,54,0,0
127064,-111.111111111111,4,2,1,48,0,0
127142,-111.111111111111,4,2,1,50,0,0
127221,-105.263157894737,4,2,1,52,0,0
127846,-100,4,2,1,56,0,0
132846,-90.9090909090909,4,2,1,58,0,0
137533,-90.9090909090909,4,2,2,58,0,0
137846,-83.3333333333333,4,2,1,60,0,0
142846,-76.9230769230769,4,2,1,62,0,0
145033,-100,4,2,1,50,0,0
145189,-100,4,2,75,30,0,0
145346,-100,4,2,1,54,0,0
145658,-100,4,2,1,56,0,0
145971,-100,4,2,1,58,0,0
146283,-100,4,2,1,60,0,0
146517,-100,4,2,1,61,0,0
146596,-71.4285714285714,4,2,1,62,0,0
146752,-71.4285714285714,4,2,1,63,0,0
146908,-71.4285714285714,4,2,2,64,0,0
147064,-71.4285714285714,4,2,2,65,0,0
147221,-71.4285714285714,4,2,1,66,0,0
147325,-71.4285714285714,4,2,1,67,0,0
147429,-71.4285714285714,4,2,1,62,0,0
147533,-71.4285714285714,4,2,2,68,0,0
147637,-71.4285714285714,4,2,2,69,0,0
147741,-71.4285714285714,4,2,2,70,0,0
147846,-55.5555555555556,4,2,1,76,0,1
148080,-55.5555555555556,4,2,99,5,0,1
148158,-55.5555555555556,4,2,1,76,0,1
150580,-55.5555555555556,4,2,99,5,0,1
150658,-55.5555555555556,4,2,1,76,0,1
153080,-55.5555555555556,4,2,99,5,0,1
153158,-55.5555555555556,4,2,1,76,0,1
156908,-55.5555555555556,4,2,1,70,0,1
157221,-55.5555555555556,4,2,1,72,0,0
157377,-55.5555555555556,4,2,1,73,0,0
157533,-55.5555555555556,4,2,2,74,0,0
157689,-55.5555555555556,4,2,2,75,0,0
157846,-55.5555555555556,4,2,1,76,0,1
158080,-55.5555555555556,4,2,99,5,0,1
158158,-55.5555555555556,4,2,1,76,0,1
160580,-55.5555555555556,4,2,99,5,0,1
160658,-55.5555555555556,4,2,1,76,0,1
163080,-55.5555555555556,4,2,99,5,0,1
163158,-55.5555555555556,4,2,1,76,0,1
166908,-55.5555555555556,4,2,1,72,0,1
167221,-55.5555555555556,4,2,1,75,0,0
167533,-55.5555555555556,4,2,1,74,0,0
167846,-58.8235294117647,4,2,1,72,0,1
172846,-76.9230769230769,4,2,1,66,0,0
182533,-76.9230769230769,4,2,2,66,0,0
182846,-76.9230769230769,4,2,1,64,0,0
190346,-76.9230769230769,4,2,1,54,0,0
190658,-76.9230769230769,4,2,1,55,0,0
190971,-76.9230769230769,4,2,1,56,0,0
191283,-76.9230769230769,4,2,1,57,0,0
191596,-76.9230769230769,4,2,1,58,0,0
191908,-76.9230769230769,4,2,1,59,0,0
192064,-76.9230769230769,4,2,1,60,0,0
192142,-76.9230769230769,4,2,1,61,0,0
192221,-76.9230769230769,4,2,1,62,0,0
192377,-76.9230769230769,4,2,1,63,0,0
192533,-76.9230769230769,4,2,2,64,0,0
192689,-76.9230769230769,4,2,2,65,0,0
192846,-76.9230769230769,4,2,2,60,0,0
201439,-66.6666666666667,4,2,1,64,0,0
201752,-66.6666666666667,4,2,1,60,0,0
201908,-66.6666666666667,4,2,1,64,0,0
202064,-66.6666666666667,4,2,1,60,0,0
202142,-66.6666666666667,4,2,1,62,0,0
202221,-66.6666666666667,4,2,1,64,0,0
202377,-66.6666666666667,4,2,1,66,0,0
202533,-66.6666666666667,4,2,1,68,0,0
202689,-66.6666666666667,4,2,1,70,0,0
202846,-52.6315789473684,4,2,1,78,0,1
203080,-52.6315789473684,4,2,99,5,0,1
203158,-52.6315789473684,4,2,1,78,0,1
205580,-52.6315789473684,4,2,99,5,0,1
205658,-52.6315789473684,4,2,1,78,0,1
208080,-52.6315789473684,4,2,99,5,0,1
208158,-52.6315789473684,4,2,1,78,0,1
211908,-52.6315789473684,4,2,1,74,0,1
212221,-52.6315789473684,4,2,1,77,0,0
212533,-52.6315789473684,4,2,1,76,0,0
212846,-55.5555555555556,4,2,1,74,0,1
217221,-52.6315789473684,4,2,1,78,0,0
217533,-52.6315789473684,4,2,2,78,0,0
217846,-50,4,2,1,80,0,1
218080,-50,4,2,99,5,0,1
218158,-50,4,2,1,80,0,1
220580,-50,4,2,99,5,0,1
220658,-50,4,2,1,80,0,1
223080,-50,4,2,99,5,0,1
223158,-50,4,2,1,80,0,1
227221,-50,4,2,1,80,0,0
227846,-50,4,2,1,80,0,1
228080,-50,4,2,99,5,0,1
228158,-50,4,2,1,80,0,1
230580,-50,4,2,99,5,0,1
230658,-50,4,2,1,80,0,1
233080,-50,4,2,99,5,0,1
233158,-50,4,2,1,80,0,1
235346,-45.4545454545455,4,2,1,80,0,1
235971,-50,4,2,1,80,0,1
236439,-41.6666666666667,4,2,1,80,0,1
236908,-41.6666666666667,4,2,1,76,0,1
237221,-50,4,2,1,79,0,0
237533,-50,4,2,1,78,0,0
237846,-52.6315789473684,4,2,1,76,0,1
242846,-62.5,4,2,1,70,0,0
244174,-62.5,4,2,99,5,0,0
244252,-62.5,4,2,1,70,0,0
246674,-62.5,4,2,99,5,0,0
246752,-62.5,4,2,1,70,0,0
249174,-62.5,4,2,99,5,0,0
249252,-62.5,4,2,1,70,0,0
251674,-62.5,4,2,99,5,0,0
251752,-62.5,4,2,1,70,0,0
252533,-62.5,4,2,2,70,0,0
252846,-62.5,4,2,1,70,0,0
254174,-62.5,4,2,99,5,0,0
254252,-62.5,4,2,1,70,0,0
256674,-62.5,4,2,99,5,0,0
256752,-62.5,4,2,1,70,0,0
259174,-62.5,4,2,99,5,0,0
259252,-62.5,4,2,1,70,0,0
261674,-62.5,4,2,99,5,0,0
261752,-62.5,4,2,1,70,0,0
262846,-162.60162601626,4,2,2,60,0,0
263002,-162.60162601626,4,2,1,5,0,0
272846,-162.60162601626,4,2,99,5,0,0

[Colours]
Combo1 : 150,210,220
Combo2 : 140,200,250
Combo3 : 160,190,210
Combo4 : 175,190,255

[HitObjects]
164,67,2846,6,0,P|240:82|278:150,1,160,14|8,0:3|0:3,0:0:0:0:
124,226,3314,1,10,0:3:0:0:
103,116,3471,2,0,P|128:85|164:67,1,79.9999999999999,8|0,0:0|0:0,0:0:0:0:
124,226,3783,5,10,0:3:0:0:
124,226,3939,2,0,P|95:174|103:116,1,120,8|0,0:3|0:0,0:0:0:0:
163,67,4252,6,0,P|202:60|235:38,1,79.9999999999999,8|0,0:0|0:0,0:0:0:0:
103,116,4564,1,8,0:3:0:0:
236,38,4721,2,0,P|273:25|313:29,1,79.9999999999999,10|0,0:0|0:0,0:0:0:0:
103,116,5033,2,0,P|63:120|25:107,1,79.9999999999999,8|0,0:3|0:0,0:0:0:0:
289,247,5346,6,0,P|274:171|206:133,1,160,10|8,0:3|0:3,0:0:0:0:
130,287,5814,1,10,0:3:0:0:
240,308,5971,2,0,P|271:283|289:247,1,79.9999999999999,8|0,0:0|0:0,0:0:0:0:
130,287,6283,5,10,0:3:0:0:
130,287,6439,2,0,P|182:316|240:308,1,120,8|0,0:3|0:0,0:0:0:0:
288,247,6752,5,8,0:0:0:0:
364,349,6908,1,8,0:3:0:0:
364,349,7064,1,8,0:3:0:0:
456,167,7221,2,0,P|443:205|440:245,1,79.9999999999999,10|0,0:0|0:0,0:0:0:0:
348,96,7533,2,0,P|335:58|332:18,1,79.9999999999999,8|0,0:3|0:0,0:0:0:0:
214,202,7846,6,0,B|213:243|243:273|243:273|278:249|285:208,1,160,10|8,0:3|0:3,0:0:0:0:
112,163,8314,1,10,0:3:0:0:
166,286,8471,2,0,P|206:286|243:272,1,79.9999999999999,8|0,0:0|0:0,0:0:0:0:
108,331,8783,5,10,0:3:0:0:
108,331,8939,2,0,B|107:289|137:259|137:259|172:283|182:317,1,120,8|0,0:3|0:0,0:0:0:0:
217,345,9252,6,0,P|255:355|294:351,1,79.9999999999999,8|0,0:0|0:0,0:0:0:0:
166,286,9564,1,8,0:3:0:0:
295,350,9721,2,0,P|331:333|359:306,1,79.9999999999999,10|0,0:0|0:0,0:0:0:0:
166,286,10033,2,0,P|161:247|171:208,1,79.9999999999999,8|0,0:3|0:0,0:0:0:0:
351,97,10346,6,0,B|352:138|322:168|322:168|287:144|280:103,1,160,10|8,0:3|0:3,0:0:0:0:
453,58,10814,1,10,0:3:0:0:
399,181,10971,2,0,P|359:181|322:167,1,79.9999999999999,8|0,0:0|0:0,0:0:0:0:
457,226,11283,5,10,0:3:0:0:
457,226,11439,2,0,B|458:184|428:154|428:154|393:178|383:212,1,120,8|0,0:3|0:0,0:0:0:0:
348,240,11752,5,8,0:0:0:0:
279,101,11908,1,8,0:3:0:0:
279,101,12064,1,8,0:3:0:0:
166,169,12221,5,10,0:2:0:0:
279,101,12377,1,8,0:2:0:0:
403,91,12533,1,8,0:3:0:0:
502,138,12689,1,8,0:3:0:0:
278,244,12846,6,0,B|207:213|194:272|123:242,1,160,14|8,0:3|0:3,0:0:0:0:
236,384,13314,1,10,0:3:0:0:
334,299,13471,2,0,P|312:267|279:245,1,79.9999999999999,8|0,0:0|0:0,0:0:0:0:
444,321,13783,5,10,0:3:0:0:
444,321,13939,2,0,P|385:328|334:299,1,120,8|0,0:3|0:0,0:0:0:0:
278,244,14252,6,0,L|266:149,1,79.9999999999999,8|0,0:0|0:0,0:0:0:0:
334,299,14564,1,8,0:3:0:0:
268,165,14721,2,0,L|256:70,1,79.9999999999999,10|0,0:0|0:0,0:0:0:0:
167,252,15033,2,0,L|155:347,1,79.9999999999999,8|0,0:3|0:0,0:0:0:0:
104,72,15346,6,0,B|177:49|184:109|257:86,1,160,10|8,0:3|0:3,0:0:0:0:
167,252,15814,1,10,0:3:0:0:
43,120,15971,2,0,P|68:89|104:71,1,79.9999999999999,8|0,0:0|0:0,0:0:0:0:
11,219,16283,5,10,0:3:0:0:
11,219,16439,2,0,P|51:177|43:120,1,120,8|0,0:3|0:0,0:0:0:0:
0,55,16752,5,8,0:0:0:0:
11,219,16908,1,8,0:3:0:0:
11,219,17064,1,8,0:3:0:0:
204,148,17221,2,0,P|166:137|126:141,1,79.9999999999999,10|0,0:0|0:0,0:0:0:0:
212,312,17533,2,0,P|250:323|289:319,1,79.9999999999999,8|0,0:3|0:0,0:0:0:0:
446,125,17846,6,0,B|426:111|410:106|410:106|367:122|344:173|365:218,1,160,10|8,0:3|0:3,0:0:0:0:
400,290,18314,1,10,0:3:0:0:
467,200,18471,2,0,P|463:160|445:124,1,79.9999999999999,8|0,0:0|0:0,0:0:0:0:
400,290,18783,5,10,0:3:0:0:
400,290,18939,2,0,P|449:256|467:200,1,120,8|0,0:3|0:0,0:0:0:0:
445,124,19252,6,0,P|435:85|441:45,1,79.9999999999999,8|0,0:0|0:0,0:0:0:0:
467,200,19564,1,8,0:3:0:0:
440,46,19721,2,0,P|463:14|497:-6,1,79.9999999999999,10|0,0:0|0:0,0:0:0:0:
467,200,20033,2,0,P|496:226|534:239,1,79.9999999999999,8|0,0:3|0:0,0:0:0:0:
271,89,20346,6,0,B|291:75|307:70|307:70|350:86|373:137|352:182,1,160,10|8,0:3|0:3,0:0:0:0:
317,254,20814,1,10,0:3:0:0:
250,164,20971,2,0,P|254:124|272:88,1,79.9999999999999,8|0,0:0|0:0,0:0:0:0:
317,254,21283,5,10,0:3:0:0:
317,254,21439,2,0,P|269:220|250:164,1,120,8|0,0:3|0:0,0:0:0:0:
271,88,21752,5,8,0:0:0:0:
317,254,21908,1,8,0:3:0:0:
317,254,22064,1,8,0:3:0:0:
389,71,22221,5,10,0:2:0:0:
271,88,22377,1,8,0:3:0:0:
166,181,22533,1,10,0:2:0:0:
135,335,22689,1,8,0:2:0:0:
70,245,22846,6,0,P|34:238|10:241,2,59.9999981689453,12|2|8,0:3|0:0|0:0,0:0:0:0:
135,335,23783,1,10,0:3:0:0:
139,339,23939,1,8,0:3:0:0:
143,343,24096,2,0,P|179:350|203:347,1,59.9999981689453,8|8,0:3|0:3,0:0:0:0:
201,347,24721,2,0,P|237:340|261:343,1,59.9999981689453,8|0,0:0|0:0,0:0:0:0:
358,288,25346,6,0,L|363:225,2,59.9999981689453,8|2|8,0:3|0:0|0:0,0:0:0:0:
358,288,26439,1,8,0:3:0:0:
362,292,26596,2,0,L|367:229,1,59.9999981689453,8|8,0:3|0:3,0:0:0:0:
367,232,27221,2,0,L|372:169,1,59.9999981689453,8|0,0:0|0:0,0:0:0:0:
451,72,27846,6,0,P|487:65|515:68,2,64.9999970245362,8|2|8,0:3|0:0|0:0,0:0:0:0:
372,172,28783,1,10,0:3:0:0:
368,176,28939,1,8,0:3:0:0:
364,180,29096,2,0,P|328:187|300:184,1,64.9999970245362,8|8,0:3|0:3,0:0:0:0:
300,184,29721,2,0,P|264:177|236:180,1,64.9999970245362,8|0,0:0|0:0,0:0:0:0:
106,125,30346,6,0,L|101:58,2,64.9999970245362,8|2|8,0:3|0:0|0:0,0:0:0:0:
106,125,31439,1,8,0:3:0:0:
102,129,31596,2,0,L|97:62,1,64.9999970245362,8|8,0:3|0:3,0:0:0:0:
97,64,32221,2,0,L|92:-3,1,64.9999970245362,8|0,0:0|0:0,0:0:0:0:
15,211,32846,6,0,P|11:186|-4:134,2,69.9999978637695,12|2|8,0:3|0:0|0:0,0:0:0:0:
124,269,33783,1,10,0:3:0:0:
128,273,33939,1,8,0:3:0:0:
132,277,34096,2,0,P|136:252|151:200,1,69.9999978637695,8|8,0:3|0:3,0:0:0:0:
148,209,34721,2,0,P|151:243|153:278,1,69.9999978637695,8|0,0:0|0:0,0:0:0:0:
277,352,35346,6,0,L|347:346,2,69.9999978637696,8|2|8,0:3|0:0|0:0,0:0:0:0:
277,352,36439,1,8,0:3:0:0:
281,356,36596,2,0,L|351:350,1,69.9999978637696,8|8,0:3|0:3,0:0:0:0:
351,350,37221,2,0,L|420:344,1,69.9999978637696,8|0,0:0|0:0,0:0:0:0:
475,201,37846,6,0,P|475:161|479:119,2,75.000002861023,8|2|8,0:3|0:0|0:0,0:0:0:0:
421,344,38783,1,10,0:3:0:0:
417,348,38939,1,8,0:3:0:0:
413,352,39096,2,0,P|406:315|396:278,1,75.000002861023,8|8,0:3|0:3,0:0:0:0:
397,279,39721,2,0,P|387:315|380:352,1,75.000002861023,8|0,0:0|0:0,0:0:0:0:
277,194,40346,6,0,P|270:157|260:121,2,75.000002861023,8|2|8,0:3|0:0|0:0,0:0:0:0:
277,194,41439,1,8,0:3:0:0:
281,198,41596,2,0,P|287:161|297:125,1,75.000002861023,8|8,0:3|0:3,0:0:0:0:
326,98,42012,1,8,0:3:0:0:
365,95,42116,1,8,0:3:0:0:
402,106,42221,6,0,P|421:108|440:108,1,37.5000014305115,8|8,0:1|0:1,0:0:0:0:
320,16,42533,2,0,P|301:15|282:17,1,37.5000014305115,8|0,0:3|0:0,0:0:0:0:
145,143,42846,6,0,L|137:38,2,99.9999999999999,12|2|8,0:3|0:0|0:0,0:0:0:0:
145,143,43783,1,2,0:0:0:0:
216,197,43939,2,0,P|235:190|267:188,1,50,10|0,0:3|0:0,0:0:0:0:
162,268,44252,1,10,0:3:0:0:
91,214,44408,2,0,P|57:198|-8:204,2,99.9999999999999,10|8|0,0:3|0:0|0:0,0:0:0:0:
91,214,45346,6,0,P|58:195|-6:195,2,99.9999999999999,8|2|8,0:3|0:0|0:0,0:0:0:0:
91,214,46283,1,2,0:0:0:0:
162,268,46439,2,0,P|194:272|231:264,1,50,10|0,0:3|0:0,0:0:0:0:
282,213,46752,1,10,0:3:0:0:
212,270,46908,2,0,P|201:336|214:374,2,99.9999999999999,10|8|0,0:3|0:0|0:0,0:0:0:0:
282,213,47689,1,8,0:3:0:0:
373,251,47846,6,0,P|426:264|478:239,2,110.000003356934,8|2|8,0:3|0:0|0:0,0:0:0:0:
373,251,48783,1,2,0:0:0:0:
286,199,48939,2,0,P|256:187|211:192,1,55.0000016784668,10|0,0:3|0:0,0:0:0:0:
284,300,49252,1,10,0:3:0:0:
373,251,49408,2,0,P|389:200|371:143,1,110.000003356934,10|8,0:3|0:0,0:0:0:0:
373,147,50033,5,2,0:0:0:0:
286,199,50189,2,0,P|258:197|233:186,1,55.0000016784668,2|8,0:0|0:3,0:0:0:0:
159,119,50502,1,2,0:0:0:0:
71,167,50658,2,0,P|42:213|44:267,1,110.000003356934,2|8,0:0|0:0,0:0:0:0:
44,267,51283,5,8,0:3:0:0:
131,313,51439,2,0,P|158:309|198:310,1,55.0000016784668,8|0,0:3|0:0,0:0:0:0:
48,366,51752,1,8,0:3:0:0:
44,267,51908,2,0,P|45:239|51:212,1,55.0000016784668,8|0,0:3|0:0,0:0:0:0:
114,136,52221,5,10,0:0:0:0:
114,136,52377,1,8,0:3:0:0:
79,43,52533,5,8,0:0:0:0:
50,212,52689,1,8,0:0:0:0:
211,151,52846,6,0,P|262:144|329:160,2,119.999996337891,12|2|8,0:3|0:0|0:0,0:0:0:0:
211,151,53783,1,2,0:0:0:0:
124,215,53939,2,0,P|94:214|65:206,1,59.9999981689453,10|0,0:3|0:0,0:0:0:0:
12,111,54252,1,10,0:3:0:0:
65,206,54408,2,0,L|66:327,2,119.999996337891,10|8|0,0:3|0:0|0:0,0:0:0:0:
65,206,55346,6,0,L|56:329,2,119.999996337891,8|2|8,0:3|0:0|0:0,0:0:0:0:
12,111,56283,1,2,0:0:0:0:
65,206,56439,2,0,P|94:213|123:212,1,59.9999981689453,10|0,0:3|0:0,0:0:0:0:
214,152,56752,1,10,0:3:0:0:
292,225,56908,2,0,L|303:348,2,119.999996337891,10|8|0,0:3|0:0|0:0,0:0:0:0:
214,152,57689,1,8,0:3:0:0:
123,211,57846,6,0,P|59:222|2:194,2,129.999994049072,8|2|8,0:3|0:0|0:0,0:0:0:0:
123,211,58783,1,2,0:0:0:0:
214,152,58939,2,0,L|218:79,1,64.9999970245362,2|0,0:3|0:0,0:0:0:0:
306,10,59252,1,10,0:3:0:0:
391,89,59408,2,0,P|454:99|511:71,1,129.999994049072,10|8,0:3|0:0,0:0:0:0:
512,70,60033,6,0,L|509:140,1,50,2|0,0:2|0:0,0:0:0:0:
436,249,60346,5,8,0:3:0:0:
415,248,60658,1,8,0:3:0:0:
391,258,60971,1,8,0:3:0:0:
318,301,61283,1,8,0:3:0:0:
187,277,61596,1,8,0:3:0:0:
115,160,61908,1,8,0:3:0:0:
439,251,62064,5,8,0:3:0:0:
422,248,62142,1,8,0:3:0:0:
391,258,62221,1,10,0:3:0:0:
318,301,62377,1,8,0:0:0:0:
187,277,62533,1,8,0:3:0:0:
115,160,62689,1,8,0:3:0:0:
255,42,62846,6,0,B|318:22|314:71|378:52,1,127.500002431869,14|0,0:3|0:0,0:0:0:0:
398,45,63158,1,10,0:3:0:0:
306,201,63314,1,10,0:3:0:0:
188,102,63471,2,0,P|167:65|170:18,1,85.0000016212463,8|0,0:0|0:0,0:0:0:0:
306,201,63783,5,10,0:3:0:0:
188,102,63939,2,0,P|147:89|107:100,1,85.0000016212463,2|0,0:0|0:0,0:0:0:0:
306,201,64252,2,0,P|346:213|386:202,1,85.0000016212463,8|0,0:0|0:0,0:0:0:0:
457,51,64564,5,10,0:3:0:0:
387,202,64721,1,10,0:0:0:0:
485,221,64877,1,2,0:0:0:0:
355,34,65033,1,10,0:3:0:0:
253,17,65189,1,2,0:0:0:0:
79,175,65346,6,0,B|68:39,1,127.500002431869,10|0,0:3|0:0,0:0:0:0:
67,27,65658,1,10,0:3:0:0:
208,107,65814,1,10,0:3:0:0:
355,34,65971,2,0,P|391:22|438:23,1,85.0000016212463,8|0,0:0|0:0,0:0:0:0:
208,107,66283,5,10,0:3:0:0:
355,34,66439,2,0,P|418:20|519:77,1,170.000003242493,10|8,0:3|0:0,0:0:0:0:
487,302,66908,5,8,0:3:0:0:
487,302,67064,1,8,0:3:0:0:
382,143,67221,2,0,P|346:120|304:112,1,85.0000016212463,10|0,0:0|0:0,0:0:0:0:
254,305,67533,2,0,P|216:325|175:331,1,85.0000016212463,10|0,0:3|0:0,0:0:0:0:
155,327,67767,1,8,0:3:0:0:
136,317,67846,6,0,P|71:290|-16:317,1,127.500002431869,10|0,0:3|0:0,0:0:0:0:
0,311,68158,1,10,0:3:0:0:
155,207,68314,1,10,0:3:0:0:
29,124,68471,2,0,P|16:85|25:43,1,85.0000016212463,8|0,0:0|0:0,0:0:0:0:
155,207,68783,5,10,0:3:0:0:
29,124,68939,2,0,B|5:87|24:43|24:43|64:14|106:36,1,170.000003242493,10|8,0:3|0:0,0:0:0:0:
155,207,69408,5,10,0:3:0:0:
155,207,69564,1,8,0:3:0:0:
248,95,69721,2,0,L|256:10,1,85.0000016212463,10|0,0:0|0:0,0:0:0:0:
314,222,70033,2,0,L|323:312,1,85.0000016212463,10|0,0:3|0:0,0:0:0:0:
326,327,70267,1,8,0:3:0:0:
330,347,70346,6,0,P|394:376|487:313,1,170.000003242493,10|8,0:3|0:3,0:0:0:0:
477,333,70814,1,8,0:3:0:0:
400,164,70971,2,0,P|389:117|407:68,1,85.0000016212463,8|0,0:0|0:0,0:0:0:0:
477,333,71283,5,10,0:3:0:0:
400,164,71439,2,0,P|329:121|252:149,1,170.000003242493,10|8,0:3|0:0,0:0:0:0:
94,309,71908,5,8,0:3:0:0:
94,309,72064,1,8,0:3:0:0:
127,183,72221,5,10,0:0:0:0:
219,275,72377,1,8,0:0:0:0:
404,284,72533,1,8,0:3:0:0:
512,109,72689,1,8,0:3:0:0:
244,19,72846,6,0,B|203:13|171:36|171:36|142:45|113:21,1,127.500002431869,14|0,0:3|0:0,0:0:0:0:
105,16,73158,1,10,0:3:0:0:
59,221,73314,1,10,0:3:0:0:
214,187,73471,2,0,P|231:148|225:107,1,85.0000016212463,8|0,0:0|0:0,0:0:0:0:
59,221,73783,5,10,0:3:0:0:
225,107,73939,2,0,P|263:89|304:95,1,85.0000016212463,2|0,0:0|0:0,0:0:0:0:
397,327,74252,2,0,P|355:333|316:315,1,85.0000016212463,8|0,0:0|0:0,0:0:0:0:
225,107,74564,5,10,0:3:0:0:
317,316,74721,1,10,0:0:0:0:
373,230,74877,1,2,0:0:0:0:
281,21,75033,1,10,0:3:0:0:
225,107,75189,1,2,0:0:0:0:
470,201,75346,6,0,P|436:148|377:125,1,127.500002431869,10|0,0:3|0:0,0:0:0:0:
356,127,75658,1,10,0:3:0:0:
221,208,75814,1,10,0:3:0:0:
90,108,75971,2,0,P|72:58|83:21,1,85.0000016212463,8|0,0:0|0:0,0:0:0:0:
221,208,76283,5,10,0:3:0:0:
90,108,76439,2,0,B|60:72|80:29|80:29|121:57|110:103,1,170.000003242493,10|8,0:3|0:0,0:0:0:0:
141,332,76908,5,8,0:3:0:0:
141,332,77064,1,8,0:3:0:0:
221,208,77221,2,0,P|257:185|305:189,1,85.0000016212463,10|0,0:0|0:0,0:0:0:0:
388,346,77533,2,0,P|423:367|465:365,1,85.0000016212463,10|0,0:3|0:0,0:0:0:0:
480,350,77767,1,8,0:3:0:0:
488,330,77846,6,0,L|492:198,1,127.500002431869,10|0,0:3|0:0,0:0:0:0:
499,182,78158,1,10,0:3:0:0:
404,61,78314,1,10,0:3:0:0:
261,117,78471,2,0,P|219:119|183:97,1,85.0000016212463,8|0,0:0|0:0,0:0:0:0:
404,61,78783,5,10,0:3:0:0:
261,117,78939,2,0,B|237:127|199:124|166:94|162:57|162:57|184:62|200:95,1,170.000003242493,10|8,0:3|0:0,0:0:0:0:
274,291,79408,5,10,0:3:0:0:
274,291,79564,1,8,0:3:0:0:
194,161,79721,2,0,P|182:120|193:75,1,85.0000016212463,10|0,0:0|0:0,0:0:0:0:
411,228,80033,2,0,P|441:198|454:154,1,85.0000016212463,10|0,0:3|0:0,0:0:0:0:
454,137,80267,1,8,0:3:0:0:
449,115,80346,6,0,B|365:89|365:147|283:123,1,170.000003242493,10|8,0:3|0:3,0:0:0:0:
283,123,80814,1,8,0:3:0:0:
119,44,80971,2,0,P|74:26|22:35,1,85.0000016212463,8|0,0:0|0:0,0:0:0:0:
283,123,81283,5,10,0:3:0:0:
119,44,81439,2,0,B|81:18|38:30|38:30|23:75|50:111,1,170.000003242493,10|8,0:3|0:0,0:0:0:0:
185,289,81907,5,8,0:3:0:0:
185,289,82064,1,8,0:3:0:0:
283,123,82221,5,10,0:2:0:0:
282,234,82377,1,8,0:3:0:0:
188,67,82533,1,8,0:0:0:0:
378,68,82689,1,8,0:0:0:0:
187,178,82846,6,0,B|108:153|113:214|33:190,1,160,12|8,0:3|0:3,0:0:0:0:
33,190,83314,1,8,0:3:0:0:
124,379,83471,2,0,P|182:331|153:263,1,160,8|8,0:0|0:3,0:0:0:0:
33,190,83939,5,10,0:3:0:0:
28,110,84096,2,0,L|33:190,1,79.9999999999999,2|8,0:0|0:0,0:0:0:0:
211,116,84408,1,2,0:0:0:0:
216,36,84565,2,0,L|211:116,1,79.9999999999999,10|8,0:3|0:0,0:0:0:0:
211,116,85033,5,10,0:3:0:0:
211,116,85189,1,2,0:0:0:0:
282,222,85346,5,8,0:3:0:0:
338,107,85502,1,8,0:0:0:0:
425,70,85658,1,8,0:3:0:0:
506,82,85814,1,8,0:3:0:0:
338,107,85971,6,0,L|251:94,1,79.9999999999999,8|0,0:0|0:0,0:0:0:0:
116,7,86283,1,12,0:0:0:0:
116,7,86439,1,8,0:3:0:0:
120,165,86596,5,10,0:3:0:0:
162,92,86752,1,8,0:0:0:0:
258,95,86908,1,8,0:3:0:0:
308,183,87064,1,8,0:3:0:0:
315,197,87142,1,8,0:3:0:0:
326,217,87221,5,10,0:0:0:0:
436,235,87377,1,8,0:0:0:0:
512,131,87533,1,8,0:0:0:0:
431,12,87689,1,8,0:0:0:0:
258,95,87846,6,0,B|219:104|187:81|187:81|130:67|105:106,1,160,14|8,0:3|0:3,0:0:0:0:
156,251,88314,1,10,0:3:0:0:
256,170,88471,2,0,P|269:132|258:94,1,79.9999999999999,8|0,0:0|0:0,0:0:0:0:
248,280,88783,5,10,0:3:0:0:
248,280,88939,2,0,P|231:223|256:170,1,120,8|0,0:3|0:0,0:0:0:0:
319,129,89252,6,0,L|406:128,1,79.9999999999999,8|0,0:0|0:0,0:0:0:0:
259,95,89564,1,8,0:3:0:0:
399,128,89721,2,0,L|486:127,1,79.9999999999999,10|0,0:0|0:0,0:0:0:0:
259,95,90033,2,0,L|172:96,1,79.9999999999999,8|0,0:3|0:0,0:0:0:0:
309,307,90346,6,0,B|297:268|324:226|324:226|335:184|308:156,1,160,10|8,0:3|0:3,0:0:0:0:
183,209,90814,1,10,0:3:0:0:
235,323,90971,2,0,P|272:326|311:306,1,79.9999999999999,8|0,0:0|0:0,0:0:0:0:
125,331,91283,5,10,0:3:0:0:
125,331,91439,2,0,P|179:307|236:324,1,120,8|0,0:3|0:0,0:0:0:0:
288,377,91752,1,8,0:0:0:0:
317,221,91908,1,8,0:3:0:0:
317,221,92064,1,8,0:3:0:0:
440,361,92221,6,0,P|474:374|519:369,1,79.9999999999999,10|0,0:0|0:0,0:0:0:0:
507,127,92533,2,0,P|473:114|428:119,1,79.9999999999999,8|0,0:3|0:0,0:0:0:0:
246,234,92846,6,0,B|254:274|290:296|290:296|318:265|317:222,1,160,10|8,0:3|0:3,0:0:0:0:
207,119,93314,1,10,0:3:0:0:
175,257,93471,2,0,P|215:257|249:229,1,79.9999999999999,8|0,0:0|0:0,0:0:0:0:
108,197,93783,5,10,0:3:0:0:
108,197,93939,2,0,B|122:185|146:186|146:186|176:216|175:258,1,120,8|0,0:3|0:0,0:0:0:0:
137,325,94252,6,0,P|99:335|56:329,1,79.9999999999999,8|0,0:0|0:0,0:0:0:0:
175,257,94564,1,8,0:3:0:0:
59,329,94721,6,0,P|21:318|-13:291,1,79.9999999999999,10|0,0:0|0:0,0:0:0:0:
175,257,95033,2,0,P|179:217|169:179,1,79.9999999999999,8|0,0:3|0:0,0:0:0:0:
0,23,95346,6,0,B|11:62|49:81|49:81|75:47|70:5,1,160,10|8,0:3|0:3,0:0:0:0:
168,179,95814,1,10,0:3:0:0:
127,88,95971,2,0,P|89:75|50:80,1,79.9999999999999,8|0,0:0|0:0,0:0:0:0:
214,49,96283,5,10,0:3:0:0:
214,49,96439,2,0,B|203:89|164:104|164:104|142:105|121:83,1,120,8|0,0:3|0:0,0:0:0:0:
93,22,96752,5,8,0:0:0:0:
168,179,96908,1,8,0:3:0:0:
168,179,97064,1,8,0:3:0:0:
55,247,97221,5,10,0:2:0:0:
168,179,97377,1,8,0:2:0:0:
291,168,97533,1,8,0:3:0:0:
391,216,97689,1,8,0:3:0:0:
178,304,97846,6,0,B|150:300|134:274|134:274|126:219|170:177,1,160,14|8,0:3|0:3,0:0:0:0:
291,168,98314,1,10,0:3:0:0:
253,291,98471,2,0,P|217:307|177:303,1,79.9999999999999,8|0,0:0|0:0,0:0:0:0:
364,309,98783,5,10,0:3:0:0:
364,309,98939,2,0,P|311:283|253:291,1,120,8|0,0:3|0:0,0:0:0:0:
177,303,99252,6,0,L|88:295,1,79.9999999999999,8|0,0:0|0:0,0:0:0:0:
225,362,99564,1,8,0:3:0:0:
98,296,99721,6,0,L|9:288,1,79.9999999999999,10|0,0:0|0:0,0:0:0:0:
205,232,100033,2,0,L|232:148,1,79.9999999999999,8|0,0:3|0:0,0:0:0:0:
417,151,100346,6,0,B|445:147|461:121|461:121|469:66|425:24,1,160,10|8,0:3|0:3,0:0:0:0:
303,15,100814,1,10,0:3:0:0:
342,139,100971,2,0,P|378:155|418:151,1,79.9999999999999,8|0,0:0|0:0,0:0:0:0:
230,156,101283,5,10,0:3:0:0:
230,156,101439,2,0,P|283:130|341:138,1,120,8|0,0:3|0:0,0:0:0:0:
401,186,101752,5,8,0:0:0:0:
366,46,101908,1,8,0:3:0:0:
366,46,102064,1,8,0:3:0:0:
230,156,102221,6,0,P|190:157|152:143,1,79.9999999999999,10|0,0:0|0:0,0:0:0:0:
401,186,102533,2,0,P|440:184|478:198,1,79.9999999999999,8|0,0:3|0:0,0:0:0:0:
311,373,102846,6,0,B|327:337|318:301|318:301|294:261|304:218,1,160,10|8,0:3|0:3,0:0:0:0:
478,198,103314,1,10,0:3:0:0:
396,307,103471,2,0,P|356:310|318:299,1,79.9999999999999,8|0,0:0|0:0,0:0:0:0:
208,278,103783,5,10,0:3:0:0:
208,278,103939,2,0,P|266:270|317:299,1,120,8|0,0:3|0:0,0:0:0:0:
377,347,104252,6,0,P|416:350|454:339,1,79.9999999999999,8|0,0:0|0:0,0:0:0:0:
318,299,104564,1,8,0:3:0:0:
454,339,104721,2,0,P|484:313|503:278,1,79.9999999999999,10|0,0:0|0:0,0:0:0:0:
318,299,105033,2,0,P|304:261|305:221,1,79.9999999999999,8|0,0:3|0:0,0:0:0:0:
343,52,105346,6,0,B|372:22|411:26|411:26|458:44|495:19,1,160,10|8,0:3|0:3,0:0:0:0:
442,162,105814,1,10,0:3:0:0:
336,130,105971,2,0,P|332:90|343:52,1,79.9999999999999,8|0,0:0|0:0,0:0:0:0:
327,243,106283,5,10,0:3:0:0:
327,243,106439,2,0,P|348:187|335:129,1,120,8|0,0:3|0:0,0:0:0:0:
273,85,106752,5,8,0:0:0:0:
183,239,106908,1,8,0:3:0:0:
183,239,107064,1,8,0:3:0:0:
155,68,107221,5,10,0:2:0:0:
273,85,107377,1,8,0:3:0:0:
377,178,107533,1,10,0:2:0:0:
408,331,107689,1,8,0:2:0:0:
474,241,107846,6,0,P|476:213|479:183,2,50,12|2|8,0:3|0:0|0:0,0:0:0:0:
408,331,108783,1,8,0:3:0:0:
404,335,108939,1,8,0:3:0:0:
400,339,109096,2,0,P|397:309|394:283,1,50,10|0,0:3|0:0,0:0:0:0:
394,289,109721,2,0,P|397:259|400:233,1,50,2|8,0:0|0:0,0:0:0:0:
336,89,110346,6,0,P|306:77|281:78,2,50,10|2|2,0:3|0:0|0:0,0:0:0:0:
336,89,111596,2,0,P|311:87|288:76,1,50,8|0,0:3|0:0,0:0:0:0:
289,77,112221,2,0,P|266:66|241:64,1,50,10|0,0:3|0:0,0:0:0:0:
94,110,112846,6,0,L|87:45,2,55.0000016784668,10|2|8,0:3|0:0|0:0,0:0:0:0:
223,165,113783,1,8,0:3:0:0:
227,169,113939,1,8,0:3:0:0:
231,173,114096,2,0,L|237:108,1,55.0000016784668,10|0,0:3|0:0,0:0:0:0:
236,118,114721,2,0,L|242:53,1,55.0000016784668,2|0,0:0|0:0,0:0:0:0:
329,181,115346,6,0,P|357:173|393:169,2,55.0000016784668,8|2|2,0:3|0:0|0:0,0:0:0:0:
329,181,116596,2,0,P|356:177|382:169,1,55.0000016784668,10|8,0:3|0:3,0:0:0:0:
409,150,117012,1,8,0:3:0:0:
427,122,117116,1,8,0:3:0:0:
435,89,117221,6,0,L|432:39,1,34.9999989318848,8|8,0:1|0:1,0:0:0:0:
490,180,117533,2,0,L|493:230,1,34.9999989318848,8|0,0:3|0:0,0:0:0:0:
433,54,117846,6,0,P|399:44|344:45,2,79.9999999999999,12|2|8,0:3|0:0|0:0,0:0:0:0:
490,180,118783,1,10,0:3:0:0:
494,184,118939,1,8,0:3:0:0:
498,188,119096,2,0,P|491:222|465:271,1,79.9999999999999,2|8,0:0|0:3,0:0:0:0:
471,262,119721,2,0,P|431:253|392:256,1,79.9999999999999,8|0,0:0|0:0,0:0:0:0:
252,343,120346,6,0,P|212:345|173:336,2,79.9999999999999,8|2|8,0:3|0:0|0:0,0:0:0:0:
252,343,121439,2,0,L|256:291,1,40,8|0,0:3|0:0,0:0:0:0:
220,239,121752,1,8,0:0:0:0:
216,243,121908,2,0,L|212:191,1,40,8|0,0:3|0:0,0:0:0:0:
177,140,122221,2,0,P|138:131|98:133,1,79.9999999999999,10|0,0:0|0:0,0:0:0:0:
5,294,122846,6,0,L|0:204,2,89.999997253418,8|2|8,0:3|0:0|0:0,0:0:0:0:
141,346,123783,1,10,0:3:0:0:
145,350,123939,1,8,0:3:0:0:
149,354,124096,2,0,L|250:346,1,89.999997253418,2|8,0:0|0:3,0:0:0:0:
238,347,124721,2,0,L|339:355,1,89.999997253418,8|0,0:0|0:0,0:0:0:0:
473,267,125346,6,0,L|482:177,2,89.999997253418,8|2|8,0:3|0:0|0:0,0:0:0:0:
473,267,126439,2,0,P|446:258|411:255,1,44.999998626709,8|0,0:3|0:0,0:0:0:0:
351,277,126752,1,8,0:0:0:0:
347,281,126908,2,0,P|324:282|302:281,1,44.999998626709,8|8,0:3|0:2,0:0:0:0:
286,277,127142,1,8,0:2:0:0:
270,271,127221,6,0,P|263:239|264:217,1,47.4999987316131,10|8,0:2|0:3,0:0:0:0:
372,97,127533,1,8,0:0:0:0:
429,255,127689,1,8,0:0:0:0:
372,97,127846,6,0,L|378:-3,2,99.9999999999999,12|2|8,0:3|0:0|0:0,0:0:0:0:
372,97,128783,1,2,0:0:0:0:
301,151,128939,2,0,P|282:144|250:142,1,50,10|0,0:3|0:0,0:0:0:0:
355,222,129252,1,10,0:3:0:0:
426,168,129408,2,0,P|474:151|534:157,2,99.9999999999999,10|8|0,0:3|0:0|0:0,0:0:0:0:
426,168,130346,6,0,P|472:146|532:147,2,99.9999999999999,8|2|8,0:3|0:0|0:0,0:0:0:0:
426,168,131283,1,2,0:0:0:0:
355,223,131439,2,0,P|323:227|286:219,1,50,10|0,0:3|0:0,0:0:0:0:
221,191,131752,1,10,0:3:0:0:
144,238,131908,2,0,P|126:302|135:341,2,99.9999999999999,10|8|0,0:3|0:0|0:0,0:0:0:0:
221,191,132689,1,8,0:3:0:0:
305,224,132846,6,0,P|369:241|412:229,2,110.000003356934,8|2|8,0:3|0:0|0:0,0:0:0:0:
305,224,133783,1,2,0:0:0:0:
221,191,133939,2,0,P|191:184|161:187,1,55.0000016784668,2|0,0:3|0:0,0:0:0:0:
74,222,134252,1,10,0:3:0:0:
167,185,134408,2,0,P|183:134|165:77,1,110.000003356934,10|8,0:3|0:0,0:0:0:0:
167,81,135033,5,2,0:0:0:0:
89,20,135189,2,0,P|61:18|36:7,1,55.0000016784668,2|8,0:0|0:3,0:0:0:0:
167,81,135502,1,2,0:0:0:0:
253,33,135658,2,0,P|305:20|356:40,1,110.000003356934,2|8,0:0|0:0,0:0:0:0:
356,40,136283,5,8,0:3:0:0:
427,108,136439,2,0,P|452:111|495:107,1,55.0000016784668,8|0,0:3|0:0,0:0:0:0:
359,179,136752,1,8,0:3:0:0:
288,111,136908,2,0,P|263:108|220:112,1,55.0000016784668,8|0,0:3|0:0,0:0:0:0:
144,149,137221,5,10,0:0:0:0:
144,149,137377,1,8,0:3:0:0:
134,247,137533,5,8,0:3:0:0:
62,92,137689,1,8,0:3:0:0:
233,109,137846,6,0,L|354:104,2,119.999996337891,12|2|8,0:3|0:0|0:0,0:0:0:0:
233,109,138783,1,2,0:0:0:0:
126,89,138939,2,0,P|98:80|67:80,1,59.9999981689453,10|0,0:3|0:0,0:0:0:0:
0,165,139252,1,10,0:3:0:0:
81,235,139408,2,0,P|87:291|61:358,2,119.999996337891,10|8|0,0:3|0:0|0:0,0:0:0:0:
81,235,140346,6,0,P|82:291|50:355,2,119.999996337891,8|2|8,0:3|0:0|0:0,0:0:0:0:
81,235,141283,1,2,0:0:0:0:
146,149,141439,2,0,P|172:142|217:146,1,59.9999981689453,10|0,0:3|0:0,0:0:0:0:
282,218,141752,1,10,0:3:0:0:
374,161,141908,6,0,L|383:40,2,119.999996337891,10|8|0,0:3|0:0|0:0,0:0:0:0:
282,218,142689,1,8,0:3:0:0:
205,143,142846,6,0,L|197:10,2,129.999994049072,8|2|8,0:3|0:0|0:0,0:0:0:0:
205,143,143783,1,2,0:0:0:0:
282,218,143939,2,0,P|316:210|362:217,1,64.9999970245362,2|0,0:3|0:0,0:0:0:0:
440,281,144252,1,10,0:3:0:0:
496,178,144408,2,0,L|504:45,1,129.999994049072,10|8,0:3|0:0,0:0:0:0:
504,48,145033,6,0,P|477:40|452:38,1,50,2|0,0:0|0:0,0:0:0:0:
321,125,145346,5,8,0:3:0:0:
306,121,145658,1,8,0:3:0:0:
223,49,145971,1,8,0:3:0:0:
92,65,146283,1,8,0:3:0:0:
321,125,146517,5,8,0:0:0:0:
306,121,146596,1,8,0:0:0:0:
223,49,146752,1,8,0:0:0:0:
92,65,146908,1,8,0:3:0:0:
2,175,147064,1,4,0:3:0:0:
103,297,147221,5,10,0:0:0:0:
139,266,147325,2,0,L|144:208,1,46.666665242513,8|8,0:0|0:3,0:0:0:0:
196,149,147533,5,8,0:3:0:0:
238,167,147637,1,4,0:3:0:0:
284,162,147741,1,12,0:3:0:0:
356,114,147846,6,0,B|425:99|424:142|487:125,1,134.999995880127,14|0,0:3|0:0,0:0:0:0:
508,116,148158,1,10,0:3:0:0:
429,304,148314,1,10,0:3:0:0:
271,247,148471,2,0,P|267:203|284:162,1,89.999997253418,8|0,0:0|0:0,0:0:0:0:
429,304,148783,5,10,0:3:0:0:
271,247,148939,2,0,P|230:234|172:241,1,89.999997253418,2|0,0:0|0:0,0:0:0:0:
429,304,149252,2,0,P|470:317|528:310,1,89.999997253418,8|0,0:0|0:0,0:0:0:0:
376,84,149564,5,10,0:3:0:0:
271,247,149721,1,10,0:0:0:0:
169,209,149877,1,2,0:0:0:0:
376,84,150033,1,10,0:3:0:0:
478,122,150189,1,2,0:0:0:0:
282,381,150346,6,0,B|271:247,1,134.999995880127,10|0,0:3|0:0,0:0:0:0:
268,220,150658,1,10,0:3:0:0:
376,84,150814,1,10,0:3:0:0:
211,23,150971,2,0,P|159:14|118:25,1,89.999997253418,8|0,0:0|0:0,0:0:0:0:
376,84,151283,5,10,0:3:0:0:
211,23,151439,2,0,B|190:13|160:6|122:18|86:42|86:42|53:41|31:9,1,179.999994506836,10|8,0:3|0:0,0:0:0:0:
11,292,151908,5,8,0:3:0:0:
11,292,152064,1,8,0:3:0:0:
145,147,152221,2,0,P|184:131|237:133,1,89.999997253418,10|0,0:0|0:0,0:0:0:0:
322,335,152533,2,0,P|361:351|414:349,1,89.999997253418,10|0,0:3|0:0,0:0:0:0:
427,339,152767,1,8,0:3:0:0:
439,319,152846,6,0,B|434:289|456:257|456:257|469:220|456:187,1,134.999995880127,10|0,0:3|0:0,0:0:0:0:
446,170,153158,1,10,0:3:0:0:
317,63,153314,1,10,0:3:0:0:
168,143,153471,2,0,P|124:153|84:133,1,89.999997253418,8|0,0:0|0:0,0:0:0:0:
317,63,153783,5,10,0:3:0:0:
168,143,153939,2,0,B|122:168|84:133|84:133|73:83|109:51,1,179.999994506836,10|8,0:3|0:0,0:0:0:0:
317,63,154408,5,10,0:3:0:0:
317,63,154564,1,8,0:3:0:0:
355,221,154721,2,0,L|347:311,1,89.999997253418,10|0,0:0|0:0,0:0:0:0:
501,177,155033,2,0,L|509:87,1,89.999997253418,10|0,0:3|0:0,0:0:0:0:
506,65,155267,1,8,0:3:0:0:
490,49,155346,6,0,B|401:20|406:89|316:63,1,179.999994506836,10|8,0:3|0:3,0:0:0:0:
316,63,155814,1,8,0:3:0:0:
134,27,155971,2,0,L|43:19,1,89.999997253418,8|0,0:0|0:0,0:0:0:0:
316,63,156283,5,10,0:3:0:0:
134,27,156439,2,0,B|78:7|78:7|44:23|26:76|61:109,1,179.999994506836,10|8,0:3|0:0,0:0:0:0:
317,194,156908,5,8,0:3:0:0:
317,194,157064,1,8,0:3:0:0:
435,128,157221,5,10,0:0:0:0:
316,63,157377,1,8,0:0:0:0:
135,103,157533,1,8,0:3:0:0:
93,339,157689,1,8,0:3:0:0:
422,364,157846,6,0,P|437:298|419:234,1,134.999995880127,14|0,0:3|0:0,0:0:0:0:
405,217,158158,1,10,0:3:0:0:
268,130,158314,1,10,0:3:0:0:
128,215,158471,2,0,P|84:215|44:195,1,89.999997253418,8|0,0:0|0:0,0:0:0:0:
268,130,158783,5,10,0:3:0:0:
44,195,158939,2,0,P|24:154|24:110,1,89.999997253418,2|0,0:0|0:0,0:0:0:0:
233,210,159252,2,0,P|259:174|268:130,1,89.999997253418,8|0,0:0|0:0,0:0:0:0:
43,3,159564,5,10,0:3:0:0:
268,130,159721,1,10,0:0:0:0:
283,22,159877,1,2,0:0:0:0:
23,110,160033,1,10,0:3:0:0:
3,217,160189,1,2,0:0:0:0:
237,369,160346,6,0,L|252:235,1,134.999995880127,10|0,0:3|0:0,0:0:0:0:
254,212,160658,1,10,0:3:0:0:
155,62,160814,1,10,0:3:0:0:
88,227,160971,2,0,P|38:232|-2:213,1,89.999997253418,8|0,0:0|0:0,0:0:0:0:
155,62,161283,5,10,0:3:0:0:
88,227,161439,2,0,B|40:244|3:216|3:216|42:190|89:207,1,179.999994506836,10|8,0:3|0:0,0:0:0:0:
237,369,161908,5,8,0:3:0:0:
237,369,162064,1,8,0:3:0:0:
363,288,162221,2,0,P|376:245|367:202,1,89.999997253418,10|0,0:0|0:0,0:0:0:0:
159,147,162533,2,0,P|145:104|154:61,1,89.999997253418,10|0,0:3|0:0,0:0:0:0:
174,51,162767,1,8,0:3:0:0:
196,50,162846,6,0,P|264:66|318:23,1,134.999995880127,10|0,0:3|0:0,0:0:0:0:
326,12,163158,1,10,0:3:0:0:
484,76,163314,1,10,0:3:0:0:
367,202,163471,2,0,P|335:208|273:184,1,89.999997253418,8|0,0:0|0:0,0:0:0:0:
484,76,163783,5,10,0:3:0:0:
367,202,163939,2,0,B|325:219|281:190|281:190|255:142|179:140,1,179.999994506836,10|8,0:3|0:0,0:0:0:0:
16,294,164408,5,10,0:3:0:0:
16,294,164564,1,8,0:3:0:0:
119,150,164721,2,0,L|208:143,1,89.999997253418,10|0,0:0|0:0,0:0:0:0:
296,339,165033,2,0,L|385:346,1,89.999997253418,10|0,0:3|0:0,0:0:0:0:
407,349,165267,1,8,0:3:0:0:
429,348,165346,6,0,P|490:307|455:201,1,179.999994506836,10|8,0:3|0:3,0:0:0:0:
473,213,165814,1,8,0:3:0:0:
328,104,165971,2,0,P|314:71|328:19,1,89.999997253418,8|0,0:0|0:0,0:0:0:0:
473,213,166283,5,10,0:3:0:0:
328,104,166439,2,0,B|298:59|329:18|329:18|386:26|404:80,1,179.999994506836,10|8,0:3|0:0,0:0:0:0:
422,271,166907,5,8,0:3:0:0:
422,271,167064,1,8,0:3:0:0:
328,104,167221,5,10,0:2:0:0:
327,215,167377,1,8,0:3:0:0:
233,48,167533,1,8,0:0:0:0:
423,49,167689,1,8,0:0:0:0:
230,158,167846,6,0,B|58:149,1,170.000003242493,12|8,0:3|0:3,0:0:0:0:
60,149,168314,1,8,0:3:0:0:
177,287,168471,2,0,B|223:267|223:267|269:219|230:158,1,170.000003242493,8|8,0:0|0:3,0:0:0:0:
13,90,168939,5,10,0:3:0:0:
9,5,169096,2,0,L|12:89,1,85.0000016212463,2|8,0:0|0:0,0:0:0:0:
230,158,169408,1,2,0:0:0:0:
234,73,169565,2,0,L|230:157,1,85.0000016212463,10|8,0:3|0:0,0:0:0:0:
230,158,170033,5,10,0:3:0:0:
230,158,170189,1,2,0:0:0:0:
297,264,170346,5,8,0:3:0:0:
358,152,170502,1,8,0:0:0:0:
441,113,170658,1,8,0:3:0:0:
512,155,170814,1,8,0:3:0:0:
379,277,170971,6,0,P|343:279|292:260,1,85.0000016212463,8|0,0:0|0:0,0:0:0:0:
184,73,171283,1,12,0:0:0:0:
184,73,171439,1,8,0:3:0:0:
40,159,171596,5,10,0:3:0:0:
112,116,171752,1,8,0:0:0:0:
194,167,171908,1,8,0:3:0:0:
192,268,172064,1,8,0:3:0:0:
192,283,172142,1,8,0:3:0:0:
192,306,172221,5,10,0:0:0:0:
278,377,172377,1,8,0:0:0:0:
396,324,172533,1,8,0:0:0:0:
386,181,172689,1,8,0:0:0:0:
194,167,172846,6,0,L|55:155,1,129.999994049072,12|8,0:3|0:3,0:0:0:0:
65,156,173314,1,8,0:3:0:0:
8,288,173471,2,0,P|10:255|4:223,1,64.9999970245362,10|0,0:0|0:0,0:0:0:0:
76,348,173783,5,10,0:3:0:0:
160,311,173939,2,0,L|299:299,1,129.999994049072,10|8,0:3|0:0,0:0:0:0:
440,354,174408,5,2,0:3:0:0:
493,280,174564,2,0,L|496:210,1,64.9999970245362,10|8,0:3|0:0,0:0:0:0:
365,147,174877,2,0,L|351:79,1,64.9999970245362,2|8,0:0|0:3,0:0:0:0:
352,83,175346,6,0,P|282:91|222:63,1,129.999994049072,10|8,0:3|0:3,0:0:0:0:
228,68,175814,1,8,0:3:0:0:
105,52,175971,2,0,P|168:44|228:67,1,129.999994049072,8|8,0:0|0:3,0:0:0:0:
77,139,176439,5,10,0:3:0:0:
15,70,176596,2,0,P|12:39|22:8,1,64.9999970245362,2|8,0:0|0:0,0:0:0:0:
77,139,176908,5,10,0:3:0:0:
105,52,177064,2,0,L|185:36,1,64.9999970245362,10|8,0:3|0:0,0:0:0:0:
169,39,177533,5,10,0:3:0:0:
169,39,177689,1,2,0:3:0:0:
255,67,177846,2,0,L|392:57,1,129.999994049072,8|8,0:3|0:3,0:0:0:0:
385,58,178314,1,8,0:3:0:0:
258,170,178471,2,0,P|223:120|254:67,1,129.999994049072,8|0,0:0|0:3,0:0:0:0:
335,217,178939,5,10,0:3:0:0:
255,261,179096,2,0,P|222:255|180:224,1,64.9999970245362,2|8,0:0|0:2,0:0:0:0:
335,217,179408,5,2,0:0:0:0:
333,308,179565,2,0,P|311:333|263:354,1,64.9999970245362,10|8,0:3|0:0,0:0:0:0:
284,349,180033,5,10,0:3:0:0:
284,349,180189,1,2,0:0:0:0:
194,318,180346,2,0,P|125:306|55:345,1,129.999994049072,10|0,0:3|0:3,0:0:0:0:
72,329,180814,1,8,0:3:0:0:
22,217,180971,2,0,P|66:270|67:350,1,129.999994049072,8|8,0:0|0:3,0:0:0:0:
22,217,181439,5,10,0:3:0:0:
99,168,181596,2,0,L|111:93,1,64.9999970245362,2|8,0:0|0:0,0:0:0:0:
121,11,181908,1,10,0:3:0:0:
110,104,182064,1,10,0:3:0:0:
197,68,182221,5,8,0:0:0:0:
257,136,182377,1,8,0:0:0:0:
369,163,182533,1,8,0:3:0:0:
498,122,182689,1,8,0:3:0:0:
394,26,182846,6,0,B|351:13|311:38|311:38|283:34|263:7,1,129.999994049072,12|8,0:3|0:3,0:0:0:0:
273,18,183314,1,8,0:3:0:0:
184,131,183471,2,0,P|194:100|196:67,1,64.9999970245362,10|0,0:0|0:0,0:0:0:0:
238,203,183783,5,10,0:3:0:0:
184,131,183939,2,0,P|132:106|54:119,1,129.999994049072,10|8,0:3|0:0,0:0:0:0:
166,257,184408,5,2,0:3:0:0:
238,203,184564,2,0,P|264:197|310:202,1,64.9999970245362,10|8,0:3|0:0,0:0:0:0:
166,257,184877,2,0,P|140:263|94:258,1,64.9999970245362,2|8,0:0|0:3,0:0:0:0:
102,260,185346,6,0,P|76:318|95:379,1,129.999994049072,10|8,0:3|0:3,0:0:0:0:
95,379,185814,1,8,0:3:0:0:
202,325,185971,2,0,P|163:273|101:260,1,129.999994049072,8|8,0:0|0:3,0:0:0:0:
6,300,186439,5,10,0:3:0:0:
17,196,186596,2,0,L|13:121,1,64.9999970245362,2|8,0:0|0:0,0:0:0:0:
6,300,186908,5,10,0:3:0:0:
102,259,187064,2,0,L|179:247,1,64.9999970245362,10|8,0:3|0:0,0:0:0:0:
166,249,187533,6,0,L|243:261,1,64.9999970245362,10|0,0:3|0:0,0:0:0:0:
322,307,187846,2,0,L|459:297,1,129.999994049072,10|8,0:3|0:3,0:0:0:0:
451,297,188314,1,8,0:3:0:0:
484,198,188471,2,0,B|469:165|469:165|488:119|469:73,1,129.999994049072,10|10,0:2|0:3,0:0:0:0:
379,22,188939,5,10,0:3:0:0:
284,67,189096,2,0,P|249:65|204:44,1,64.9999970245362,2|8,0:0|0:0,0:0:0:0:
379,22,189408,5,2,0:0:0:0:
372,125,189564,2,0,P|346:147|300:165,1,64.9999970245362,10|8,0:3|0:0,0:0:0:0:
214,152,189877,2,0,P|183:141|151:139,1,64.9999970245362,2|8,0:0|0:3,0:0:0:0:
1,337,190346,5,8,0:3:0:0:
20,331,190658,1,8,0:3:0:0:
51,338,190971,1,8,0:3:0:0:
148,371,191283,1,8,0:3:0:0:
281,333,191596,1,8,0:3:0:0:
325,157,191908,1,0,0:3:0:0:
1,337,192064,5,8,0:0:0:0:
20,331,192142,1,8,0:0:0:0:
51,338,192221,1,8,0:3:0:0:
148,371,192377,1,8,0:0:0:0:
281,333,192533,1,8,0:3:0:0:
325,157,192689,1,8,0:3:0:0:
116,20,192846,5,4,1:1:0:0:
41,384,201439,6,0,L|33:227,1,150.000005722046,14|8,2:2|0:3,0:0:0:0:
152,158,201908,2,0,P|189:156|224:168,1,75.000002861023,8|8,0:3|0:0,0:0:0:0:
226,184,202142,1,8,0:0:0:0:
227,206,202221,5,10,0:0:0:0:
302,318,202377,1,8,0:0:0:0:
464,314,202533,1,8,0:0:0:0:
512,141,202689,1,8,0:0:0:0:
275,33,202846,6,0,B|205:12|204:60|136:36,1,142.499996194839,14|0,0:3|0:0,0:0:0:0:
114,26,203158,1,10,0:3:0:0:
137,224,203314,1,10,0:3:0:0:
284,122,203471,2,0,P|293:75|274:32,1,94.9999974632263,8|0,0:0|0:0,0:0:0:0:
137,224,203783,5,10,0:3:0:0:
284,122,203939,2,0,P|330:110|372:130,1,94.9999974632263,2|0,0:0|0:0,0:0:0:0:
137,224,204252,2,0,P|91:235|49:215,1,94.9999974632263,8|0,0:0|0:0,0:0:0:0:
188,15,204564,5,10,0:3:0:0:
315,230,204721,1,10,0:0:0:0:
371,130,204877,1,2,0:0:0:0:
188,15,205033,1,10,0:3:0:0:
132,115,205189,1,2,0:0:0:0:
259,330,205346,6,0,P|278:257|218:193,1,142.499996194839,10|0,0:3|0:0,0:0:0:0:
223,191,205658,1,10,0:3:0:0:
288,33,205814,1,10,0:3:0:0:
404,159,205971,2,0,P|450:161|494:141,1,94.9999974632263,8|0,0:0|0:0,0:0:0:0:
288,33,206283,5,10,0:3:0:0:
404,159,206439,2,0,B|464:174|507:129|507:129|459:114|428:141,1,189.999994926453,10|8,0:3|0:0,0:0:0:0:
414,361,206908,5,8,0:3:0:0:
414,361,207064,1,8,0:3:0:0:
308,219,207221,2,0,P|269:192|222:190,1,94.9999974632263,10|0,0:0|0:0,0:0:0:0:
158,354,207533,2,0,P|117:378|70:377,1,94.9999974632263,10|0,0:3|0:0,0:0:0:0:
47,370,207767,1,8,0:3:0:0:
32,350,207846,6,0,L|28:197,1,142.499996194839,10|0,0:3|0:0,0:0:0:0:
29,183,208158,1,10,0:3:0:0:
116,36,208314,1,10,0:3:0:0:
267,118,208471,2,0,P|312:125|355:101,1,94.9999974632263,8|0,0:0|0:0,0:0:0:0:
116,36,208783,5,10,0:3:0:0:
267,118,208939,2,0,B|314:139|354:101|354:101|340:50|285:42,1,189.999994926453,10|8,0:3|0:0,0:0:0:0:
116,36,209408,5,10,0:3:0:0:
116,36,209564,1,8,0:3:0:0:
286,42,209721,2,0,L|388:27,1,94.9999974632263,10|0,0:0|0:0,0:0:0:0:
152,145,210033,2,0,L|50:130,1,94.9999974632263,10|0,0:3|0:0,0:0:0:0:
35,138,210267,1,8,0:3:0:0:
16,153,210346,6,0,P|-21:237|8:325,1,189.999994926453,10|8,0:3|0:3,0:0:0:0:
8,326,210814,1,8,0:3:0:0:
203,298,210971,2,0,P|248:280|307:292,1,94.9999974632263,8|0,0:0|0:0,0:0:0:0:
8,326,211283,5,10,0:3:0:0:
203,298,211439,2,0,P|240:214|211:126,1,189.999994926453,10|8,0:3|0:0,0:0:0:0:
29,0,211907,5,8,0:3:0:0:
29,0,212064,1,8,0:3:0:0:
110,173,212221,5,10,0:0:0:0:
20,109,212377,1,8,0:3:0:0:
210,125,212533,1,8,0:2:0:0:
103,281,212689,1,8,0:2:0:0:
118,61,212846,6,0,P|192:15|277:36,1,179.999994506836,12|8,0:3|0:3,0:0:0:0:
278,36,213314,1,8,0:3:0:0:
437,11,213471,2,0,P|363:57|278:36,1,179.999994506836,8|8,0:0|0:3,0:0:0:0:
210,125,213939,5,10,0:3:0:0:
213,215,214096,2,0,L|210:125,1,89.999997253418,2|8,0:0|0:0,0:0:0:0:
374,182,214408,1,2,0:0:0:0:
371,272,214565,2,0,L|374:182,1,89.999997253418,10|8,0:3|0:0,0:0:0:0:
444,76,215033,5,10,0:3:0:0:
444,76,215189,1,2,0:0:0:0:
374,182,215346,5,8,0:3:0:0:
317,67,215502,1,8,0:0:0:0:
220,23,215658,1,8,0:3:0:0:
137,39,215814,1,8,0:3:0:0:
317,67,215971,6,0,L|413:57,1,89.999997253418,8|0,0:0|0:0,0:0:0:0:
512,249,216283,1,12,0:0:0:0:
512,249,216439,1,8,0:3:0:0:
476,139,216596,5,10,0:3:0:0:
399,226,216752,1,8,0:0:0:0:
274,209,216908,1,8,0:3:0:0:
218,116,217064,1,8,0:3:0:0:
214,111,217142,1,8,0:3:0:0:
210,106,217221,5,10,0:0:0:0:
159,107,217325,1,8,0:3:0:0:
131,149,217429,1,8,0:3:0:0:
171,222,217533,5,10,0:3:0:0:
179,278,217637,1,8,0:3:0:0:
144,322,217741,1,8,0:3:0:0:
58,319,217846,6,0,B|16:306|16:306|-11:251|17:192,1,150,14|0,0:3|0:0,0:0:0:0:
27,183,218158,1,10,0:3:0:0:
179,278,218314,1,10,0:3:0:0:
315,159,218471,2,0,P|355:144|418:163,1,99.9999999999999,8|0,0:0|0:0,0:0:0:0:
179,278,218783,5,10,0:3:0:0:
315,159,218939,2,0,P|330:119|311:56,1,99.9999999999999,2|0,0:0|0:0,0:0:0:0:
179,278,219252,2,0,P|164:318|183:381,1,99.9999999999999,8|0,0:0|0:0,0:0:0:0:
490,352,219564,5,10,0:3:0:0:
253,325,219721,1,10,0:0:0:0:
226,208,219877,1,2,0:0:0:0:
460,116,220033,1,10,0:3:0:0:
475,234,220189,1,2,0:0:0:0:
199,91,220346,6,0,P|146:63|52:83,1,150,10|0,0:3|0:0,0:0:0:0:
41,94,220658,1,10,0:3:0:0:
0,267,220814,1,10,0:3:0:0:
158,347,220971,2,0,P|208:346|252:324,1,99.9999999999999,8|0,0:0|0:0,0:0:0:0:
0,267,221283,5,10,0:3:0:0:
158,347,221439,2,0,B|209:358|252:324|252:324|311:321|344:367,1,200,10|8,0:3|0:0,0:0:0:0:
512,214,221908,5,8,0:3:0:0:
512,214,222064,1,8,0:3:0:0:
402,69,222221,2,0,P|357:46|303:43,1,99.9999999999999,10|0,0:0|0:0,0:0:0:0:
227,245,222533,2,0,P|180:262|125:258,1,99.9999999999999,10|0,0:3|0:0,0:0:0:0:
106,252,222767,1,8,0:3:0:0:
83,240,222846,6,0,B|64:228|50:214|50:214|29:161|63:97,1,150,10|0,0:3|0:0,0:0:0:0:
73,90,223158,1,10,0:3:0:0:
235,14,223314,1,10,0:3:0:0:
384,116,223471,2,0,P|432:126|476:105,1,99.9999999999999,8|0,0:0|0:0,0:0:0:0:
235,14,223783,5,10,0:3:0:0:
384,116,223939,2,0,B|432:142|476:105|476:105|466:45|410:32,1,200,10|8,0:3|0:0,0:0:0:0:
254,217,224408,5,10,0:3:0:0:
254,217,224564,1,8,0:3:0:0:
104,115,224721,2,0,L|95:15,1,99.9999999999999,10|0,0:0|0:0,0:0:0:0:
0,218,225033,2,0,L|8:317,1,99.9999999999999,10|0,0:3|0:0,0:0:0:0:
14,341,225267,1,8,0:3:0:0:
19,365,225346,6,0,B|66:334|121:362|121:362|175:373|212:319,1,200,10|8,0:3|0:3,0:0:0:0:
203,331,225814,1,8,0:3:0:0:
272,131,225971,2,0,L|278:25,1,99.9999999999999,8|0,0:0|0:0,0:0:0:0:
203,331,226283,5,10,0:3:0:0:
272,131,226439,2,0,B|301:94|356:107|356:107|408:139|457:113,1,200,10|8,0:3|0:0,0:0:0:0:
512,365,226908,5,8,0:3:0:0:
512,365,227064,1,8,0:3:0:0:
512,232,227221,5,10,0:0:0:0:
399,346,227377,1,8,0:0:0:0:
203,331,227533,1,8,0:3:0:0:
44,111,227689,1,8,0:3:0:0:
349,11,227846,6,0,B|393:7|424:42|424:42|465:49|487:31,1,150,14|0,0:3|0:0,0:0:0:0:
505,15,228158,1,10,0:3:0:0:
435,205,228314,1,10,0:3:0:0:
278,150,228471,2,0,P|263:102|272:54,1,99.9999999999999,8|0,0:0|0:0,0:0:0:0:
435,205,228783,5,10,0:3:0:0:
272,54,228939,2,0,P|226:32|177:34,1,99.9999999999999,2|0,0:0|0:0,0:0:0:0:
79,299,229252,2,0,P|127:308|175:294,1,99.9999999999999,8|0,0:0|0:0,0:0:0:0:
272,54,229564,5,10,0:3:0:0:
79,299,229721,1,10,0:0:0:0:
50,182,229877,1,2,0:0:0:0:
272,54,230033,1,10,0:3:0:0:
301,171,230189,1,2,0:0:0:0:
21,65,230346,6,0,B|58:27|120:37|120:37|141:54|153:79,1,150,10|0,0:3|0:0,0:0:0:0:
155,92,230658,1,10,0:3:0:0:
266,257,230814,1,10,0:3:0:0:
433,146,230971,2,0,P|448:95|436:50,1,100,8|0,0:0|0:0,0:0:0:0:
266,257,231283,5,10,0:3:0:0:
433,146,231439,2,0,B|462:100|436:51|436:51|394:90|405:145,1,200,10|8,0:3|0:0,0:0:0:0:
443,362,231908,5,8,0:3:0:0:
443,362,232064,1,8,0:3:0:0:
309,156,232221,2,0,P|261:136|203:142,1,99.9999999999999,10|0,0:0|0:0,0:0:0:0:
135,364,232533,2,0,P|89:383|39:381,1,99.9999999999999,10|0,0:3|0:0,0:0:0:0:
22,363,232767,1,8,0:3:0:0:
10,340,232846,6,0,L|4:177,1,150,10|0,0:3|0:0,0:0:0:0:
3,165,233158,1,10,0:3:0:0:
95,11,233314,1,10,0:3:0:0:
229,132,233471,2,0,P|274:137|333:106,1,99.9999999999999,8|0,0:0|0:0,0:0:0:0:
95,11,233783,5,10,0:3:0:0:
229,132,233939,2,0,B|280:149|323:115|323:115|379:99|413:148,1,200,10|8,0:3|0:0,0:0:0:0:
293,339,234408,5,10,0:3:0:0:
293,339,234564,1,8,0:3:0:0:
160,176,234721,2,0,P|147:128|163:81,1,99.9999999999999,10|0,0:0|0:0,0:0:0:0:
463,214,235033,2,0,P|490:173|490:123,1,99.9999999999999,10|0,0:3|0:0,0:0:0:0:
484,99,235267,1,8,0:3:0:0:
472,76,235346,6,0,B|411:35|345:76|345:76|291:70|283:18,1,220.000006713867,10|8,0:3|0:3,0:0:0:0:
285,26,235814,1,8,0:3:0:0:
160,176,235971,2,0,L|149:283,1,99.9999999999999,8|0,0:0|0:0,0:0:0:0:
285,26,236283,5,10,0:3:0:0:
160,176,236439,2,0,B|103:200|103:200|58:186|31:143|34:83|66:52,1,239.999992675781,10|8,0:3|0:0,0:0:0:0:
285,26,236907,5,8,0:3:0:0:
285,26,237064,1,8,0:3:0:0:
379,269,237221,5,10,0:2:0:0:
331,147,237377,1,8,0:3:0:0:
298,372,237533,1,8,0:0:0:0:
507,288,237689,1,8,0:0:0:0:
251,250,237846,6,0,B|160:223|162:296|68:264,1,189.999994926453,12|8,0:3|0:3,0:0:0:0:
67,264,238314,1,8,0:3:0:0:
24,62,238471,2,0,B|53:49|85:64|85:64|136:118|111:182,1,189.999994926453,8|8,0:0|0:3,0:0:0:0:
71,359,238939,5,10,0:3:0:0:
67,264,239096,2,0,L|71:359,1,94.9999974632263,2|8,0:0|0:0,0:0:0:0:
247,345,239408,1,2,0:0:0:0:
251,250,239565,2,0,L|247:344,1,94.9999974632263,10|8,0:3|0:0,0:0:0:0:
247,345,240033,5,10,0:3:0:0:
247,345,240189,1,2,0:0:0:0:
388,300,240346,5,8,0:3:0:0:
251,250,240502,1,8,0:0:0:0:
184,164,240658,1,8,0:3:0:0:
200,77,240814,1,8,0:3:0:0:
384,20,240971,6,0,L|488:13,1,94.9999974632263,8|0,0:0|0:0,0:0:0:0:
512,242,241283,1,12,0:0:0:0:
512,242,241439,1,8,0:3:0:0:
498,129,241596,5,10,0:3:0:0:
405,107,241752,1,8,0:0:0:0:
334,183,241908,1,8,0:3:0:0:
356,294,242064,1,8,0:3:0:0:
353,310,242142,1,8,0:3:0:0:
349,333,242221,5,10,0:0:0:0:
226,347,242377,1,8,0:0:0:0:
128,256,242533,1,8,0:0:0:0:
146,114,242689,1,8,0:0:0:0:
333,182,242846,6,0,B|388:200|439:168|439:168|421:186|416:211,1,160,14|8,0:3|0:3,0:0:0:0:
349,333,243314,1,10,0:3:0:0:
260,206,243471,2,0,P|286:188|344:184,1,79.9999999999999,8|0,0:0|0:0,0:0:0:0:
148,218,243783,5,10,0:3:0:0:
148,218,243939,2,0,P|205:229|260:206,1,120,8|0,0:3|0:0,0:0:0:0:
333,182,244252,6,0,P|377:186|415:201,1,79.9999999999999,8|0,0:0|0:0,0:0:0:0:
261,206,244564,1,8,0:3:0:0:
410,198,244721,2,0,P|454:194|492:179,1,79.9999999999999,10|0,0:0|0:0,0:0:0:0:
261,206,245033,2,0,P|217:210|179:225,1,79.9999999999999,8|0,0:3|0:0,0:0:0:0:
337,351,245346,6,0,B|358:297|330:244|330:244|349:268|376:279,1,160,10|8,0:3|0:3,0:0:0:0:
477,336,245814,1,10,0:3:0:0:
337,351,245971,2,0,P|297:349|258:338,1,79.9999999999999,8|0,0:0|0:0,0:0:0:0:
154,370,246283,5,10,0:3:0:0:
154,370,246439,2,0,P|200:334|258:338,1,120,8|0,0:3|0:0,0:0:0:0:
337,351,246752,5,8,0:0:0:0:
261,206,246908,1,8,0:3:0:0:
261,206,247064,1,8,0:3:0:0:
112,275,247221,2,0,P|73:274|37:256,1,79.9999999999999,10|0,0:0|0:0,0:0:0:0:
42,77,247533,2,0,P|77:59|117:58,1,79.9999999999999,8|0,0:3|0:0,0:0:0:0:
261,206,247846,6,0,B|268:248|303:272|303:272|333:242|332:201,1,160,10|8,0:3|0:3,0:0:0:0:
232,81,248314,1,10,0:3:0:0:
184,200,248471,2,0,P|221:212|261:206,1,79.9999999999999,8|0,0:0|0:0,0:0:0:0:
83,200,248783,5,10,0:3:0:0:
83,200,248939,2,0,B|95:181|113:173|113:173|158:170|184:200,1,120,8|0,0:3|0:0,0:0:0:0:
219,268,249252,6,0,L|221:358,1,79.9999999999999,8|0,0:0|0:0,0:0:0:0:
184,200,249564,1,8,0:3:0:0:
221,348,249721,2,0,P|183:360|144:351,1,79.9999999999999,10|0,0:0|0:0,0:0:0:0:
184,200,250033,2,0,P|222:191|260:203,1,79.9999999999999,8|0,0:3|0:0,0:0:0:0:
385,285,250346,6,0,B|409:319|450:328|450:328|465:287|448:251,1,160,10|8,0:3|0:3,0:0:0:0:
352,172,250814,1,10,0:3:0:0:
372,342,250971,2,0,P|411:341|449:328,1,79.9999999999999,8|0,0:0|0:0,0:0:0:0:
273,358,251283,5,10,0:3:0:0:
273,358,251439,2,0,B|281:337|298:326|298:326|342:316|372:342,1,120,8|0,0:3|0:0,0:0:0:0:
440,379,251752,5,8,0:0:0:0:
476,167,251908,1,8,0:3:0:0:
476,167,252064,1,8,0:3:0:0:
512,293,252221,5,10,0:2:0:0:
476,167,252377,1,8,0:2:0:0:
377,96,252533,1,8,0:3:0:0:
259,97,252689,1,8,0:3:0:0:
159,272,252846,6,0,P|87:300|18:264,1,160,14|8,0:3|0:3,0:0:0:0:
107,117,253314,1,10,0:3:0:0:
184,198,253471,2,0,P|179:237|159:272,1,79.9999999999999,8|0,0:0|0:0,0:0:0:0:
107,117,253783,5,10,0:3:0:0:
107,117,253939,2,0,P|159:144|184:197,1,120,8|0,0:3|0:0,0:0:0:0:
159,272,254252,6,0,P|145:309|145:348,1,79.9999999999999,8|0,0:0|0:0,0:0:0:0:
184,198,254564,1,8,0:3:0:0:
145,349,254721,2,0,P|106:359|67:355,1,79.9999999999999,10|0,0:0|0:0,0:0:0:0:
184,198,255033,2,0,P|223:188|262:192,1,79.9999999999999,8|0,0:3|0:0,0:0:0:0:
454,342,255346,6,0,P|377:330|335:264,1,160,10|8,0:3|0:3,0:0:0:0:
486,181,255814,1,10,0:3:0:0:
512,290,255971,2,0,P|488:321|453:341,1,79.9999999999999,8|0,0:0|0:0,0:0:0:0:
486,181,256283,5,10,0:3:0:0:
486,181,256439,2,0,P|517:230|512:288,1,120,8|0,0:3|0:0,0:0:0:0:
453,341,256752,5,8,0:0:0:0:
335,264,256908,1,8,0:3:0:0:
335,264,257064,1,8,0:3:0:0:
224,354,257221,2,0,P|184:358|146:348,1,79.9999999999999,10|0,0:0|0:0,0:0:0:0:
335,264,257533,2,0,P|345:225|340:186,1,79.9999999999999,8|0,0:3|0:0,0:0:0:0:
170,93,257846,6,0,B|186:74|214:69|214:69|269:97|257:159,1,160,10|8,0:3|0:3,0:0:0:0:
192,275,258314,1,10,0:3:0:0:
154,168,258471,2,0,P|153:129|170:93,1,79.9999999999999,8|0,0:0|0:0,0:0:0:0:
192,275,258783,5,10,0:3:0:0:
192,275,258939,2,0,P|189:216|154:168,1,120,8|0,0:3|0:0,0:0:0:0:
97,118,259252,6,0,P|85:80|92:41,1,79.9999999999999,8|0,0:0|0:0,0:0:0:0:
154,168,259564,1,8,0:3:0:0:
92,41,259721,2,0,P|56:26|16:30,1,79.9999999999999,10|0,0:0|0:0,0:0:0:0:
154,168,260033,2,0,P|190:183|230:179,1,79.9999999999999,8|0,0:3|0:0,0:0:0:0:
439,38,260346,6,0,B|426:16|400:6|400:6|341:23|341:86,1,160,10|8,0:3|0:3,0:0:0:0:
384,213,260814,1,10,0:3:0:0:
441,115,260971,2,0,P|449:76|439:38,1,79.9999999999999,8|0,0:0|0:0,0:0:0:0:
384,213,261283,5,10,0:3:0:0:
384,213,261439,2,0,P|398:155|441:115,1,120,8|0,0:3|0:0,0:0:0:0:
505,78,261752,5,8,0:0:0:0:
473,265,261908,1,8,0:3:0:0:
473,265,262064,1,8,0:3:0:0:
348,76,262221,5,10,0:2:0:0:
204,60,262377,1,8,0:3:0:0:
93,177,262533,1,10,0:2:0:0:
64,365,262689,1,8,0:2:0:0:
1,220,262846,6,0,B|1:157|29:104|71:68|102:60|161:53|161:53|206:64|238:66|337:65|447:16|447:16|426:60|405:92|360:115|334:125|334:125|360:150|405:151|452:135|452:135|411:193|380:208|326:201|326:201|353:231|400:245|443:251|443:251|386:249|333:255|297:291|297:291|274:314|250:338|201:352|146:352|102:301|90:264|90:264|79:234|64:181|90:109|158:95|205:115|243:147|253:164|266:213|251:248|239:268|213:273|189:274|163:258|155:239|163:205,1,1968.0000300293,4|0,1:1|0:0,0:0:0:0:
