osu file format v14

[General]
AudioFilename: audio.mp3
AudioLeadIn: 0
PreviewTime: 146986
Countdown: 0
SampleSet: Soft
StackLeniency: 0.2
Mode: 0
LetterboxInBreaks: 0
WidescreenStoryboard: 1

[Editor]
Bookmarks: 22846,32846,42846,62846,87846,107846,117846,127846,127924,147846,161439,172846,192846,201439,203236,217846,242846,252846,262846,272846
DistanceSpacing: 2.1
BeatDivisor: 8
GridSize: 32
TimelineZoom: 1.4

[Metadata]
Title:Jiyuu no Hane
TitleUnicode:自由の翅
Artist:Hiromi Sato
ArtistUnicode:佐藤ひろ美
Creator:Lasse
Version:Komore's Insane
Source:月影のシミュラクル-解放の羽-
Tags:Tsukikage no Simulacre -Kaihou no Hane- Opening Eroge Visual Novel Applique Meis Clauson Full Version Komore schoolboy
BeatmapID:1493253
BeatmapSetID:703718

[Difficulty]
HPDrainRate:6
CircleSize:4.6
OverallDifficulty:8
ApproachRate:9.2
SliderMultiplier:2.6
SliderTickRate:1

[Events]
//Background and Video events
0,0,"a.jpg",0,0
//Break Periods
2,90546,107276
//Storyboard Layer 0 (Background)
//Storyboard Layer 1 (Fail)
//Storyboard Layer 2 (Pass)
//Storyboard Layer 3 (Foreground)
//Storyboard Sound Samples

[TimingPoints]
2846,625,4,2,1,70,1,0
4174,-100,4,2,99,5,0,0
4252,-100,4,2,1,70,0,0
6674,-100,4,2,99,5,0,0
6752,-100,4,2,1,70,0,0
9174,-100,4,2,99,5,0,0
9252,-100,4,2,1,70,0,0
11674,-100,4,2,99,5,0,0
11752,-100,4,2,1,70,0,0
12533,-100,4,2,2,70,0,0
12846,-100,4,2,1,70,0,0
14174,-100,4,2,99,5,0,0
14252,-100,4,2,1,70,0,0
16674,-100,4,2,99,5,0,0
16752,-100,4,2,1,70,0,0
19174,-100,4,2,99,5,0,0
19252,-100,4,2,1,70,0,0
21674,-100,4,2,99,5,0,0
21752,-100,4,2,1,70,0,0
22846,-100,4,2,75,50,0,0
23158,-133.333333333333,4,2,75,50,0,0
25658,-200,4,2,75,50,0,0
28158,-133.333333333333,4,2,75,50,0,0
30658,-200,4,2,75,50,0,0
32846,-133.333333333333,4,2,75,50,0,0
35658,-200,4,2,75,50,0,0
37924,-133.333333333333,4,2,75,50,0,0
40658,-200,4,2,75,50,0,0
41908,-100,4,2,75,51,0,0
42012,-100,4,2,75,52,0,0
42116,-100,4,2,75,53,0,0
42221,-100,4,2,75,54,0,0
42377,-100,4,2,75,50,0,0
42533,-100,4,2,76,54,0,0
42689,-100,4,2,76,50,0,0
42846,-100,4,2,1,56,0,0
47846,-100,4,2,1,58,0,0
52846,-100,4,2,1,60,0,0
57846,-100,4,2,1,62,0,0
60033,-100,4,2,1,50,0,0
60189,-100,4,2,75,30,0,0
60346,-100,4,2,1,54,0,0
60658,-100,4,2,1,56,0,0
60971,-100,4,2,1,58,0,0
61283,-100,4,2,1,62,0,0
61596,-100,4,2,1,64,0,0
61908,-100,4,2,1,66,0,0
62064,-100,4,2,1,68,0,0
62142,-100,4,2,1,69,0,0
62221,-100,4,2,1,70,0,0
62377,-100,4,2,1,71,0,0
62533,-100,4,2,2,72,0,0
62689,-100,4,2,2,73,0,0
62846,-76.9230769230769,4,2,1,74,0,0
63080,-76.9230769230769,4,2,99,5,0,0
63158,-76.9230769230769,4,2,1,74,0,0
65580,-76.9230769230769,4,2,99,5,0,0
65658,-76.9230769230769,4,2,1,74,0,0
68080,-76.9230769230769,4,2,99,5,0,0
68158,-76.9230769230769,4,2,1,74,0,0
71908,-76.9230769230769,4,2,1,68,0,0
72221,-76.9230769230769,4,2,1,70,0,0
72377,-76.9230769230769,4,2,1,71,0,0
72533,-76.9230769230769,4,2,2,72,0,0
72689,-76.9230769230769,4,2,2,73,0,0
72846,-76.9230769230769,4,2,1,74,0,0
73080,-76.9230769230769,4,2,99,5,0,0
73158,-76.9230769230769,4,2,1,74,0,0
75580,-76.9230769230769,4,2,99,5,0,0
75658,-76.9230769230769,4,2,1,74,0,0
78080,-76.9230769230769,4,2,99,5,0,0
78158,-76.9230769230769,4,2,1,74,0,0
81908,-76.9230769230769,4,2,1,70,0,0
82221,-76.9230769230769,4,2,1,73,0,0
82533,-76.9230769230769,4,2,1,72,0,0
82846,-76.9230769230769,4,2,1,70,0,0
89174,-76.9230769230769,4,2,99,5,0,0
89252,-76.9230769230769,4,2,1,70,0,0
91674,-76.9230769230769,4,2,99,5,0,0
91752,-76.9230769230769,4,2,1,70,0,0
94174,-76.9230769230769,4,2,99,5,0,0
94252,-76.9230769230769,4,2,1,70,0,0
96674,-76.9230769230769,4,2,99,5,0,0
96752,-76.9230769230769,4,2,1,70,0,0
97533,-76.9230769230769,4,2,2,70,0,0
97846,-76.9230769230769,4,2,1,70,0,0
99174,-76.9230769230769,4,2,99,5,0,0
99252,-76.9230769230769,4,2,1,70,0,0
101674,-76.9230769230769,4,2,99,5,0,0
101752,-76.9230769230769,4,2,1,70,0,0
104174,-76.9230769230769,4,2,99,5,0,0
104252,-76.9230769230769,4,2,1,70,0,0
106674,-76.9230769230769,4,2,99,5,0,0
106752,-76.9230769230769,4,2,1,70,0,0
107846,-76.9230769230769,4,2,75,44,0,0
108158,-133.333333333333,4,2,75,44,0,0
110033,-133.333333333333,4,2,75,38,0,0
110346,-133.333333333333,4,2,75,44,0,0
110657,-200,4,2,75,44,0,0
112846,-200,4,2,75,46,0,0
113158,-133.333333333333,4,2,75,46,0,0
115658,-200,4,2,75,46,0,0
116908,-100,4,2,75,48,0,0
117012,-100,4,2,75,49,0,0
117116,-100,4,2,75,50,0,0
117221,-100,4,2,75,52,0,0
117377,-100,4,2,75,48,0,0
117533,-100,4,2,75,52,0,0
117689,-100,4,2,75,48,0,0
117846,-133.333333333333,4,2,1,52,0,0
122846,-133.333333333333,4,2,1,54,0,0
127064,-133.333333333333,4,2,1,48,0,0
127142,-133.333333333333,4,2,1,50,0,0
127221,-133.333333333333,4,2,1,52,0,0
127846,-133.333333333333,4,2,1,56,0,0
128002,-100,4,2,1,56,0,0
132846,-100,4,2,1,58,0,0
137533,-100,4,2,2,58,0,0
137846,-100,4,2,1,60,0,0
142846,-100,4,2,1,62,0,0
145033,-100,4,2,1,50,0,0
145189,-100,4,2,75,30,0,0
145346,-100,4,2,1,54,0,0
145658,-100,4,2,1,56,0,0
145971,-100,4,2,1,58,0,0
146283,-100,4,2,1,60,0,0
146517,-100,4,2,1,61,0,0
146596,-100,4,2,1,62,0,0
146752,-100,4,2,1,63,0,0
146908,-100,4,2,2,64,0,0
147064,-100,4,2,2,65,0,0
147221,-100,4,2,1,66,0,0
147325,-100,4,2,1,67,0,0
147429,-100,4,2,1,62,0,0
147533,-100,4,2,2,68,0,0
147637,-100,4,2,2,69,0,0
147741,-100,4,2,2,70,0,0
147846,-76.9230769230769,4,2,1,76,0,0
148080,-76.9230769230769,4,2,99,5,0,0
148158,-76.9230769230769,4,2,1,76,0,0
150580,-76.9230769230769,4,2,99,5,0,0
150658,-76.9230769230769,4,2,1,76,0,0
153080,-76.9230769230769,4,2,99,5,0,0
153158,-76.9230769230769,4,2,1,76,0,0
156908,-76.9230769230769,4,2,1,70,0,0
157221,-76.9230769230769,4,2,1,72,0,0
157377,-76.9230769230769,4,2,1,73,0,0
157533,-76.9230769230769,4,2,2,74,0,0
157689,-76.9230769230769,4,2,2,75,0,0
157846,-76.9230769230769,4,2,1,76,0,0
158080,-76.9230769230769,4,2,99,5,0,0
158158,-76.9230769230769,4,2,1,76,0,0
160580,-76.9230769230769,4,2,99,5,0,0
160658,-76.9230769230769,4,2,1,76,0,0
163080,-76.9230769230769,4,2,99,5,0,0
163158,-76.9230769230769,4,2,1,76,0,0
166908,-76.9230769230769,4,2,1,72,0,0
167221,-76.9230769230769,4,2,1,75,0,0
167533,-76.9230769230769,4,2,1,74,0,0
167846,-76.9230769230769,4,2,1,72,0,0
172846,-76.9230769230769,4,2,1,66,0,0
173158,-86.9565217391304,4,2,1,66,0,0
182533,-86.9565217391304,4,2,2,66,0,0
182846,-86.9565217391304,4,2,1,64,0,0
190346,-86.9565217391304,4,2,1,54,0,0
190658,-86.9565217391304,4,2,1,55,0,0
190971,-86.9565217391304,4,2,1,56,0,0
191283,-86.9565217391304,4,2,1,57,0,0
191596,-86.9565217391304,4,2,1,58,0,0
191908,-86.9565217391304,4,2,1,59,0,0
192064,-86.9565217391304,4,2,1,60,0,0
192142,-86.9565217391304,4,2,1,61,0,0
192221,-86.9565217391304,4,2,1,62,0,0
192377,-86.9565217391304,4,2,1,63,0,0
192533,-86.9565217391304,4,2,2,64,0,0
192689,-86.9565217391304,4,2,2,65,0,0
192846,-86.9565217391304,4,2,2,60,0,0
193158,-200,4,2,75,41,0,0
197221,-200,4,2,75,46,0,0
197533,-200,4,2,75,53,0,0
197846,-200,4,2,75,58,0,0
201439,-76.9230769230769,4,2,1,64,0,0
201752,-76.9230769230769,4,2,1,60,0,0
201908,-76.9230769230769,4,2,1,64,0,0
202064,-76.9230769230769,4,2,1,60,0,0
202142,-76.9230769230769,4,2,1,62,0,0
202221,-76.9230769230769,4,2,1,64,0,0
202377,-76.9230769230769,4,2,1,66,0,0
202533,-76.9230769230769,4,2,1,68,0,0
202689,-76.9230769230769,4,2,1,70,0,0
202846,-76.9230769230769,4,2,1,78,0,0
203080,-76.9230769230769,4,2,99,5,0,0
203158,-76.9230769230769,4,2,1,78,0,0
205580,-76.9230769230769,4,2,99,5,0,0
205658,-76.9230769230769,4,2,1,78,0,0
208080,-76.9230769230769,4,2,99,5,0,0
208158,-76.9230769230769,4,2,1,78,0,0
211908,-76.9230769230769,4,2,1,74,0,0
212221,-76.9230769230769,4,2,1,77,0,0
212533,-76.9230769230769,4,2,1,76,0,0
212846,-76.9230769230769,4,2,1,74,0,0
217221,-76.9230769230769,4,2,1,78,0,0
217533,-76.9230769230769,4,2,2,78,0,0
217846,-76.9230769230769,4,2,1,80,0,0
218080,-76.9230769230769,4,2,99,5,0,0
218158,-76.9230769230769,4,2,1,80,0,0
220580,-76.9230769230769,4,2,99,5,0,0
220658,-76.9230769230769,4,2,1,80,0,0
223080,-76.9230769230769,4,2,99,5,0,0
223158,-76.9230769230769,4,2,1,80,0,0
228080,-76.9230769230769,4,2,99,5,0,0
228158,-76.9230769230769,4,2,1,80,0,0
230580,-76.9230769230769,4,2,99,5,0,0
230658,-76.9230769230769,4,2,1,80,0,0
233080,-76.9230769230769,4,2,99,5,0,0
233158,-76.9230769230769,4,2,1,80,0,0
236908,-76.9230769230769,4,2,1,76,0,0
237221,-76.9230769230769,4,2,1,79,0,0
237533,-76.9230769230769,4,2,1,78,0,0
237846,-76.9230769230769,4,2,1,76,0,0
242846,-76.9230769230769,4,2,1,70,0,0
244174,-76.9230769230769,4,2,99,5,0,0
244252,-76.9230769230769,4,2,1,70,0,0
245971,-100,4,2,1,70,0,0
246674,-100,4,2,99,5,0,0
246752,-100,4,2,1,70,0,0
249174,-100,4,2,99,5,0,0
249252,-100,4,2,1,70,0,0
251674,-100,4,2,99,5,0,0
251752,-100,4,2,1,70,0,0
252533,-100,4,2,2,70,0,0
252846,-100,4,2,1,70,0,0
254174,-100,4,2,99,5,0,0
254252,-100,4,2,1,70,0,0
256674,-100,4,2,99,5,0,0
256752,-100,4,2,1,70,0,0
259174,-100,4,2,99,5,0,0
259252,-100,4,2,1,70,0,0
261674,-100,4,2,99,5,0,0
261752,-100,4,2,1,70,0,0
262846,-100,4,2,2,60,0,0
263002,-100,4,2,1,5,0,0
272846,-100,4,2,99,5,0,0

[Colours]
Combo1 : 150,210,220
Combo2 : 140,200,250
Combo3 : 160,190,210
Combo4 : 175,190,255

[HitObjects]
53,268,2846,6,0,P|101:226|163:237,1,130,14|8,0:3|0:3,0:0:0:0:
317,141,3314,1,10,0:3:0:0:
232,103,3471,2,0,L|254:231,1,130,8|10,0:0|0:3,0:0:0:0:
331,306,3939,2,0,L|339:241,1,65,8|0,0:3|0:0,0:0:0:0:
499,179,4252,1,8,0:0:0:0:
408,155,4408,2,0,L|420:218,1,65,0|8,0:0|0:3,0:0:0:0:
494,53,4721,1,10,0:0:0:0:
422,77,5033,1,8,0:3:0:0:
350,99,5267,5,0,0:0:0:0:
333,102,5346,2,0,P|308:46|348:0,1,130,10|8,0:3|0:3,0:0:0:0:
402,162,5814,1,10,0:3:0:0:
323,211,5971,2,0,B|237:228|237:228|206:198,1,130,8|10,0:0|0:3,0:0:0:0:
116,152,6439,2,0,L|123:216,1,65,8|0,0:3|0:0,0:0:0:0:
197,110,6752,1,8,0:0:0:0:
69,39,6908,2,0,P|99:52|132:52,1,65,8|8,0:3|0:3,0:0:0:0:
300,9,7221,1,10,0:0:0:0:
291,84,7533,1,8,0:3:0:0:
281,158,7767,1,0,0:0:0:0:
291,171,7846,6,0,P|351:188|399:148,1,130,10|8,0:3|0:3,0:0:0:0:
233,101,8314,1,10,0:3:0:0:
180,174,8471,2,0,L|197:302,1,130,8|10,0:0|0:3,0:0:0:0:
281,383,8939,2,0,P|283:351|289:319,1,65,8|0,0:3|0:0,0:0:0:0:
447,252,9252,1,8,0:0:0:0:
357,219,9408,2,0,P|362:251|365:283,1,65,0|8,0:0|0:3,0:0:0:0:
329,98,9721,6,0,B|450:113|389:167|495:184,1,195,10|0,0:0|0:0,0:0:0:0:
496,184,10346,6,0,P|443:149|384:169,1,130,10|8,0:3|0:3,0:0:0:0:
234,59,10814,1,10,0:3:0:0:
186,130,10971,2,0,P|239:95|298:115,1,130,8|10,0:0|0:3,0:0:0:0:
398,39,11439,2,0,L|333:28,1,65,8|0,0:3|0:0,0:0:0:0:
417,119,11752,1,8,0:0:0:0:
497,64,11908,2,0,P|503:33|492:3,1,65,8|8,0:3|0:3,0:0:0:0:
417,119,12221,5,10,0:2:0:0:
423,203,12377,1,8,0:2:0:0:
429,287,12533,1,8,0:3:0:0:
434,371,12689,1,8,0:3:0:0:
416,283,12846,6,0,B|331:304|331:304|291:289,1,130,14|8,0:3|0:3,0:0:0:0:
165,157,13314,1,10,0:3:0:0:
114,239,13471,2,0,L|242:218,1,130,8|10,0:0|0:3,0:0:0:0:
337,159,13939,2,0,L|328:223,1,65,8|0,0:3|0:0,0:0:0:0:
264,118,14252,1,8,0:0:0:0:
352,76,14408,2,0,P|384:79|416:83,1,65,0|8,0:0|0:3,0:0:0:0:
207,12,14721,1,10,0:0:0:0:
215,88,15033,1,8,0:3:0:0:
223,163,15267,1,0,0:0:0:0:
226,179,15346,6,0,P|161:168|97:160,1,130,10|8,0:3|0:3,0:0:0:0:
282,247,15814,1,10,0:3:0:0:
353,197,15971,2,0,P|375:137|345:82,1,130,8|10,0:0|0:3,0:0:0:0:
248,21,16439,2,0,L|256:85,1,65,8|0,0:3|0:0,0:0:0:0:
97,160,16752,1,8,0:0:0:0:
181,209,16908,2,0,P|183:176|189:144,1,65,8|8,0:3|0:3,0:0:0:0:
272,312,17221,1,10,0:0:0:0:
201,337,17533,1,8,0:3:0:0:
130,314,17767,1,0,0:0:0:0:
121,300,17846,6,0,B|106:268|106:268|123:174,1,130,10|8,0:3|0:3,0:0:0:0:
212,21,18314,1,10,0:3:0:0:
145,85,18471,2,0,P|86:107|25:86,1,130,8|10,0:0|0:3,0:0:0:0:
196,179,18939,2,0,P|227:172|259:174,1,65,8|0,0:3|0:0,0:0:0:0:
376,102,19252,1,8,0:0:0:0:
286,27,19408,2,0,L|296:91,1,65,0|8,0:0|0:3,0:0:0:0:
345,237,19721,6,0,B|480:203|480:203|446:218|442:249,1,195,10|0,0:0|0:0,0:0:0:0:
444,243,20346,6,0,P|446:178|457:114,1,130,10|8,0:3|0:3,0:0:0:0:
287,51,20814,1,10,0:3:0:0:
361,0,20971,2,0,L|372:129,1,130,8|10,0:0|0:3,0:0:0:0:
290,198,21439,2,0,P|280:168|286:137,1,65,8|0,0:3|0:0,0:0:0:0:
366,273,21752,1,8,0:0:0:0:
277,319,21908,2,0,P|246:314|213:314,1,65,8|8,0:3|0:3,0:0:0:0:
30,366,22221,5,10,0:2:0:0:
52,352,22377,1,8,0:3:0:0:
92,280,22533,5,10,0:2:0:0:
60,101,22689,1,8,0:2:0:0:
16,178,22846,5,12,0:3:0:0:
83,204,23158,6,0,L|194:185,1,97.50000371933,2|8,0:0|0:0,0:0:0:0:
333,92,23783,1,10,0:3:0:0:
333,92,23939,2,0,P|294:61|231:76,1,97.50000371933,8|0,0:3|0:0,0:0:0:0:
223,137,24408,2,0,P|262:168|325:153,1,97.50000371933,8|8,0:3|0:0,0:0:0:0:
421,324,25033,5,2,0:0:0:0:
421,324,25189,2,0,P|428:273|441:217,1,97.50000371933,2|0,0:0|0:0,0:0:0:0:
492,168,25658,2,0,B|383:189|441:249|339:276,1,195.00000743866,2|8,0:0|0:3,0:0:0:0:
264,177,26908,1,8,0:3:0:0:
264,177,27221,2,0,L|336:193,1,65,10|0,0:0|0:0,0:0:0:0:
181,79,27846,5,8,0:3:0:0:
136,134,28158,6,0,L|149:233,1,97.50000371933,2|8,0:0|0:0,0:0:0:0:
83,363,28783,1,10,0:3:0:0:
83,363,28939,2,0,P|65:316|95:266,1,97.50000371933,8|0,0:3|0:0,0:0:0:0:
148,230,29408,1,8,0:3:0:0:
148,230,29721,1,8,0:0:0:0:
74,17,30033,5,2,0:0:0:0:
74,17,30189,2,0,L|90:129,1,97.50000371933,2|0,0:0|0:0,0:0:0:0:
27,166,30658,2,0,B|95:119|143:138|143:138|156:182|127:204,1,195,2|8,0:0|0:3,0:0:0:0:
270,116,31908,1,8,0:3:0:0:
270,116,32221,2,0,P|233:123|198:108,1,65,10|0,0:0|0:0,0:0:0:0:
110,38,32846,5,12,0:3:0:0:
53,83,33158,6,0,P|30:128|48:179,1,97.50000371933,2|8,0:0|0:0,0:0:0:0:
172,289,33783,1,10,0:3:0:0:
172,289,33939,2,0,L|157:171,1,97.50000371933,8|0,0:3|0:0,0:0:0:0:
105,133,34408,2,0,P|157:113|207:132,1,97.50000371933,8|8,0:3|0:0,0:0:0:0:
437,240,35033,5,2,0:0:0:0:
437,240,35189,2,0,P|451:150|455:132,1,97.50000371933,2|0,0:0|0:0,0:0:0:0:
507,81,35658,2,0,B|381:95|381:95|363:55|394:27,1,195,2|8,0:0|0:3,0:0:0:0:
286,122,36908,1,8,0:3:0:0:
286,122,37221,2,0,L|297:192,1,65,10|0,0:0|0:0,0:0:0:0:
200,321,37846,5,8,0:3:0:0:
137,287,38158,6,0,P|37:306|31:308,1,97.50000371933,2|8,0:0|0:0,0:0:0:0:
162,180,38783,1,10,0:3:0:0:
162,180,38939,2,0,L|267:197,1,97.50000371933,8|0,0:3|0:0,0:0:0:0:
321,150,39408,1,8,0:3:0:0:
321,150,39721,1,8,0:0:0:0:
90,29,40033,5,2,0:0:0:0:
90,29,40189,2,0,B|63:70|63:70|82:119,1,97.50000371933,2|0,0:0|0:0,0:0:0:0:
135,169,40658,2,0,B|269:144|269:144|235:163|238:206,1,195,2|8,0:0|0:3,0:0:0:0:
356,94,41908,5,8,0:3:0:0:
356,94,42012,2,0,L|367:143,1,43.3333333333333,8|8,0:3|0:3,0:0:0:0:
348,48,42221,5,8,0:1:0:0:
419,66,42377,1,8,0:1:0:0:
490,84,42533,1,8,0:3:0:0:
210,348,42846,5,12,0:3:0:0:
157,299,43158,6,0,L|311:282,1,130,2|8,0:0|0:0,0:0:0:0:
457,186,43783,1,2,0:0:0:0:
457,186,43939,2,0,P|384:202|334:153,1,130,10|10,0:3|0:3,0:0:0:0:
290,104,44408,1,10,0:3:0:0:
443,309,44721,1,8,0:0:0:0:
397,375,45033,1,0,0:0:0:0:
487,114,45346,5,8,0:3:0:0:
422,153,45658,6,0,B|334:169|334:169|275:136,1,130,2|8,0:0|0:0,0:0:0:0:
111,52,46283,1,2,0:0:0:0:
182,6,46439,2,0,L|203:160,1,130,10|10,0:3|0:3,0:0:0:0:
149,203,46908,1,10,0:3:0:0:
357,74,47221,1,8,0:0:0:0:
285,41,47533,1,0,0:0:0:0:
349,218,47767,5,0,0:0:0:0:
355,233,47846,1,8,0:3:0:0:
302,283,48158,6,0,P|250:248|187:256,1,130,2|8,0:0|0:0,0:0:0:0:
36,355,48783,1,2,0:0:0:0:
36,355,48939,2,0,B|58:321|58:321|34:214,1,130,10|10,0:3|0:3,0:0:0:0:
0,153,49408,1,10,0:3:0:0:
237,271,49721,1,8,0:0:0:0:
175,234,50033,5,2,0:0:0:0:
175,234,50189,2,0,B|229:249|248:202|301:215,1,130,2|2,0:0|0:0,0:0:0:0:
402,157,50658,2,0,P|347:101|307:120,1,130,2|8,0:0|0:0,0:0:0:0:
33,49,51439,5,8,0:3:0:0:
72,109,51752,5,8,0:3:0:0:
61,180,51908,1,8,0:3:0:0:
10,228,52221,5,10,0:0:0:0:
14,254,52377,1,8,0:3:0:0:
26,325,52533,5,8,0:0:0:0:
61,180,52689,1,8,0:0:0:0:
48,110,52846,5,12,0:3:0:0:
61,180,53158,6,0,P|131:198|196:137,1,130,2|8,0:0|0:0,0:0:0:0:
319,69,53783,1,2,0:0:0:0:
252,16,53939,2,0,L|274:170,1,130,10|10,0:3|0:3,0:0:0:0:
286,230,54408,1,10,0:3:0:0:
70,103,54721,1,8,0:0:0:0:
145,74,55033,1,0,0:0:0:0:
107,294,55346,5,8,0:3:0:0:
65,237,55658,6,0,B|154:253|154:253|193:236,1,130,2|8,0:0|0:0,0:0:0:0:
331,159,56283,1,2,0:0:0:0:
331,159,56439,2,0,P|284:119|184:171,1,130,10|10,0:3|0:3,0:0:0:0:
149,177,56908,1,10,0:3:0:0:
408,58,57221,1,8,0:0:0:0:
334,30,57533,1,0,0:0:0:0:
465,153,57767,5,0,0:0:0:0:
481,150,57846,1,8,0:3:0:0:
512,217,58158,6,0,B|455:205|441:250|386:238,1,130,2|8,0:0|0:0,0:0:0:0:
175,95,58783,1,2,0:0:0:0:
175,95,58939,2,0,P|240:94|304:86,1,130,2|10,0:3|0:3,0:0:0:0:
283,172,59408,1,10,0:3:0:0:
17,58,59721,1,8,0:0:0:0:
93,21,60033,6,0,L|106:103,1,65,2|0,0:2|0:0,0:0:0:0:
15,365,60346,5,8,0:3:0:0:
101,186,60658,1,8,0:3:0:0:
170,365,60971,5,8,0:3:0:0:
248,134,61283,1,8,0:3:0:0:
326,365,61596,5,8,0:3:0:0:
395,82,61908,1,8,0:3:0:0:
438,151,62064,5,8,0:3:0:0:
431,186,62142,1,8,0:3:0:0:
424,221,62221,1,10,0:3:0:0:
395,82,62377,1,8,0:0:0:0:
503,243,62533,1,8,0:3:0:0:
326,365,62689,1,8,0:3:0:0:
229,314,62846,6,0,B|128:320|128:320|102:286|135:252,1,168.999992263794,14|10,0:3|0:3,0:0:0:0:
256,138,63314,1,10,0:3:0:0:
167,110,63471,2,0,L|183:203,1,84.4999961318971,8|0,0:0|0:0,0:0:0:0:
326,365,63783,5,10,0:3:0:0:
471,333,63939,2,0,P|432:312|379:317,1,84.4999961318971,2|0,0:0|0:0,0:0:0:0:
235,235,64252,2,0,P|275:244|315:232,1,84.4999961318971,8|0,0:0|0:0,0:0:0:0:
434,147,64564,5,10,0:3:0:0:
423,117,64721,1,10,0:0:0:0:
458,78,64877,1,2,0:0:0:0:
421,172,65033,1,10,0:3:0:0:
377,12,65189,1,2,0:0:0:0:
377,12,65267,1,8,0:3:0:0:
377,12,65346,6,0,P|253:49|195:52,1,168.999992263794,10|10,0:3|0:3,0:0:0:0:
61,158,65814,1,10,0:3:0:0:
31,62,65971,2,0,P|73:58|113:72,1,84.4999961318971,8|0,0:0|0:0,0:0:0:0:
194,254,66283,5,10,0:3:0:0:
105,322,66439,2,0,P|98:256|90:227,1,84.4999961318971,10|0,0:3|0:0,0:0:0:0:
302,170,66752,2,0,P|293:211|290:253,1,84.4999961318971,8|8,0:0|0:3,0:0:0:0:
351,327,67064,1,8,0:3:0:0:
194,254,67221,1,10,0:0:0:0:
202,176,67533,1,10,0:3:0:0:
209,99,67767,1,8,0:3:0:0:
212,84,67846,6,0,B|100:68|100:68|132:94|125:145,1,168.999992263794,10|10,0:3|0:3,0:0:0:0:
292,200,68314,1,10,0:3:0:0:
213,259,68471,2,0,L|200:166,1,84.4999961318971,8|0,0:0|0:0,0:0:0:0:
384,87,68783,1,10,0:3:0:0:
301,26,68939,2,0,L|289:109,1,84.4999961318971,10|0,0:3|0:0,0:0:0:0:
413,353,69252,5,8,0:0:0:0:
428,338,69408,2,0,P|346:344|260:362,2,168.999992263794,10|10|10,0:3|0:0|0:3,0:0:0:0:
249,240,70189,1,0,0:0:0:0:
249,240,70267,1,8,0:3:0:0:
249,240,70346,6,0,P|198:273|71:242,1,168.999992263794,10|8,0:3|0:3,0:0:0:0:
36,91,70814,1,8,0:3:0:0:
0,193,70971,2,0,P|41:185|83:177,1,84.4999961318971,8|0,0:0|0:0,0:0:0:0:
267,245,71283,1,10,0:3:0:0:
180,305,71439,2,0,P|177:262|172:221,1,84.4999961318971,10|0,0:3|0:0,0:0:0:0:
361,131,71752,2,0,P|355:172|352:215,1,84.4999961318971,8|8,0:0|0:3,0:0:0:0:
216,83,72064,5,8,0:3:0:0:
142,105,72221,1,10,0:0:0:0:
69,127,72377,1,8,0:0:0:0:
144,80,72533,1,8,0:3:0:0:
93,233,72689,1,8,0:3:0:0:
93,233,72767,1,8,0:3:0:0:
93,233,72846,6,0,B|59:247|59:247|12:175|81:115,1,168.999992263794,14|10,0:3|0:3,0:0:0:0:
253,358,73314,1,10,0:3:0:0:
175,311,73471,2,0,B|105:290|80:351|11:335,1,168.999992263794,8|10,0:0|0:3,0:0:0:0:
281,343,73939,6,0,P|295:297|255:256,1,84.4999961318971,2|0,0:0|0:0,0:0:0:0:
139,123,74252,2,0,L|150:218,1,84.4999961318971,8|0,0:0|0:0,0:0:0:0:
67,322,74564,5,10,0:3:0:0:
265,157,74721,1,10,0:0:0:0:
286,162,74877,1,2,0:0:0:0:
326,137,75033,1,10,0:3:0:0:
324,76,75189,1,2,0:0:0:0:
324,76,75267,1,8,0:3:0:0:
324,76,75346,6,0,L|348:243,1,168.999992263794,10|10,0:3|0:3,0:0:0:0:
309,342,75814,1,10,0:3:0:0:
482,337,75971,2,0,P|422:303|392:312,1,84.4999961318971,8|0,0:0|0:0,0:0:0:0:
198,196,76283,1,10,0:3:0:0:
160,297,76439,2,0,L|266:278,1,84.4999961318971,10|0,0:3|0:0,0:0:0:0:
435,121,76752,5,8,0:0:0:0:
323,179,76908,1,8,0:3:0:0:
436,224,77064,1,8,0:3:0:0:
325,25,77221,1,10,0:0:0:0:
251,46,77533,1,10,0:3:0:0:
176,70,77767,1,8,0:3:0:0:
158,81,77846,6,0,B|84:67|84:67|39:91|53:146,1,168.999992263794,10|10,0:3|0:3,0:0:0:0:
209,187,78314,1,10,0:3:0:0:
129,287,78471,2,0,P|121:240|147:189,1,84.4999961318971,8|0,0:0|0:0,0:0:0:0:
260,112,78783,1,10,0:3:0:0:
381,178,78939,2,0,P|422:169|464:165,1,84.4999961318971,10|0,0:3|0:0,0:0:0:0:
290,354,79252,5,8,0:0:0:0:
275,330,79408,2,0,P|278:285|289:242,1,84.4999961318971,10|8,0:3|0:3,0:0:0:0:
180,157,79721,2,0,B|142:121|142:121|169:270,1,168.999992263794,10|10,0:0|0:3,0:0:0:0:
56,359,80189,1,0,0:0:0:0:
56,359,80267,1,8,0:3:0:0:
56,359,80346,6,0,P|16:294|86:204,1,168.999992263794,10|8,0:3|0:3,0:0:0:0:
221,108,80814,1,8,0:3:0:0:
118,65,80971,2,0,L|131:162,1,84.4999961318971,8|0,0:0|0:0,0:0:0:0:
266,316,81283,5,10,0:3:0:0:
344,261,81439,2,0,P|356:216|327:172,1,84.4999961318971,10|0,0:3|0:0,0:0:0:0:
222,16,81752,5,8,0:0:0:0:
244,166,81908,1,8,0:3:0:0:
266,316,82064,1,8,0:3:0:0:
200,281,82221,5,10,0:2:0:0:
173,291,82377,1,8,0:3:0:0:
116,357,82533,5,8,0:0:0:0:
128,149,82689,1,8,0:0:0:0:
0,258,82846,6,0,B|76:231|93:298|168:275,1,168.999992263794,12|8,0:3|0:3,0:0:0:0:
313,164,83314,1,8,0:3:0:0:
227,108,83471,2,0,P|213:139|216:191,2,84.4999961318971,8|0|8,0:0|0:0|0:3,0:0:0:0:
380,269,83939,6,0,P|337:271|296:279,1,84.4999961318971,10|2,0:3|0:0,0:0:0:0:
429,167,84252,1,8,0:0:0:0:
429,167,84408,2,0,L|533:189,1,84.4999961318971,2|10,0:0|0:3,0:0:0:0:
359,30,84721,2,0,B|323:114|323:114|354:148|347:188,1,168.999992263794,8|10,0:0|0:3,0:0:0:0:
263,186,85189,1,2,0:0:0:0:
263,186,85267,1,8,0:3:0:0:
263,186,85346,6,0,L|283:295,1,84.4999961318971,8|8,0:3|0:0,0:0:0:0:
388,195,85658,1,8,0:3:0:0:
182,138,85814,1,8,0:3:0:0:
182,138,85971,2,0,P|275:156|321:97,1,168.999992263794,8|12,0:0|0:0,0:0:0:0:
312,22,86439,1,8,0:3:0:0:
439,68,86596,5,10,0:3:0:0:
421,52,86752,2,0,B|396:25|396:25|414:190,1,168.999992263794,8|8,0:0|0:3,0:0:0:0:
419,240,87142,1,8,0:3:0:0:
425,278,87221,5,10,0:0:0:0:
269,152,87377,1,8,0:0:0:0:
410,156,87533,5,8,0:0:0:0:
294,343,87689,1,8,0:0:0:0:
309,238,87846,5,14,0:3:0:0:
256,192,87924,12,10,90346,0:3:0:0:
165,173,107846,5,12,0:3:0:0:
221,210,108158,6,0,P|269:203|317:197,1,97.50000371933,2|8,0:0|0:0,0:0:0:0:
451,68,108783,1,8,0:3:0:0:
451,68,108939,2,0,P|412:51|356:62,1,97.50000371933,8|0,0:3|0:0,0:0:0:0:
295,107,109408,2,0,B|276:65|276:65|292:16,1,97.50000371933,0|2,0:0|0:0,0:0:0:0:
433,180,110033,5,10,0:0:0:0:
433,179,110189,2,0,P|428:227|423:276,1,97.50000371933,2|0,0:0|0:0,0:0:0:0:
475,340,110658,2,0,B|359:308|359:308|315:331|333:372,1,195,2|8,0:0|0:3,0:0:0:0:
248,278,111908,1,0,0:0:0:0:
248,278,112221,2,0,P|236:247|247:202,1,65,8|0,0:3|0:0,0:0:0:0:
346,38,112846,5,10,0:3:0:0:
286,73,113158,6,0,P|241:81|177:44,1,97.50000371933,2|8,0:0|0:0,0:0:0:0:
340,185,113783,1,8,0:3:0:0:
340,185,113939,2,0,L|450:171,1,97.50000371933,8|0,0:3|0:0,0:0:0:0:
489,113,114408,2,0,B|451:79|451:79|409:99,1,97.50000371933,0|2,0:0|0:0,0:0:0:0:
259,278,115033,5,2,0:0:0:0:
259,278,115189,2,0,P|253:222|247:177,1,97.50000371933,2|0,0:0|0:0,0:0:0:0:
180,137,115658,2,0,B|71:158|129:218|27:245,1,195.00000743866,2|10,0:0|0:3,0:0:0:0:
295,362,116908,6,0,L|307:279,2,43.3333333333333,8|8|8,0:3|0:3|0:3,0:0:0:0:
242,248,117221,5,8,0:1:0:0:
313,221,117377,1,8,0:1:0:0:
170,273,117533,1,8,0:3:0:0:
450,353,117846,5,12,0:3:0:0:
492,298,118158,6,0,P|502:252|477:197,1,97.50000371933,2|8,0:0|0:0,0:0:0:0:
321,111,118783,1,10,0:3:0:0:
321,111,118939,2,0,L|336:238,1,97.50000371933,8|0,0:3|0:0,0:0:0:0:
294,274,119408,2,0,P|341:286|385:266,1,97.50000371933,10|8,0:3|0:0,0:0:0:0:
185,181,120033,5,2,0:0:0:0:
185,181,120189,2,0,L|87:197,1,97.50000371933,2|2,0:0|0:0,0:0:0:0:
33,141,120658,2,0,B|71:111|71:111|123:122,1,97.50000371933,2|8,0:0|0:0,0:0:0:0:
178,73,121127,1,0,0:0:0:0:
178,73,121283,2,0,P|174:45|165:14,1,48.750001859665,0|8,0:0|0:3,0:0:0:0:
274,115,121596,2,0,P|268:138|264:162,1,48.750001859665,2|8,0:0|0:0,0:0:0:0:
306,229,121908,1,8,0:3:0:0:
100,149,122221,1,10,0:0:0:0:
169,120,122533,5,0,0:3:0:0:
171,141,122611,1,0,0:3:0:0:
173,162,122689,1,0,0:3:0:0:
46,277,122846,5,8,0:3:0:0:
102,320,123158,6,0,L|200:308,1,97.50000371933,2|8,0:0|0:0,0:0:0:0:
394,369,123783,1,10,0:3:0:0:
394,369,123939,2,0,P|409:323|381:275,1,97.50000371933,8|0,0:3|0:0,0:0:0:0:
324,238,124408,1,10,0:3:0:0:
324,238,124721,1,8,0:0:0:0:
482,81,125033,5,2,0:0:0:0:
482,81,125189,2,0,L|376:68,1,97.50000371933,2|2,0:0|0:0,0:0:0:0:
324,21,125658,2,0,B|301:66|301:66|317:109,1,97.50000371933,2|10,0:0|0:0,0:0:0:0:
370,169,126127,2,0,L|451:158,1,48.750001859665,2|0,0:0|0:0,0:0:0:0:
314,246,126439,2,0,L|233:235,1,48.750001859665,10|2,0:3|0:0,0:0:0:0:
191,292,126752,1,8,0:2:0:0:
273,357,126908,1,8,0:3:0:0:
80,197,127064,5,8,0:2:0:0:
84,175,127142,1,8,0:2:0:0:
88,153,127221,1,10,0:2:0:0:
43,93,127377,1,8,0:3:0:0:
46,264,127533,5,8,0:0:0:0:
43,93,127689,1,8,0:0:0:0:
203,178,127846,5,12,0:3:0:0:
259,224,128158,6,0,P|319:242|379:220,1,130,2|8,0:0|0:0,0:0:0:0:
466,46,128783,1,2,0:0:0:0:
512,117,128939,2,0,B|426:129|426:129|371:90,1,130,10|10,0:3|0:3,0:0:0:0:
328,53,129408,1,10,0:3:0:0:
512,236,129721,1,8,0:0:0:0:
440,273,130033,1,0,0:0:0:0:
76,157,130346,5,8,0:3:0:0:
131,202,130658,6,0,B|177:219|208:166|255:184,1,130,2|8,0:0|0:0,0:0:0:0:
462,66,131283,1,2,0:0:0:0:
382,29,131439,2,0,L|396:159,1,130,10|10,0:3|0:3,0:0:0:0:
410,245,131908,1,10,0:3:0:0:
164,122,132221,1,8,0:0:0:0:
240,96,132533,1,0,0:0:0:0:
198,334,132767,5,0,0:0:0:0:
192,318,132846,1,8,0:3:0:0:
132,274,133158,6,0,P|70:266|25:310,1,130,2|8,0:0|0:0,0:0:0:0:
194,220,133783,1,2,0:0:0:0:
136,161,133939,2,0,P|141:97|147:32,1,130,2|10,0:3|0:3,0:0:0:0:
223,0,134408,1,10,0:3:0:0:
8,159,134721,1,8,0:0:0:0:
35,222,135033,5,2,0:0:0:0:
35,222,135189,2,0,P|94:174|152:199,1,130,2|2,0:0|0:0,0:0:0:0:
239,290,135658,2,0,B|150:314|150:314|113:295,1,130,2|8,0:0|0:0,0:0:0:0:
434,364,136439,5,8,0:3:0:0:
395,304,136752,5,8,0:3:0:0:
406,233,136908,1,8,0:3:0:0:
457,185,137221,5,10,0:0:0:0:
453,159,137377,1,8,0:3:0:0:
441,88,137533,5,8,0:3:0:0:
406,233,137689,1,8,0:3:0:0:
419,303,137846,5,12,0:3:0:0:
364,349,138158,6,0,B|315:339|315:339|288:355|288:355|239:348,1,130,2|8,0:0|0:0,0:0:0:0:
136,201,138783,1,2,0:0:0:0:
83,268,138939,2,0,P|143:286|200:257,1,130,10|10,0:3|0:3,0:0:0:0:
244,184,139408,1,10,0:3:0:0:
3,28,139721,1,8,0:0:0:0:
18,106,140033,1,0,0:0:0:0:
3,364,140346,5,8,0:3:0:0:
50,311,140658,6,0,B|66:278|66:278|47:186,1,130,2|8,0:0|0:0,0:0:0:0:
226,134,141283,1,2,0:0:0:0:
164,76,141439,2,0,P|158:140|153:205,1,130,10|10,0:3|0:3,0:0:0:0:
215,263,141908,1,10,0:3:0:0:
0,164,142221,1,8,0:0:0:0:
35,94,142533,1,0,0:0:0:0:
124,320,142767,5,0,0:0:0:0:
121,339,142846,1,8,0:3:0:0:
182,377,143158,6,0,P|244:371|329:366,1,130,2|8,0:0|0:0,0:0:0:0:
474,214,143783,1,2,0:0:0:0:
411,267,143939,2,0,P|351:278|283:223,1,130,2|10,0:3|0:3,0:0:0:0:
235,184,144408,1,10,0:3:0:0:
433,377,144721,1,8,0:0:0:0:
491,322,145033,6,0,P|496:279|482:245,1,65,2|0,0:0|0:0,0:0:0:0:
362,90,145346,5,8,0:3:0:0:
111,142,145658,1,8,0:3:0:0:
411,282,145971,5,8,0:3:0:0:
74,237,146283,1,8,0:3:0:0:
123,298,146439,5,0,0:0:0:0:
125,310,146517,1,8,0:0:0:0:
127,322,146596,1,8,0:0:0:0:
207,97,146752,1,8,0:0:0:0:
256,163,146908,2,0,L|245:250,1,65,8|4,0:3|0:3,0:0:0:0:
318,52,147221,5,10,0:0:0:0:
348,82,147325,2,0,P|376:90|396:89,1,43.3333333333333,8|8,0:0|0:3,0:0:0:0:
489,195,147533,5,8,0:3:0:0:
459,225,147637,2,0,P|431:233|411:232,1,43.3333333333333,4|12,0:3|0:3,0:0:0:0:
309,345,147846,6,0,B|212:319|212:319|163:338|177:394,1,168.999992263794,14|10,0:3|0:3,0:0:0:0:
49,210,148314,1,10,0:3:0:0:
15,311,148471,2,0,P|58:314|99:306,1,84.4999961318971,8|0,0:0|0:0,0:0:0:0:
234,210,148783,5,10,0:3:0:0:
182,98,148939,2,0,P|156:135|160:180,1,84.4999961318971,2|0,0:0|0:0,0:0:0:0:
284,321,149252,2,0,P|308:287|308:246,1,84.4999961318971,8|0,0:0|0:0,0:0:0:0:
153,360,149564,5,10,0:3:0:0:
125,327,149721,1,10,0:0:0:0:
78,312,149877,1,2,0:0:0:0:
14,323,150033,1,10,0:3:0:0:
130,236,150189,1,2,0:0:0:0:
130,236,150267,1,8,0:3:0:0:
130,236,150346,6,0,B|114:113|114:113|78:163,1,168.999992263794,10|10,0:3|0:3,0:0:0:0:
283,114,150814,1,10,0:3:0:0:
189,11,150971,2,0,P|195:52|199:94,1,84.4999961318971,8|0,0:0|0:0,0:0:0:0:
352,157,151283,5,10,0:3:0:0:
423,209,151439,2,0,P|466:213|506:193,1,84.4999961318971,10|0,0:3|0:0,0:0:0:0:
364,295,151752,2,0,P|325:277|284:281,1,84.4999961318971,8|8,0:0|0:3,0:0:0:0:
223,335,152064,1,8,0:3:0:0:
87,141,152221,1,10,0:0:0:0:
101,218,152533,1,10,0:3:0:0:
115,296,152767,1,8,0:3:0:0:
118,317,152846,6,0,B|58:342|7:305|7:305|45:228,1,168.999992263794,10|10,0:3|0:3,0:0:0:0:
195,155,153314,1,10,0:3:0:0:
113,117,153471,2,0,L|119:215,1,84.4999961318971,8|0,0:0|0:0,0:0:0:0:
255,101,153783,1,10,0:3:0:0:
131,35,153939,2,0,P|86:43|29:31,1,84.4999961318971,10|0,0:3|0:0,0:0:0:0:
245,195,154252,5,8,0:0:0:0:
231,182,154408,2,0,L|256:13,2,168.999992263794,10|10|10,0:3|0:0|0:3,0:0:0:0:
344,337,155189,1,0,0:0:0:0:
344,337,155267,1,8,0:3:0:0:
344,337,155346,6,0,B|393:303|434:324|434:324|468:370|529:352,1,168.999992263794,10|8,0:3|0:3,0:0:0:0:
381,201,155814,1,8,0:3:0:0:
481,168,155971,2,0,L|470:268,1,84.4999961318971,8|0,0:0|0:0,0:0:0:0:
346,57,156283,1,10,0:3:0:0:
429,106,156439,2,0,P|470:109|509:94,1,84.4999961318971,10|0,0:3|0:0,0:0:0:0:
258,27,156752,2,0,P|216:33|174:39,1,84.4999961318971,8|8,0:0|0:3,0:0:0:0:
38,213,157064,5,8,0:3:0:0:
111,150,157221,1,10,0:0:0:0:
26,69,157377,1,8,0:0:0:0:
95,134,157533,1,8,0:3:0:0:
22,248,157689,1,8,0:3:0:0:
22,248,157767,1,8,0:3:0:0:
22,248,157846,6,0,B|88:268|116:189|180:209,1,168.999992263794,14|10,0:3|0:3,0:0:0:0:
328,100,158314,1,10,0:3:0:0:
264,42,158471,2,0,B|229:139|229:139|256:157|264:193,1,168.999992263794,8|10,0:0|0:3,0:0:0:0:
359,260,158939,6,0,P|424:251|452:260,1,84.4999961318971,2|0,0:0|0:0,0:0:0:0:
232,357,159252,2,0,P|167:348|139:357,1,84.4999961318971,8|0,0:0|0:0,0:0:0:0:
12,177,159564,5,10,0:3:0:0:
102,154,159721,1,10,0:0:0:0:
124,244,159877,1,2,0:0:0:0:
34,267,160033,1,10,0:3:0:0:
184,183,160189,1,2,0:0:0:0:
184,183,160267,1,8,0:3:0:0:
184,183,160346,6,0,P|297:203|357:205,1,168.999992263794,10|10,0:3|0:3,0:0:0:0:
488,65,160814,1,10,0:3:0:0:
391,36,160971,2,0,L|407:118,1,84.4999961318971,8|0,0:0|0:0,0:0:0:0:
255,222,161283,1,10,0:3:0:0:
334,286,161439,2,0,P|339:245|350:204,1,84.4999961318971,10|0,0:3|0:0,0:0:0:0:
207,12,161752,5,8,0:0:0:0:
255,222,161908,1,8,0:3:0:0:
120,143,162064,1,8,0:3:0:0:
303,75,162221,1,10,0:0:0:0:
377,99,162533,1,10,0:3:0:0:
451,124,162767,1,8,0:3:0:0:
465,133,162846,6,0,P|433:55|359:95,1,168.999992263794,10|10,0:3|0:3,0:0:0:0:
282,217,163314,1,10,0:3:0:0:
211,141,163471,2,0,P|253:132|294:124,1,84.4999961318971,8|0,0:0|0:0,0:0:0:0:
169,233,163783,1,10,0:3:0:0:
74,136,163939,2,0,P|63:103|83:53,1,84.4999961318971,10|0,0:3|0:0,0:0:0:0:
169,233,164252,5,8,0:0:0:0:
153,248,164408,2,0,P|110:252|69:260,1,84.4999961318971,10|8,0:3|0:3,0:0:0:0:
249,170,164721,2,0,B|316:184|316:184|331:211|331:211|397:230,1,168.999992263794,10|10,0:0|0:3,0:0:0:0:
494,53,165189,1,0,0:0:0:0:
494,53,165267,1,8,0:3:0:0:
494,53,165346,6,0,B|371:70|371:70|404:75|418:124,1,168.999992263794,10|8,0:3|0:3,0:0:0:0:
314,181,165814,1,8,0:3:0:0:
240,109,165971,2,0,P|243:66|246:24,1,84.4999961318971,8|0,0:0|0:0,0:0:0:0:
89,207,166283,5,10,0:3:0:0:
23,133,166439,2,0,P|65:126|106:115,1,84.4999961318971,10|0,0:3|0:0,0:0:0:0:
232,312,166752,5,8,0:0:0:0:
89,207,166908,1,8,0:3:0:0:
275,148,167064,1,8,0:3:0:0:
178,53,167221,5,10,0:2:0:0:
186,85,167377,1,8,0:3:0:0:
197,164,167533,5,8,0:0:0:0:
161,369,167689,1,8,0:0:0:0:
232,312,167846,6,0,B|293:290|345:318|345:318|370:304|376:268,1,168.999992263794,12|8,0:3|0:3,0:0:0:0:
236,178,168314,1,8,0:3:0:0:
340,113,168471,2,0,P|331:151|321:225,2,84.4999961318971,8|0|8,0:0|0:0|0:3,0:0:0:0:
196,249,168939,6,0,L|208:332,1,84.4999961318971,10|2,0:3|0:0,0:0:0:0:
14,232,169252,1,8,0:0:0:0:
14,232,169408,2,0,P|56:239|108:201,1,84.4999961318971,2|10,0:0|0:3,0:0:0:0:
217,127,169721,2,0,B|181:99|181:99|206:219,1,168.999992263794,8|10,0:0|0:3,0:0:0:0:
409,196,170189,1,2,0:0:0:0:
409,196,170267,1,8,0:3:0:0:
409,196,170346,6,0,L|321:182,1,84.4999961318971,8|8,0:3|0:0,0:0:0:0:
351,280,170658,1,8,0:3:0:0:
498,175,170814,1,8,0:3:0:0:
498,175,170971,2,0,B|520:139|515:98|483:65|483:65|424:103,1,168.999992263794,8|12,0:0|0:0,0:0:0:0:
368,147,171439,1,8,0:3:0:0:
213,61,171596,5,10,0:3:0:0:
230,73,171752,2,0,P|309:22|384:44,1,168.999992263794,8|8,0:0|0:3,0:0:0:0:
442,91,172142,1,8,0:3:0:0:
419,101,172221,5,10,0:0:0:0:
459,290,172377,1,8,0:0:0:0:
512,233,172533,5,8,0:0:0:0:
267,346,172689,1,8,0:0:0:0:
338,378,172846,5,12,0:3:0:0:
113,100,173158,5,8,0:3:0:0:
113,100,173314,1,8,0:3:0:0:
113,100,173471,2,0,B|12:117|12:117|-10:83|25:58,1,149.500002851486,10|10,0:0|0:3,0:0:0:0:
176,26,173939,2,0,P|164:99|152:173,1,149.500002851486,10|8,0:3|0:0,0:0:0:0:
245,306,174408,1,2,0:3:0:0:
245,306,174564,6,0,B|282:322|282:322|326:252|244:210,1,149.500002851486,10|2,0:3|0:0,0:0:0:0:
152,173,175033,2,0,P|96:178|40:184,1,112.125002138615,8|0,0:3|0:0,0:0:0:0:
26,173,175346,6,0,P|2:137|72:62,1,149.500002851486,10|8,0:3|0:3,0:0:0:0:
91,248,175814,1,8,0:3:0:0:
91,248,175971,2,0,P|20:262|-1:270,1,74.7500014257431,8|0,0:0|0:0,0:0:0:0:
123,167,176283,1,8,0:3:0:0:
198,280,176439,1,10,0:3:0:0:
198,279,176596,6,0,L|206:204,1,74.7500014257431,2|8,0:0|0:0,0:0:0:0:
154,76,176908,1,10,0:3:0:0:
88,131,177064,2,0,B|147:147|172:84|229:101,1,149.500002851486,10|0,0:3|0:0,0:0:0:0:
312,139,177533,2,0,P|324:93|303:57,1,74.7500014257431,10|2,0:3|0:3,0:0:0:0:
244,234,177846,6,0,P|318:222|393:215,1,149.500002851486,8|8,0:3|0:3,0:0:0:0:
500,95,178314,1,8,0:3:0:0:
413,132,178471,2,0,P|376:131|342:117,1,74.7500014257431,8|0,0:0|0:0,0:0:0:0:
479,225,178783,1,0,0:3:0:0:
400,289,178939,1,10,0:3:0:0:
400,289,179096,6,0,L|390:184,1,74.7500014257431,2|8,0:0|0:2,0:0:0:0:
486,304,179408,1,2,0:0:0:0:
368,361,179564,2,0,B|321:328|260:342|260:342|234:379,1,149.500002851486,10|0,0:3|0:0,0:0:0:0:
114,279,180033,2,0,P|163:298|231:259,1,112.125002138615,10|0,0:3|0:0,0:0:0:0:
227,259,180346,6,0,P|218:184|207:110,1,149.500002851486,10|0,0:3|0:3,0:0:0:0:
316,42,180814,1,8,0:3:0:0:
296,190,180971,1,8,0:0:0:0:
296,190,181283,1,8,0:3:0:0:
296,190,181439,1,10,0:3:0:0:
366,237,181596,6,0,P|409:240|445:210,1,74.7500014257431,2|8,0:0|0:0,0:0:0:0:
218,154,181908,2,0,L|119:169,1,74.7500014257431,10|10,0:3|0:3,0:0:0:0:
30,278,182221,5,8,0:0:0:0:
26,298,182377,1,8,0:0:0:0:
166,366,182533,5,8,0:3:0:0:
153,293,182689,1,8,0:3:0:0:
284,216,182846,5,12,0:3:0:0:
64,32,183158,1,8,0:3:0:0:
64,32,183314,1,8,0:3:0:0:
64,32,183471,2,0,B|78:138|78:138|81:108|119:89,1,149.500002851486,10|10,0:0|0:3,0:0:0:0:
152,243,183939,2,0,B|83:217|83:217|17:255,1,149.500002851486,10|8,0:3|0:0,0:0:0:0:
228,148,184408,5,2,0:3:0:0:
228,148,184564,2,0,B|312:164|312:164|349:132|321:84,1,149.500002851486,10|2,0:3|0:0,0:0:0:0:
127,23,185033,2,0,L|144:164,1,112.125002138615,8|0,0:3|0:0,0:0:0:0:
143,156,185346,6,0,P|80:130|27:198,1,149.500002851486,10|8,0:3|0:3,0:0:0:0:
208,208,185814,1,8,0:3:0:0:
271,156,185971,2,0,L|254:-8,1,149.500002851486,8|8,0:0|0:3,0:0:0:0:
377,148,186439,5,10,0:3:0:0:
377,148,186596,2,0,L|364:245,1,74.7500014257431,2|8,0:0|0:0,0:0:0:0:
463,102,186908,1,10,0:3:0:0:
378,61,187064,2,0,B|290:74|335:117|251:130,1,149.500002851486,10|0,0:3|0:0,0:0:0:0:
108,34,187533,2,0,L|247:53,1,112.125002138615,10|0,0:3|0:0,0:0:0:0:
231,59,187846,6,0,P|195:119|106:110,1,149.500002851486,10|8,0:3|0:3,0:0:0:0:
21,55,188314,1,8,0:3:0:0:
4,231,188471,6,0,B|60:219|60:219|92:240|92:240|158:228,1,149.500002851486,10|10,0:2|0:3,0:0:0:0:
273,131,188939,2,0,B|231:105|231:105|268:233,1,149.500002851486,10|8,0:3|0:0,0:0:0:0:
348,292,189408,1,2,0:0:0:0:
348,292,189564,2,0,P|367:236|344:208,1,74.7500014257431,10|8,0:3|0:0,0:0:0:0:
212,147,189877,2,0,P|125:173|42:181,1,149.500002851486,2|0,0:0|0:0,0:0:0:0:
8,85,190346,5,8,0:3:0:0:
52,321,190658,1,8,0:3:0:0:
256,32,190971,5,8,0:3:0:0:
256,352,191283,1,8,0:3:0:0:
504,85,191596,5,8,0:3:0:0:
460,321,191908,1,0,0:3:0:0:
410,248,192064,5,8,0:0:0:0:
418,206,192142,1,8,0:0:0:0:
427,164,192221,1,8,0:3:0:0:
339,86,192377,1,8,0:0:0:0:
352,166,192533,1,8,0:3:0:0:
352,166,192689,1,8,0:3:0:0:
404,41,192846,5,4,1:1:0:0:
339,86,193158,5,2,0:0:0:0:
278,48,193314,2,0,P|247:56|215:62,1,65,2|0,0:0|0:0,0:0:0:0:
153,32,193783,1,2,0:0:0:0:
153,32,193939,2,0,P|116:79|130:116,1,97.5,2|0,0:0|0:0,0:0:0:0:
193,201,194564,5,2,0:0:0:0:
126,185,194721,1,2,0:0:0:0:
66,218,194877,1,2,0:0:0:0:
42,281,195033,1,2,0:0:0:0:
76,339,195189,1,2,0:0:0:0:
135,373,195346,6,0,P|167:369|199:366,1,65,2|0,0:0|0:0,0:0:0:0:
263,314,195814,2,0,L|195:306,1,65,2|0,0:0|0:0,0:0:0:0:
318,380,196283,1,2,0:0:0:0:
372,335,196439,2,0,P|430:324|465:358,1,97.5,2|0,0:0|0:0,0:0:0:0:
496,236,197221,5,2,0:0:0:0:
437,162,197533,1,2,0:0:0:0:
235,130,197846,1,2,0:0:0:0:
235,130,198158,5,2,0:0:0:0:
185,178,198314,2,0,P|150:181|119:169,1,65,2|0,0:0|0:0,0:0:0:0:
20,59,198783,5,2,0:0:0:0:
70,107,198939,2,0,P|100:107|135:90,1,65,2|0,0:0|0:0,0:0:0:0:
218,21,199408,5,2,0:0:0:0:
363,54,199721,1,2,0:0:0:0:
330,200,200033,1,2,0:0:0:0:
182,165,200346,6,0,B|121:154|118:207|60:196,1,130,2|0,0:0|0:0,0:0:0:0:
150,83,201283,1,2,0:0:0:0:
304,17,201439,6,0,P|289:100|275:183,1,168.999992263794,14|8,2:2|0:3,0:0:0:0:
375,369,201908,1,8,0:3:0:0:
301,326,202064,5,8,0:0:0:0:
250,328,202142,1,8,0:0:0:0:
198,332,202221,1,10,0:0:0:0:
31,221,202377,1,8,0:0:0:0:
131,235,202533,1,8,0:0:0:0:
230,251,202689,1,8,0:0:0:0:
67,380,202846,6,0,P|40:335|101:219,1,168.999992263794,14|10,0:3|0:3,0:0:0:0:
241,119,203314,1,10,0:3:0:0:
136,55,203471,2,0,L|149:168,1,84.4999961318971,8|0,0:0|0:0,0:0:0:0:
286,304,203783,5,10,0:3:0:0:
157,240,203939,2,0,P|197:218|242:231,1,84.4999961318971,2|0,0:0|0:0,0:0:0:0:
402,157,204252,2,0,P|361:163|325:142,1,84.4999961318971,8|0,0:0|0:0,0:0:0:0:
227,378,204564,5,10,0:3:0:0:
271,383,204721,1,10,0:0:0:0:
335,362,204877,1,2,0:0:0:0:
392,314,205033,1,10,0:3:0:0:
412,241,205189,1,2,0:0:0:0:
412,241,205267,1,8,0:3:0:0:
412,241,205346,6,0,P|330:261|247:270,1,168.999992263794,10|10,0:3|0:3,0:0:0:0:
114,124,205814,1,10,0:3:0:0:
52,206,205971,2,0,P|100:205|143:216,1,84.4999961318971,8|0,0:0|0:0,0:0:0:0:
255,129,206283,1,10,0:3:0:0:
156,47,206440,2,0,P|198:48|239:39,1,84.4999961318971,10|0,0:3|0:0,0:0:0:0:
357,109,206752,5,8,0:0:0:0:
316,245,206908,1,8,0:3:0:0:
421,74,207064,1,8,0:3:0:0:
211,167,207221,1,10,0:0:0:0:
222,244,207533,1,10,0:3:0:0:
232,322,207767,1,8,0:3:0:0:
234,341,207846,6,0,B|118:324|118:324|145:344|139:375,1,168.999992263794,10|10,0:3|0:3,0:0:0:0:
54,160,208314,1,10,0:3:0:0:
4,259,208471,2,0,P|45:251|87:244,1,84.4999961318971,8|0,0:0|0:0,0:0:0:0:
245,160,208783,1,10,0:3:0:0:
169,105,208939,2,0,P|150:144|170:206,1,84.4999961318971,10|0,0:3|0:0,0:0:0:0:
295,337,209252,5,8,0:0:0:0:
312,324,209408,2,0,B|378:333|378:333|402:364|402:364|478:378,2,168.999992263794,10|10|10,0:3|0:0|0:3,0:0:0:0:
136,382,210189,1,0,0:0:0:0:
136,382,210267,1,8,0:3:0:0:
136,382,210346,6,0,B|165:330|165:330|131:188,1,168.999992263794,10|8,0:3|0:3,0:0:0:0:
30,76,210814,1,8,0:3:0:0:
0,180,210971,2,0,L|98:160,1,84.4999961318971,8|0,0:0|0:0,0:0:0:0:
233,31,211283,5,10,0:3:0:0:
217,19,211439,2,0,P|209:60|201:102,1,84.4999961318971,10|0,0:3|0:0,0:0:0:0:
291,269,211752,5,8,0:0:0:0:
456,199,211908,1,8,0:3:0:0:
289,136,212064,1,8,0:3:0:0:
386,88,212221,5,10,0:0:0:0:
378,59,212377,1,8,0:3:0:0:
451,15,212533,5,8,0:2:0:0:
456,199,212689,1,8,0:2:0:0:
364,167,212846,6,0,B|262:176|313:224|215:235,1,168.999992263794,12|8,0:3|0:3,0:0:0:0:
76,121,213314,1,8,0:3:0:0:
177,78,213471,2,0,P|167:119|159:160,2,84.4999961318971,8|0|8,0:0|0:0|0:3,0:0:0:0:
14,235,213939,6,0,P|55:208|103:219,1,84.4999961318971,10|2,0:3|0:0,0:0:0:0:
240,99,214252,1,8,0:0:0:0:
240,99,214408,2,0,P|196:113|154:89,1,84.4999961318971,2|10,0:0|0:3,0:0:0:0:
234,235,214721,2,0,B|320:202|320:202|365:222|356:269,1,168.999992263794,8|10,0:0|0:3,0:0:0:0:
500,182,215189,1,2,0:0:0:0:
500,182,215267,1,8,0:3:0:0:
500,182,215346,6,0,P|455:199|407:179,1,84.4999961318971,8|8,0:3|0:0,0:0:0:0:
326,130,215658,1,8,0:3:0:0:
234,235,215814,1,8,0:3:0:0:
234,235,215971,2,0,L|220:140,1,84.4999961318971,8|0,0:0|0:0,0:0:0:0:
405,62,216283,1,12,0:0:0:0:
329,2,216439,2,0,P|321:43|315:85,1,84.4999961318971,8|10,0:3|0:3,0:0:0:0:
382,352,216752,5,8,0:0:0:0:
465,282,216908,2,0,P|477:233|431:197,1,84.4999961318971,8|8,0:3|0:3,0:0:0:0:
380,166,217142,1,8,0:3:0:0:
366,172,217221,5,10,0:0:0:0:
313,150,217325,5,8,0:3:0:0:
258,162,217429,5,8,0:3:0:0:
221,204,217533,5,10,0:3:0:0:
172,232,217637,5,8,0:3:0:0:
115,229,217741,5,8,0:3:0:0:
74,189,217846,6,0,B|106:202|106:202|150:139|86:78,1,168.999992263794,14|10,0:3|0:3,0:0:0:0:
5,245,218314,1,10,0:3:0:0:
68,311,218471,2,0,B|139:327|158:256|227:273,1,168.999992263794,8|10,0:0|0:3,0:0:0:0:
376,181,218939,6,0,P|330:182|278:170,1,84.4999961318971,2|0,0:0|0:0,0:0:0:0:
428,322,219252,2,0,P|475:303|524:316,1,84.4999961318971,8|0,0:0|0:0,0:0:0:0:
285,378,219564,5,10,0:3:0:0:
233,229,219721,1,10,0:0:0:0:
283,300,219877,1,2,0:0:0:0:
331,229,220033,1,10,0:3:0:0:
176,348,220189,1,2,0:0:0:0:
176,348,220267,1,8,0:3:0:0:
176,348,220346,6,0,P|91:364|0:367,1,168.999992263794,10|10,0:3|0:3,0:0:0:0:
88,276,220814,1,10,0:3:0:0:
0,207,220971,2,0,P|37:211|88:191,1,84.4999961318971,8|0,0:0|0:0,0:0:0:0:
275,66,221283,5,10,0:3:0:0:
174,23,221439,2,0,P|185:83|188:120,1,84.4999961318971,10|0,0:3|0:0,0:0:0:0:
359,192,221752,2,0,P|363:150|372:108,1,84.4999961318971,8|8,0:0|0:3,0:0:0:0:
425,31,222064,1,8,0:3:0:0:
250,168,222221,1,10,0:0:0:0:
262,245,222533,1,10,0:3:0:0:
272,323,222767,1,8,0:3:0:0:
275,340,222846,6,0,B|226:306|185:327|185:327|151:373|90:355,1,168.999992263794,10|10,0:3|0:3,0:0:0:0:
41,177,223314,1,10,0:3:0:0:
0,262,223471,2,0,P|65:268|107:241,1,84.4999961318971,8|0,0:0|0:0,0:0:0:0:
246,157,223783,1,10,0:3:0:0:
169,108,223939,2,0,L|158:201,1,84.4999961318971,10|0,0:3|0:0,0:0:0:0:
299,338,224252,5,8,0:0:0:0:
314,326,224408,2,0,P|397:337|480:352,2,168.999992263794,10|10|10,0:3|0:0|0:3,0:0:0:0:
135,384,225189,1,0,0:0:0:0:
135,384,225267,1,8,0:3:0:0:
135,384,225346,6,0,P|112:335|155:213,1,168.999992263794,10|8,0:3|0:3,0:0:0:0:
267,85,225814,1,8,0:3:0:0:
307,178,225971,2,0,P|263:174|207:170,1,84.4999961318971,8|0,0:0|0:0,0:0:0:0:
372,250,226283,1,10,0:3:0:0:
440,160,226439,2,0,P|445:117|429:73,1,84.4999961318971,10|0,0:3|0:0,0:0:0:0:
279,223,226752,2,0,P|273:264|286:304,1,84.4999961318971,8|8,0:0|0:3,0:0:0:0:
359,126,227064,5,8,0:3:0:0:
283,146,227221,1,10,0:0:0:0:
194,122,227377,1,8,0:0:0:0:
176,33,227533,1,8,0:3:0:0:
218,218,227689,1,8,0:3:0:0:
218,218,227767,1,8,0:3:0:0:
218,218,227846,6,0,B|156:224|156:224|128:261|128:261|68:268,1,168.999992263794,14|10,0:3|0:3,0:0:0:0:
281,319,228314,1,10,0:3:0:0:
203,381,228471,2,0,P|200:338|196:296,1,84.4999961318971,8|0,0:0|0:0,0:0:0:0:
384,219,228783,5,10,0:3:0:0:
298,164,228940,2,0,P|295:203|291:248,1,84.4999961318971,2|0,0:0|0:0,0:0:0:0:
433,378,229252,2,0,P|446:335|418:293,1,84.4999961318971,8|0,0:0|0:0,0:0:0:0:
291,249,229564,5,10,0:3:0:0:
261,265,229721,1,10,0:0:0:0:
309,285,229877,1,2,0:0:0:0:
257,232,230033,1,10,0:3:0:0:
204,360,230189,1,2,0:0:0:0:
204,360,230267,1,8,0:3:0:0:
204,360,230346,6,0,B|279:376|297:313|366:334,1,168.999992263794,10|10,0:3|0:3,0:0:0:0:
467,152,230814,1,10,0:3:0:0:
509,239,230971,2,0,L|341:217,1,168.999992263794,8|10,0:0|0:3,0:0:0:0:
175,126,231439,6,0,P|189:163|194:217,1,84.4999961318971,10|0,0:3|0:0,0:0:0:0:
349,28,231752,2,0,P|335:65|330:119,1,84.4999961318971,8|8,0:0|0:3,0:0:0:0:
425,83,232064,1,8,0:3:0:0:
181,36,232221,1,10,0:0:0:0:
112,70,232533,1,10,0:3:0:0:
41,105,232767,1,8,0:3:0:0:
26,116,232846,6,0,B|58:88|58:88|43:216,1,168.999992263794,10|10,0:3|0:3,0:0:0:0:
198,275,233314,1,10,0:3:0:0:
119,371,233471,2,0,L|110:279,1,84.4999961318971,8|0,0:0|0:0,0:0:0:0:
277,147,233783,1,10,0:3:0:0:
196,92,233939,2,0,L|187:184,1,84.4999961318971,10|0,0:3|0:0,0:0:0:0:
306,315,234252,5,8,0:0:0:0:
320,329,234408,2,0,P|367:318|409:334,1,84.4999961318971,10|8,0:3|0:3,0:0:0:0:
205,264,234721,2,0,B|100:288|100:288|61:246|107:213,1,168.999992263794,10|10,0:0|0:3,0:0:0:0:
239,366,235189,1,0,0:0:0:0:
239,366,235267,1,8,0:3:0:0:
239,365,235346,6,0,P|246:281|257:198,1,168.999992263794,10|8,0:3|0:3,0:0:0:0:
330,98,235814,1,8,0:3:0:0:
122,219,235971,1,8,0:0:0:0:
163,284,236283,5,10,0:3:0:0:
247,81,236439,2,0,B|208:58|208:58|157:111|198:180,1,168.999992263794,10|8,0:3|0:0,0:0:0:0:
276,231,236908,1,8,0:3:0:0:
92,157,237064,1,8,0:3:0:0:
247,81,237221,2,0,P|291:71|343:89,1,84.4999961318971,10|8,0:2|0:3,0:0:0:0:
444,217,237533,5,8,0:0:0:0:
488,49,237689,1,8,0:0:0:0:
366,273,237846,6,0,P|413:309|518:278,1,168.999992263794,12|8,0:3|0:3,0:0:0:0:
444,217,238314,1,8,0:3:0:0:
286,325,238471,2,0,P|281:283|273:241,2,84.4999961318971,8|0|8,0:0|0:0|0:3,0:0:0:0:
182,295,238939,6,0,P|139:299|98:305,1,84.4999961318971,10|2,0:3|0:0,0:0:0:0:
360,206,239252,1,8,0:0:0:0:
360,206,239408,2,0,P|402:210|443:216,1,84.4999961318971,2|10,0:0|0:3,0:0:0:0:
264,48,239721,2,0,B|249:109|249:109|268:146|268:146|255:209,1,168.999992263794,8|10,0:0|0:3,0:0:0:0:
164,165,240189,1,2,0:0:0:0:
164,165,240267,1,8,0:3:0:0:
164,165,240346,6,0,L|176:254,1,84.4999961318971,8|8,0:3|0:0,0:0:0:0:
261,157,240658,1,8,0:3:0:0:
80,90,240814,1,8,0:3:0:0:
80,90,240971,2,0,P|35:118|46:234,1,168.999992263794,8|12,0:0|0:0,0:0:0:0:
105,173,241439,1,8,0:3:0:0:
158,328,241596,5,10,0:3:0:0:
144,316,241753,2,0,P|68:329|-33:351,1,168.999992263794,8|0,0:0|0:0,0:0:0:0:
0,262,242142,1,8,0:3:0:0:
23,267,242221,5,10,0:0:0:0:
242,196,242377,1,8,0:0:0:0:
78,93,242533,5,8,0:0:0:0:
144,316,242689,1,8,0:0:0:0:
112,192,242846,5,14,0:3:0:0:
256,192,242924,12,10,245346,0:3:0:0:
100,192,245658,5,8,0:3:0:0:
100,192,245814,1,10,0:3:0:0:
100,192,245971,2,0,P|164:183|229:176,1,130,8|10,0:0|0:3,0:0:0:0:
327,107,246439,2,0,L|252:101,1,65,8|0,0:3|0:0,0:0:0:0:
322,200,246752,1,8,0:0:0:0:
403,51,246908,1,8,0:3:0:0:
262,101,247064,1,8,0:3:0:0:
412,205,247221,1,10,0:0:0:0:
427,279,247533,1,8,0:3:0:0:
438,352,247767,1,0,0:0:0:0:
441,368,247846,6,0,B|352:376|352:376|301:337,1,130,10|8,0:3|0:3,0:0:0:0:
155,212,248314,1,10,0:3:0:0:
237,177,248471,2,0,L|217:333,1,130,8|10,0:0|0:3,0:0:0:0:
145,369,248939,2,0,P|132:332|153:290,1,65,8|0,0:3|0:0,0:0:0:0:
304,270,249252,1,8,0:0:0:0:
304,270,249408,2,0,P|317:307|296:349,1,65,0|8,0:0|0:3,0:0:0:0:
199,169,249721,6,0,B|78:184|139:238|33:255,1,195,10|0,0:0|0:0,0:0:0:0:
31,255,250346,6,0,B|11:212|11:212|35:120,1,130,10|8,0:3|0:3,0:0:0:0:
150,22,250814,1,10,0:3:0:0:
194,96,250971,2,0,P|110:99|72:61,1,130,8|10,0:0|0:3,0:0:0:0:
145,188,251439,2,0,P|155:218|162:250,1,65,8|0,0:3|0:0,0:0:0:0:
68,245,251752,1,8,0:0:0:0:
238,162,251908,2,0,L|316:172,1,65,8|8,0:3|0:3,0:0:0:0:
495,23,252221,5,10,0:2:0:0:
428,75,252377,1,8,0:2:0:0:
343,68,252533,1,8,0:3:0:0:
274,18,252689,1,8,0:3:0:0:
350,81,252846,6,0,P|380:117|355:212,1,130,14|8,0:3|0:3,0:0:0:0:
274,320,253314,1,10,0:3:0:0:
355,283,253471,2,0,B|417:271|429:317|479:309,1,130,8|10,0:0|0:3,0:0:0:0:
468,159,253939,2,0,P|461:190|456:222,1,65,8|0,0:3|0:0,0:0:0:0:
297,127,254252,1,8,0:0:0:0:
373,74,254408,2,0,L|385:153,1,65,0|8,0:0|0:3,0:0:0:0:
281,247,254721,1,10,0:0:0:0:
206,241,255033,1,8,0:3:0:0:
132,232,255267,1,0,0:0:0:0:
117,229,255346,6,0,B|21:241|21:241|-3:211,1,130,10|8,0:3|0:3,0:0:0:0:
168,157,255814,1,10,0:3:0:0:
228,218,255971,2,0,L|210:366,1,130,8|10,0:0|0:3,0:0:0:0:
348,315,256439,2,0,P|321:296|272:302,1,65,8|0,0:3|0:0,0:0:0:0:
144,212,256752,1,8,0:0:0:0:
237,153,256908,2,0,L|226:226,1,65,8|8,0:3|0:3,0:0:0:0:
76,295,257221,1,10,0:0:0:0:
59,221,257533,1,8,0:3:0:0:
39,148,257767,1,0,0:0:0:0:
33,131,257846,6,0,B|90:136|90:136|108:155|108:155|154:161,1,130,10|8,0:3|0:3,0:0:0:0:
306,42,258314,1,10,0:3:0:0:
226,22,258471,2,0,L|246:162,1,130,8|10,0:0|0:3,0:0:0:0:
318,200,258939,2,0,P|355:211|386:197,1,65,8|0,0:3|0:0,0:0:0:0:
212,277,259252,1,8,0:0:0:0:
212,277,259408,2,0,P|175:266|144:280,1,65,0|8,0:0|0:3,0:0:0:0:
1,138,259721,6,0,B|118:152|118:152|141:113|101:80,1,195,10|0,0:0|0:0,0:0:0:0:
104,83,260346,6,0,L|122:233,1,130,10|8,0:3|0:3,0:0:0:0:
10,365,260814,1,10,0:3:0:0:
75,309,260971,2,0,P|131:276|205:317,1,130,8|10,0:0|0:3,0:0:0:0:
313,218,261439,2,0,L|236:211,1,65,8|0,0:3|0:0,0:0:0:0:
312,321,261752,1,8,0:0:0:0:
422,221,261908,2,0,P|431:181|407:144,1,65,8|8,0:3|0:3,0:0:0:0:
326,52,262221,5,10,0:2:0:0:
330,82,262377,1,8,0:3:0:0:
412,52,262533,5,10,0:2:0:0:
242,78,262689,1,8,0:2:0:0:
501,167,262846,5,4,1:1:0:0:
