osu file format v14

[General]
AudioFilename: audio.mp3
AudioLeadIn: 0
PreviewTime: 146986
Countdown: 0
SampleSet: Soft
StackLeniency: 0.7
Mode: 0
LetterboxInBreaks: 0
WidescreenStoryboard: 1

[Editor]
DistanceSpacing: 1
BeatDivisor: 4
GridSize: 32
TimelineZoom: 0.9999999

[Metadata]
Title:Jiyuu no Hane
TitleUnicode:自由の翅
Artist:Hiromi Sato
ArtistUnicode:佐藤ひろ美
Creator:Lasse
Version:Normal
Source:月影のシミュラクル-解放の羽-
Tags:Tsukikage no Simulacre -Kaihou no Hane- Opening Eroge Visual Novel Applique Meis Clauson Full Version Komore schoolboy
BeatmapID:1490215
BeatmapSetID:703718

[Difficulty]
HPDrainRate:4
CircleSize:3.4
OverallDifficulty:5
ApproachRate:6
SliderMultiplier:2
SliderTickRate:1

[Events]
//Background and Video events
0,0,"a.jpg",0,0
//Break Periods
2,108046,116796
2,193046,200389
//Storyboard Layer 0 (Background)
//Storyboard Layer 1 (Fail)
//Storyboard Layer 2 (Pass)
//Storyboard Layer 3 (Foreground)
//Storyboard Sound Samples

[TimingPoints]
2846,625,4,2,1,70,1,0
2846,-90.9090909090909,4,2,1,70,0,0
4174,-90.9090909090909,4,2,99,5,0,0
4252,-90.9090909090909,4,2,1,70,0,0
6674,-90.9090909090909,4,2,99,5,0,0
6752,-90.9090909090909,4,2,1,70,0,0
9174,-90.9090909090909,4,2,99,5,0,0
9252,-90.9090909090909,4,2,1,70,0,0
11674,-90.9090909090909,4,2,99,5,0,0
11752,-90.9090909090909,4,2,1,70,0,0
12533,-90.9090909090909,4,2,2,70,0,0
12846,-90.9090909090909,4,2,1,70,0,0
14174,-90.9090909090909,4,2,99,5,0,0
14252,-90.9090909090909,4,2,1,70,0,0
16674,-90.9090909090909,4,2,99,5,0,0
16752,-90.9090909090909,4,2,1,70,0,0
19174,-90.9090909090909,4,2,99,5,0,0
19252,-90.9090909090909,4,2,1,70,0,0
21674,-90.9090909090909,4,2,99,5,0,0
21752,-90.9090909090909,4,2,1,70,0,0
22846,-117.647058823529,4,2,75,50,0,0
41908,-117.647058823529,4,2,75,51,0,0
42012,-117.647058823529,4,2,75,52,0,0
42116,-117.647058823529,4,2,75,53,0,0
42221,-117.647058823529,4,2,75,54,0,0
42377,-117.647058823529,4,2,75,50,0,0
42533,-117.647058823529,4,2,76,54,0,0
42689,-117.647058823529,4,2,76,50,0,0
42846,-100,4,2,1,56,0,0
47846,-100,4,2,1,58,0,0
52846,-100,4,2,1,60,0,0
57846,-100,4,2,1,62,0,0
60033,-100,4,2,1,50,0,0
60189,-100,4,2,75,30,0,0
60346,-100,4,2,1,54,0,0
60658,-100,4,2,1,56,0,0
60971,-100,4,2,1,58,0,0
61283,-100,4,2,1,62,0,0
61596,-100,4,2,1,64,0,0
61908,-100,4,2,1,66,0,0
62064,-100,4,2,1,68,0,0
62142,-100,4,2,1,69,0,0
62221,-100,4,2,1,70,0,0
62377,-100,4,2,1,71,0,0
62533,-100,4,2,2,72,0,0
62689,-100,4,2,2,73,0,0
62846,-83.3333333333333,4,2,1,74,0,1
63080,-83.3333333333333,4,2,99,5,0,1
63158,-83.3333333333333,4,2,1,74,0,1
65580,-83.3333333333333,4,2,99,5,0,1
65658,-83.3333333333333,4,2,1,74,0,1
68080,-83.3333333333333,4,2,99,5,0,1
68158,-83.3333333333333,4,2,1,74,0,1
71908,-83.3333333333333,4,2,1,68,0,1
72221,-83.3333333333333,4,2,1,70,0,0
72377,-83.3333333333333,4,2,1,71,0,0
72533,-83.3333333333333,4,2,2,72,0,0
72689,-83.3333333333333,4,2,2,73,0,0
72846,-83.3333333333333,4,2,1,74,0,1
73080,-83.3333333333333,4,2,99,5,0,1
73158,-83.3333333333333,4,2,1,74,0,1
75580,-83.3333333333333,4,2,99,5,0,1
75658,-83.3333333333333,4,2,1,74,0,1
78080,-83.3333333333333,4,2,99,5,0,1
78158,-83.3333333333333,4,2,1,74,0,1
81908,-83.3333333333333,4,2,1,70,0,1
82221,-83.3333333333333,4,2,1,73,0,0
82533,-83.3333333333333,4,2,1,72,0,0
82846,-83.3333333333333,4,2,1,70,0,1
87846,-90.9090909090909,4,2,1,70,0,0
89174,-90.9090909090909,4,2,99,5,0,0
89252,-90.9090909090909,4,2,1,70,0,0
91674,-90.9090909090909,4,2,99,5,0,0
91752,-90.9090909090909,4,2,1,70,0,0
94174,-90.9090909090909,4,2,99,5,0,0
94252,-90.9090909090909,4,2,1,70,0,0
96674,-90.9090909090909,4,2,99,5,0,0
96752,-90.9090909090909,4,2,1,70,0,0
97533,-90.9090909090909,4,2,2,70,0,0
97846,-90.9090909090909,4,2,1,70,0,0
99174,-90.9090909090909,4,2,99,5,0,0
99252,-90.9090909090909,4,2,1,70,0,0
101674,-90.9090909090909,4,2,99,5,0,0
101752,-90.9090909090909,4,2,1,70,0,0
104174,-90.9090909090909,4,2,99,5,0,0
104252,-90.9090909090909,4,2,1,70,0,0
106674,-90.9090909090909,4,2,99,5,0,0
106752,-90.9090909090909,4,2,1,70,0,0
107846,-200,4,2,75,44,0,0
110033,-200,4,2,75,38,0,0
110346,-200,4,2,75,44,0,0
112846,-200,4,2,75,46,0,0
116908,-200,4,2,75,48,0,0
117012,-200,4,2,75,49,0,0
117116,-200,4,2,75,50,0,0
117221,-200,4,2,75,52,0,0
117377,-200,4,2,75,48,0,0
117533,-200,4,2,75,52,0,0
117689,-200,4,2,75,48,0,0
117846,-108.695652173913,4,2,1,52,0,0
122846,-108.695652173913,4,2,1,54,0,0
127064,-108.695652173913,4,2,1,48,0,0
127142,-108.695652173913,4,2,1,50,0,0
127221,-108.695652173913,4,2,1,52,0,0
127846,-100,4,2,1,56,0,0
132846,-100,4,2,1,58,0,0
137533,-100,4,2,2,58,0,0
137846,-100,4,2,1,60,0,0
142846,-100,4,2,1,62,0,0
145033,-100,4,2,1,50,0,0
145189,-100,4,2,75,30,0,0
145346,-100,4,2,1,54,0,0
145658,-100,4,2,1,56,0,0
145971,-100,4,2,1,58,0,0
146283,-100,4,2,1,60,0,0
146517,-100,4,2,1,61,0,0
146596,-100,4,2,1,62,0,0
146752,-100,4,2,1,63,0,0
146908,-100,4,2,2,64,0,0
147064,-100,4,2,2,65,0,0
147221,-100,4,2,1,66,0,0
147325,-100,4,2,1,67,0,0
147429,-100,4,2,1,62,0,0
147533,-100,4,2,2,68,0,0
147637,-100,4,2,2,69,0,0
147741,-100,4,2,2,70,0,0
147846,-83.3333333333333,4,2,1,76,0,1
148080,-83.3333333333333,4,2,1,5,0,1
148158,-83.3333333333333,4,2,1,76,0,1
150580,-83.3333333333333,4,2,1,5,0,1
150658,-83.3333333333333,4,2,1,76,0,1
153080,-83.3333333333333,4,2,1,5,0,1
153158,-83.3333333333333,4,2,1,76,0,1
156908,-83.3333333333333,4,2,1,70,0,1
157221,-83.3333333333333,4,2,1,72,0,0
157377,-83.3333333333333,4,2,1,73,0,0
157533,-83.3333333333333,4,2,2,74,0,0
157689,-83.3333333333333,4,2,2,75,0,0
157846,-83.3333333333333,4,2,1,76,0,1
158080,-83.3333333333333,4,2,1,5,0,1
158158,-83.3333333333333,4,2,1,76,0,1
160580,-83.3333333333333,4,2,1,5,0,1
160658,-83.3333333333333,4,2,1,76,0,1
163080,-83.3333333333333,4,2,1,5,0,1
163158,-83.3333333333333,4,2,1,76,0,1
166908,-83.3333333333333,4,2,1,72,0,1
167221,-83.3333333333333,4,2,1,75,0,0
167533,-83.3333333333333,4,2,1,74,0,0
167846,-83.3333333333333,4,2,1,72,0,1
172846,-96.1538461538461,4,2,1,66,0,0
182533,-96.1538461538461,4,2,2,66,0,0
182846,-96.1538461538461,4,2,1,64,0,0
190346,-96.1538461538461,4,2,1,54,0,0
190658,-96.1538461538461,4,2,1,55,0,0
190971,-96.1538461538461,4,2,1,56,0,0
191283,-96.1538461538461,4,2,1,57,0,0
191596,-96.1538461538461,4,2,1,58,0,0
191908,-96.1538461538461,4,2,1,59,0,0
192064,-96.1538461538461,4,2,1,60,0,0
192142,-96.1538461538461,4,2,1,61,0,0
192221,-96.1538461538461,4,2,1,62,0,0
192377,-96.1538461538461,4,2,1,63,0,0
192533,-96.1538461538461,4,2,2,64,0,0
192689,-96.1538461538461,4,2,2,65,0,0
192846,-96.1538461538461,4,2,2,60,0,0
201439,-96.1538461538461,4,2,1,64,0,0
201752,-96.1538461538461,4,2,1,60,0,0
201908,-96.1538461538461,4,2,1,64,0,0
202064,-90.9090909090909,4,2,1,60,0,0
202142,-90.9090909090909,4,2,1,62,0,0
202221,-90.9090909090909,4,2,1,64,0,0
202377,-90.9090909090909,4,2,1,66,0,0
202533,-90.9090909090909,4,2,1,68,0,0
202689,-90.9090909090909,4,2,1,70,0,0
202846,-83.3333333333333,4,2,1,78,0,1
203080,-83.3333333333333,4,2,99,5,0,1
203158,-83.3333333333333,4,2,1,78,0,1
205580,-83.3333333333333,4,2,99,5,0,1
205658,-83.3333333333333,4,2,1,78,0,1
208080,-83.3333333333333,4,2,99,5,0,1
208158,-83.3333333333333,4,2,1,78,0,1
211908,-83.3333333333333,4,2,1,74,0,1
212221,-83.3333333333333,4,2,1,77,0,0
212533,-83.3333333333333,4,2,1,76,0,0
212846,-83.3333333333333,4,2,1,74,0,1
217221,-83.3333333333333,4,2,1,78,0,0
217533,-83.3333333333333,4,2,2,78,0,0
217846,-83.3333333333333,4,2,1,80,0,1
218080,-83.3333333333333,4,2,99,5,0,1
218158,-83.3333333333333,4,2,1,80,0,1
220580,-83.3333333333333,4,2,99,5,0,1
220658,-83.3333333333333,4,2,1,80,0,1
223080,-83.3333333333333,4,2,99,5,0,1
223158,-83.3333333333333,4,2,1,80,0,1
227221,-83.3333333333333,4,2,1,80,0,0
227846,-83.3333333333333,4,2,1,80,0,1
228080,-83.3333333333333,4,2,99,5,0,1
228158,-83.3333333333333,4,2,1,80,0,1
230580,-83.3333333333333,4,2,99,5,0,1
230658,-83.3333333333333,4,2,1,80,0,1
233080,-83.3333333333333,4,2,99,5,0,1
233158,-83.3333333333333,4,2,1,80,0,1
236908,-83.3333333333333,4,2,1,76,0,1
237221,-83.3333333333333,4,2,1,79,0,0
237533,-83.3333333333333,4,2,1,78,0,0
237846,-83.3333333333333,4,2,1,76,0,1
242846,-90.9090909090909,4,2,1,70,0,0
244174,-90.9090909090909,4,2,99,5,0,0
244252,-90.9090909090909,4,2,1,70,0,0
246674,-90.9090909090909,4,2,99,5,0,0
246752,-90.9090909090909,4,2,1,70,0,0
249174,-90.9090909090909,4,2,99,5,0,0
249252,-90.9090909090909,4,2,1,70,0,0
251674,-90.9090909090909,4,2,99,5,0,0
251752,-90.9090909090909,4,2,1,70,0,0
252533,-90.9090909090909,4,2,2,70,0,0
252846,-90.9090909090909,4,2,1,70,0,0
254174,-90.9090909090909,4,2,99,5,0,0
254252,-90.9090909090909,4,2,1,70,0,0
256674,-90.9090909090909,4,2,99,5,0,0
256752,-90.9090909090909,4,2,1,70,0,0
259174,-90.9090909090909,4,2,99,5,0,0
259252,-90.9090909090909,4,2,1,70,0,0
261674,-90.9090909090909,4,2,99,5,0,0
261752,-90.9090909090909,4,2,1,70,0,0
262846,-90.9090909090909,4,2,2,60,0,0
263002,-90.9090909090909,4,2,1,5,0,0
263158,-90.9090909090909,4,2,1,5,0,0
266283,-162.60162601626,4,2,99,10,0,0
272846,-90.9090909090909,4,2,99,5,0,0

[Colours]
Combo1 : 150,210,220
Combo2 : 140,200,250
Combo3 : 160,190,210
Combo4 : 175,190,255

[HitObjects]
63,119,2846,6,0,P|119:97|168:112,1,110.000003356934,14|8,0:3|0:3,0:0:0:0:
186,160,3314,2,0,L|184:221,1,55.0000016784668,10|8,0:3|0:0,0:0:0:0:
251,310,3783,1,10,0:3:0:0:
251,310,3939,2,0,L|379:314,1,110.000003356934,8|8,0:3|0:0,0:0:0:0:
449,252,4564,1,8,0:3:0:0:
449,252,4721,2,0,L|453:123,1,110.000003356934,10|8,0:0|0:3,0:0:0:0:
382,56,5346,6,0,P|326:37|269:42,1,110.000003356934,10|8,0:3|0:3,0:0:0:0:
243,84,5814,2,0,L|236:155,1,55.0000016784668,10|8,0:3|0:0,0:0:0:0:
184,236,6283,1,10,0:3:0:0:
184,236,6439,1,8,0:3:0:0:
82,192,6752,2,0,L|21:186,2,55.0000016784668,8|8|8,0:0|0:3|0:3,0:0:0:0:
127,160,7221,2,0,B|141:128|141:128|125:84|139:41,1,110.000003356934,10|8,0:0|0:3,0:0:0:0:
244,35,7846,6,0,L|364:26,1,110.000003356934,10|8,0:3|0:3,0:0:0:0:
404,48,8314,2,0,P|414:70|416:105,1,55.0000016784668,10|8,0:3|0:0,0:0:0:0:
363,197,8783,1,10,0:3:0:0:
363,197,8939,2,0,B|358:241|358:241|366:264|366:264|361:322,1,110.000003356934,8|8,0:3|0:0,0:0:0:0:
265,353,9564,1,8,0:3:0:0:
265,353,9721,2,0,P|206:348|146:347,1,110.000003356934,10|8,0:0|0:3,0:0:0:0:
58,294,10346,6,0,L|53:179,1,110.000003356934,10|8,0:3|0:3,0:0:0:0:
82,137,10814,2,0,L|90:79,1,55.0000016784668,10|8,0:3|0:0,0:0:0:0:
198,52,11283,1,10,0:3:0:0:
198,52,11439,1,8,0:3:0:0:
294,104,11752,2,0,L|355:98,2,55.0000016784668,8|8|8,0:0|0:3|0:3,0:0:0:0:
260,147,12221,2,0,P|252:186|254:204,1,55.0000016784668,10|8,0:2|0:2,0:0:0:0:
278,249,12533,2,0,P|286:288|284:306,1,55.0000016784668,8|8,0:3|0:3,0:0:0:0:
315,348,12846,6,0,P|390:365|442:349,1,110.000003356934,14|8,0:3|0:3,0:0:0:0:
457,317,13314,2,0,P|464:290|463:263,1,55.0000016784668,10|8,0:3|0:0,0:0:0:0:
442,159,13783,1,10,0:3:0:0:
442,159,13939,2,0,P|390:142|335:148,1,110.000003356934,8|8,0:3|0:0,0:0:0:0:
267,235,14564,1,8,0:3:0:0:
267,235,14721,2,0,P|214:251|160:246,1,110.000003356934,10|8,0:0|0:3,0:0:0:0:
65,190,15346,6,0,L|59:73,1,110.000003356934,10|8,0:3|0:3,0:0:0:0:
89,34,15814,2,0,P|116:30|144:29,1,55.0000016784668,10|8,0:3|0:0,0:0:0:0:
233,102,16283,1,10,0:3:0:0:
233,102,16439,1,8,0:3:0:0:
333,56,16752,2,0,L|338:1,2,55.0000016784668,8|8|8,0:0|0:3|0:3,0:0:0:0:
360,103,17221,2,0,B|398:113|398:113|436:103|436:103|479:114,1,110.000003356934,10|8,0:0|0:3,0:0:0:0:
498,216,17846,6,0,L|485:346,1,110.000003356934,10|8,0:3|0:3,0:0:0:0:
445,361,18314,2,0,P|418:362|379:350,1,55.0000016784668,10|8,0:3|0:0,0:0:0:0:
302,301,18783,1,10,0:3:0:0:
302,301,18939,2,0,B|298:266|298:266|306:231|306:231|301:192,1,110.000003356934,8|8,0:3|0:0,0:0:0:0:
249,95,19564,1,8,0:3:0:0:
249,95,19721,2,0,P|197:77|133:93,1,110.000003356934,10|8,0:0|0:3,0:0:0:0:
70,169,20346,6,0,B|66:204|66:204|74:239|74:239|69:278,1,110.000003356934,10|8,0:3|0:3,0:0:0:0:
81,331,20814,2,0,P|107:336|139:333,1,55.0000016784668,10|8,0:3|0:0,0:0:0:0:
242,290,21283,1,10,0:3:0:0:
242,290,21439,1,8,0:3:0:0:
301,193,21752,2,0,L|305:129,2,55.0000016784668,8|8|8,0:0|0:3|0:3,0:0:0:0:
341,231,22221,2,0,P|374:238|412:230,1,55.0000016784668,10|8,0:2|0:3,0:0:0:0:
442,208,22533,2,0,L|451:146,1,55.0000016784668,10|8,0:2|0:2,0:0:0:0:
478,106,22846,6,0,B|448:120|414:115|384:92|384:92|371:53|338:24,1,170.000003242493,12|8,0:3|0:0,0:0:0:0:
178,15,24096,1,8,0:3:0:0:
77,152,24721,1,8,0:0:0:0:
145,307,25346,2,0,B|185:323|185:323|251:317|275:236,2,170.000003242493,8|8|8,0:3|0:0|0:3,0:0:0:0:
77,152,27221,2,0,L|71:68,1,85.0000016212463,8|0,0:0|0:0,0:0:0:0:
137,14,27846,6,0,B|183:7|183:7|248:30|248:30|302:26,1,170.000003242493,8|8,0:3|0:0,0:0:0:0:
466,70,29096,1,8,0:3:0:0:
421,234,29721,1,8,0:0:0:0:
257,189,30346,2,0,L|82:183,2,170.000003242493,8|8|8,0:3|0:0|0:3,0:0:0:0:
421,234,32221,2,0,P|434:277|419:316,1,85.0000016212463,8|0,0:0|0:0,0:0:0:0:
346,355,32846,6,0,L|174:361,1,170.000003242493,12|8,0:3|0:0,0:0:0:0:
7,343,34096,1,8,0:3:0:0:
24,174,34721,1,8,0:0:0:0:
193,191,35346,2,0,B|239:184|239:184|304:207|304:207|358:203,2,170.000003242493,8|8|8,0:3|0:0|0:3,0:0:0:0:
24,174,37221,2,0,P|13:140|25:88,1,85.0000016212463,8|0,0:0|0:0,0:0:0:0:
93,45,37846,6,0,B|139:38|139:38|204:61|204:61|258:57,1,170.000003242493,8|8,0:3|0:0,0:0:0:0:
422,102,39096,1,8,0:3:0:0:
428,272,39721,1,8,0:0:0:0:
267,328,40346,2,0,L|92:317,2,170.000003242493,8|8|8,0:3|0:0|0:3,0:0:0:0:
428,272,42221,2,0,L|475:274,2,42.5000008106231,8|8|8,0:1|0:1|0:3,0:0:0:0:
354,203,42846,6,0,P|342:157|363:95,2,99.9999999999999,12|2|8,0:3|0:0|0:0,0:0:0:0:
432,276,43783,1,2,0:0:0:0:
432,276,43939,1,10,0:3:0:0:
352,335,44252,1,10,0:3:0:0:
352,335,44408,2,0,P|298:323|251:324,1,99.9999999999999,10|8,0:3|0:0,0:0:0:0:
61,266,45346,6,0,L|48:155,2,99.9999999999999,8|2|8,0:3|0:0|0:0,0:0:0:0:
121,353,46283,1,2,0:0:0:0:
121,353,46439,1,10,0:3:0:0:
211,305,46752,1,10,0:3:0:0:
211,305,46908,2,0,P|263:294|317:297,1,99.9999999999999,10|8,0:3|0:0,0:0:0:0:
485,199,47846,6,0,L|491:92,2,99.9999999999999,8|2|8,0:3|0:0|0:0,0:0:0:0:
413,268,48783,1,2,0:0:0:0:
413,268,48939,1,10,0:3:0:0:
330,211,49252,1,10,0:3:0:0:
330,211,49408,2,0,P|276:199|229:200,1,99.9999999999999,10|8,0:3|0:0,0:0:0:0:
148,256,50033,1,2,0:0:0:0:
73,188,50346,6,0,B|61:153|61:153|69:79,2,99.9999999999999,8|2|8,0:3|0:0|0:0,0:0:0:0:
184,288,51439,1,8,0:3:0:0:
231,199,51752,1,8,0:3:0:0:
231,199,51908,1,8,0:3:0:0:
317,248,52221,2,0,P|341:254|376:245,1,50,10|8,0:0|0:3,0:0:0:0:
408,223,52533,2,0,L|415:170,1,50,8|8,0:0|0:0,0:0:0:0:
409,123,52846,6,0,B|397:96|397:96|399:59|415:18,2,99.9999999999999,12|2|8,0:3|0:0|0:0,0:0:0:0:
503,169,53783,1,2,0:0:0:0:
503,169,53939,1,10,0:3:0:0:
455,257,54252,1,10,0:3:0:0:
455,257,54408,2,0,P|396:266|353:253,1,99.9999999999999,10|8,0:3|0:0,0:0:0:0:
212,117,55346,6,0,P|164:101|115:106,2,99.9999999999999,8|2|8,0:3|0:0|0:0,0:0:0:0:
266,208,56283,1,2,0:0:0:0:
266,208,56439,1,10,0:3:0:0:
209,291,56752,1,10,0:3:0:0:
209,291,56908,2,0,P|161:306|112:301,1,99.9999999999999,10|8,0:3|0:0,0:0:0:0:
4,132,57846,6,0,L|-2:23,2,99.9999999999999,8|2|8,0:3|0:0|0:0,0:0:0:0:
51,226,58783,1,2,0:0:0:0:
51,226,58939,1,2,0:3:0:0:
133,167,59252,1,10,0:3:0:0:
133,167,59408,2,0,P|180:151|229:155,1,99.9999999999999,10|8,0:3|0:0,0:0:0:0:
312,211,60033,1,2,0:2:0:0:
402,168,60346,6,0,B|425:125|425:125|406:59,1,99.9999999999999,8|8,0:3|0:3,0:0:0:0:
322,29,60971,1,8,0:3:0:0:
222,33,61283,1,8,0:3:0:0:
138,87,61596,2,0,B|111:86|111:86|76:98|76:98|35:96,1,99.9999999999999,8|8,0:3|0:3,0:0:0:0:
6,134,62064,1,8,0:3:0:0:
6,134,62221,2,0,L|3:196,1,50,10|8,0:3|0:0,0:0:0:0:
40,217,62533,2,0,L|43:279,1,50,8|8,0:3|0:3,0:0:0:0:
77,316,62846,6,0,B|119:307|119:307|151:318|151:318|211:316,1,119.999996337891,14|10,0:3|0:3,0:0:0:0:
255,340,63314,1,10,0:3:0:0:
255,339,63471,2,0,P|278:285|267:227,1,119.999996337891,8|10,0:0|0:3,0:0:0:0:
224,183,63939,2,0,P|200:128|211:70,1,119.999996337891,2|8,0:0|0:0,0:0:0:0:
321,23,64564,1,10,0:3:0:0:
321,23,64721,2,0,L|402:20,1,59.9999981689453,10|2,0:0|0:0,0:0:0:0:
436,43,65033,2,0,P|447:71|447:116,1,59.9999981689453,10|2,0:3|0:0,0:0:0:0:
433,158,65346,6,0,B|430:200|430:200|439:237|439:237|434:276,1,119.999996337891,10|10,0:3|0:3,0:0:0:0:
403,328,65814,1,10,0:3:0:0:
403,328,65971,2,0,L|282:323,1,119.999996337891,8|10,0:0|0:3,0:0:0:0:
233,288,66439,2,0,B|230:246|230:246|239:209|239:209|234:169,1,119.999996337891,10|8,0:3|0:0,0:0:0:0:
120,29,67221,1,10,0:0:0:0:
13,83,67533,1,10,0:3:0:0:
31,201,67846,6,0,B|34:243|34:243|25:280|25:280|30:319,1,119.999996337891,10|10,0:3|0:3,0:0:0:0:
74,359,68314,1,10,0:3:0:0:
74,359,68471,2,0,L|196:351,1,119.999996337891,8|10,0:0|0:3,0:0:0:0:
234,307,68939,2,0,B|239:268|239:268|230:231|230:231|233:189,1,119.999996337891,10|8,0:3|0:0,0:0:0:0:
266,138,69408,2,0,P|316:117|385:139,2,119.999996337891,10|10|10,0:3|0:0|0:3,0:0:0:0:
190,231,70346,6,0,P|140:252|71:230,2,119.999996337891,10|8|8,0:3|0:3|0:0,0:0:0:0:
270,142,71283,1,10,0:3:0:0:
270,142,71439,2,0,P|320:121|389:143,1,119.999996337891,10|8,0:3|0:0,0:0:0:0:
467,230,72064,1,8,0:3:0:0:
467,230,72221,2,0,L|461:314,1,59.9999981689453,10|8,0:0|0:0,0:0:0:0:
425,337,72533,2,0,P|396:341|343:331,1,59.9999981689453,8|8,0:3|0:3,0:0:0:0:
313,308,72846,6,0,P|251:291|181:313,1,119.999996337891,14|10,0:3|0:3,0:0:0:0:
149,336,73314,1,10,0:3:0:0:
149,336,73471,2,0,P|90:348|33:331,1,119.999996337891,8|10,0:0|0:3,0:0:0:0:
5,278,73939,2,0,L|3:146,1,119.999996337891,2|8,0:0|0:0,0:0:0:0:
88,72,74564,1,10,0:3:0:0:
88,72,74721,2,0,P|122:68|171:75,1,59.9999981689453,10|2,0:0|0:0,0:0:0:0:
191,110,75033,2,0,L|196:190,1,59.9999981689453,10|2,0:3|0:0,0:0:0:0:
215,226,75346,6,0,P|267:250|337:229,1,119.999996337891,10|10,0:3|0:3,0:0:0:0:
377,203,75814,1,10,0:3:0:0:
377,203,75971,2,0,L|380:81,1,119.999996337891,8|10,0:0|0:3,0:0:0:0:
348,31,76439,2,0,B|309:24|309:24|269:37|269:37|229:32,1,119.999996337891,10|8,0:3|0:0,0:0:0:0:
50,43,77221,1,10,0:0:0:0:
12,156,77533,1,10,0:3:0:0:
121,204,77846,6,0,B|159:199|159:199|199:212|199:212|238:205,1,119.999996337891,10|10,0:3|0:3,0:0:0:0:
293,178,78314,1,10,0:3:0:0:
293,178,78471,2,0,L|415:170,1,119.999996337891,8|10,0:0|0:3,0:0:0:0:
454,212,78939,2,0,P|477:270|453:330,1,119.999996337891,10|8,0:3|0:0,0:0:0:0:
402,343,79408,2,0,L|282:335,2,119.999996337891,10|10|10,0:3|0:0|0:3,0:0:0:0:
473,246,80346,6,0,L|483:102,2,119.999996337891,10|8|8,0:3|0:3|0:0,0:0:0:0:
407,347,81283,1,10,0:3:0:0:
407,347,81439,2,0,L|287:339,1,119.999996337891,10|8,0:3|0:0,0:0:0:0:
172,358,82064,1,8,0:3:0:0:
172,358,82221,2,0,L|89:354,1,59.9999981689453,10|8,0:2|0:3,0:0:0:0:
62,321,82533,2,0,L|52:234,1,59.9999981689453,8|8,0:0|0:0,0:0:0:0:
16,215,82846,6,0,L|16:83,1,119.999996337891,12|8,0:3|0:3,0:0:0:0:
118,32,83471,2,0,B|163:46|163:46|255:36,1,119.999996337891,8|8,0:0|0:3,0:0:0:0:
296,63,83939,1,10,0:3:0:0:
296,63,84096,2,0,B|368:55|368:55|413:69,1,119.999996337891,2|2,0:0|0:0,0:0:0:0:
452,122,84564,1,10,0:3:0:0:
452,122,84721,2,0,B|448:242,1,119.999996337891,8|10,0:0|0:3,0:0:0:0:
385,344,85346,6,0,B|312:358|312:358|254:335,1,119.999996337891,8|8,0:3|0:3,0:0:0:0:
172,270,85971,1,8,0:0:0:0:
209,156,86283,2,0,L|213:75,1,59.9999981689453,12|8,0:0|0:3,0:0:0:0:
178,46,86596,2,0,P|123:24|53:47,1,119.999996337891,10|8,0:3|0:3,0:0:0:0:
2,140,87221,2,0,L|-2:221,1,59.9999981689453,10|8,0:0|0:0,0:0:0:0:
28,251,87533,2,0,L|32:332,1,59.9999981689453,8|8,0:0|0:0,0:0:0:0:
60,357,87846,6,0,P|118:367|173:334,1,110.000003356934,14|8,0:3|0:3,0:0:0:0:
184,295,88314,2,0,L|186:234,1,55.0000016784668,10|8,0:3|0:0,0:0:0:0:
242,145,88783,1,10,0:3:0:0:
242,145,88939,2,0,P|291:122|344:133,1,110.000003356934,8|8,0:3|0:0,0:0:0:0:
428,203,89564,1,8,0:3:0:0:
428,203,89721,2,0,L|446:331,1,110.000003356934,10|8,0:0|0:3,0:0:0:0:
343,358,90346,6,0,P|287:339|230:344,1,110.000003356934,10|8,0:3|0:3,0:0:0:0:
186,364,90814,2,0,L|117:362,1,55.0000016784668,10|8,0:3|0:0,0:0:0:0:
42,307,91283,1,10,0:3:0:0:
42,307,91439,1,8,0:3:0:0:
75,201,91752,2,0,L|74:142,2,55.0000016784668,8|8|8,0:0|0:3|0:3,0:0:0:0:
116,237,92221,2,0,P|171:247|229:223,1,110.000003356934,10|8,0:0|0:3,0:0:0:0:
317,176,92846,6,0,L|439:170,1,110.000003356934,10|8,0:3|0:3,0:0:0:0:
471,138,93314,2,0,P|475:111|475:78,1,55.0000016784668,10|8,0:3|0:0,0:0:0:0:
380,27,93783,1,10,0:3:0:0:
380,27,93939,2,0,L|258:21,1,110.000003356934,8|8,0:3|0:0,0:0:0:0:
175,75,94564,1,8,0:3:0:0:
175,75,94721,2,0,P|158:137|170:188,1,110.000003356934,10|8,0:0|0:3,0:0:0:0:
268,223,95346,6,0,L|386:226,1,110.000003356934,10|8,0:3|0:3,0:0:0:0:
418,263,95814,2,0,P|422:289|418:319,1,55.0000016784668,10|8,0:3|0:0,0:0:0:0:
323,372,96283,1,10,0:3:0:0:
323,372,96439,1,8,0:3:0:0:
219,333,96752,2,0,L|155:328,2,55.0000016784668,8|8|8,0:0|0:3|0:3,0:0:0:0:
253,289,97221,2,0,P|257:263|253:233,1,55.0000016784668,10|8,0:2|0:2,0:0:0:0:
280,187,97533,2,0,P|276:158|265:133,1,55.0000016784668,8|8,0:3|0:3,0:0:0:0:
268,79,97846,6,0,P|193:62|146:80,1,110.000003356934,14|8,0:3|0:3,0:0:0:0:
124,109,98314,2,0,L|49:104,1,55.0000016784668,10|8,0:3|0:0,0:0:0:0:
6,196,98783,1,10,0:3:0:0:
6,196,98939,2,0,L|-2:313,1,110.000003356934,8|8,0:3|0:0,0:0:0:0:
98,352,99564,1,8,0:3:0:0:
98,352,99721,2,0,B|133:344|133:344|172:351|172:351|223:347,1,110.000003356934,10|8,0:0|0:3,0:0:0:0:
278,264,100346,6,0,L|274:147,1,110.000003356934,10|8,0:3|0:3,0:0:0:0:
252,105,100814,2,0,L|259:47,1,55.0000016784668,10|8,0:3|0:0,0:0:0:0:
365,15,101283,1,10,0:3:0:0:
365,15,101439,1,8,0:3:0:0:
457,74,101752,2,0,L|517:71,2,55.0000016784668,8|8|8,0:0|0:3|0:3,0:0:0:0:
427,120,102221,2,0,L|423:229,1,110.000003356934,10|8,0:0|0:3,0:0:0:0:
376,329,102846,6,0,P|310:340|253:317,1,110.000003356934,10|8,0:3|0:3,0:0:0:0:
220,303,103314,2,0,P|189:295|164:298,1,55.0000016784668,10|8,0:3|0:0,0:0:0:0:
67,341,103783,1,10,0:3:0:0:
67,341,103939,2,0,B|62:232,1,110.000003356934,8|8,0:3|0:0,0:0:0:0:
87,123,104564,1,8,0:3:0:0:
87,123,104721,2,0,P|143:128|190:102,1,110.000003356934,10|8,0:0|0:3,0:0:0:0:
276,36,105346,6,0,B|315:41|315:41|350:33|350:33|385:41,1,110.000003356934,10|8,0:3|0:3,0:0:0:0:
425,76,105814,2,0,L|427:135,1,55.0000016784668,10|8,0:3|0:0,0:0:0:0:
379,230,106283,1,10,0:3:0:0:
379,230,106439,1,8,0:3:0:0:
281,179,106752,2,0,L|273:114,2,55.0000016784668,8|8|8,0:0|0:3|0:3,0:0:0:0:
255,227,107221,2,0,P|222:234|184:226,1,55.0000016784668,10|8,0:2|0:3,0:0:0:0:
149,212,107533,2,0,P|121:210|95:216,1,55.0000016784668,10|8,0:2|0:2,0:0:0:0:
58,257,107846,5,12,0:3:0:0:
66,342,117846,6,0,L|61:149,1,183.999993823242,12|8,0:3|0:0,0:0:0:0:
156,58,118939,1,8,0:3:0:0:
156,58,119096,2,0,P|212:44|255:50,2,91.9999969116211,2|8|8,0:0|0:3|0:0,0:0:0:0:
127,239,120346,2,0,P|219:264|309:218,1,183.999993823242,8|8,0:3|0:0,0:0:0:0:
384,123,121439,1,8,0:3:0:0:
384,123,121596,2,0,L|439:121,2,45.9999984558105,0|8|8,0:0|0:0|0:3,0:0:0:0:
311,66,122221,2,0,P|269:52|201:61,1,91.9999969116211,10|0,0:0|0:0,0:0:0:0:
157,119,122846,6,0,B|147:186|147:186|170:251|170:251|163:297,1,183.999993823242,8|8,0:3|0:0,0:0:0:0:
26,312,123939,1,8,0:3:0:0:
26,312,124096,2,0,L|16:209,2,91.9999969116211,2|8|8,0:0|0:3|0:0,0:0:0:0:
208,336,125346,2,0,B|263:323|263:323|318:339|318:339|391:332,1,183.999993823242,8|8,0:3|0:0,0:0:0:0:
488,238,126439,1,8,0:3:0:0:
488,238,126596,2,0,L|495:185,2,45.9999984558105,0|8|8,0:0|0:0|0:3,0:0:0:0:
418,298,127221,2,0,P|393:297|359:288,1,45.9999984558105,10|8,0:2|0:3,0:0:0:0:
346,254,127533,2,0,L|344:200,1,45.9999984558105,8|8,0:0|0:0,0:0:0:0:
331,159,127846,6,0,L|341:60,2,99.9999999999999,12|2|8,0:3|0:0|0:0,0:0:0:0:
253,221,128783,1,2,0:0:0:0:
253,221,128939,1,10,0:3:0:0:
194,147,129252,1,10,0:3:0:0:
194,147,129408,2,0,P|138:129|93:145,1,99.9999999999999,10|8,0:3|0:0,0:0:0:0:
10,319,130346,6,0,L|-3:208,2,99.9999999999999,8|2|8,0:3|0:0|0:0,0:0:0:0:
101,372,131283,1,2,0:0:0:0:
101,372,131439,1,10,0:3:0:0:
194,327,131752,1,10,0:3:0:0:
194,327,131908,2,0,L|201:220,1,99.9999999999999,10|8,0:3|0:0,0:0:0:0:
333,77,132846,6,0,P|380:62|449:69,2,99.9999999999999,8|2|8,0:3|0:0|0:0,0:0:0:0:
278,161,133783,1,2,0:0:0:0:
278,161,133939,1,2,0:3:0:0:
207,99,134252,1,10,0:3:0:0:
207,99,134408,2,0,P|160:84|91:91,1,99.9999999999999,10|8,0:3|0:0,0:0:0:0:
25,139,135033,1,2,0:0:0:0:
62,231,135346,6,0,B|55:336,2,99.9999999999999,8|2|8,0:3|0:0|0:0,0:0:0:0:
110,86,136439,1,8,0:3:0:0:
206,129,136752,1,8,0:3:0:0:
206,129,136908,1,8,0:3:0:0:
291,76,137221,2,0,P|315:70|351:73,1,50,10|8,0:0|0:3,0:0:0:0:
382,96,137533,2,0,L|389:149,1,50,8|8,0:3|0:3,0:0:0:0:
399,194,137846,6,0,B|394:299,2,99.9999999999999,12|2|8,0:3|0:0|0:0,0:0:0:0:
473,127,138783,1,2,0:0:0:0:
473,127,138939,1,10,0:3:0:0:
412,54,139252,1,10,0:3:0:0:
412,54,139408,2,0,P|344:43|308:43,1,99.9999999999999,10|8,0:3|0:0,0:0:0:0:
123,106,140346,6,0,P|73:104|24:94,2,99.9999999999999,8|2|8,0:3|0:0|0:0,0:0:0:0:
213,60,141283,1,2,0:0:0:0:
213,60,141439,1,10,0:3:0:0:
285,129,141752,1,10,0:3:0:0:
285,129,141908,2,0,P|334:134|384:131,1,99.9999999999999,10|8,0:3|0:0,0:0:0:0:
479,307,142846,6,0,L|487:197,2,99.9999999999999,8|2|8,0:3|0:0|0:0,0:0:0:0:
392,355,143783,1,2,0:0:0:0:
392,355,143939,1,2,0:3:0:0:
308,307,144252,1,10,0:3:0:0:
308,307,144408,2,0,P|261:291|212:295,1,99.9999999999999,10|8,0:3|0:0,0:0:0:0:
127,349,145033,1,2,0:0:0:0:
46,289,145346,6,0,B|32:244|32:244|50:180,1,99.9999999999999,8|8,0:3|0:3,0:0:0:0:
110,116,145971,1,8,0:3:0:0:
203,150,146283,1,8,0:3:0:0:
288,97,146596,2,0,L|291:31,2,50,8|8|8,0:0|0:0|0:3,0:0:0:0:
324,139,147064,1,4,0:3:0:0:
324,139,147221,2,0,B|356:136|356:136|388:146|388:146|422:143,1,99.9999999999999,10|8,0:0|0:3,0:0:0:0:
494,239,147846,6,0,B|484:323|484:323|453:340,1,119.999996337891,14|10,0:3|0:3,0:0:0:0:
398,338,148314,1,10,0:3:0:0:
398,338,148471,2,0,P|347:317|265:330,1,119.999996337891,8|10,0:0|0:3,0:0:0:0:
232,353,148939,2,0,P|172:358|117:337,1,119.999996337891,2|8,0:0|0:0,0:0:0:0:
37,255,149564,1,10,0:3:0:0:
37,255,149721,2,0,L|34:181,1,59.9999981689453,10|2,0:0|0:0,0:0:0:0:
62,142,150033,2,0,L|65:68,1,59.9999981689453,10|2,0:3|0:0,0:0:0:0:
98,32,150346,6,0,P|156:18|214:32,1,119.999996337891,10|10,0:3|0:3,0:0:0:0:
247,88,150814,1,10,0:3:0:0:
247,88,150971,2,0,L|250:213,1,119.999996337891,8|10,0:0|0:3,0:0:0:0:
300,240,151439,2,0,B|342:237|342:237|379:246|379:246|419:241,1,119.999996337891,10|8,0:3|0:0,0:0:0:0:
494,77,152221,1,10,0:0:0:0:
389,17,152533,1,10,0:3:0:0:
274,52,152846,6,0,B|232:55|232:55|195:46|195:46|155:51,1,119.999996337891,10|10,0:3|0:3,0:0:0:0:
104,81,153314,1,10,0:3:0:0:
104,81,153471,2,0,L|98:207,1,119.999996337891,8|10,0:0|0:3,0:0:0:0:
153,223,153939,2,0,B|193:228|193:228|230:219|230:219|272:222,1,119.999996337891,10|8,0:3|0:0,0:0:0:0:
325,248,154408,2,0,L|448:243,2,119.999996337891,10|10|10,0:3|0:0|0:3,0:0:0:0:
218,305,155346,6,0,L|95:300,2,119.999996337891,10|8|8,0:3|0:3|0:0,0:0:0:0:
331,360,156283,1,10,0:3:0:0:
331,360,156439,2,0,L|450:364,1,119.999996337891,10|8,0:3|0:0,0:0:0:0:
510,261,157064,1,8,0:3:0:0:
510,261,157221,2,0,L|513:179,1,59.9999981689453,10|8,0:0|0:0,0:0:0:0:
486,147,157533,2,0,L|478:69,1,59.9999981689453,8|8,0:3|0:3,0:0:0:0:
440,41,157846,6,0,P|378:24|308:46,1,119.999996337891,14|10,0:3|0:3,0:0:0:0:
297,89,158314,1,10,0:3:0:0:
297,89,158471,2,0,L|290:215,1,119.999996337891,8|10,0:0|0:3,0:0:0:0:
259,259,158939,2,0,P|200:271|143:254,1,119.999996337891,2|8,0:0|0:0,0:0:0:0:
56,180,159564,1,10,0:3:0:0:
56,180,159721,2,0,L|53:115,1,59.9999981689453,10|2,0:0|0:0,0:0:0:0:
69,62,160033,2,0,P|102:51|134:56,1,59.9999981689453,10|2,0:3|0:0,0:0:0:0:
179,82,160346,6,0,P|237:90|295:66,1,119.999996337891,10|10,0:3|0:3,0:0:0:0:
341,31,160814,1,10,0:3:0:0:
341,31,160971,2,0,P|396:8|454:16,1,119.999996337891,8|10,0:0|0:3,0:0:0:0:
482,68,161439,2,0,B|489:107|489:107|476:147|476:147|480:185,1,119.999996337891,10|8,0:3|0:0,0:0:0:0:
423,356,162221,1,10,0:0:0:0:
325,286,162533,1,10,0:3:0:0:
215,335,162846,6,0,B|141:350|141:350|98:336,1,119.999996337891,10|10,0:3|0:3,0:0:0:0:
48,316,163314,1,10,0:3:0:0:
48,316,163471,2,0,L|43:190,1,119.999996337891,8|10,0:0|0:3,0:0:0:0:
77,147,163939,2,0,B|151:132|151:132|194:146,1,119.999996337891,10|8,0:3|0:0,0:0:0:0:
246,174,164408,2,0,L|366:171,2,119.999996337891,10|10|10,0:3|0:0|0:3,0:0:0:0:
140,115,165346,6,0,L|20:112,2,119.999996337891,10|8|8,0:3|0:3|0:0,0:0:0:0:
242,52,166283,1,10,0:3:0:0:
242,52,166439,2,0,L|362:44,1,119.999996337891,10|8,0:3|0:0,0:0:0:0:
470,95,167064,1,8,0:3:0:0:
470,95,167221,2,0,L|468:161,1,59.9999981689453,10|8,0:2|0:3,0:0:0:0:
480,213,167533,2,0,L|482:279,1,59.9999981689453,8|8,0:0|0:0,0:0:0:0:
466,331,167846,6,0,B|412:354|412:354|336:321,1,119.999996337891,12|8,0:3|0:3,0:0:0:0:
293,226,168471,2,0,B|284:94,1,119.999996337891,8|8,0:0|0:3,0:0:0:0:
253,63,168939,1,10,0:3:0:0:
253,63,169096,2,0,B|196:38|196:38|142:61,1,119.999996337891,2|2,0:0|0:0,0:0:0:0:
105,107,169564,1,10,0:3:0:0:
105,107,169721,2,0,B|102:227,1,119.999996337891,8|10,0:0|0:3,0:0:0:0:
158,333,170346,6,0,B|212:356|212:356|268:331,1,119.999996337891,8|8,0:3|0:3,0:0:0:0:
372,271,170971,1,8,0:0:0:0:
437,170,171283,2,0,L|441:89,1,59.9999981689453,12|8,0:0|0:3,0:0:0:0:
413,56,171596,2,0,B|360:24|360:24|303:41,1,119.999996337891,10|8,0:3|0:3,0:0:0:0:
234,138,172221,2,0,L|230:219,1,59.9999981689453,10|8,0:0|0:0,0:0:0:0:
201,250,172533,2,0,L|197:331,1,59.9999981689453,8|8,0:0|0:0,0:0:0:0:
159,345,172846,6,0,P|101:355|53:326,1,103.999999365234,12|8,0:3|0:3,0:0:0:0:
8,246,173471,2,0,L|4:136,1,103.999999365234,10|10,0:0|0:3,0:0:0:0:
17,91,173939,2,0,P|63:73|123:93,1,103.999999365234,10|8,0:3|0:0,0:0:0:0:
147,120,174408,1,2,0:3:0:0:
147,120,174564,2,0,P|218:136|307:101,1,155.999999047851,10|8,0:3|0:3,0:0:0:0:
379,48,175346,6,0,B|430:34|430:34|493:66,1,103.999999365234,10|8,0:3|0:3,0:0:0:0:
496,159,175971,2,0,L|488:279,1,103.999999365234,8|8,0:0|0:3,0:0:0:0:
477,316,176439,1,10,0:3:0:0:
477,316,176596,2,0,B|431:339|431:339|380:325,1,103.999999365234,2|10,0:0|0:3,0:0:0:0:
293,266,177221,1,8,0:0:0:0:
209,327,177533,1,10,0:3:0:0:
125,264,177846,6,0,B|79:241|79:241|28:255,2,103.999999365234,8|8|8,0:3|0:3|0:0,0:0:0:0:
260,351,178939,1,10,0:3:0:0:
260,351,179096,2,0,L|377:349,1,103.999999365234,2|2,0:0|0:0,0:0:0:0:
410,327,179564,1,10,0:3:0:0:
410,326,179721,2,0,P|425:278|407:222,1,103.999999365234,8|10,0:0|0:3,0:0:0:0:
310,202,180346,6,0,L|193:200,1,103.999999365234,10|0,0:3|0:3,0:0:0:0:
106,169,180971,2,0,P|92:119|107:70,1,103.999999365234,8|8,0:0|0:3,0:0:0:0:
150,40,181439,1,10,0:3:0:0:
150,40,181596,2,0,L|267:38,1,103.999999365234,2|10,0:0|0:3,0:0:0:0:
307,59,182064,1,10,0:3:0:0:
307,59,182221,2,0,L|366:54,1,51.9999996826171,8|8,0:0|0:0,0:0:0:0:
405,77,182533,2,0,P|411:102|410:129,1,51.9999996826171,8|8,0:3|0:3,0:0:0:0:
404,180,182846,6,0,L|399:298,1,103.999999365234,12|8,0:3|0:3,0:0:0:0:
319,350,183471,2,0,P|271:358|211:337,1,103.999999365234,10|10,0:0|0:3,0:0:0:0:
198,294,183939,2,0,L|193:190,1,103.999999365234,10|8,0:3|0:0,0:0:0:0:
178,140,184408,1,2,0:3:0:0:
178,140,184564,2,0,B|121:92|121:92|37:145,1,155.999999047851,10|8,0:3|0:3,0:0:0:0:
7,229,185346,6,0,B|6:335,1,103.999999365234,10|8,0:3|0:3,0:0:0:0:
107,354,185971,2,0,P|161:341|215:341,1,103.999999365234,8|8,0:0|0:3,0:0:0:0:
264,356,186439,1,10,0:3:0:0:
264,356,186596,2,0,P|315:354|366:342,1,103.999999365234,2|10,0:0|0:3,0:0:0:0:
445,273,187221,1,8,0:0:0:0:
453,169,187533,1,10,0:3:0:0:
401,78,187846,6,0,P|350:64|291:66,1,103.999999365234,10|8,0:3|0:3,0:0:0:0:
246,154,188471,1,10,0:2:0:0:
201,249,188783,1,10,0:3:0:0:
201,249,188939,2,0,P|151:262|99:262,1,103.999999365234,10|8,0:3|0:0,0:0:0:0:
54,247,189408,1,2,0:0:0:0:
54,247,189564,2,0,L|51:143,1,103.999999365234,10|2,0:3|0:0,0:0:0:0:
167,38,190346,6,0,B|202:27|202:27|234:37|234:37|287:32,1,103.999999365234,8|8,0:3|0:3,0:0:0:0:
352,94,190971,1,8,0:3:0:0:
443,44,191283,1,8,0:3:0:0:
490,136,191596,2,0,B|485:175|485:175|495:205|495:205|491:237,1,103.999999365234,8|0,0:3|0:3,0:0:0:0:
471,288,192064,1,8,0:0:0:0:
471,288,192221,2,0,L|409:284,1,51.9999996826171,8|8,0:3|0:0,0:0:0:0:
371,304,192533,2,0,L|309:300,1,51.9999996826171,8|8,0:3|0:3,0:0:0:0:
271,320,192846,5,4,1:1:0:0:
54,336,201439,6,0,L|46:216,1,103.999999365234,14|8,2:2|0:3,0:0:0:0:
101,136,202064,1,8,0:0:0:0:
101,136,202221,2,0,P|134:123|168:126,1,55.0000016784668,10|8,0:0|0:0,0:0:0:0:
206,133,202533,2,0,P|233:131|258:119,1,55.0000016784668,8|8,0:0|0:0,0:0:0:0:
306,83,202846,6,0,P|368:66|432:94,1,119.999996337891,14|10,0:3|0:3,0:0:0:0:
450,141,203314,1,10,0:3:0:0:
450,141,203471,2,0,L|448:268,1,119.999996337891,8|10,0:0|0:3,0:0:0:0:
431,318,203939,2,0,P|374:335|317:317,1,119.999996337891,2|8,0:0|0:0,0:0:0:0:
249,226,204564,1,10,0:3:0:0:
249,226,204721,2,0,L|246:162,1,59.9999981689453,10|2,0:0|0:0,0:0:0:0:
242,106,205033,2,0,P|220:96|173:89,1,59.9999981689453,10|2,0:3|0:0,0:0:0:0:
131,117,205346,6,0,B|95:117|65:99|65:99|39:99|9:120,1,119.999996337891,10|10,0:3|0:3,0:0:0:0:
2,176,205814,1,10,0:3:0:0:
2,176,205971,2,0,L|5:298,1,119.999996337891,8|10,0:0|0:3,0:0:0:0:
51,333,206439,2,0,B|90:319|130:339|130:339|170:334,1,119.999996337891,10|8,0:3|0:0,0:0:0:0:
333,262,207221,1,10,0:0:0:0:
427,335,207533,1,10,0:3:0:0:
498,238,207846,6,0,B|493:200|493:200|506:160|506:160|499:121,1,119.999996337891,10|10,0:3|0:3,0:0:0:0:
475,72,208314,1,10,0:3:0:0:
475,72,208471,2,0,L|353:64,1,119.999996337891,8|10,0:0|0:3,0:0:0:0:
320,113,208939,2,0,B|313:152|313:152|326:192|326:192|321:230,1,119.999996337891,10|8,0:3|0:0,0:0:0:0:
284,278,209408,2,0,L|164:270,2,119.999996337891,10|10|10,0:3|0:0|0:3,0:0:0:0:
378,204,210346,6,0,L|388:60,2,119.999996337891,10|8|8,0:3|0:3|0:0,0:0:0:0:
288,282,211283,1,10,0:3:0:0:
288,282,211439,2,0,L|168:274,1,119.999996337891,10|8,0:3|0:0,0:0:0:0:
55,316,212064,1,8,0:3:0:0:
55,316,212221,2,0,L|48:252,1,59.9999981689453,10|8,0:0|0:3,0:0:0:0:
6,214,212533,2,0,L|11:128,1,59.9999981689453,8|8,0:2|0:2,0:0:0:0:
31,97,212846,6,0,P|84:71|143:76,1,119.999996337891,12|8,0:3|0:3,0:0:0:0:
210,175,213471,2,0,L|224:301,1,119.999996337891,8|8,0:0|0:3,0:0:0:0:
271,339,213939,1,10,0:3:0:0:
271,339,214096,2,0,B|324:365|324:365|382:337,1,119.999996337891,2|2,0:0|0:0,0:0:0:0:
423,299,214564,1,10,0:3:0:0:
423,299,214721,2,0,B|430:177,1,119.999996337891,8|10,0:0|0:3,0:0:0:0:
403,62,215346,6,0,B|353:30|353:30|295:56,1,119.999996337891,8|8,0:3|0:3,0:0:0:0:
234,156,215971,1,8,0:0:0:0:
171,258,216283,2,0,B|141:264|141:264|98:251,1,59.9999981689453,12|8,0:0|0:3,0:0:0:0:
79,206,216596,2,0,L|68:75,1,119.999996337891,10|8,0:3|0:3,0:0:0:0:
179,39,217221,2,0,B|219:31|219:31|250:41|250:41|300:34,1,119.999996337891,10|8,0:0|0:3,0:0:0:0:
394,72,217846,6,0,B|426:123|426:123|397:192,1,119.999996337891,14|10,0:3|0:3,0:0:0:0:
369,228,218314,1,10,0:3:0:0:
369,228,218471,2,0,L|236:220,1,119.999996337891,8|10,0:0|0:3,0:0:0:0:
192,240,218939,2,0,B|160:291|160:291|183:346,1,119.999996337891,2|8,0:0|0:0,0:0:0:0:
301,368,219564,1,10,0:3:0:0:
301,368,219721,2,0,L|367:370,1,59.9999981689453,10|2,0:0|0:0,0:0:0:0:
419,357,220033,2,0,B|433:339|433:339|437:292,1,59.9999981689453,10|2,0:3|0:0,0:0:0:0:
436,241,220346,6,0,L|441:112,1,119.999996337891,10|10,0:3|0:3,0:0:0:0:
429,67,220814,1,10,0:3:0:0:
429,67,220971,2,0,P|375:45|315:51,1,119.999996337891,8|10,0:0|0:3,0:0:0:0:
288,104,221439,2,0,L|275:227,1,119.999996337891,10|8,0:3|0:0,0:0:0:0:
143,346,222221,1,10,0:0:0:0:
32,300,222533,1,10,0:3:0:0:
33,179,222846,6,0,L|42:56,1,119.999996337891,10|10,0:3|0:3,0:0:0:0:
93,26,223314,1,10,0:3:0:0:
93,26,223471,2,0,B|134:24|134:24|170:35|170:35|211:32,1,119.999996337891,8|10,0:0|0:3,0:0:0:0:
257,70,223939,2,0,L|265:189,1,119.999996337891,10|8,0:3|0:0,0:0:0:0:
309,230,224408,2,0,P|373:240|425:212,2,119.999996337891,10|10|10,0:3|0:0|0:3,0:0:0:0:
231,137,225346,6,0,P|177:112|119:123,2,119.999996337891,10|8|8,0:3|0:3|0:0,0:0:0:0:
313,234,226283,1,10,0:3:0:0:
313,234,226439,2,0,P|377:244|429:216,1,119.999996337891,10|8,0:3|0:0,0:0:0:0:
498,125,227064,1,8,0:3:0:0:
498,125,227221,2,0,L|497:59,1,59.9999981689453,10|8,0:0|0:0,0:0:0:0:
452,25,227533,2,0,P|422:16|384:21,1,59.9999981689453,8|8,0:3|0:3,0:0:0:0:
342,49,227846,6,0,P|288:73|230:62,1,119.999996337891,14|10,0:3|0:3,0:0:0:0:
181,38,228314,1,10,0:3:0:0:
181,38,228471,2,0,P|126:14|68:26,1,119.999996337891,8|10,0:0|0:3,0:0:0:0:
33,73,228939,2,0,L|27:213,1,119.999996337891,2|8,0:0|0:0,0:0:0:0:
81,300,229564,1,10,0:3:0:0:
81,300,229721,2,0,L|145:296,1,59.9999981689453,10|2,0:0|0:0,0:0:0:0:
189,260,230033,2,0,L|195:198,1,59.9999981689453,10|2,0:3|0:0,0:0:0:0:
222,146,230346,6,0,P|277:123|337:136,1,119.999996337891,10|10,0:3|0:3,0:0:0:0:
383,179,230814,1,10,0:3:0:0:
383,179,230971,2,0,L|385:302,1,119.999996337891,8|10,0:0|0:3,0:0:0:0:
347,345,231439,2,0,P|292:367|234:356,1,119.999996337891,10|8,0:3|0:0,0:0:0:0:
60,307,232221,1,10,0:0:0:0:
41,188,232533,1,10,0:3:0:0:
119,96,232846,6,0,B|177:78|177:78|236:95,1,119.999996337891,10|10,0:3|0:3,0:0:0:0:
265,145,233314,1,10,0:3:0:0:
265,145,233471,2,0,L|270:271,1,119.999996337891,8|10,0:0|0:3,0:0:0:0:
309,309,233939,2,0,B|365:325|365:325|423:307,1,119.999996337891,10|8,0:3|0:0,0:0:0:0:
463,261,234408,2,0,L|468:135,2,119.999996337891,10|10|10,0:3|0:0|0:3,0:0:0:0:
363,327,235346,6,0,L|243:320,2,119.999996337891,10|8|8,0:3|0:3|0:0,0:0:0:0:
467,265,236283,1,10,0:3:0:0:
467,265,236439,2,0,L|472:139,1,119.999996337891,10|8,0:3|0:0,0:0:0:0:
419,36,237064,1,8,0:3:0:0:
419,36,237221,2,0,P|383:28|344:28,1,59.9999981689453,10|8,0:2|0:3,0:0:0:0:
312,63,237533,2,0,P|282:70|252:72,1,59.9999981689453,8|8,0:0|0:0,0:0:0:0:
197,47,237846,6,0,P|128:28|67:57,1,119.999996337891,12|8,0:3|0:3,0:0:0:0:
19,148,238471,2,0,B|10:280,1,119.999996337891,8|8,0:0|0:3,0:0:0:0:
39,327,238939,1,10,0:3:0:0:
39,327,239096,2,0,P|94:346|151:331,1,119.999996337891,2|2,0:0|0:0,0:0:0:0:
198,292,239564,1,10,0:3:0:0:
198,292,239721,2,0,L|207:166,1,119.999996337891,8|10,0:0|0:3,0:0:0:0:
262,65,240346,6,0,P|316:43|374:55,1,119.999996337891,8|8,0:3|0:3,0:0:0:0:
469,129,240971,1,8,0:0:0:0:
450,247,241283,2,0,L|446:325,1,59.9999981689453,12|8,0:0|0:3,0:0:0:0:
402,348,241596,2,0,L|282:338,1,119.999996337891,10|8,0:3|0:3,0:0:0:0:
164,362,242221,2,0,L|100:357,1,59.9999981689453,10|8,0:0|0:0,0:0:0:0:
65,311,242533,2,0,P|59:273|61:230,1,59.9999981689453,8|8,0:0|0:0,0:0:0:0:
77,199,242846,6,0,L|76:86,1,110.000003356934,14|8,0:3|0:3,0:0:0:0:
115,51,243314,2,0,P|143:46|178:45,1,55.0000016784668,10|8,0:3|0:0,0:0:0:0:
245,132,243783,1,10,0:3:0:0:
245,132,243939,2,0,L|244:241,1,110.000003356934,8|8,0:3|0:0,0:0:0:0:
323,327,244564,1,8,0:3:0:0:
323,327,244721,2,0,P|378:342|440:323,1,110.000003356934,10|8,0:0|0:3,0:0:0:0:
487,236,245346,6,0,L|491:120,1,110.000003356934,10|8,0:3|0:3,0:0:0:0:
455,83,245814,2,0,P|424:76|396:79,1,55.0000016784668,10|8,0:3|0:0,0:0:0:0:
305,132,246283,1,10,0:3:0:0:
305,132,246439,1,8,0:3:0:0:
209,76,246752,2,0,L|205:15,2,55.0000016784668,8|8|8,0:0|0:3|0:3,0:0:0:0:
176,120,247221,2,0,B|146:130|102:114|102:114|85:118|70:128,1,110.000003356934,10|8,0:0|0:3,0:0:0:0:
7,218,247846,6,0,B|15:256|15:256|9:285|9:285|18:348,1,110.000003356934,10|8,0:3|0:3,0:0:0:0:
58,357,248314,2,0,L|113:354,1,55.0000016784668,10|8,0:3|0:0,0:0:0:0:
210,302,248783,1,10,0:3:0:0:
210,302,248939,2,0,B|218:264|218:264|212:235|212:235|221:172,1,110.000003356934,8|8,0:3|0:0,0:0:0:0:
270,96,249564,1,8,0:3:0:0:
270,96,249721,2,0,B|322:74|322:74|385:98,1,110.000003356934,10|8,0:0|0:3,0:0:0:0:
440,179,250346,6,0,B|448:217|448:217|442:246|442:246|451:309,1,110.000003356934,10|8,0:3|0:3,0:0:0:0:
432,339,250814,2,0,L|367:335,1,55.0000016784668,10|8,0:3|0:0,0:0:0:0:
273,364,251283,1,10,0:3:0:0:
273,364,251439,1,8,0:3:0:0:
189,292,251752,2,0,L|187:226,2,55.0000016784668,8|8|8,0:0|0:3|0:3,0:0:0:0:
155,335,252221,2,0,P|126:338|97:335,1,55.0000016784668,10|8,0:2|0:2,0:0:0:0:
58,299,252533,2,0,L|56:233,1,55.0000016784668,8|8,0:3|0:3,0:0:0:0:
34,193,252846,6,0,B|16:158|16:158|13:132|27:85,1,110.000003356934,14|8,0:3|0:3,0:0:0:0:
78,69,253314,2,0,P|109:62|140:62,1,55.0000016784668,10|8,0:3|0:0,0:0:0:0:
213,144,253783,1,10,0:3:0:0:
213,144,253939,2,0,B|259:170|259:170|311:149,1,110.000003356934,8|8,0:3|0:0,0:0:0:0:
402,84,254564,1,8,0:3:0:0:
402,84,254721,2,0,B|454:63|454:63|517:99,1,110.000003356934,10|8,0:0|0:3,0:0:0:0:
498,199,255346,6,0,L|492:316,1,110.000003356934,10|8,0:3|0:3,0:0:0:0:
452,346,255814,2,0,P|424:345|397:340,1,55.0000016784668,10|8,0:3|0:0,0:0:0:0:
298,292,256283,1,10,0:3:0:0:
298,292,256439,1,8,0:3:0:0:
246,194,256752,2,0,L|248:134,2,55.0000016784668,8|8|8,0:0|0:3|0:3,0:0:0:0:
214,239,257221,2,0,B|150:264|150:264|94:240,1,110.000003356934,10|8,0:0|0:3,0:0:0:0:
24,181,257846,6,0,B|20:146|20:146|28:111|28:111|23:72,1,110.000003356934,10|8,0:3|0:3,0:0:0:0:
57,29,258314,2,0,P|83:24|116:29,1,55.0000016784668,10|8,0:3|0:0,0:0:0:0:
210,86,258783,1,10,0:3:0:0:
210,86,258939,2,0,B|214:121|214:121|206:156|206:156|211:195,1,110.000003356934,8|8,0:3|0:0,0:0:0:0:
265,296,259564,1,8,0:3:0:0:
265,296,259721,2,0,B|310:318|310:318|374:293,1,110.000003356934,10|8,0:0|0:3,0:0:0:0:
447,221,260346,6,0,B|451:186|451:186|443:151|443:151|448:112,1,110.000003356934,10|8,0:3|0:3,0:0:0:0:
435,58,260814,2,0,P|407:51|379:49,1,55.0000016784668,10|8,0:3|0:0,0:0:0:0:
301,125,261283,1,10,0:3:0:0:
301,125,261439,1,8,0:3:0:0:
205,69,261752,2,0,L|200:11,2,55.0000016784668,8|8|8,0:0|0:3|0:3,0:0:0:0:
175,115,262221,2,0,P|142:122|104:114,1,55.0000016784668,10|8,0:2|0:3,0:0:0:0:
72,146,262533,2,0,L|63:208,1,55.0000016784668,10|8,0:2|0:2,0:0:0:0:
28,242,262846,5,4,1:1:0:0:
256,192,263002,12,2,266283,0:0:0:0:
