osu file format v14

[General]
AudioFilename: audio.mp3
AudioLeadIn: 0
PreviewTime: 146986
Countdown: 0
SampleSet: Soft
StackLeniency: 0.7
Mode: 0
LetterboxInBreaks: 0
WidescreenStoryboard: 0

[Editor]
DistanceSpacing: 1.2
BeatDivisor: 2
GridSize: 32
TimelineZoom: 1.3

[Metadata]
Title:Jiyuu no Hane
TitleUnicode:自由の翅
Artist:Hiromi Sato
ArtistUnicode:佐藤ひろ美
Creator:Lasse
Version:Insane
Source:月影のシミュラクル-解放の羽-
Tags:Tsukikage no Simulacre -Kaihou no Hane- Opening Eroge Visual Novel Applique Meis Clauson Full Version Komore schoolboy
BeatmapID:1492822
BeatmapSetID:703718

[Difficulty]
HPDrainRate:6
CircleSize:4
OverallDifficulty:7.4
ApproachRate:8.7
SliderMultiplier:2
SliderTickRate:1

[Events]
//Background and Video events
0,0,"a.jpg",0,0
//Break Periods
2,193046,200794
//Storyboard Layer 0 (Background)
//Storyboard Layer 1 (Fail)
//Storyboard Layer 2 (Pass)
//Storyboard Layer 3 (Foreground)
//Storyboard Sound Samples

[TimingPoints]
2846,625,4,2,1,70,1,0
2846,-66.6666666666667,4,2,1,70,0,0
4174,-66.6666666666667,4,2,99,5,0,0
4252,-66.6666666666667,4,2,1,70,0,0
6674,-66.6666666666667,4,2,99,5,0,0
6752,-66.6666666666667,4,2,1,70,0,0
9174,-66.6666666666667,4,2,99,5,0,0
9252,-66.6666666666667,4,2,1,70,0,0
11674,-66.6666666666667,4,2,99,5,0,0
11752,-66.6666666666667,4,2,1,70,0,0
12533,-66.6666666666667,4,2,2,70,0,0
12846,-66.6666666666667,4,2,1,70,0,0
14174,-66.6666666666667,4,2,99,5,0,0
14252,-66.6666666666667,4,2,1,70,0,0
16674,-66.6666666666667,4,2,99,5,0,0
16752,-66.6666666666667,4,2,1,70,0,0
19174,-66.6666666666667,4,2,99,5,0,0
19252,-66.6666666666667,4,2,1,70,0,0
21674,-66.6666666666667,4,2,99,5,0,0
21752,-66.6666666666667,4,2,1,70,0,0
22846,-166.666666666667,4,2,75,50,0,0
27846,-153.846153846154,4,2,75,50,0,0
32846,-142.857142857143,4,2,75,50,0,0
37846,-133.333333333333,4,2,75,50,0,0
41908,-117.647058823529,4,2,75,51,0,0
42012,-117.647058823529,4,2,75,52,0,0
42116,-117.647058823529,4,2,75,53,0,0
42221,-117.647058823529,4,2,75,54,0,0
42377,-117.647058823529,4,2,75,50,0,0
42533,-117.647058823529,4,2,76,54,0,0
42689,-117.647058823529,4,2,76,50,0,0
42846,-100,4,2,1,56,0,0
47846,-100,4,2,1,58,0,0
52846,-90.9090909090909,4,2,1,60,0,0
57846,-90.9090909090909,4,2,1,62,0,0
60033,-125,4,2,1,50,0,0
60189,-111.111111111111,4,2,75,30,0,0
60346,-90.9090909090909,4,2,1,54,0,0
60658,-90.9090909090909,4,2,1,56,0,0
60971,-90.9090909090909,4,2,1,58,0,0
61283,-90.9090909090909,4,2,1,62,0,0
61596,-90.9090909090909,4,2,1,64,0,0
61908,-90.9090909090909,4,2,1,66,0,0
62064,-90.9090909090909,4,2,1,68,0,0
62142,-90.9090909090909,4,2,1,69,0,0
62221,-76.9230769230769,4,2,1,70,0,0
62377,-76.9230769230769,4,2,1,71,0,0
62533,-76.9230769230769,4,2,2,72,0,0
62689,-76.9230769230769,4,2,2,73,0,0
62846,-62.5,4,2,1,74,0,1
63080,-62.5,4,2,99,5,0,1
63158,-62.5,4,2,1,74,0,1
65580,-62.5,4,2,99,5,0,1
65658,-62.5,4,2,1,74,0,1
68080,-62.5,4,2,99,5,0,1
68158,-62.5,4,2,1,74,0,1
71908,-62.5,4,2,1,68,0,1
72221,-62.5,4,2,1,70,0,0
72377,-62.5,4,2,1,71,0,0
72533,-62.5,4,2,2,72,0,0
72689,-62.5,4,2,2,73,0,0
72846,-62.5,4,2,1,74,0,1
73080,-62.5,4,2,99,5,0,1
73158,-62.5,4,2,1,74,0,1
75580,-62.5,4,2,99,5,0,1
75658,-62.5,4,2,1,74,0,1
78080,-62.5,4,2,99,5,0,1
78158,-62.5,4,2,1,74,0,1
81908,-62.5,4,2,1,70,0,1
82221,-62.5,4,2,1,73,0,0
82533,-62.5,4,2,1,72,0,0
82846,-62.5,4,2,1,70,0,1
87846,-66.6666666666667,4,2,1,70,0,0
89174,-66.6666666666667,4,2,99,5,0,0
89252,-66.6666666666667,4,2,1,70,0,0
91674,-66.6666666666667,4,2,99,5,0,0
91752,-66.6666666666667,4,2,1,70,0,0
94174,-66.6666666666667,4,2,99,5,0,0
94252,-66.6666666666667,4,2,1,70,0,0
96674,-66.6666666666667,4,2,99,5,0,0
96752,-66.6666666666667,4,2,1,70,0,0
97533,-66.6666666666667,4,2,2,70,0,0
97846,-66.6666666666667,4,2,1,70,0,0
99174,-66.6666666666667,4,2,99,5,0,0
99252,-66.6666666666667,4,2,1,70,0,0
101674,-66.6666666666667,4,2,99,5,0,0
101752,-66.6666666666667,4,2,1,70,0,0
104174,-66.6666666666667,4,2,99,5,0,0
104252,-66.6666666666667,4,2,1,70,0,0
106674,-66.6666666666667,4,2,99,5,0,0
106752,-66.6666666666667,4,2,1,70,0,0
107846,-200,4,2,75,44,0,0
110033,-200,4,2,75,38,0,0
110346,-200,4,2,75,44,0,0
112846,-181.818181818182,4,2,75,46,0,0
116908,-142.857142857143,4,2,75,48,0,0
117012,-142.857142857143,4,2,75,49,0,0
117116,-142.857142857143,4,2,75,50,0,0
117221,-142.857142857143,4,2,75,52,0,0
117377,-142.857142857143,4,2,75,48,0,0
117533,-142.857142857143,4,2,75,52,0,0
117689,-142.857142857143,4,2,75,48,0,0
117846,-125,4,2,1,52,0,0
122846,-111.111111111111,4,2,1,54,0,0
127064,-111.111111111111,4,2,1,48,0,0
127142,-111.111111111111,4,2,1,50,0,0
127221,-111.111111111111,4,2,1,52,0,0
127846,-100,4,2,1,56,0,0
132846,-100,4,2,1,58,0,0
137533,-100,4,2,2,58,0,0
137846,-90.9090909090909,4,2,1,60,0,0
142846,-90.9090909090909,4,2,1,62,0,0
145033,-125,4,2,1,50,0,0
145189,-111.111111111111,4,2,75,30,0,0
145346,-90.9090909090909,4,2,1,54,0,0
145658,-90.9090909090909,4,2,1,56,0,0
145971,-90.9090909090909,4,2,1,58,0,0
146283,-76.9230769230769,4,2,1,60,0,0
146517,-76.9230769230769,4,2,1,61,0,0
146596,-76.9230769230769,4,2,1,62,0,0
146752,-76.9230769230769,4,2,1,63,0,0
146908,-76.9230769230769,4,2,2,64,0,0
147064,-76.9230769230769,4,2,2,65,0,0
147221,-76.9230769230769,4,2,1,66,0,0
147325,-76.9230769230769,4,2,1,67,0,0
147429,-76.9230769230769,4,2,1,62,0,0
147533,-76.9230769230769,4,2,2,68,0,0
147637,-76.9230769230769,4,2,2,69,0,0
147741,-76.9230769230769,4,2,2,70,0,0
147846,-60.6060606060606,4,2,1,76,0,1
148080,-60.6060606060606,4,2,99,5,0,1
148158,-60.6060606060606,4,2,1,76,0,1
150580,-60.6060606060606,4,2,99,5,0,1
150658,-60.6060606060606,4,2,1,76,0,1
153080,-60.6060606060606,4,2,99,5,0,1
153158,-60.6060606060606,4,2,1,76,0,1
156908,-60.6060606060606,4,2,1,70,0,1
157221,-60.6060606060606,4,2,1,72,0,0
157377,-60.6060606060606,4,2,1,73,0,0
157533,-60.6060606060606,4,2,2,74,0,0
157689,-60.6060606060606,4,2,2,75,0,0
157846,-60.6060606060606,4,2,1,76,0,1
158080,-60.6060606060606,4,2,99,5,0,1
158158,-60.6060606060606,4,2,1,76,0,1
160580,-60.6060606060606,4,2,99,5,0,1
160658,-60.6060606060606,4,2,1,76,0,1
163080,-60.6060606060606,4,2,99,5,0,1
163158,-60.6060606060606,4,2,1,76,0,1
166908,-60.6060606060606,4,2,1,72,0,1
167221,-60.6060606060606,4,2,1,75,0,0
167533,-60.6060606060606,4,2,1,74,0,0
167846,-60.6060606060606,4,2,1,72,0,1
172846,-76.9230769230769,4,2,1,66,0,0
182533,-76.9230769230769,4,2,2,66,0,0
182846,-76.9230769230769,4,2,1,64,0,0
190346,-76.9230769230769,4,2,1,54,0,0
190658,-76.9230769230769,4,2,1,55,0,0
190971,-76.9230769230769,4,2,1,56,0,0
191283,-76.9230769230769,4,2,1,57,0,0
191596,-76.9230769230769,4,2,1,58,0,0
191908,-76.9230769230769,4,2,1,59,0,0
192064,-76.9230769230769,4,2,1,60,0,0
192142,-76.9230769230769,4,2,1,61,0,0
192221,-76.9230769230769,4,2,1,62,0,0
192377,-76.9230769230769,4,2,1,63,0,0
192533,-76.9230769230769,4,2,2,64,0,0
192689,-76.9230769230769,4,2,2,65,0,0
192846,-76.9230769230769,4,2,2,60,0,0
201439,-76.9230769230769,4,2,1,64,0,0
201752,-76.9230769230769,4,2,1,60,0,0
201908,-76.9230769230769,4,2,1,64,0,0
202064,-76.9230769230769,4,2,1,60,0,0
202142,-76.9230769230769,4,2,1,62,0,0
202221,-76.9230769230769,4,2,1,64,0,0
202377,-76.9230769230769,4,2,1,66,0,0
202533,-76.9230769230769,4,2,1,68,0,0
202689,-76.9230769230769,4,2,1,70,0,0
202846,-58.8235294117647,4,2,1,78,0,1
203080,-58.8235294117647,4,2,99,5,0,1
203158,-58.8235294117647,4,2,1,78,0,1
205580,-58.8235294117647,4,2,99,5,0,1
205658,-58.8235294117647,4,2,1,78,0,1
208080,-58.8235294117647,4,2,99,5,0,1
208158,-58.8235294117647,4,2,1,78,0,1
211908,-58.8235294117647,4,2,1,74,0,1
212221,-58.8235294117647,4,2,1,77,0,0
212533,-58.8235294117647,4,2,1,76,0,0
212846,-58.8235294117647,4,2,1,74,0,1
217221,-58.8235294117647,4,2,1,78,0,0
217533,-58.8235294117647,4,2,2,78,0,0
217846,-57.1428571428571,4,2,1,80,0,1
218080,-57.1428571428571,4,2,99,5,0,1
218158,-57.1428571428571,4,2,1,80,0,1
220580,-57.1428571428571,4,2,99,5,0,1
220658,-57.1428571428571,4,2,1,80,0,1
223080,-57.1428571428571,4,2,99,5,0,1
223158,-57.1428571428571,4,2,1,80,0,1
227221,-57.1428571428571,4,2,1,80,0,0
227846,-57.1428571428571,4,2,1,80,0,1
228080,-57.1428571428571,4,2,99,5,0,1
228158,-57.1428571428571,4,2,1,80,0,1
230580,-57.1428571428571,4,2,99,5,0,1
230658,-57.1428571428571,4,2,1,80,0,1
233080,-57.1428571428571,4,2,99,5,0,1
233158,-57.1428571428571,4,2,1,80,0,1
236908,-57.1428571428571,4,2,1,76,0,1
237221,-57.1428571428571,4,2,1,79,0,0
237533,-57.1428571428571,4,2,1,78,0,0
237846,-57.1428571428571,4,2,1,76,0,1
242846,-66.6666666666667,4,2,1,70,0,0
244174,-66.6666666666667,4,2,99,5,0,0
244252,-66.6666666666667,4,2,1,70,0,0
246674,-66.6666666666667,4,2,99,5,0,0
246752,-66.6666666666667,4,2,1,70,0,0
249174,-66.6666666666667,4,2,99,5,0,0
249252,-66.6666666666667,4,2,1,70,0,0
251674,-66.6666666666667,4,2,99,5,0,0
251752,-66.6666666666667,4,2,1,70,0,0
252533,-66.6666666666667,4,2,2,70,0,0
252846,-66.6666666666667,4,2,1,70,0,0
254174,-66.6666666666667,4,2,99,5,0,0
254252,-66.6666666666667,4,2,1,70,0,0
256674,-66.6666666666667,4,2,99,5,0,0
256752,-66.6666666666667,4,2,1,70,0,0
259174,-66.6666666666667,4,2,99,5,0,0
259252,-66.6666666666667,4,2,1,70,0,0
261674,-66.6666666666667,4,2,99,5,0,0
261752,-66.6666666666667,4,2,1,70,0,0
262846,-162.60162601626,4,2,2,60,0,0
263002,-162.60162601626,4,2,1,5,0,0
263158,-162.60162601626,4,2,1,5,0,0
272846,-162.60162601626,4,2,99,5,0,0

[Colours]
Combo1 : 150,210,220
Combo2 : 140,200,250
Combo3 : 160,190,210
Combo4 : 175,190,255

[HitObjects]
32,284,2846,6,0,P|39:209|43:134,1,150.000005722046,14|8,0:3|0:3,0:0:0:0:
155,198,3314,1,10,0:3:0:0:
196,80,3471,2,0,P|158:75|121:72,1,75.000002861023,8|0,0:0|0:0,0:0:0:0:
266,207,3783,5,10,0:3:0:0:
266,207,3939,2,0,P|341:199|416:195,1,150.000005722046,8|8,0:3|0:0,0:0:0:0:
415,195,4564,1,8,0:3:0:0:
266,207,4721,2,0,P|228:204|191:199,1,75.000002861023,10|0,0:0|0:0,0:0:0:0:
353,289,5033,2,0,P|390:284|427:281,1,75.000002861023,8|0,0:3|0:0,0:0:0:0:
274,356,5346,6,0,P|272:282|266:207,1,150.000005722046,10|8,0:3|0:3,0:0:0:0:
185,326,5814,1,10,0:3:0:0:
353,289,5971,2,0,P|390:284|427:281,1,75.000002861023,8|0,0:0|0:0,0:0:0:0:
269,210,6283,5,10,0:3:0:0:
269,210,6439,2,0,P|202:206|114:206,1,150.000005722046,8|8,0:3|0:0,0:0:0:0:
34,301,6908,1,8,0:3:0:0:
34,301,7064,1,8,0:3:0:0:
119,205,7221,2,0,P|125:163|127:118,1,75.000002861023,10|0,0:0|0:0,0:0:0:0:
34,301,7533,2,0,P|28:343|26:388,1,75.000002861023,8|0,0:3|0:0,0:0:0:0:
119,205,7846,6,0,P|193:200|268:200,1,150.000005722046,10|8,0:3|0:3,0:0:0:0:
371,261,8314,1,10,0:3:0:0:
277,184,8471,2,0,P|239:179|202:176,1,75.000002861023,8|0,0:0|0:0,0:0:0:0:
93,245,8783,5,10,0:3:0:0:
93,245,8939,2,0,P|98:173|101:83,1,150.000005722046,8|8,0:3|0:0,0:0:0:0:
101,95,9564,1,8,0:3:0:0:
202,176,9721,2,0,P|244:170|278:169,1,75.000002861023,10|0,0:0|0:0,0:0:0:0:
93,245,10033,2,0,P|51:239|17:238,1,75.000002861023,8|0,0:3|0:0,0:0:0:0:
196,326,10346,6,0,P|197:253|204:164,1,150.000005722046,10|8,0:3|0:3,0:0:0:0:
296,101,10814,1,10,0:3:0:0:
395,169,10971,2,0,P|431:164|469:157,1,75.000002861023,8|0,0:0|0:0,0:0:0:0:
300,105,11283,5,10,0:3:0:0:
300,105,11439,2,0,P|233:101|144:94,1,150.000005722046,8|8,0:3|0:0,0:0:0:0:
41,146,11908,1,8,0:3:0:0:
41,146,12064,1,8,0:3:0:0:
150,94,12221,5,10,0:2:0:0:
41,146,12377,1,8,0:2:0:0:
70,66,12533,1,8,0:3:0:0:
121,175,12689,1,8,0:3:0:0:
230,122,12846,6,0,P|300:118|384:118,1,150.000005722046,14|8,0:3|0:3,0:0:0:0:
486,172,13314,1,10,0:3:0:0:
394,286,13471,2,0,P|394:249|396:212,1,75.000002861023,8|0,0:0|0:0,0:0:0:0:
244,298,13783,5,10,0:3:0:0:
244,298,13939,2,0,P|319:290|394:286,1,150.000005722046,8|8,0:3|0:0,0:0:0:0:
393,286,14564,1,8,0:3:0:0:
243,298,14721,2,0,P|206:295|169:291,1,75.000002861023,10|0,0:0|0:0,0:0:0:0:
332,364,15033,2,0,P|371:367|409:371,1,75.000002861023,8|0,0:3|0:0,0:0:0:0:
263,285,15346,6,0,P|189:272|114:265,1,150.000005722046,10|8,0:3|0:3,0:0:0:0:
21,341,15814,1,10,0:3:0:0:
107,244,15971,2,0,P|145:242|189:241,1,75.000002861023,8|0,0:0|0:0,0:0:0:0:
1,176,16283,5,10,0:3:0:0:
1,176,16439,2,0,P|-3:101|0:26,1,150.000005722046,8|8,0:3|0:0,0:0:0:0:
102,104,16908,1,8,0:3:0:0:
102,104,17064,1,8,0:3:0:0:
210,51,17221,2,0,P|247:47|307:47,1,75.000002861023,10|0,0:0|0:0,0:0:0:0:
102,104,17533,2,0,P|64:107|5:108,1,75.000002861023,8|0,0:3|0:0,0:0:0:0:
268,195,17846,6,0,P|279:120|284:46,1,150.000005722046,10|8,0:3|0:3,0:0:0:0:
199,130,18314,1,10,0:3:0:0:
361,124,18471,2,0,P|401:119|448:118,1,75.000002861023,8|0,0:0|0:0,0:0:0:0:
283,223,18783,5,10,0:3:0:0:
283,223,18939,2,0,P|195:213|126:211,1,150.000005722046,8|8,0:3|0:0,0:0:0:0:
133,210,19564,1,8,0:3:0:0:
283,223,19721,2,0,P|322:224|359:222,1,75.000002861023,10|0,0:0|0:0,0:0:0:0:
178,302,20033,2,0,P|139:301|102:303,1,75.000002861023,8|0,0:3|0:0,0:0:0:0:
276,372,20346,6,0,P|281:297|282:222,1,150.000005722046,10|8,0:3|0:3,0:0:0:0:
205,130,20814,1,10,0:3:0:0:
86,152,20971,2,0,P|50:147|12:140,1,75.000002861023,8|0,0:0|0:0,0:0:0:0:
140,32,21283,5,10,0:3:0:0:
140,32,21439,2,0,P|207:28|298:25,1,150.000005722046,8|8,0:3|0:0,0:0:0:0:
403,73,21908,1,8,0:3:0:0:
403,73,22064,1,8,0:3:0:0:
289,25,22221,5,10,0:2:0:0:
322,106,22377,1,8,0:3:0:0:
391,159,22533,1,10,0:2:0:0:
424,240,22689,1,8,0:2:0:0:
412,325,22846,6,0,P|410:357|409:388,2,59.9999981689453,12|2|8,0:3|0:0|0:0,0:0:0:0:
333,259,23783,1,10,0:3:0:0:
333,259,23939,1,8,0:3:0:0:
333,259,24096,2,0,P|290:253|265:248,1,59.9999981689453,8|8,0:3|0:3,0:0:0:0:
274,250,24721,2,0,P|231:256|206:261,1,59.9999981689453,8|0,0:0|0:0,0:0:0:0:
120,299,25346,6,0,P|85:297|56:294,2,59.9999981689453,8|2|8,0:3|0:0|0:0,0:0:0:0:
124,303,26439,1,8,0:3:0:0:
124,303,26596,2,0,P|89:301|60:298,1,59.9999981689453,8|8,0:3|0:3,0:0:0:0:
64,298,27221,2,0,P|29:300|0:303,1,59.9999981689453,8|0,0:0|0:0,0:0:0:0:
33,195,27846,6,0,P|31:163|28:129,2,64.9999970245362,8|2|8,0:3|0:0|0:0,0:0:0:0:
136,233,28783,1,10,0:3:0:0:
136,233,28939,1,8,0:3:0:0:
136,233,29096,2,0,P|168:227|206:223,1,64.9999970245362,8|8,0:3|0:3,0:0:0:0:
200,223,29721,2,0,P|232:229|270:233,1,64.9999970245362,8|0,0:0|0:0,0:0:0:0:
361,159,30346,6,0,P|364:131|370:89,2,64.9999970245362,8|2|8,0:3|0:0|0:0,0:0:0:0:
365,163,31439,1,8,0:3:0:0:
365,163,31596,2,0,P|368:135|374:93,1,64.9999970245362,8|8,0:3|0:3,0:0:0:0:
373,98,32221,2,0,P|370:70|364:28,1,64.9999970245362,8|0,0:0|0:0,0:0:0:0:
219,45,32846,6,0,P|183:40|148:37,2,69.9999978637695,12|2|8,0:3|0:0|0:0,0:0:0:0:
292,143,33783,1,10,0:3:0:0:
292,143,33939,1,8,0:3:0:0:
292,143,34096,2,0,P|295:173|297:217,1,69.9999978637695,8|8,0:3|0:3,0:0:0:0:
297,213,34721,2,0,P|294:243|292:287,1,69.9999978637695,8|0,0:0|0:0,0:0:0:0:
164,334,35346,6,0,P|162:299|159:264,2,69.9999978637695,8|2|8,0:3|0:0|0:0,0:0:0:0:
168,338,36439,1,8,0:3:0:0:
168,338,36596,2,0,P|166:303|163:268,1,69.9999978637695,8|8,0:3|0:3,0:0:0:0:
163,268,37221,2,0,P|165:233|168:198,1,69.9999978637695,8|0,0:0|0:0,0:0:0:0:
96,87,37846,6,0,P|64:83|19:73,2,75.000002861023,8|2|8,0:3|0:0|0:0,0:0:0:0:
224,51,38783,1,10,0:3:0:0:
224,51,38939,1,8,0:3:0:0:
224,51,39096,2,0,P|260:42|297:37,1,75.000002861023,8|8,0:3|0:3,0:0:0:0:
298,37,39721,2,0,P|334:46|371:51,1,75.000002861023,8|0,0:0|0:0,0:0:0:0:
487,129,40346,6,0,P|489:89|491:54,2,75.000002861023,8|2|8,0:3|0:0|0:0,0:0:0:0:
491,133,41439,1,8,0:3:0:0:
491,133,41596,2,0,P|489:93|487:58,1,75.000002861023,8|8,0:3|0:3,0:0:0:0:
466,30,42012,1,8,0:3:0:0:
431,23,42116,1,8,0:3:0:0:
396,31,42221,6,0,P|382:31|339:21,1,42.5000008106231,8|8,0:1|0:1,0:0:0:0:
448,128,42533,2,0,P|462:128|505:138,1,42.5000008106231,8|0,0:3|0:0,0:0:0:0:
364,211,42846,6,0,P|360:159|352:108,2,99.9999999999999,12|2|8,0:3|0:0|0:0,0:0:0:0:
364,211,43783,1,2,0:0:0:0:
301,275,43939,2,0,P|265:270|201:267,1,99.9999999999999,10|10,0:3|0:3,0:0:0:0:
119,304,44408,2,0,P|69:302|19:295,2,99.9999999999999,10|8|0,0:3|0:0|0:0,0:0:0:0:
119,304,45346,6,0,P|169:306|219:313,2,99.9999999999999,8|2|8,0:3|0:0|0:0,0:0:0:0:
119,304,46283,1,2,0:0:0:0:
70,228,46439,2,0,P|66:183|63:123,1,99.9999999999999,10|10,0:3|0:3,0:0:0:0:
126,64,46908,2,0,P|175:55|224:45,2,99.9999999999999,10|8|0,0:3|0:0|0:0,0:0:0:0:
63,129,47689,1,8,0:3:0:0:
150,150,47846,6,0,P|199:158|248:168,2,99.9999999999999,8|2|8,0:3|0:0|0:0,0:0:0:0:
150,150,48783,1,2,0:0:0:0:
248,168,48939,2,0,P|297:160|346:150,1,99.9999999999999,10|10,0:3|0:3,0:0:0:0:
424,194,49408,2,0,P|432:243|442:292,1,99.9999999999999,10|8,0:3|0:0,0:0:0:0:
442,292,50033,5,2,0:0:0:0:
377,356,50189,2,0,P|345:347|324:343,1,50,2|8,0:0|0:3,0:0:0:0:
241,361,50502,1,2,0:0:0:0:
241,361,50658,2,0,P|238:304|232:246,1,99.9999999999999,2|8,0:0|0:0,0:0:0:0:
233,261,51283,5,8,0:3:0:0:
155,214,51439,2,0,P|104:211|55:210,1,99.9999999999999,8|8,0:3|0:3,0:0:0:0:
8,132,51908,2,0,P|4:107|2:79,1,50,8|0,0:3|0:0,0:0:0:0:
82,12,52221,5,10,0:0:0:0:
82,12,52377,1,8,0:3:0:0:
122,98,52533,1,8,0:0:0:0:
176,20,52689,1,8,0:0:0:0:
287,56,52846,6,0,P|336:53|402:45,2,110.000003356934,12|2|8,0:3|0:0|0:0,0:0:0:0:
287,56,53783,1,2,0:0:0:0:
330,144,53939,2,0,P|379:147|445:155,1,110.000003356934,10|10,0:3|0:3,0:0:0:0:
499,233,54408,2,0,P|495:287|488:342,2,110.000003356934,10|8|0,0:3|0:0|0:0,0:0:0:0:
499,233,55346,6,0,P|492:178|488:123,2,110.000003356934,8|2|8,0:3|0:0|0:0,0:0:0:0:
499,233,56283,1,2,0:0:0:0:
417,288,56439,2,0,P|361:280|294:275,1,110.000003356934,10|10,0:3|0:3,0:0:0:0:
217,317,56908,2,0,P|162:319|107:319,2,110.000003356934,10|8|0,0:3|0:0|0:0,0:0:0:0:
308,276,57689,1,8,0:3:0:0:
227,217,57846,6,0,P|219:156|212:88,2,110.000003356934,8|2|8,0:3|0:0|0:0,0:0:0:0:
227,217,58783,1,2,0:0:0:0:
308,276,58939,2,0,P|362:273|417:273,1,110.000003356934,2|10,0:3|0:3,0:0:0:0:
488,202,59408,2,0,P|491:147|497:92,1,110.000003356934,10|8,0:3|0:0,0:0:0:0:
497,92,60033,6,0,P|473:88|449:82,1,40,2|0,0:2|0:0,0:0:0:0:
340,111,60346,5,8,0:3:0:0:
186,24,60658,1,8,0:3:0:0:
41,143,60971,1,8,0:3:0:0:
120,324,61283,1,8,0:3:0:0:
326,290,61596,1,8,0:3:0:0:
366,74,61908,1,8,0:3:0:0:
444,163,62064,5,8,0:3:0:0:
444,163,62142,1,8,0:3:0:0:
444,163,62221,1,10,0:3:0:0:
366,74,62377,1,8,0:0:0:0:
244,97,62533,1,8,0:3:0:0:
211,222,62689,1,8,0:3:0:0:
59,167,62846,6,0,P|52:103|43:7,1,160,14|10,0:3|0:3,0:0:0:0:
153,130,63314,1,10,0:3:0:0:
261,60,63471,2,0,P|327:55|367:55,1,79.9999999999999,8|0,0:0|0:0,0:0:0:0:
227,204,63783,5,10,0:3:0:0:
153,130,63939,2,0,P|116:127|70:125,1,79.9999999999999,2|0,0:0|0:0,0:0:0:0:
305,146,64252,2,0,P|342:143|388:141,1,79.9999999999999,8|0,0:0|0:0,0:0:0:0:
260,357,64564,5,10,0:3:0:0:
163,346,64721,1,10,0:0:0:0:
143,252,64877,1,2,0:0:0:0:
227,204,65033,1,10,0:3:0:0:
298,268,65189,1,2,0:0:0:0:
163,346,65346,6,0,P|84:337|-3:334,1,160,10|10,0:3|0:3,0:0:0:0:
25,150,65814,1,10,0:3:0:0:
147,206,65971,2,0,P|185:205|231:203,1,79.9999999999999,8|0,0:0|0:0,0:0:0:0:
29,154,66283,5,10,0:3:0:0:
151,210,66439,2,0,P|230:207|310:197,1,160,10|8,0:3|0:0,0:0:0:0:
426,275,66908,5,8,0:3:0:0:
426,275,67064,1,8,0:3:0:0:
498,183,67221,2,0,P|503:150|506:97,1,79.9999999999999,10|0,0:0|0:0,0:0:0:0:
426,275,67533,2,0,P|421:308|416:363,1,79.9999999999999,10|0,0:3|0:0,0:0:0:0:
310,196,67846,6,0,P|210:184|136:184,1,160,10|10,0:3|0:3,0:0:0:0:
39,246,68314,1,10,0:3:0:0:
2,122,68471,2,0,P|1:88|5:8,1,79.9999999999999,8|0,0:0|0:0,0:0:0:0:
43,250,68783,5,10,0:3:0:0:
150,183,68939,2,0,P|229:172|309:170,1,160,10|8,0:3|0:0,0:0:0:0:
445,239,69408,5,10,0:3:0:0:
445,239,69564,1,8,0:3:0:0:
327,291,69721,2,0,P|288:282|236:275,1,79.9999999999999,10|0,0:0|0:0,0:0:0:0:
140,344,70033,2,0,P|101:352|61:358,1,79.9999999999999,10|0,0:3|0:0,0:0:0:0:
0,224,70346,6,0,P|11:146|15:55,1,160,10|8,0:3|0:3,0:0:0:0:
139,146,70814,1,8,0:3:0:0:
252,84,70971,2,0,P|296:77|358:74,1,79.9999999999999,8|0,0:0|0:0,0:0:0:0:
143,150,71283,5,10,0:3:0:0:
256,88,71439,2,0,P|299:82|439:83,1,160,10|8,0:3|0:0,0:0:0:0:
508,168,71908,5,8,0:3:0:0:
508,168,72064,1,8,0:3:0:0:
415,80,72221,5,10,0:0:0:0:
399,173,72377,1,8,0:0:0:0:
469,248,72533,1,8,0:3:0:0:
461,359,72689,1,8,0:3:0:0:
341,317,72846,6,0,P|276:313|157:312,1,160,14|10,0:3|0:3,0:0:0:0:
65,366,73314,1,10,0:3:0:0:
8,254,73471,2,0,P|6:218|2:162,1,79.9999999999999,8|0,0:0|0:0,0:0:0:0:
164,81,73783,5,10,0:3:0:0:
83,180,73939,2,0,P|40:177|0:175,1,79.9999999999999,2|0,0:0|0:0,0:0:0:0:
164,81,74252,2,0,P|207:78|247:76,1,79.9999999999999,8|0,0:0|0:0,0:0:0:0:
377,266,74564,5,10,0:3:0:0:
415,177,74721,1,10,0:0:0:0:
344,113,74877,1,2,0:0:0:0:
260,161,75033,1,10,0:3:0:0:
280,255,75189,1,2,0:0:0:0:
415,177,75346,6,0,P|420:112|424:8,1,160,10|10,0:3|0:3,0:0:0:0:
281,64,75814,1,10,0:3:0:0:
156,33,75971,2,0,P|116:28|73:25,1,79.9999999999999,8|0,0:0|0:0,0:0:0:0:
285,68,76283,5,10,0:3:0:0:
160,37,76439,2,0,P|120:32|-13:27,1,160,10|8,0:3|0:0,0:0:0:0:
68,211,76908,5,8,0:3:0:0:
68,211,77064,1,8,0:3:0:0:
155,116,77221,2,0,P|158:82|159:30,1,79.9999999999999,10|0,0:0|0:0,0:0:0:0:
68,211,77533,2,0,P|63:244|64:297,1,79.9999999999999,10|0,0:3|0:0,0:0:0:0:
155,116,77846,6,0,P|255:104|329:104,1,160,10|10,0:3|0:3,0:0:0:0:
414,182,78314,1,10,0:3:0:0:
505,92,78471,2,0,P|507:49|507:-24,1,79.9999999999999,8|0,0:0|0:0,0:0:0:0:
418,186,78783,5,10,0:3:0:0:
314,103,78939,2,0,P|235:92|155:90,1,160,10|8,0:3|0:0,0:0:0:0:
17,168,79408,5,10,0:3:0:0:
17,168,79564,1,8,0:3:0:0:
142,194,79721,2,0,P|181:185|233:178,1,79.9999999999999,10|0,0:0|0:0,0:0:0:0:
322,263,80033,2,0,P|361:271|400:276,1,79.9999999999999,10|0,0:3|0:0,0:0:0:0:
223,338,80346,6,0,P|215:258|220:178,1,160,10|8,0:3|0:3,0:0:0:0:
322,263,80814,1,8,0:3:0:0:
223,338,80971,2,0,P|179:336|117:328,1,79.9999999999999,8|0,0:0|0:0,0:0:0:0:
326,267,81283,5,10,0:3:0:0:
228,342,81439,2,0,P|183:341|61:320,1,160,10|8,0:3|0:0,0:0:0:0:
0,211,81908,5,8,0:3:0:0:
0,211,82064,1,8,0:3:0:0:
82,112,82221,6,0,P|125:106|186:104,1,79.9999999999999,10|8,0:2|0:3,0:0:0:0:
267,175,82533,1,8,0:0:0:0:
376,108,82689,1,8,0:0:0:0:
474,212,82846,6,0,P|468:270|462:376,1,160,12|8,0:3|0:3,0:0:0:0:
462,371,83314,1,8,0:3:0:0:
376,307,83471,2,0,P|324:298|208:292,1,160,8|8,0:0|0:3,0:0:0:0:
70,357,83939,5,10,0:3:0:0:
45,247,84096,2,0,P|41:204|37:155,1,79.9999999999999,2|8,0:0|0:0,0:0:0:0:
217,291,84408,1,2,0:0:0:0:
253,184,84565,2,0,P|257:141|261:92,1,79.9999999999999,10|8,0:3|0:0,0:0:0:0:
260,104,85033,5,10,0:3:0:0:
260,104,85189,1,2,0:0:0:0:
376,47,85346,5,8,0:3:0:0:
431,143,85502,1,8,0:0:0:0:
487,47,85658,1,8,0:3:0:0:
487,47,85814,1,8,0:3:0:0:
376,47,85971,6,0,P|333:39|287:34,1,79.9999999999999,8|0,0:0|0:0,0:0:0:0:
127,113,86283,2,0,P|84:121|38:126,1,79.9999999999999,12|8,0:0|0:3,0:0:0:0:
200,220,86596,5,10,0:3:0:0:
232,113,86752,1,8,0:0:0:0:
336,151,86908,2,0,P|376:149|415:151,1,80,8|8,0:3|0:3,0:0:0:0:
435,149,87142,1,8,0:3:0:0:
454,144,87221,6,0,P|459:105|462:65,1,80,10|8,0:0|0:0,0:0:0:0:
375,8,87533,1,8,0:0:0:0:
301,81,87689,1,8,0:0:0:0:
171,42,87846,6,0,P|89:35|14:32,1,150.000005722046,14|8,0:3|0:3,0:0:0:0:
62,171,88314,1,10,0:3:0:0:
181,115,88471,2,0,P|178:77|170:41,1,75.000002861023,8|0,0:0|0:0,0:0:0:0:
278,198,88783,5,10,0:3:0:0:
278,198,88939,2,0,P|282:111|294:45,1,150.000005722046,8|8,0:3|0:0,0:0:0:0:
293,49,89564,1,8,0:3:0:0:
278,198,89721,2,0,P|232:199|202:197,1,75.000002861023,10|0,0:0|0:0,0:0:0:0:
371,123,90033,2,0,P|417:122|447:124,1,75.000002861023,8|0,0:3|0:0,0:0:0:0:
387,272,90346,6,0,P|384:197|371:123,1,150.000005722046,10|8,0:3|0:3,0:0:0:0:
273,42,90814,1,10,0:3:0:0:
152,84,90971,2,0,P|113:82|78:76,1,75.000002861023,8|0,0:0|0:0,0:0:0:0:
233,192,91283,5,10,0:3:0:0:
233,192,91439,2,0,P|298:187|388:188,1,150.000005722046,8|8,0:3|0:0,0:0:0:0:
487,261,91908,1,8,0:3:0:0:
487,261,92064,1,8,0:3:0:0:
492,133,92221,2,0,P|494:101|500:45,1,75.000002861023,10|0,0:0|0:0,0:0:0:0:
487,261,92533,2,0,P|489:293|495:349,1,75.000002861023,8|0,0:3|0:0,0:0:0:0:
382,187,92846,6,0,P|308:182|233:182,1,150.000005722046,10|8,0:3|0:3,0:0:0:0:
118,240,93314,1,10,0:3:0:0:
217,164,93471,2,0,P|255:159|292:156,1,75.000002861023,8|0,0:0|0:0,0:0:0:0:
228,313,93783,5,10,0:3:0:0:
228,313,93939,2,0,P|223:236|215:150,1,150.000005722046,8|8,0:3|0:0,0:0:0:0:
216,163,94564,1,8,0:3:0:0:
228,313,94721,2,0,P|270:319|304:320,1,75.000002861023,10|0,0:0|0:0,0:0:0:0:
118,240,95033,2,0,P|76:234|42:233,1,75.000002861023,8|0,0:3|0:0,0:0:0:0:
220,167,95346,6,0,P|225:92|226:17,1,150.000005722046,10|8,0:3|0:3,0:0:0:0:
121,88,95814,1,10,0:3:0:0:
220,167,95971,2,0,P|254:169|297:160,1,75.000002861023,8|0,0:0|0:0,0:0:0:0:
386,59,96283,5,10,0:3:0:0:
386,59,96439,2,0,P|379:142|377:229,1,150.000005722046,8|8,0:3|0:0,0:0:0:0:
445,309,96908,1,8,0:3:0:0:
445,309,97064,1,8,0:3:0:0:
377,208,97221,5,10,0:2:0:0:
445,309,97377,1,8,0:2:0:0:
459,224,97533,1,8,0:3:0:0:
361,293,97689,1,8,0:3:0:0:
292,192,97846,6,0,P|220:182|138:176,1,150.000005722046,14|8,0:3|0:3,0:0:0:0:
17,195,98314,1,10,0:3:0:0:
134,251,98471,2,0,P|139:216|143:176,1,75.000002861023,8|0,0:0|0:0,0:0:0:0:
49,315,98783,5,10,0:3:0:0:
49,315,98939,2,0,P|121:305|203:299,1,150.000005722046,8|8,0:3|0:0,0:0:0:0:
198,299,99564,1,8,0:3:0:0:
49,315,99721,2,0,P|10:309|-25:308,1,75.000002861023,10|0,0:0|0:0,0:0:0:0:
154,213,100033,2,0,P|193:207|228:206,1,75.000002861023,8|0,0:3|0:0,0:0:0:0:
26,168,100346,6,0,P|32:84|35:-2,1,150.000005722046,10|8,0:3|0:3,0:0:0:0:
130,126,100814,1,10,0:3:0:0:
246,72,100971,2,0,P|282:70|329:71,1,75.000002861023,8|0,0:0|0:0,0:0:0:0:
265,220,101283,5,10,0:3:0:0:
265,220,101439,2,0,P|251:146|245:71,1,150.000005722046,8|8,0:3|0:0,0:0:0:0:
132,12,101908,1,8,0:3:0:0:
132,12,102064,1,8,0:3:0:0:
58,116,102221,2,0,P|20:117|-39:112,1,75.000002861023,10|0,0:0|0:0,0:0:0:0:
179,162,102533,2,0,P|217:161|276:166,1,75.000002861023,8|0,0:3|0:0,0:0:0:0:
63,265,102846,6,0,P|57:190|57:115,1,150.000005722046,10|8,0:3|0:3,0:0:0:0:
132,12,103314,1,10,0:3:0:0:
246,72,103471,2,0,P|285:68|331:60,1,75.000002861023,8|0,0:0|0:0,0:0:0:0:
451,168,103783,5,10,0:3:0:0:
451,168,103939,2,0,P|363:158|294:156,1,150.000005722046,8|8,0:3|0:0,0:0:0:0:
301,155,104564,1,8,0:3:0:0:
451,168,104721,2,0,P|492:169|528:167,1,75.000002861023,10|0,0:0|0:0,0:0:0:0:
369,243,105033,2,0,P|328:242|292:244,1,75.000002861023,8|0,0:3|0:0,0:0:0:0:
444,317,105346,6,0,P|449:242|450:167,1,150.000005722046,10|8,0:3|0:3,0:0:0:0:
391,54,105814,1,10,0:3:0:0:
265,80,105971,2,0,P|227:79|175:74,1,75.000002861023,8|0,0:0|0:0,0:0:0:0:
50,11,106283,5,10,0:3:0:0:
50,11,106439,2,0,P|57:69|66:172,1,150.000005722046,8|8,0:3|0:0,0:0:0:0:
34,284,106908,1,8,0:3:0:0:
34,284,107064,1,8,0:3:0:0:
65,160,107221,5,10,0:2:0:0:
150,171,107377,1,8,0:3:0:0:
219,224,107533,1,10,0:2:0:0:
306,235,107689,1,8,0:2:0:0:
375,288,107846,6,0,P|378:315|379:347,2,50,12|2|8,0:3|0:0|0:0,0:0:0:0:
459,203,108783,1,8,0:3:0:0:
459,203,108939,1,8,0:3:0:0:
459,203,109096,2,0,P|456:176|455:144,1,50,10|0,0:3|0:0,0:0:0:0:
455,153,109721,2,0,P|458:126|459:94,1,50,2|8,0:0|0:0,0:0:0:0:
340,27,110346,6,0,P|308:22|285:16,2,50,10|2|2,0:3|0:0|0:0,0:0:0:0:
344,31,111596,2,0,P|312:26|289:20,1,50,8|0,0:3|0:0,0:0:0:0:
295,22,112221,2,0,P|270:25|245:31,1,50,10|0,0:3|0:0,0:0:0:0:
138,92,112846,6,0,P|133:64|129:34,2,55.0000016784668,10|2|8,0:3|0:0|0:0,0:0:0:0:
57,197,113783,1,8,0:3:0:0:
57,197,113939,1,8,0:3:0:0:
57,197,114096,2,0,P|52:224|48:251,1,55.0000016784668,10|0,0:3|0:0,0:0:0:0:
48,251,114721,2,0,P|53:278|57:305,1,55.0000016784668,2|0,0:0|0:0,0:0:0:0:
189,357,115346,6,0,P|193:329|198:302,2,55.0000016784668,8|2|2,0:3|0:0|0:0,0:0:0:0:
193,361,116596,2,0,P|197:333|202:306,1,55.0000016784668,10|8,0:3|0:3,0:0:0:0:
225,291,117012,1,8,0:3:0:0:
252,286,117116,1,8,0:3:0:0:
280,285,117221,6,0,P|298:286|325:281,1,34.9999989318848,8|8,0:1|0:1,0:0:0:0:
242,206,117533,2,0,P|224:203|207:204,1,34.9999989318848,8|0,0:3|0:0,0:0:0:0:
337,145,117846,6,0,P|340:107|348:55,2,79.9999999999999,12|2|8,0:3|0:0|0:0,0:0:0:0:
215,211,118783,1,10,0:3:0:0:
215,211,118939,1,8,0:3:0:0:
215,211,119096,2,0,P|212:173|204:121,1,79.9999999999999,2|8,0:0|0:3,0:0:0:0:
112,41,119721,2,0,P|74:39|33:35,1,79.9999999999999,8|0,0:0|0:0,0:0:0:0:
206,132,120346,6,0,P|244:134|285:138,2,79.9999999999999,8|2|8,0:3|0:0|0:0,0:0:0:0:
206,132,121439,2,0,P|204:174|199:218,1,79.9999999999999,8|8,0:3|0:0,0:0:0:0:
143,256,121908,2,0,P|123:252|96:250,1,40,8|0,0:3|0:0,0:0:0:0:
41,288,122221,2,0,P|33:327|29:367,1,79.9999999999999,10|0,0:0|0:0,0:0:0:0:
190,350,122846,6,0,P|229:348|291:347,2,89.999997253418,8|2|8,0:3|0:0|0:0,0:0:0:0:
41,288,123783,1,10,0:3:0:0:
41,288,123939,1,8,0:3:0:0:
41,288,124096,2,0,P|40:239|37:197,1,89.999997253418,2|8,0:0|0:3,0:0:0:0:
126,84,124721,2,0,P|178:75|225:65,1,89.999997253418,8|0,0:0|0:0,0:0:0:0:
384,95,125346,6,0,P|433:89|478:86,2,89.999997253418,8|2|8,0:3|0:0|0:0,0:0:0:0:
384,95,126439,2,0,P|378:145|378:194,1,89.999997253418,8|8,0:3|0:0,0:0:0:0:
337,255,126908,2,0,P|310:250|287:247,1,44.999998626709,8|8,0:3|0:2,0:0:0:0:
277,253,127142,1,8,0:2:0:0:
265,263,127221,6,0,P|258:294|254:318,1,44.999998626709,10|8,0:2|0:3,0:0:0:0:
190,367,127533,1,8,0:0:0:0:
190,367,127689,1,8,0:0:0:0:
99,298,127846,6,0,P|52:291|-19:287,2,99.9999999999999,12|2|8,0:3|0:0|0:0,0:0:0:0:
99,298,128783,1,2,0:0:0:0:
165,238,128939,2,0,P|171:197|173:135,1,99.9999999999999,10|10,0:3|0:3,0:0:0:0:
232,70,129408,2,0,P|279:63|350:59,2,99.9999999999999,10|8|0,0:3|0:0|0:0,0:0:0:0:
232,70,130346,6,0,P|185:77|114:81,2,99.9999999999999,8|2|8,0:3|0:0|0:0,0:0:0:0:
232,70,131283,1,2,0:0:0:0:
324,92,131439,2,0,P|371:85|442:81,1,99.9999999999999,10|10,0:3|0:3,0:0:0:0:
479,151,131908,2,0,P|476:198|473:268,2,99.9999999999999,10|8|0,0:3|0:0|0:0,0:0:0:0:
423,81,132689,1,8,0:3:0:0:
334,99,132846,6,0,P|285:91|236:81,2,99.9999999999999,8|2|8,0:3|0:0|0:0,0:0:0:0:
334,99,133783,1,2,0:0:0:0:
300,184,133939,2,0,P|250:192|201:202,1,99.9999999999999,2|10,0:3|0:3,0:0:0:0:
114,225,134408,2,0,P|64:216|15:206,1,99.9999999999999,10|8,0:3|0:0,0:0:0:0:
15,206,135033,5,2,0:0:0:0:
54,125,135189,2,0,P|58:98|59:67,1,50,2|8,0:0|0:3,0:0:0:0:
136,26,135502,1,2,0:0:0:0:
136,26,135658,2,0,P|188:26|258:22,1,99.9999999999999,2|8,0:0|0:0,0:0:0:0:
235,23,136283,5,8,0:3:0:0:
321,64,136439,2,0,P|373:64|443:68,1,99.9999999999999,8|8,0:3|0:3,0:0:0:0:
483,131,136908,2,0,P|486:161|488:187,1,50,8|0,0:3|0:0,0:0:0:0:
426,266,137221,5,10,0:0:0:0:
426,266,137377,1,8,0:3:0:0:
386,180,137533,1,8,0:3:0:0:
332,258,137689,1,8,0:3:0:0:
235,193,137846,6,0,P|180:186|125:182,2,110.000003356934,12|2|8,0:3|0:0|0:0,0:0:0:0:
235,193,138783,1,2,0:0:0:0:
316,255,138939,2,0,P|370:261|425:265,1,110.000003356934,10|10,0:3|0:3,0:0:0:0:
495,194,139408,2,0,P|499:139|506:84,2,110.000003356934,10|8|0,0:3|0:0|0:0,0:0:0:0:
495,194,140346,6,0,P|501:248|506:303,2,110.000003356934,8|2|8,0:3|0:0|0:0,0:0:0:0:
495,194,141283,1,2,0:0:0:0:
433,124,141439,2,0,P|377:116|310:111,1,110.000003356934,10|10,0:3|0:3,0:0:0:0:
225,129,141908,2,0,P|170:131|115:131,2,110.000003356934,10|8|0,0:3|0:0|0:0,0:0:0:0:
323,111,142689,1,8,0:3:0:0:
297,205,142846,6,0,P|303:266|312:334,2,110.000003356934,8|2|8,0:3|0:0|0:0,0:0:0:0:
297,205,143783,1,2,0:0:0:0:
225,129,143939,2,0,P|170:122|115:117,1,110.000003356934,2|10,0:3|0:3,0:0:0:0:
38,179,144408,2,0,P|24:238|7:305,1,110.000003356934,10|8,0:3|0:0,0:0:0:0:
12,286,145033,6,0,P|16:314|19:339,1,40,2|0,0:0|0:0,0:0:0:0:
105,380,145346,5,8,0:3:0:0:
125,194,145658,1,8,0:3:0:0:
293,90,145971,1,8,0:3:0:0:
479,183,146283,2,0,P|486:211|493:262,1,64.9999970245362,8|0,0:3|0:0,0:0:0:0:
491,246,146517,1,8,0:0:0:0:
491,246,146596,6,0,P|484:274|477:325,1,64.9999970245362,8|8,0:0|0:0,0:0:0:0:
360,375,146908,2,0,P|355:342|347:311,1,64.9999970245362,8|4,0:3|0:3,0:0:0:0:
260,218,147221,5,10,0:0:0:0:
237,230,147325,2,0,P|215:229|193:225,1,43.3333313496908,8|8,0:0|0:3,0:0:0:0:
281,319,147533,5,8,0:3:0:0:
304,307,147637,2,0,P|326:308|347:311,1,43.3333313496908,4|12,0:3|0:3,0:0:0:0:
237,230,147846,6,0,P|155:221|72:217,1,165.000001573562,14|10,0:3|0:3,0:0:0:0:
0,329,148314,1,10,0:3:0:0:
73,217,148471,2,0,P|80:172|85:124,1,82.5000007867812,8|0,0:0|0:0,0:0:0:0:
159,27,148783,5,10,0:3:0:0:
84,135,148939,2,0,P|42:135|1:130,1,82.5000007867812,2|0,0:0|0:0,0:0:0:0:
163,31,149252,2,0,P|204:30|245:35,1,82.5000007867812,8|0,0:0|0:0,0:0:0:0:
343,189,149564,5,10,0:3:0:0:
224,121,149721,1,10,0:0:0:0:
306,112,149877,1,2,0:0:0:0:
279,243,150033,1,10,0:3:0:0:
208,202,150189,1,2,0:0:0:0:
343,189,150346,6,0,P|424:184|514:182,1,165.000001573562,10|10,0:3|0:3,0:0:0:0:
402,300,150814,1,10,0:3:0:0:
343,189,150971,2,0,P|343:162|346:104,1,82.5000007867812,8|0,0:0|0:0,0:0:0:0:
406,304,151283,5,10,0:3:0:0:
347,193,151439,2,0,P|349:123|360:18,1,165.000001573563,10|8,0:3|0:0,0:0:0:0:
487,105,151908,5,8,0:3:0:0:
487,105,152064,1,8,0:3:0:0:
359,29,152221,2,0,P|316:23|274:23,1,82.5000007867812,10|0,0:0|0:0,0:0:0:0:
142,87,152533,2,0,P|100:86|59:80,1,82.5000007867812,10|0,0:3|0:0,0:0:0:0:
254,177,152846,6,0,P|336:166|419:164,1,165.000001573562,10|10,0:3|0:3,0:0:0:0:
487,276,153314,1,10,0:3:0:0:
335,214,153471,2,0,P|295:206|254:202,1,82.5000007867812,8|0,0:0|0:0,0:0:0:0:
111,276,153783,5,10,0:3:0:0:
17,183,153939,2,0,P|14:107|14:10,1,165.000001573562,10|8,0:3|0:0,0:0:0:0:
152,113,154408,5,10,0:3:0:0:
152,113,154564,1,8,0:3:0:0:
253,28,154721,2,0,P|292:19|349:15,1,82.5000007867812,10|0,0:0|0:0,0:0:0:0:
152,113,155033,2,0,P|113:122|56:126,1,82.5000007867812,10|0,0:3|0:0,0:0:0:0:
249,192,155346,6,0,P|252:116|252:19,1,165.000001573562,10|8,0:3|0:3,0:0:0:0:
152,113,155814,1,8,0:3:0:0:
249,192,155971,2,0,P|288:190|355:182,1,82.5000007867812,8|0,0:0|0:0,0:0:0:0:
144,261,156283,5,10,0:3:0:0:
253,196,156439,2,0,P|297:189|439:192,1,165.000001573562,10|8,0:3|0:0,0:0:0:0:
501,291,156908,5,8,0:3:0:0:
501,291,157064,1,8,0:3:0:0:
417,189,157221,5,10,0:0:0:0:
319,172,157377,1,8,0:0:0:0:
240,244,157533,1,8,0:3:0:0:
125,236,157689,1,8,0:3:0:0:
18,175,157846,6,0,P|14:104|16:0,1,165.000001573562,14|10,0:3|0:3,0:0:0:0:
145,98,158314,1,10,0:3:0:0:
261,34,158471,2,0,P|291:31|353:27,1,82.5000007867812,8|0,0:0|0:0,0:0:0:0:
399,146,158783,5,10,0:3:0:0:
267,116,158939,2,0,P|263:70|260:30,1,82.5000007867812,2|0,0:0|0:0,0:0:0:0:
403,150,159252,2,0,P|406:191|409:232,1,82.5000007867812,8|0,0:0|0:0,0:0:0:0:
279,336,159564,5,10,0:3:0:0:
293,200,159721,1,10,0:0:0:0:
332,272,159877,1,2,0:0:0:0:
200,297,160033,1,10,0:3:0:0:
211,215,160189,1,2,0:0:0:0:
279,336,160346,6,0,P|359:333|478:331,1,165.000001573562,10|10,0:3|0:3,0:0:0:0:
505,215,160814,1,10,0:3:0:0:
423,110,160971,2,0,P|380:105|340:102,1,82.5000007867812,8|0,0:0|0:0,0:0:0:0:
509,219,161283,5,10,0:3:0:0:
427,114,161439,2,0,P|385:109|241:103,1,165.000001573562,10|8,0:3|0:0,0:0:0:0:
166,195,161908,5,8,0:3:0:0:
166,195,162064,1,8,0:3:0:0:
262,102,162221,2,0,P|265:68|266:16,1,82.5000007867812,10|0,0:0|0:0,0:0:0:0:
166,195,162533,2,0,P|163:229|162:281,1,82.5000007867812,10|0,0:3|0:0,0:0:0:0:
13,119,162846,6,0,P|92:117|178:105,1,165.000001573562,10|10,0:3|0:3,0:0:0:0:
261,206,163314,1,10,0:3:0:0:
388,168,163471,2,0,P|393:138|398:82,1,82.5000007867812,8|0,0:0|0:0,0:0:0:0:
265,210,163783,5,10,0:3:0:0:
392,172,163939,2,0,P|397:142|402:0,1,165.000001573563,10|8,0:3|0:0,0:0:0:0:
268,66,164408,5,10,0:3:0:0:
268,66,164564,1,8,0:3:0:0:
141,27,164721,2,0,P|90:21|50:20,1,82.5000007867812,10|0,0:0|0:0,0:0:0:0:
268,66,165033,2,0,P|319:72|359:73,1,82.5000007867812,10|0,0:3|0:0,0:0:0:0:
147,191,165346,6,0,P|139:111|141:21,1,165.000001573562,10|8,0:3|0:3,0:0:0:0:
268,66,165814,1,8,0:3:0:0:
389,12,165971,2,0,P|428:7|471:4,1,82.5000007867812,8|0,0:0|0:0,0:0:0:0:
371,164,166283,5,10,0:3:0:0:
268,66,166439,2,0,P|187:55|96:54,1,165.000001573562,10|8,0:3|0:0,0:0:0:0:
0,144,166908,5,8,0:3:0:0:
0,144,167064,1,8,0:3:0:0:
91,239,167221,2,0,P|134:233|195:231,1,82.5000007867812,10|8,0:2|0:3,0:0:0:0:
303,247,167533,1,8,0:0:0:0:
371,359,167689,1,8,0:0:0:0:
482,244,167846,6,0,P|489:164|494:80,1,165.000001573562,12|8,0:3|0:3,0:0:0:0:
494,79,168314,1,8,0:3:0:0:
385,121,168471,2,0,P|323:119|212:103,1,165.000001573562,8|8,0:0|0:3,0:0:0:0:
95,31,168939,5,10,0:3:0:0:
37,131,169096,2,0,P|34:174|32:214,1,82.5000007867812,2|8,0:0|0:0,0:0:0:0:
221,104,169408,1,2,0:0:0:0:
282,201,169564,2,0,P|284:242|286:283,1,82.5000007867812,10|8,0:3|0:0,0:0:0:0:
286,283,170033,5,10,0:3:0:0:
286,283,170189,1,2,0:0:0:0:
189,220,170346,5,8,0:3:0:0:
146,321,170502,1,8,0:0:0:0:
78,233,170658,1,8,0:3:0:0:
78,233,170814,1,8,0:3:0:0:
189,220,170971,6,0,P|237:212|288:200,1,82.5000007867812,8|0,0:0|0:0,0:0:0:0:
111,34,171283,2,0,P|70:25|29:18,1,82.5000007867812,12|8,0:0|0:3,0:0:0:0:
0,194,171596,5,10,0:3:0:0:
103,144,171752,1,8,0:0:0:0:
189,220,171908,2,0,P|228:224|272:224,1,82.5000007867812,8|8,0:3|0:3,0:0:0:0:
288,234,172142,1,8,0:3:0:0:
304,246,172221,6,0,P|309:285|312:331,1,82.5000007867812,10|8,0:0|0:0,0:0:0:0:
411,368,172533,1,8,0:0:0:0:
501,310,172689,1,8,0:0:0:0:
454,185,172846,6,0,P|452:129|452:47,1,129.999994049072,12|8,0:3|0:3,0:0:0:0:
451,55,173314,1,8,0:3:0:0:
365,114,173471,2,0,P|312:112|230:104,1,129.999994049072,10|10,0:0|0:3,0:0:0:0:
139,143,173939,2,0,P|74:145|9:152,1,129.999994049072,10|8,0:3|0:0,0:0:0:0:
97,238,174408,5,2,0:3:0:0:
139,143,174564,2,0,P|142:106|142:75,1,64.9999970245362,10|8,0:3|0:0,0:0:0:0:
97,238,174877,2,0,P|94:275|94:306,1,64.9999970245362,2|8,0:0|0:3,0:0:0:0:
94,303,175346,6,0,P|157:298|228:298,1,129.999994049072,10|8,0:3|0:3,0:0:0:0:
223,297,175814,1,8,0:3:0:0:
320,348,175971,2,0,P|383:353|454:353,1,129.999994049072,8|8,0:0|0:3,0:0:0:0:
508,246,176439,5,10,0:3:0:0:
458,160,176596,2,0,P|455:128|454:78,1,64.9999970245362,2|8,0:0|0:0,0:0:0:0:
512,250,176908,1,10,0:3:0:0:
462,164,177064,2,0,P|430:161|380:160,1,64.9999970245362,10|8,0:3|0:0,0:0:0:0:
397,159,177533,5,10,0:3:0:0:
397,159,177689,1,2,0:3:0:0:
299,196,177846,2,0,P|234:193|169:188,1,129.999994049072,8|8,0:3|0:3,0:0:0:0:
169,188,178314,1,8,0:3:0:0:
76,139,178471,2,0,P|74:93|67:8,1,129.999994049072,8|0,0:0|0:3,0:0:0:0:
187,96,178939,5,10,0:3:0:0:
274,38,179096,2,0,P|306:35|343:35,1,64.9999970245362,2|8,0:0|0:2,0:0:0:0:
191,100,179408,1,2,0:0:0:0:
278,42,179565,2,0,P|310:39|347:39,1,64.9999970245362,10|8,0:3|0:0,0:0:0:0:
342,38,180033,5,10,0:3:0:0:
342,38,180189,1,2,0:0:0:0:
420,124,180346,2,0,P|425:173|430:259,1,129.999994049072,10|0,0:3|0:3,0:0:0:0:
429,253,180814,1,8,0:3:0:0:
357,329,180971,2,0,P|302:323|221:316,1,129.999994049072,8|8,0:0|0:3,0:0:0:0:
102,344,181439,5,10,0:3:0:0:
51,252,181596,2,0,P|50:218|50:179,1,64.9999970245362,2|8,0:0|0:0,0:0:0:0:
100,96,181908,1,10,0:3:0:0:
100,96,182064,1,10,0:3:0:0:
201,119,182221,2,0,P|225:119|294:112,1,64.9999970245362,8|8,0:0|0:0,0:0:0:0:
347,52,182533,1,8,0:3:0:0:
450,62,182689,1,8,0:3:0:0:
494,185,182846,6,0,P|490:209|479:340,1,129.999994049072,12|8,0:3|0:3,0:0:0:0:
479,314,183314,1,8,0:3:0:0:
387,363,183471,2,0,P|331:357|252:353,1,129.999994049072,10|10,0:0|0:3,0:0:0:0:
206,262,183939,2,0,P|201:197|191:132,1,129.999994049072,10|8,0:3|0:0,0:0:0:0:
140,41,184408,5,2,0:3:0:0:
86,130,184564,2,0,P|54:129|13:126,1,64.9999970245362,10|8,0:3|0:0,0:0:0:0:
191,133,184877,2,0,P|223:134|264:137,1,64.9999970245362,2|8,0:0|0:3,0:0:0:0:
256,136,185346,6,0,P|317:136|390:131,1,129.999994049072,10|8,0:3|0:3,0:0:0:0:
385,131,185814,1,8,0:3:0:0:
338,36,185971,2,0,P|275:31|204:31,1,129.999994049072,8|8,0:0|0:3,0:0:0:0:
85,52,186439,5,10,0:3:0:0:
151,132,186596,2,0,P|154:160|156:203,1,64.9999970245362,2|8,0:0|0:0,0:0:0:0:
89,56,186908,5,10,0:3:0:0:
155,136,187065,2,0,P|191:139|236:141,1,64.9999970245362,10|8,0:3|0:0,0:0:0:0:
220,141,187533,6,0,P|256:138|301:136,1,64.9999970245362,10|0,0:3|0:0,0:0:0:0:
381,173,187846,2,0,P|446:170|511:165,1,129.999994049072,10|8,0:3|0:3,0:0:0:0:
510,165,188314,1,8,0:3:0:0:
464,268,188471,2,0,P|399:262|334:259,1,129.999994049072,10|10,0:2|0:3,0:0:0:0:
259,331,188939,5,10,0:3:0:0:
175,268,189096,2,0,P|169:239|162:196,1,64.9999970245362,2|8,0:0|0:0,0:0:0:0:
263,335,189408,1,2,0:0:0:0:
179,272,189565,2,0,P|173:243|166:200,1,64.9999970245362,10|8,0:3|0:0,0:0:0:0:
215,116,189877,2,0,P|221:87|228:44,1,64.9999970245362,2|8,0:0|0:3,0:0:0:0:
392,150,190346,5,8,0:3:0:0:
226,52,190658,1,8,0:3:0:0:
67,177,190971,1,8,0:3:0:0:
149,375,191283,1,8,0:3:0:0:
372,342,191596,1,8,0:3:0:0:
419,108,191908,1,0,0:3:0:0:
502,206,192064,5,8,0:0:0:0:
502,206,192142,1,8,0:0:0:0:
502,206,192221,1,8,0:3:0:0:
419,108,192377,1,8,0:0:0:0:
287,112,192533,1,8,0:3:0:0:
209,229,192689,1,8,0:3:0:0:
103,84,192846,5,4,1:1:0:0:
8,253,201439,6,0,P|8:228|4:105,1,129.999994049072,14|8,2:2|0:3,0:0:0:0:
82,53,201908,2,0,P|114:46|159:40,1,64.9999970245362,8|8,0:3|0:0,0:0:0:0:
157,57,202142,1,8,0:0:0:0:
166,74,202221,5,10,0:0:0:0:
211,188,202377,1,8,0:0:0:0:
336,220,202533,1,8,0:0:0:0:
423,115,202689,1,8,0:0:0:0:
505,241,202846,6,0,P|422:226|334:220,1,170.000003242493,14|10,0:3|0:3,0:0:0:0:
230,305,203314,1,10,0:3:0:0:
127,214,203471,2,0,P|124:180|121:127,1,85.0000016212463,8|0,0:0|0:0,0:0:0:0:
202,20,203783,5,10,0:3:0:0:
121,129,203939,2,0,P|80:127|16:121,1,85.0000016212463,2|0,0:0|0:0,0:0:0:0:
206,24,204252,2,0,P|247:26|311:32,1,85.0000016212463,8|0,0:0|0:0,0:0:0:0:
396,194,204564,5,10,0:3:0:0:
424,110,204721,1,10,0:0:0:0:
289,105,204877,1,2,0:0:0:0:
311,184,205033,1,10,0:3:0:0:
360,59,205189,1,2,0:0:0:0:
396,194,205346,6,0,P|411:277|419:364,1,170.000003242493,10|10,0:3|0:3,0:0:0:0:
480,241,205814,1,10,0:3:0:0:
340,303,205971,2,0,P|293:303|223:295,1,85.0000016212463,8|0,0:0|0:0,0:0:0:0:
484,245,206283,5,10,0:3:0:0:
344,307,206439,2,0,P|297:307|163:282,1,170.000003242493,10|8,0:3|0:0,0:0:0:0:
41,339,206908,5,8,0:3:0:0:
41,339,207064,1,8,0:3:0:0:
176,286,207221,2,0,P|218:281|260:280,1,85.0000016212463,10|0,0:0|0:0,0:0:0:0:
83,186,207533,2,0,P|39:181|-11:181,1,85.0000016212463,10|0,0:3|0:0,0:0:0:0:
196,70,207846,6,0,P|277:58|373:54,1,170.000003242493,10|10,0:3|0:3,0:0:0:0:
489,108,208314,1,10,0:3:0:0:
445,237,208471,2,0,P|440:274|436:331,1,85.0000016212463,8|0,0:0|0:0,0:0:0:0:
493,112,208783,5,10,0:3:0:0:
449,241,208939,2,0,P|367:252|272:257,1,170.000003242493,10|8,0:3|0:0,0:0:0:0:
149,216,209408,5,10,0:3:0:0:
149,216,209564,1,8,0:3:0:0:
280,257,209721,2,0,P|288:298|290:341,1,85.0000016212463,10|0,0:0|0:0,0:0:0:0:
149,216,210033,2,0,P|140:174|138:131,1,85.0000016212463,10|0,0:3|0:0,0:0:0:0:
27,313,210346,6,0,P|107:305|215:305,1,170.000003242493,10|8,0:3|0:3,0:0:0:0:
319,361,210814,1,8,0:3:0:0:
421,270,210971,2,0,P|427:235|432:181,1,85.0000016212463,8|0,0:0|0:0,0:0:0:0:
323,365,211283,5,10,0:3:0:0:
425,274,211439,2,0,P|431:239|435:98,1,170.000003242493,10|8,0:3|0:0,0:0:0:0:
326,22,211908,5,8,0:3:0:0:
326,22,212064,1,8,0:3:0:0:
202,79,212221,2,0,P|160:76|118:68,1,85.0000016212463,10|8,0:0|0:3,0:0:0:0:
6,145,212533,1,8,0:2:0:0:
35,277,212689,1,8,0:2:0:0:
188,222,212846,6,0,P|258:212|365:209,1,170.000003242493,12|8,0:3|0:3,0:0:0:0:
357,208,213314,1,8,0:3:0:0:
284,112,213471,2,0,P|199:101|114:98,1,170.000003242493,8|8,0:0|0:3,0:0:0:0:
6,145,213939,5,10,0:3:0:0:
72,244,214096,2,0,P|71:287|69:329,1,85.0000016212463,2|8,0:0|0:0,0:0:0:0:
114,98,214408,1,2,0:0:0:0:
184,194,214565,2,0,P|186:236|186:278,1,85.0000016212463,10|8,0:3|0:0,0:0:0:0:
186,278,215033,5,10,0:3:0:0:
186,278,215189,1,2,0:0:0:0:
319,249,215346,5,8,0:3:0:0:
324,357,215502,1,8,0:0:0:0:
418,298,215658,1,8,0:3:0:0:
418,298,215814,1,8,0:3:0:0:
319,249,215971,6,0,P|316:214|315:155,1,85.0000016212463,8|0,0:0|0:0,0:0:0:0:
505,103,216283,2,0,P|508:60|509:18,1,85.0000016212463,12|8,0:0|0:3,0:0:0:0:
466,189,216596,5,10,0:3:0:0:
405,88,216752,1,8,0:0:0:0:
316,165,216908,2,0,P|274:168|231:168,1,85.0000016212463,8|8,0:3|0:3,0:0:0:0:
217,157,217142,1,8,0:3:0:0:
204,145,217221,6,0,P|201:114|198:83,2,56.6666677474975,10|8|8,0:0|0:3|0:3,0:0:0:0:
179,189,217533,5,10,0:3:0:0:
154,233,217637,1,8,0:3:0:0:
129,277,217741,1,8,0:3:0:0:
104,321,217846,6,0,P|103:261|95:139,1,175.00000166893,14|10,0:3|0:3,0:0:0:0:
154,19,218314,1,10,0:3:0:0:
294,20,218471,2,0,P|346:22|400:15,1,87.5000008344649,8|0,0:0|0:0,0:0:0:0:
220,138,218783,5,10,0:3:0:0:
154,19,218939,2,0,P|102:17|48:24,1,87.5000008344649,2|0,0:0|0:0,0:0:0:0:
224,142,219252,2,0,P|276:144|330:137,1,87.5000008344649,8|0,0:0|0:0,0:0:0:0:
440,214,219564,5,10,0:3:0:0:
380,82,219720,1,10,0:0:0:0:
349,223,219876,1,2,0:0:0:0:
458,125,220032,1,10,0:3:0:0:
311,141,220189,1,2,0:0:0:0:
440,214,220346,6,0,P|448:274|455:390,1,175.00000166893,10|10,0:3|0:3,0:0:0:0:
307,306,220814,1,10,0:3:0:0:
178,363,220971,2,0,P|140:362|88:355,1,87.5000008344649,8|0,0:0|0:0,0:0:0:0:
311,310,221283,5,10,0:3:0:0:
182,367,221439,2,0,P|144:366|-2:340,1,175.00000166893,10|8,0:3|0:0,0:0:0:0:
6,171,221908,5,8,0:3:0:0:
6,171,222064,1,8,0:3:0:0:
119,87,222221,2,0,P|124:43|125:0,1,87.5000008344649,10|0,0:0|0:0,0:0:0:0:
6,171,222533,2,0,P|0:214|0:258,1,87.5000008344649,10|0,0:3|0:0,0:0:0:0:
119,87,222846,6,0,P|212:74|293:75,1,175.00000166893,10|10,0:3|0:3,0:0:0:0:
420,132,223314,1,10,0:3:0:0:
307,216,223471,2,0,P|300:266|297:329,1,87.5000008344649,8|0,0:0|0:0,0:0:0:0:
424,136,223783,5,10,0:3:0:0:
311,220,223939,2,0,P|219:218|137:207,1,175.00000166893,10|8,0:3|0:0,0:0:0:0:
37,307,224408,5,10,0:3:0:0:
37,307,224564,1,8,0:3:0:0:
156,232,224721,2,0,P|195:223|257:221,1,87.5000008344649,10|0,0:0|0:0,0:0:0:0:
350,308,225033,2,0,P|392:317|436:319,1,87.5000008344649,10|0,0:3|0:0,0:0:0:0:
512,174,225346,6,0,P|501:96|499:-3,1,175.00000166893,10|8,0:3|0:3,0:0:0:0:
366,85,225814,1,8,0:3:0:0:
230,47,225971,2,0,P|186:40|123:36,1,87.5000008344649,8|0,0:0|0:0,0:0:0:0:
370,89,226283,5,10,0:3:0:0:
234,51,226439,2,0,P|190:44|55:44,1,175.00000166893,10|8,0:3|0:0,0:0:0:0:
2,218,226908,5,8,0:3:0:0:
2,218,227064,1,8,0:3:0:0:
59,43,227221,5,10,0:0:0:0:
75,139,227377,1,8,0:0:0:0:
2,218,227533,1,8,0:3:0:0:
11,333,227689,1,8,0:3:0:0:
193,347,227846,6,0,P|259:340|385:342,1,175.00000166893,14|10,0:3|0:3,0:0:0:0:
502,376,228314,1,10,0:3:0:0:
468,239,228471,2,0,P|469:202|475:145,1,87.5000008344649,8|0,0:0|0:0,0:0:0:0:
376,37,228783,5,10,0:3:0:0:
265,121,228939,2,0,P|223:117|179:111,1,87.5000008344649,2|0,0:0|0:0,0:0:0:0:
380,41,229252,2,0,P|423:45|466:51,1,87.5000008344649,8|0,0:0|0:0,0:0:0:0:
311,280,229564,5,10,0:3:0:0:
391,155,229721,1,10,0:0:0:0:
398,302,229877,1,2,0:0:0:0:
308,189,230033,1,10,0:3:0:0:
448,225,230189,1,2,0:0:0:0:
311,280,230346,6,0,P|240:268|133:262,1,175.00000166893,10|10,0:3|0:3,0:0:0:0:
11,322,230814,1,10,0:3:0:0:
34,183,230971,2,0,P|36:138|35:94,1,87.5000008344649,8|0,0:0|0:0,0:0:0:0:
15,326,231283,5,10,0:3:0:0:
38,187,231439,2,0,P|40:142|29:7,1,175.00000166893,10|8,0:3|0:0,0:0:0:0:
147,142,231908,5,8,0:3:0:0:
147,142,232064,1,8,0:3:0:0:
246,42,232221,2,0,P|289:34|343:33,1,87.5000008344649,10|0,0:0|0:0,0:0:0:0:
147,142,232533,2,0,P|104:150|50:151,1,87.5000008344649,10|0,0:3|0:0,0:0:0:0:
237,216,232846,6,0,P|239:120|247:30,1,175.00000166893,10|10,0:3|0:3,0:0:0:0:
369,160,233314,1,10,0:3:0:0:
490,89,233471,2,0,P|492:46|493:-35,1,87.5000008344649,8|0,0:0|0:0,0:0:0:0:
373,164,233783,5,10,0:3:0:0:
267,72,233939,2,0,P|188:61|89:56,1,175.00000166893,10|8,0:3|0:0,0:0:0:0:
0,186,234408,5,10,0:3:0:0:
0,186,234564,1,8,0:3:0:0:
130,133,234721,2,0,P|173:134|216:141,1,87.5000008344649,10|0,0:0|0:0,0:0:0:0:
336,213,235033,2,0,P|379:219|422:221,1,87.5000008344649,10|0,0:3|0:0,0:0:0:0:
216,316,235346,6,0,P|220:232|217:130,1,175.00000166893,10|8,0:3|0:3,0:0:0:0:
135,26,235814,1,8,0:3:0:0:
39,129,235971,2,0,P|31:174|24:236,1,87.5000008344649,8|0,0:0|0:0,0:0:0:0:
139,30,236283,5,10,0:3:0:0:
43,133,236439,2,0,P|35:178|24:313,1,175.00000166893,10|8,0:3|0:0,0:0:0:0:
152,375,236908,5,8,0:3:0:0:
152,375,237064,1,8,0:3:0:0:
274,306,237221,6,0,P|317:300|385:296,1,87.5000008344649,10|8,0:2|0:3,0:0:0:0:
495,333,237533,1,8,0:0:0:0:
510,194,237689,1,8,0:0:0:0:
361,297,237846,6,0,P|286:290|184:286,1,175.00000166893,12|8,0:3|0:3,0:0:0:0:
186,286,238314,1,8,0:3:0:0:
96,370,238471,2,0,P|104:273|107:192,1,175.00000166893,8|8,0:0|0:3,0:0:0:0:
56,83,238939,5,10,0:3:0:0:
178,91,239096,2,0,P|222:86|285:71,1,87.5000008344649,2|8,0:0|0:0,0:0:0:0:
106,195,239408,1,2,0:0:0:0:
228,187,239565,2,0,P|272:192|335:207,1,87.5000008344649,10|8,0:3|0:0,0:0:0:0:
314,201,240033,5,10,0:3:0:0:
314,201,240189,1,2,0:0:0:0:
391,118,240346,5,8,0:3:0:0:
446,214,240502,1,8,0:0:0:0:
502,118,240658,1,8,0:3:0:0:
502,118,240814,1,8,0:3:0:0:
391,118,240971,6,0,P|348:112|291:101,1,87.5000008344649,8|0,0:0|0:0,0:0:0:0:
117,38,241283,2,0,P|73:45|30:52,1,87.5000008344649,12|8,0:0|0:3,0:0:0:0:
0,209,241596,5,10,0:3:0:0:
98,137,241752,1,8,0:0:0:0:
206,193,241908,2,0,P|243:193|300:186,1,87.5000008344649,8|8,0:3|0:3,0:0:0:0:
313,195,242142,1,8,0:3:0:0:
329,209,242221,6,0,P|337:247|341:299,1,87.5000008344649,10|8,0:0|0:0,0:0:0:0:
245,356,242533,1,8,0:0:0:0:
143,305,242689,1,8,0:0:0:0:
11,368,242846,6,0,P|10:296|4:203,1,150.000005722046,14|8,0:3|0:3,0:0:0:0:
61,104,243314,1,10,0:3:0:0:
181,148,243471,2,0,P|218:144|255:140,1,75.000002861023,8|0,0:0|0:0,0:0:0:0:
404,152,243783,5,10,0:3:0:0:
404,152,243939,2,0,P|329:144|254:140,1,150.000005722046,8|8,0:3|0:0,0:0:0:0:
254,140,244564,1,8,0:3:0:0:
404,152,244721,2,0,P|442:149|479:144,1,75.000002861023,10|0,0:0|0:0,0:0:0:0:
331,232,245033,2,0,P|294:227|257:224,1,75.000002861023,8|0,0:3|0:0,0:0:0:0:
412,301,245346,6,0,P|410:227|404:152,1,150.000005722046,10|8,0:3|0:3,0:0:0:0:
257,224,245814,1,10,0:3:0:0:
158,139,245971,2,0,P|154:103|153:54,1,75.000002861023,8|0,0:0|0:0,0:0:0:0:
10,160,246283,5,10,0:3:0:0:
10,160,246439,2,0,P|76:149|163:139,1,150.000005722046,8|8,0:3|0:0,0:0:0:0:
261,228,246908,1,8,0:3:0:0:
261,228,247064,1,8,0:3:0:0:
158,139,247221,2,0,P|154:103|153:54,1,75.000002861023,10|0,0:0|0:0,0:0:0:0:
261,228,247533,2,0,P|265:264|266:313,1,75.000002861023,8|0,0:3|0:0,0:0:0:0:
158,139,247846,6,0,P|84:134|9:134,1,150.000005722046,10|8,0:3|0:3,0:0:0:0:
81,238,248314,1,10,0:3:0:0:
158,139,248471,2,0,P|163:92|168:59,1,75.000002861023,8|0,0:0|0:0,0:0:0:0:
288,31,248783,5,10,0:3:0:0:
288,31,248939,2,0,P|363:29|449:17,1,150.000005722046,8|8,0:3|0:0,0:0:0:0:
437,19,249564,1,8,0:3:0:0:
288,31,249721,2,0,P|246:25|212:24,1,75.000002861023,10|0,0:0|0:0,0:0:0:0:
369,117,250033,2,0,P|411:111|445:110,1,75.000002861023,8|0,0:3|0:0,0:0:0:0:
251,186,250346,6,0,P|176:176|101:174,1,150.000005722046,10|8,0:3|0:3,0:0:0:0:
0,235,250814,1,10,0:3:0:0:
124,264,250971,2,0,P|158:265|204:270,1,75.000002861023,8|0,0:0|0:0,0:0:0:0:
14,384,251283,5,10,0:3:0:0:
14,384,251439,2,0,P|1:293|0:224,1,150.000005722046,8|8,0:3|0:0,0:0:0:0:
47,116,251908,1,8,0:3:0:0:
47,116,252064,1,8,0:3:0:0:
167,102,252221,5,10,0:2:0:0:
47,116,252377,1,8,0:2:0:0:
101,49,252533,1,8,0:3:0:0:
113,169,252689,1,8,0:3:0:0:
221,35,252846,6,0,P|291:31|375:31,1,150.000005722046,14|8,0:3|0:3,0:0:0:0:
490,75,253314,1,10,0:3:0:0:
368,105,253471,2,0,P|368:68|370:31,1,75.000002861023,8|0,0:0|0:0,0:0:0:0:
478,224,253783,5,10,0:3:0:0:
478,224,253939,2,0,P|486:149|489:74,1,150.000005722046,8|8,0:3|0:0,0:0:0:0:
489,74,254564,1,8,0:3:0:0:
478,224,254721,2,0,P|441:221|404:217,1,75.000002861023,10|0,0:0|0:0,0:0:0:0:
304,136,255033,2,0,P|341:133|378:129,1,75.000002861023,8|0,0:3|0:0,0:0:0:0:
292,285,255346,6,0,P|299:210|303:135,1,150.000005722046,10|8,0:3|0:3,0:0:0:0:
208,51,255814,1,10,0:3:0:0:
93,109,255971,2,0,P|52:108|13:103,1,75.000002861023,8|0,0:0|0:0,0:0:0:0:
30,253,256283,5,10,0:3:0:0:
30,253,256439,2,0,P|22:178|18:103,1,150.000005722046,8|8,0:3|0:0,0:0:0:0:
124,31,256908,1,8,0:3:0:0:
124,31,257064,1,8,0:3:0:0:
235,94,257221,2,0,P|272:98|309:98,1,75.000002861023,10|0,0:0|0:0,0:0:0:0:
124,31,257533,2,0,P|86:26|49:26,1,75.000002861023,8|0,0:3|0:0,0:0:0:0:
230,107,257846,6,0,P|304:99|379:95,1,150.000005722046,10|8,0:3|0:3,0:0:0:0:
486,164,258314,1,10,0:3:0:0:
369,219,258471,2,0,P|329:214|282:213,1,75.000002861023,8|0,0:0|0:0,0:0:0:0:
357,368,258783,5,10,0:3:0:0:
357,368,258939,2,0,P|367:280|369:211,1,150.000005722046,8|8,0:3|0:0,0:0:0:0:
369,218,259564,1,8,0:3:0:0:
357,368,259721,2,0,P|319:369|282:368,1,75.000002861023,10|0,0:0|0:0,0:0:0:0:
373,222,260033,2,0,P|412:221|449:223,1,75.000002861023,8|0,0:3|0:0,0:0:0:0:
237,262,260346,6,0,P|232:187|231:112,1,150.000005722046,10|8,0:3|0:3,0:0:0:0:
314,16,260814,1,10,0:3:0:0:
414,95,260971,2,0,P|465:92|523:84,1,75.000002861023,8|0,0:0|0:0,0:0:0:0:
234,116,261283,5,10,0:3:0:0:
234,116,261439,2,0,P|167:112|76:109,1,150.000005722046,8|8,0:3|0:0,0:0:0:0:
28,238,261908,1,8,0:3:0:0:
28,238,262064,1,8,0:3:0:0:
84,109,262221,5,10,0:2:0:0:
167,73,262377,1,8,0:3:0:0:
189,230,262533,1,10,0:2:0:0:
116,280,262689,1,8,0:2:0:0:
28,238,262846,6,0,B|28:175|56:122|98:86|129:78|188:71|188:71|233:82|265:84|364:83|474:34|474:34|453:78|432:110|387:133|361:143|361:143|387:168|432:169|479:153|479:153|438:211|407:226|353:219|353:219|380:249|427:263|470:269|470:269|413:267|360:273|324:309|324:309|301:332|277:356|228:370|173:370|129:319|117:282|117:282|106:252|91:199|117:127|185:113|232:133|270:165|280:182|293:231|278:266|266:286|240:291|216:292|190:276|182:257|190:223,1,1968.0000300293,4|0,1:1|0:0,0:0:0:0:
