osu file format v14

[General]
AudioFilename: audio.mp3
AudioLeadIn: 0
PreviewTime: 146986
Countdown: 0
SampleSet: Soft
StackLeniency: 0.7
Mode: 0
LetterboxInBreaks: 0
WidescreenStoryboard: 1

[Editor]
DistanceSpacing: 1.2
BeatDivisor: 4
GridSize: 32
TimelineZoom: 2

[Metadata]
Title:Jiyuu no Hane
TitleUnicode:自由の翅
Artist:Hiromi Sato
ArtistUnicode:佐藤ひろ美
Creator:Lasse
Version:Hard
Source:月影のシミュラクル-解放の羽-
Tags:Tsukikage no Simulacre -Kaihou no Hane- Opening Eroge Visual Novel Applique Meis Clauson Full Version Komore schoolboy
BeatmapID:1491273
BeatmapSetID:703718

[Difficulty]
HPDrainRate:5
CircleSize:3.8
OverallDifficulty:6.4
ApproachRate:7.8
SliderMultiplier:2
SliderTickRate:1

[Events]
//Background and Video events
0,0,"a.jpg",0,0
//Break Periods
2,108046,117067
2,193046,200660
//Storyboard Layer 0 (Background)
//Storyboard Layer 1 (Fail)
//Storyboard Layer 2 (Pass)
//Storyboard Layer 3 (Foreground)
//Storyboard Sound Samples

[TimingPoints]
2846,625,4,2,1,70,1,0
2846,-71.4285714285714,4,2,1,70,0,0
4174,-71.4285714285714,4,2,99,5,0,0
4252,-71.4285714285714,4,2,1,70,0,0
6674,-71.4285714285714,4,2,99,5,0,0
6752,-71.4285714285714,4,2,1,70,0,0
9174,-71.4285714285714,4,2,99,5,0,0
9252,-71.4285714285714,4,2,1,70,0,0
11674,-71.4285714285714,4,2,99,5,0,0
11752,-71.4285714285714,4,2,1,70,0,0
12533,-71.4285714285714,4,2,2,70,0,0
12846,-71.4285714285714,4,2,1,70,0,0
14174,-71.4285714285714,4,2,99,5,0,0
14252,-71.4285714285714,4,2,1,70,0,0
16674,-71.4285714285714,4,2,99,5,0,0
16752,-71.4285714285714,4,2,1,70,0,0
19174,-71.4285714285714,4,2,99,5,0,0
19252,-71.4285714285714,4,2,1,70,0,0
21674,-71.4285714285714,4,2,99,5,0,0
21752,-71.4285714285714,4,2,1,70,0,0
22846,-166.666666666667,4,2,75,50,0,0
27846,-153.846153846154,4,2,75,50,0,0
32846,-142.857142857143,4,2,75,50,0,0
37846,-133.333333333333,4,2,75,50,0,0
41908,-133.333333333333,4,2,75,51,0,0
42012,-133.333333333333,4,2,75,52,0,0
42116,-133.333333333333,4,2,75,53,0,0
42221,-117.647058823529,4,2,75,54,0,0
42377,-117.647058823529,4,2,75,50,0,0
42533,-117.647058823529,4,2,76,54,0,0
42689,-117.647058823529,4,2,76,50,0,0
42846,-100,4,2,1,56,0,0
47846,-100,4,2,1,58,0,0
52846,-90.9090909090909,4,2,1,60,0,0
57846,-90.9090909090909,4,2,1,62,0,0
60033,-111.111111111111,4,2,1,50,0,0
60189,-111.111111111111,4,2,75,30,0,0
60346,-90.9090909090909,4,2,1,54,0,0
60658,-90.9090909090909,4,2,1,56,0,0
60971,-90.9090909090909,4,2,1,58,0,0
61283,-90.9090909090909,4,2,1,62,0,0
61596,-90.9090909090909,4,2,1,64,0,0
61908,-90.9090909090909,4,2,1,66,0,0
62064,-90.9090909090909,4,2,1,68,0,0
62142,-90.9090909090909,4,2,1,69,0,0
62221,-76.9230769230769,4,2,1,70,0,0
62377,-76.9230769230769,4,2,1,71,0,0
62533,-76.9230769230769,4,2,2,72,0,0
62689,-76.9230769230769,4,2,2,73,0,0
62846,-66.6666666666667,4,2,1,74,0,1
63080,-66.6666666666667,4,2,99,5,0,1
63158,-66.6666666666667,4,2,1,74,0,1
65580,-66.6666666666667,4,2,99,5,0,1
65658,-66.6666666666667,4,2,1,74,0,1
68080,-66.6666666666667,4,2,99,5,0,1
68158,-66.6666666666667,4,2,1,74,0,1
71908,-66.6666666666667,4,2,1,68,0,1
72221,-66.6666666666667,4,2,1,70,0,0
72377,-66.6666666666667,4,2,1,71,0,0
72533,-66.6666666666667,4,2,2,72,0,0
72689,-66.6666666666667,4,2,2,73,0,0
72846,-66.6666666666667,4,2,1,74,0,1
73080,-66.6666666666667,4,2,99,5,0,1
73158,-66.6666666666667,4,2,1,74,0,1
75580,-66.6666666666667,4,2,99,5,0,1
75658,-66.6666666666667,4,2,1,74,0,1
78080,-66.6666666666667,4,2,99,5,0,1
78158,-66.6666666666667,4,2,1,74,0,1
81908,-66.6666666666667,4,2,1,70,0,1
82221,-66.6666666666667,4,2,1,73,0,0
82533,-66.6666666666667,4,2,1,72,0,0
82846,-66.6666666666667,4,2,1,70,0,1
87846,-71.4285714285714,4,2,1,70,0,0
89174,-71.4285714285714,4,2,99,5,0,0
89252,-71.4285714285714,4,2,1,70,0,0
91674,-71.4285714285714,4,2,99,5,0,0
91752,-71.4285714285714,4,2,1,70,0,0
94174,-71.4285714285714,4,2,99,5,0,0
94252,-71.4285714285714,4,2,1,70,0,0
96674,-71.4285714285714,4,2,99,5,0,0
96752,-71.4285714285714,4,2,1,70,0,0
97533,-71.4285714285714,4,2,2,70,0,0
97846,-71.4285714285714,4,2,1,70,0,0
99174,-71.4285714285714,4,2,99,5,0,0
99252,-71.4285714285714,4,2,1,70,0,0
101674,-71.4285714285714,4,2,99,5,0,0
101752,-71.4285714285714,4,2,1,70,0,0
104174,-71.4285714285714,4,2,99,5,0,0
104252,-71.4285714285714,4,2,1,70,0,0
106674,-71.4285714285714,4,2,99,5,0,0
106752,-71.4285714285714,4,2,1,70,0,0
107846,-200,4,2,75,44,0,0
110033,-200,4,2,75,38,0,0
110346,-200,4,2,75,44,0,0
112846,-200,4,2,75,46,0,0
116908,-200,4,2,75,48,0,0
117012,-200,4,2,75,49,0,0
117116,-200,4,2,75,50,0,0
117221,-200,4,2,75,52,0,0
117377,-200,4,2,75,48,0,0
117533,-200,4,2,75,52,0,0
117689,-200,4,2,75,48,0,0
117846,-125,4,2,1,52,0,0
122846,-111.111111111111,4,2,1,54,0,0
127064,-111.111111111111,4,2,1,48,0,0
127142,-111.111111111111,4,2,1,50,0,0
127221,-111.111111111111,4,2,1,52,0,0
127846,-100,4,2,1,56,0,0
132846,-100,4,2,1,58,0,0
137533,-100,4,2,2,58,0,0
137846,-90.9090909090909,4,2,1,60,0,0
142846,-90.9090909090909,4,2,1,62,0,0
145033,-111.111111111111,4,2,1,50,0,0
145189,-111.111111111111,4,2,75,30,0,0
145346,-90.9090909090909,4,2,1,54,0,0
145658,-90.9090909090909,4,2,1,56,0,0
145971,-90.9090909090909,4,2,1,58,0,0
146283,-90.9090909090909,4,2,1,60,0,0
146517,-90.9090909090909,4,2,1,61,0,0
146596,-76.9230769230769,4,2,1,62,0,0
146752,-76.9230769230769,4,2,1,63,0,0
146908,-76.9230769230769,4,2,2,64,0,0
147064,-76.9230769230769,4,2,2,65,0,0
147221,-76.9230769230769,4,2,1,66,0,0
147325,-76.9230769230769,4,2,1,67,0,0
147429,-76.9230769230769,4,2,1,62,0,0
147533,-76.9230769230769,4,2,2,68,0,0
147637,-76.9230769230769,4,2,2,69,0,0
147741,-76.9230769230769,4,2,2,70,0,0
147846,-66.6666666666667,4,2,1,76,0,1
148080,-66.6666666666667,4,2,99,5,0,1
148158,-66.6666666666667,4,2,1,76,0,1
150580,-66.6666666666667,4,2,99,5,0,1
150658,-66.6666666666667,4,2,1,76,0,1
153080,-66.6666666666667,4,2,99,5,0,1
153158,-66.6666666666667,4,2,1,76,0,1
156908,-66.6666666666667,4,2,1,70,0,1
157221,-66.6666666666667,4,2,1,72,0,0
157377,-66.6666666666667,4,2,1,73,0,0
157533,-66.6666666666667,4,2,2,74,0,0
157689,-66.6666666666667,4,2,2,75,0,0
157846,-66.6666666666667,4,2,1,76,0,1
158080,-66.6666666666667,4,2,99,5,0,1
158158,-66.6666666666667,4,2,1,76,0,1
160580,-66.6666666666667,4,2,99,5,0,1
160658,-66.6666666666667,4,2,1,76,0,1
163080,-66.6666666666667,4,2,99,5,0,1
163158,-66.6666666666667,4,2,1,76,0,1
166908,-66.6666666666667,4,2,1,72,0,1
167221,-66.6666666666667,4,2,1,75,0,0
167533,-66.6666666666667,4,2,1,74,0,0
167846,-66.6666666666667,4,2,1,72,0,1
172846,-76.9230769230769,4,2,1,66,0,0
182533,-76.9230769230769,4,2,2,66,0,0
182846,-76.9230769230769,4,2,1,64,0,0
190346,-76.9230769230769,4,2,1,54,0,0
190658,-76.9230769230769,4,2,1,55,0,0
190971,-76.9230769230769,4,2,1,56,0,0
191283,-76.9230769230769,4,2,1,57,0,0
191596,-76.9230769230769,4,2,1,58,0,0
191908,-76.9230769230769,4,2,1,59,0,0
192064,-76.9230769230769,4,2,1,60,0,0
192142,-76.9230769230769,4,2,1,61,0,0
192221,-76.9230769230769,4,2,1,62,0,0
192377,-76.9230769230769,4,2,1,63,0,0
192533,-76.9230769230769,4,2,2,64,0,0
192689,-76.9230769230769,4,2,2,65,0,0
192846,-76.9230769230769,4,2,2,60,0,0
201439,-76.9230769230769,4,2,1,64,0,0
201752,-76.9230769230769,4,2,1,60,0,0
201908,-76.9230769230769,4,2,1,64,0,0
202064,-76.9230769230769,4,2,1,60,0,0
202142,-76.9230769230769,4,2,1,62,0,0
202221,-76.9230769230769,4,2,1,64,0,0
202377,-76.9230769230769,4,2,1,66,0,0
202533,-76.9230769230769,4,2,1,68,0,0
202689,-76.9230769230769,4,2,1,70,0,0
202846,-66.6666666666667,4,2,1,78,0,1
203080,-66.6666666666667,4,2,99,5,0,1
203158,-66.6666666666667,4,2,1,78,0,1
205580,-66.6666666666667,4,2,99,5,0,1
205658,-66.6666666666667,4,2,1,78,0,1
208080,-66.6666666666667,4,2,99,5,0,1
208158,-66.6666666666667,4,2,1,78,0,1
211908,-66.6666666666667,4,2,1,74,0,1
212221,-66.6666666666667,4,2,1,77,0,0
212533,-66.6666666666667,4,2,1,76,0,0
212846,-66.6666666666667,4,2,1,74,0,1
217221,-66.6666666666667,4,2,1,78,0,0
217533,-66.6666666666667,4,2,2,78,0,0
217846,-66.6666666666667,4,2,1,80,0,1
218080,-66.6666666666667,4,2,99,5,0,1
218158,-66.6666666666667,4,2,1,80,0,1
220580,-66.6666666666667,4,2,99,5,0,1
220658,-66.6666666666667,4,2,1,80,0,1
223080,-66.6666666666667,4,2,99,5,0,1
223158,-66.6666666666667,4,2,1,80,0,1
227221,-66.6666666666667,4,2,1,80,0,0
227846,-66.6666666666667,4,2,1,80,0,1
228080,-66.6666666666667,4,2,99,5,0,1
228158,-66.6666666666667,4,2,1,80,0,1
230580,-66.6666666666667,4,2,99,5,0,1
230658,-66.6666666666667,4,2,1,80,0,1
233080,-66.6666666666667,4,2,99,5,0,1
233158,-66.6666666666667,4,2,1,80,0,1
236908,-66.6666666666667,4,2,1,76,0,1
237221,-66.6666666666667,4,2,1,79,0,0
237533,-66.6666666666667,4,2,1,78,0,0
237846,-66.6666666666667,4,2,1,76,0,1
242846,-71.4285714285714,4,2,1,70,0,0
244174,-71.4285714285714,4,2,99,5,0,0
244252,-71.4285714285714,4,2,1,70,0,0
246674,-71.4285714285714,4,2,99,5,0,0
246752,-71.4285714285714,4,2,1,70,0,0
249174,-71.4285714285714,4,2,99,5,0,0
249252,-71.4285714285714,4,2,1,70,0,0
251674,-71.4285714285714,4,2,99,5,0,0
251752,-71.4285714285714,4,2,1,70,0,0
252533,-71.4285714285714,4,2,2,70,0,0
252846,-71.4285714285714,4,2,1,70,0,0
254174,-71.4285714285714,4,2,99,5,0,0
254252,-71.4285714285714,4,2,1,70,0,0
256674,-71.4285714285714,4,2,99,5,0,0
256752,-71.4285714285714,4,2,1,70,0,0
259174,-71.4285714285714,4,2,99,5,0,0
259252,-71.4285714285714,4,2,1,70,0,0
261674,-71.4285714285714,4,2,99,5,0,0
261752,-71.4285714285714,4,2,1,70,0,0
262846,-162.60162601626,4,2,2,60,0,0
263002,-162.60162601626,4,2,1,5,0,0
263158,-162.60162601626,4,2,1,5,0,0
272846,-162.60162601626,4,2,99,5,0,0

[Colours]
Combo1 : 150,210,220
Combo2 : 140,200,250
Combo3 : 160,190,210
Combo4 : 175,190,255

[HitObjects]
29,50,2846,6,0,P|96:45|127:104,1,139.999995727539,14|8,0:3|0:3,0:0:0:0:
142,200,3314,1,10,0:3:0:0:
205,275,3471,2,0,P|237:284|285:270,1,69.9999978637695,8|0,0:0|0:0,0:0:0:0:
371,226,3783,1,10,0:3:0:0:
371,226,3939,2,0,P|304:220|272:278,1,139.999995727539,8|8,0:3|0:0,0:0:0:0:
443,371,4564,1,8,0:3:0:0:
472,277,4721,2,0,P|481:208|450:146,1,139.999995727539,10|8,0:0|0:3,0:0:0:0:
273,61,5346,6,0,B|224:79|224:79|119:62,1,139.999995727539,10|8,0:3|0:3,0:0:0:0:
44,96,5814,1,10,0:3:0:0:
16,190,5971,2,0,L|13:264,1,69.9999978637695,8|0,0:0|0:0,0:0:0:0:
95,323,6283,1,10,0:3:0:0:
95,323,6439,2,0,B|144:305|144:305|249:322,1,139.999995727539,8|8,0:3|0:0,0:0:0:0:
323,351,6908,1,8,0:3:0:0:
323,351,7064,1,8,0:3:0:0:
395,283,7221,2,0,P|399:207|407:115,1,139.999995727539,10|8,0:0|0:3,0:0:0:0:
245,27,7846,6,0,P|250:96|254:166,1,139.999995727539,10|8,0:3|0:3,0:0:0:0:
215,255,8314,1,10,0:3:0:0:
116,255,8471,2,0,L|22:250,1,69.9999978637695,8|0,0:0|0:0,0:0:0:0:
0,171,8783,1,10,0:3:0:0:
0,171,8939,2,0,P|5:101|9:31,1,139.999995727539,8|8,0:3|0:0,0:0:0:0:
166,148,9564,1,8,0:3:0:0:
252,100,9721,2,0,B|294:82|294:82|406:102,1,139.999995727539,10|8,0:0|0:3,0:0:0:0:
492,263,10346,6,0,B|437:217|437:217|363:262,1,139.999995727539,10|8,0:3|0:3,0:0:0:0:
311,323,10814,1,10,0:3:0:0:
221,281,10971,2,0,L|150:271,1,69.9999978637695,8|0,0:0|0:0,0:0:0:0:
38,281,11283,1,10,0:3:0:0:
38,281,11439,2,0,B|93:235|93:235|151:270,1,139.999995727539,8|8,0:3|0:0,0:0:0:0:
197,363,11908,1,8,0:3:0:0:
197,363,12064,1,8,0:3:0:0:
280,310,12221,2,0,P|284:265|286:209,1,69.9999978637695,10|8,0:2|0:2,0:0:0:0:
338,158,12533,2,0,P|334:113|332:57,1,69.9999978637695,8|8,0:3|0:3,0:0:0:0:
212,37,12846,6,0,B|143:14|143:54|75:37,1,139.999995727539,14|8,0:3|0:3,0:0:0:0:
5,115,13314,1,10,0:3:0:0:
59,205,13471,2,0,P|61:245|51:286,1,69.9999978637695,8|0,0:0|0:0,0:0:0:0:
131,345,13783,1,10,0:3:0:0:
131,345,13939,2,0,B|199:322|199:362|267:345,1,139.999995727539,8|8,0:3|0:0,0:0:0:0:
420,220,14564,1,8,0:3:0:0:
329,183,14721,2,0,P|262:187|239:249,1,139.999995727539,10|8,0:0|0:3,0:0:0:0:
415,359,15346,6,0,B|419:219,1,139.999995727539,10|8,0:3|0:3,0:0:0:0:
467,133,15814,1,10,0:3:0:0:
400,60,15971,2,0,L|326:52,1,69.9999978637695,8|0,0:0|0:0,0:0:0:0:
243,92,16283,1,10,0:3:0:0:
243,92,16439,2,0,B|104:87,1,139.999995727539,8|8,0:3|0:0,0:0:0:0:
31,154,16908,1,8,0:3:0:0:
31,154,17064,1,8,0:3:0:0:
101,223,17221,2,0,B|240:218,1,139.999995727539,10|8,0:0|0:3,0:0:0:0:
352,39,17846,6,0,B|326:76|326:76|326:171,1,139.999995727539,10|8,0:3|0:3,0:0:0:0:
362,261,18314,1,10,0:3:0:0:
288,326,18471,2,0,B|252:317|252:317|194:321,1,69.9999978637695,8|0,0:0|0:0,0:0:0:0:
88,347,18783,1,10,0:3:0:0:
88,347,18939,2,0,B|182:346|182:346|219:320,1,139.999995727539,8|8,0:3|0:0,0:0:0:0:
241,124,19564,1,8,0:3:0:0:
178,200,19721,2,0,B|117:234|117:234|58:190,1,139.999995727539,10|8,0:0|0:3,0:0:0:0:
188,43,20346,6,0,B|249:9|249:9|307:52,1,139.999995727539,10|8,0:3|0:3,0:0:0:0:
347,138,20814,1,10,0:3:0:0:
424,198,20971,2,0,L|499:197,1,69.9999978637695,8|0,0:0|0:0,0:0:0:0:
504,310,21283,1,10,0:3:0:0:
504,310,21439,2,0,B|458:255|458:255|493:197,1,139.999995727539,8|8,0:3|0:0,0:0:0:0:
473,105,21908,1,8,0:3:0:0:
473,105,22064,1,8,0:3:0:0:
389,52,22221,2,0,P|351:50|288:40,1,69.9999978637695,10|8,0:2|0:3,0:0:0:0:
224,68,22533,2,0,P|186:70|123:80,1,69.9999978637695,10|8,0:2|0:2,0:0:0:0:
58,114,22846,6,0,P|54:84|49:51,2,59.9999981689453,12|2|8,0:3|0:0|0:0,0:0:0:0:
41,227,23783,1,10,0:3:0:0:
41,227,23939,1,8,0:3:0:0:
41,227,24096,2,0,P|36:256|32:286,1,59.9999981689453,8|8,0:3|0:3,0:0:0:0:
116,353,24721,2,0,P|152:346|176:349,1,59.9999981689453,8|0,0:0|0:0,0:0:0:0:
263,286,25346,6,0,L|266:220,2,59.9999981689453,8|2|8,0:3|0:0|0:0,0:0:0:0:
407,359,26439,1,8,0:3:0:0:
407,359,26596,2,0,L|412:290,1,59.9999981689453,8|8,0:3|0:3,0:0:0:0:
482,217,27221,2,0,L|477:148,1,59.9999981689453,8|0,0:0|0:0,0:0:0:0:
410,61,27846,6,0,P|378:60|344:51,2,64.9999970245362,8|2|8,0:3|0:0|0:0,0:0:0:0:
485,165,28783,1,10,0:3:0:0:
485,165,28939,1,8,0:3:0:0:
485,165,29096,2,0,P|453:174|425:190,1,64.9999970245362,8|8,0:3|0:3,0:0:0:0:
314,228,29721,2,0,P|281:227|250:219,1,64.9999970245362,8|0,0:0|0:0,0:0:0:0:
183,123,30346,6,0,L|183:56,2,64.9999970245362,8|2|8,0:3|0:0|0:0,0:0:0:0:
40,224,31439,1,8,0:3:0:0:
40,224,31596,2,0,L|35:157,1,64.9999970245362,8|8,0:3|0:3,0:0:0:0:
178,187,32221,2,0,L|183:120,1,64.9999970245362,8|0,0:0|0:0,0:0:0:0:
323,219,32846,6,0,L|317:146,2,69.9999978637695,12|2|8,0:3|0:0|0:0,0:0:0:0:
442,269,33783,1,10,0:3:0:0:
442,269,33939,1,8,0:3:0:0:
442,269,34096,2,0,L|448:196,1,69.9999978637695,8|8,0:3|0:3,0:0:0:0:
506,95,34721,2,0,L|500:25,1,69.9999978637695,8|0,0:0|0:0,0:0:0:0:
378,99,35346,6,0,P|344:92|308:93,2,69.9999978637695,8|2|8,0:3|0:0|0:0,0:0:0:0:
457,258,36439,1,8,0:3:0:0:
457,258,36596,2,0,L|452:331,1,69.9999978637695,8|8,0:3|0:3,0:0:0:0:
339,365,37221,2,0,P|302:357|270:359,1,69.9999978637695,8|0,0:0|0:0,0:0:0:0:
150,313,37846,6,0,L|142:232,2,75.000002861023,8|2|8,0:3|0:0|0:0,0:0:0:0:
278,366,38783,1,10,0:3:0:0:
278,366,38939,1,8,0:3:0:0:
278,366,39096,2,0,L|286:285,1,75.000002861023,8|8,0:3|0:3,0:0:0:0:
408,324,39721,2,0,L|400:243,1,75.000002861023,8|0,0:0|0:0,0:0:0:0:
345,133,40346,6,0,P|318:123|255:120,2,75.000002861023,8|2|8,0:3|0:0|0:0,0:0:0:0:
407,313,41439,1,8,0:3:0:0:
407,313,41596,1,8,0:3:0:0:
480,209,41908,2,0,L|489:170,2,25.0000009536743,8|8|8,0:3|0:3|0:3,0:0:0:0:
444,228,42221,6,0,P|420:226|391:216,1,42.5000008106231,8|8,0:1|0:1,0:0:0:0:
338,180,42533,2,0,P|317:174|296:172,1,42.5000008106231,8|0,0:3|0:0,0:0:0:0:
223,226,42846,6,0,L|215:121,2,99.9999999999999,12|2|8,0:3|0:0|0:0,0:0:0:0:
338,336,43783,1,2,0:0:0:0:
338,336,43939,2,0,L|352:234,1,99.9999999999999,10|10,0:3|0:3,0:0:0:0:
396,158,44408,2,0,P|430:142|494:157,2,99.9999999999999,10|8|0,0:3|0:0|0:0,0:0:0:0:
261,278,45346,6,0,P|227:294|163:279,2,99.9999999999999,8|2|8,0:3|0:0|0:0,0:0:0:0:
400,162,46283,1,2,0:0:0:0:
400,162,46439,2,0,P|434:146|498:161,1,99.9999999999999,10|10,0:3|0:3,0:0:0:0:
507,250,46908,2,0,L|503:356,2,99.9999999999999,10|8|0,0:3|0:0|0:0,0:0:0:0:
493,157,47689,1,8,0:3:0:0:
400,162,47846,6,0,L|295:150,2,99.9999999999999,8|2|8,0:3|0:0|0:0,0:0:0:0:
479,323,48783,1,2,0:0:0:0:
479,323,48939,2,0,B|439:291|439:291|380:306,1,99.9999999999999,10|10,0:3|0:3,0:0:0:0:
310,341,49408,2,0,B|209:335,1,99.9999999999999,10|8,0:3|0:0,0:0:0:0:
33,370,50033,5,2,0:0:0:0:
33,370,50189,2,0,L|24:300,1,50,2|8,0:0|0:3,0:0:0:0:
42,234,50502,1,2,0:0:0:0:
42,234,50658,2,0,P|84:237|147:207,1,99.9999999999999,2|8,0:0|0:0,0:0:0:0:
277,337,51283,1,8,0:3:0:0:
277,337,51439,2,0,P|322:316|371:318,1,99.9999999999999,8|8,0:3|0:3,0:0:0:0:
454,355,51908,2,0,L|460:299,1,50,8|0,0:3|0:0,0:0:0:0:
501,216,52221,5,10,0:0:0:0:
501,216,52377,1,8,0:3:0:0:
401,221,52533,2,0,L|335:210,1,50,8|8,0:0|0:0,0:0:0:0:
261,149,52846,6,0,B|223:141|223:141|188:151|188:151|131:142,2,110.000003356934,12|2|8,0:3|0:0|0:0,0:0:0:0:
459,137,53783,1,2,0:0:0:0:
459,137,53939,2,0,B|488:92|488:92|459:27,1,110.000003356934,10|10,0:3|0:3,0:0:0:0:
368,16,54408,2,0,B|330:8|330:8|295:18|295:18|238:9,2,110.000003356934,10|8|0,0:3|0:0|0:0,0:0:0:0:
331,211,55346,6,0,L|334:102,2,110.000003356934,8|2|8,0:3|0:0|0:0,0:0:0:0:
203,358,56283,1,2,0:0:0:0:
203,358,56439,2,0,P|157:340|92:353,1,110.000003356934,10|10,0:3|0:3,0:0:0:0:
27,273,56908,2,0,L|19:156,2,110.000003356934,10|8|0,0:3|0:0|0:0,0:0:0:0:
98,349,57689,1,8,0:3:0:0:
203,358,57846,6,0,L|325:349,2,110.000003356934,8|2|8,0:3|0:0|0:0,0:0:0:0:
31,277,58783,1,2,0:0:0:0:
31,277,58939,2,0,L|23:160,1,110.000003356934,2|10,0:3|0:3,0:0:0:0:
72,80,59408,2,0,B|118:53|118:53|173:74,1,110.000003356934,10|8,0:3|0:0,0:0:0:0:
289,183,60033,6,0,L|345:178,1,44.999998626709,2|0,0:2|0:0,0:0:0:0:
418,126,60346,5,8,0:3:0:0:
378,274,60658,1,8,0:3:0:0:
218,318,60971,1,8,0:3:0:0:
98,189,61283,1,8,0:3:0:0:
184,22,61596,1,8,0:3:0:0:
381,35,61908,1,8,0:3:0:0:
301,102,62064,5,8,0:3:0:0:
301,102,62142,1,8,0:3:0:0:
301,102,62221,2,0,P|290:147|291:188,1,64.9999970245362,10|8,0:3|0:0,0:0:0:0:
195,85,62533,2,0,P|192:52|183:21,1,64.9999970245362,8|8,0:3|0:3,0:0:0:0:
50,73,62846,6,0,B|124:49|119:107|195:84,1,150.000005722046,14|10,0:3|0:3,0:0:0:0:
295,18,63314,1,10,0:3:0:0:
395,84,63471,2,0,P|426:150|399:222,1,150.000005722046,8|10,0:0|0:3,0:0:0:0:
287,254,63939,2,0,B|213:230|218:288|142:265,1,150.000005722046,2|8,0:0|0:0,0:0:0:0:
16,59,64564,1,10,0:3:0:0:
118,121,64721,2,0,P|155:121|188:103,1,75.000002861023,10|2,0:0|0:0,0:0:0:0:
305,128,65033,2,0,P|331:101|342:66,1,75.000002861023,10|2,0:3|0:0,0:0:0:0:
437,165,65346,6,0,P|377:121|287:139,1,150.000005722046,10|10,0:3|0:3,0:0:0:0:
218,212,65814,1,10,0:3:0:0:
242,330,65971,2,0,P|300:373|374:367,1,150.000005722046,8|10,0:0|0:3,0:0:0:0:
466,289,66439,2,0,P|407:246|334:253,1,150.000005722046,10|8,0:3|0:0,0:0:0:0:
245,334,66908,1,8,0:3:0:0:
245,334,67064,1,8,0:3:0:0:
138,277,67221,2,0,L|132:195,1,75.000002861023,10|0,0:0|0:0,0:0:0:0:
46,118,67533,2,0,L|52:36,1,75.000002861023,10|0,0:3|0:0,0:0:0:0:
202,16,67846,6,0,B|249:40|249:40|344:23,1,150.000005722046,10|10,0:3|0:3,0:0:0:0:
464,20,68314,1,10,0:3:0:0:
505,133,68471,2,0,L|501:292,1,150.000005722046,8|10,0:0|0:3,0:0:0:0:
415,366,68939,2,0,B|319:349|319:349|272:373,1,150.000005722046,10|8,0:3|0:0,0:0:0:0:
155,342,69408,2,0,B|144:308|144:308|155:251,1,75.000002861023,10|8,0:3|0:3,0:0:0:0:
99,160,69721,2,0,B|122:133|122:133|177:114,1,75.000002861023,10|0,0:0|0:0,0:0:0:0:
228,20,70033,2,0,B|262:27|262:27|306:65,1,75.000002861023,10|0,0:3|0:0,0:0:0:0:
292,199,70346,6,0,B|284:143|284:143|299:101|299:101|292:53,1,150.000005722046,10|8,0:3|0:3,0:0:0:0:
179,11,70814,1,8,0:3:0:0:
71,66,70971,2,0,B|64:113|64:113|79:155|79:155|71:211,1,150.000005722046,8|10,0:0|0:3,0:0:0:0:
110,325,71439,2,0,B|148:303|148:303|267:314,1,150.000005722046,10|8,0:3|0:0,0:0:0:0:
366,354,71908,1,8,0:3:0:0:
366,354,72064,1,8,0:3:0:0:
471,295,72221,2,0,P|478:258|470:222,1,75.000002861023,10|8,0:0|0:0,0:0:0:0:
370,154,72533,2,0,P|363:117|371:81,1,75.000002861023,8|8,0:3|0:3,0:0:0:0:
500,46,72846,6,0,P|443:91|370:81,1,150.000005722046,14|10,0:3|0:3,0:0:0:0:
271,15,73314,1,10,0:3:0:0:
211,119,73471,2,0,L|202:270,1,150.000005722046,8|10,0:0|0:3,0:0:0:0:
282,357,73939,2,0,P|354:366|411:321,1,150.000005722046,2|8,0:0|0:0,0:0:0:0:
508,101,74564,1,10,0:3:0:0:
396,146,74721,2,0,P|359:146|326:128,1,75.000002861023,10|2,0:0|0:0,0:0:0:0:
245,40,75033,2,0,P|212:22|175:22,1,75.000002861023,10|2,0:3|0:0,0:0:0:0:
65,101,75346,6,0,L|59:253,1,150.000005722046,10|10,0:3|0:3,0:0:0:0:
96,365,75814,1,10,0:3:0:0:
195,296,75971,2,0,L|201:145,1,150.000005722046,8|10,0:0|0:3,0:0:0:0:
279,55,76439,2,0,B|346:21|346:21|410:58,1,150.000005722046,10|8,0:3|0:0,0:0:0:0:
480,157,76908,1,8,0:3:0:0:
480,157,77064,1,8,0:3:0:0:
461,276,77221,2,0,L|449:370,1,75.000002861023,10|0,0:0|0:0,0:0:0:0:
334,373,77533,2,0,L|319:288,1,75.000002861023,10|0,0:3|0:0,0:0:0:0:
191,225,77846,6,0,B|150:258|150:258|47:249,1,150.000005722046,10|10,0:3|0:3,0:0:0:0:
5,139,78314,1,10,0:3:0:0:
55,29,78471,2,0,B|151:20|151:20|192:53,1,150.000005722046,8|10,0:0|0:3,0:0:0:0:
277,138,78939,2,0,B|431:131,1,150.000005722046,10|8,0:3|0:0,0:0:0:0:
503,224,79408,2,0,B|485:251|485:251|483:293,1,75.000002861023,10|8,0:3|0:3,0:0:0:0:
366,326,79721,2,0,B|334:332|334:332|302:360,1,75.000002861023,10|0,0:0|0:0,0:0:0:0:
198,300,80033,2,0,B|170:282|170:282|128:280,1,75.000002861023,10|0,0:3|0:0,0:0:0:0:
0,306,80346,6,0,B|101:319|101:319|128:280,1,150.000005722046,10|8,0:3|0:3,0:0:0:0:
179,170,80814,1,8,0:3:0:0:
292,211,80971,2,0,B|340:204|340:204|389:216|389:216|438:206,1,150.000005722046,8|10,0:0|0:3,0:0:0:0:
440,86,81439,2,0,B|391:79|391:79|342:91|342:91|293:81,1,150.000005722046,10|8,0:3|0:0,0:0:0:0:
190,17,81908,1,8,0:3:0:0:
190,17,82064,1,8,0:3:0:0:
83,72,82221,2,0,L|71:151,1,75.000002861023,10|8,0:2|0:3,0:0:0:0:
7,247,82533,2,0,L|19:326,1,75.000002861023,8|8,0:0|0:0,0:0:0:0:
156,349,82846,6,0,P|198:316|307:326,1,150.000005722046,12|8,0:3|0:3,0:0:0:0:
383,366,83314,1,8,0:3:0:0:
471,308,83471,2,0,L|489:151,1,150.000005722046,8|8,0:0|0:3,0:0:0:0:
448,68,83939,1,10,0:3:0:0:
448,68,84096,2,0,P|409:69|370:57,1,75.000002861023,2|8,0:0|0:0,0:0:0:0:
276,96,84408,1,2,0:0:0:0:
276,96,84564,2,0,P|239:86|202:87,1,75.000002861023,10|8,0:3|0:0,0:0:0:0:
44,225,85033,1,10,0:3:0:0:
44,225,85189,1,2,0:0:0:0:
3,128,85346,6,0,L|-2:49,1,75.000002861023,8|8,0:3|0:0,0:0:0:0:
115,115,85658,2,0,L|125:38,1,75.000002861023,8|8,0:3|0:3,0:0:0:0:
218,159,85971,1,8,0:0:0:0:
402,58,86283,2,0,L|478:50,1,75.000002861023,12|8,0:0|0:3,0:0:0:0:
382,141,86596,2,0,L|306:133,1,75.000002861023,10|8,0:3|0:0,0:0:0:0:
211,176,86908,2,0,P|195:222|202:263,1,75.000002861023,8|8,0:3|0:3,0:0:0:0:
206,263,87142,1,8,0:3:0:0:
216,278,87221,2,0,P|220:314|210:349,1,75.000002861023,10|8,0:0|0:0,0:0:0:0:
103,370,87533,1,8,0:0:0:0:
103,370,87689,1,8,0:0:0:0:
7,288,87846,6,0,L|3:134,1,139.999995727539,14|8,0:3|0:3,0:0:0:0:
47,60,88314,1,10,0:3:0:0:
126,118,88471,2,0,P|160:124|193:115,1,69.9999978637695,8|0,0:0|0:0,0:0:0:0:
323,113,88783,1,10,0:3:0:0:
323,113,88939,2,0,P|266:92|177:131,1,139.999995727539,8|8,0:3|0:0,0:0:0:0:
340,244,89564,1,8,0:3:0:0:
413,178,89721,2,0,P|434:121|395:32,1,139.999995727539,10|8,0:0|0:3,0:0:0:0:
217,13,90346,6,0,B|163:36|163:36|62:24,1,139.999995727539,10|8,0:3|0:3,0:0:0:0:
9,92,90814,1,10,0:3:0:0:
64,173,90971,2,0,L|143:172,1,69.9999978637695,8|0,0:0|0:0,0:0:0:0:
223,211,91283,1,10,0:3:0:0:
305,158,91439,2,0,B|370:131|370:131|431:162,1,139.999995727539,8|8,0:3|0:0,0:0:0:0:
483,253,91908,1,8,0:3:0:0:
483,253,92064,1,8,0:3:0:0:
431,336,92221,2,0,B|366:363|366:363|304:331,1,139.999995727539,10|8,0:0|0:3,0:0:0:0:
202,162,92846,6,0,B|199:66|199:66|132:29,1,139.999995727539,10|8,0:3|0:3,0:0:0:0:
65,20,93314,1,10,0:3:0:0:
9,100,93471,2,0,P|7:140|4:198,1,69.9999978637695,8|0,0:0|0:0,0:0:0:0:
41,260,93783,1,10,0:3:0:0:
41,260,93939,2,0,P|108:255|188:256,1,139.999995727539,8|8,0:3|0:0,0:0:0:0:
348,357,94564,1,8,0:3:0:0:
428,300,94721,2,0,P|430:232|436:154,1,139.999995727539,10|8,0:0|0:3,0:0:0:0:
306,12,95346,6,0,P|311:81|313:151,1,139.999995727539,10|8,0:3|0:3,0:0:0:0:
289,246,95814,1,10,0:3:0:0:
193,217,95971,2,0,P|159:210|122:207,1,69.9999978637695,8|0,0:0|0:0,0:0:0:0:
28,262,96283,1,10,0:3:0:0:
28,262,96439,2,0,P|94:266|124:207,1,139.999995727539,8|8,0:3|0:0,0:0:0:0:
89,114,96908,1,8,0:3:0:0:
89,114,97064,1,8,0:3:0:0:
159,44,97221,2,0,P|197:31|249:43,1,69.9999978637695,10|8,0:2|0:2,0:0:0:0:
313,78,97533,2,0,P|351:91|403:79,1,69.9999978637695,8|8,0:3|0:3,0:0:0:0:
512,20,97846,6,0,B|483:52|483:52|479:153,1,139.999995727539,14|8,0:3|0:3,0:0:0:0:
505,243,98314,1,10,0:3:0:0:
434,311,98471,2,0,P|404:317|358:299,1,69.9999978637695,8|0,0:0|0:0,0:0:0:0:
307,227,98783,1,10,0:3:0:0:
246,148,98939,2,0,P|188:114|122:133,1,139.999995727539,8|8,0:3|0:0,0:0:0:0:
62,319,99564,1,8,0:3:0:0:
138,257,99721,2,0,P|156:191|121:132,1,139.999995727539,10|8,0:0|0:3,0:0:0:0:
62,319,100346,6,0,P|127:301|186:335,1,139.999995727539,10|8,0:3|0:3,0:0:0:0:
279,367,100814,1,10,0:3:0:0:
362,314,100971,2,0,L|368:244,1,69.9999978637695,8|0,0:0|0:0,0:0:0:0:
438,176,101283,1,10,0:3:0:0:
438,176,101439,2,0,P|373:194|314:160,1,139.999995727539,8|8,0:3|0:0,0:0:0:0:
258,84,101908,1,8,0:3:0:0:
258,84,102064,1,8,0:3:0:0:
217,173,102221,2,0,B|206:316,1,139.999995727539,10|8,0:0|0:3,0:0:0:0:
22,244,102846,6,0,B|11:104,1,139.999995727539,10|8,0:3|0:3,0:0:0:0:
69,25,103314,1,10,0:3:0:0:
140,92,103471,2,0,P|169:101|214:95,1,69.9999978637695,8|0,0:0|0:0,0:0:0:0:
323,58,103783,1,10,0:3:0:0:
323,58,103939,2,0,P|255:50|208:98,1,139.999995727539,8|8,0:3|0:0,0:0:0:0:
292,274,104564,1,8,0:3:0:0:
346,192,104721,2,0,P|414:184|461:232,1,139.999995727539,10|8,0:0|0:3,0:0:0:0:
292,274,105346,6,0,L|133:263,1,139.999995727539,10|8,0:3|0:3,0:0:0:0:
71,319,105814,1,10,0:3:0:0:
18,235,105971,2,0,L|12:152,1,69.9999978637695,8|0,0:0|0:0,0:0:0:0:
69,86,106283,1,10,0:3:0:0:
69,86,106439,2,0,B|113:107|113:107|226:88,1,139.999995727539,8|8,0:3|0:0,0:0:0:0:
280,30,106908,1,8,0:3:0:0:
280,30,107064,1,8,0:3:0:0:
364,78,107221,2,0,P|376:111|379:146,1,69.9999978637695,10|8,0:2|0:3,0:0:0:0:
444,219,107533,2,0,P|441:253|429:286,1,69.9999978637695,10|8,0:2|0:2,0:0:0:0:
364,360,107846,5,12,0:3:0:0:
138,69,117846,6,0,P|100:59|61:63,2,79.9999999999999,12|2|8,0:3|0:0|0:0,0:0:0:0:
214,186,118783,1,10,0:3:0:0:
214,186,118939,1,8,0:3:0:0:
214,186,119096,2,0,L|217:272,1,79.9999999999999,2|8,0:0|0:3,0:0:0:0:
311,351,119721,2,0,P|351:342|391:348,1,79.9999999999999,8|0,0:0|0:0,0:0:0:0:
485,262,120346,6,0,L|490:179,2,79.9999999999999,8|2|8,0:3|0:0|0:0,0:0:0:0:
311,351,121439,1,8,0:3:0:0:
189,309,121752,1,8,0:0:0:0:
189,309,121908,1,8,0:3:0:0:
69,356,122221,2,0,L|64:270,1,79.9999999999999,10|0,0:0|0:0,0:0:0:0:
18,148,122846,6,0,L|13:58,2,89.999997253418,8|2|8,0:3|0:0|0:0,0:0:0:0:
72,284,123783,1,10,0:3:0:0:
72,284,123939,1,8,0:3:0:0:
71,284,124096,2,0,P|113:272|162:277,1,89.999997253418,2|8,0:0|0:3,0:0:0:0:
287,316,124721,2,0,P|331:320|374:308,1,89.999997253418,8|0,0:0|0:0,0:0:0:0:
451,196,125346,6,0,L|459:103,2,89.999997253418,8|2|8,0:3|0:0|0:0,0:0:0:0:
288,317,126439,1,8,0:3:0:0:
192,229,126752,1,8,0:0:0:0:
192,229,126908,2,0,L|186:177,1,44.999998626709,8|8,0:3|0:2,0:0:0:0:
121,135,127221,2,0,L|115:83,1,44.999998626709,10|8,0:2|0:3,0:0:0:0:
169,30,127533,1,8,0:0:0:0:
169,30,127689,1,8,0:0:0:0:
258,44,127846,6,0,L|366:36,2,99.9999999999999,12|2|8,0:3|0:0|0:0,0:0:0:0:
141,180,128783,1,2,0:0:0:0:
141,180,128939,2,0,L|137:290,1,99.9999999999999,10|10,0:3|0:3,0:0:0:0:
91,357,129408,2,0,P|57:373|-2:352,2,99.9999999999999,10|8|0,0:3|0:0|0:0,0:0:0:0:
230,243,130346,6,0,P|264:227|323:248,2,99.9999999999999,8|2|8,0:3|0:0|0:0,0:0:0:0:
95,361,131283,1,2,0:0:0:0:
95,361,131439,2,0,P|61:377|2:356,1,99.9999999999999,10|10,0:3|0:3,0:0:0:0:
1,267,131908,2,0,L|0:159,2,99.9999999999999,10|8|0,0:3|0:0|0:0,0:0:0:0:
4,358,132689,1,8,0:3:0:0:
80,309,132846,6,0,B|124:294|124:294|179:317,2,99.9999999999999,8|2|8,0:3|0:0|0:0,0:0:0:0:
3,145,133783,1,2,0:0:0:0:
3,145,133939,2,0,B|10:33,1,99.9999999999999,2|10,0:3|0:3,0:0:0:0:
97,26,134408,2,0,B|146:46|146:46|190:31,1,99.9999999999999,10|8,0:3|0:0,0:0:0:0:
372,67,135033,5,2,0:0:0:0:
372,67,135189,2,0,L|434:60,1,50,2|8,0:0|0:3,0:0:0:0:
496,121,135502,1,2,0:0:0:0:
496,121,135658,2,0,P|476:158|476:237,1,99.9999999999999,2|8,0:0|0:0,0:0:0:0:
336,337,136283,1,8,0:3:0:0:
336,337,136439,2,0,P|299:317|220:317,1,99.9999999999999,8|8,0:3|0:3,0:0:0:0:
157,344,136908,2,0,P|132:345|107:342,1,50,8|0,0:3|0:0,0:0:0:0:
24,296,137221,5,10,0:0:0:0:
24,296,137377,1,8,0:3:0:0:
76,211,137533,2,0,L|79:148,1,50,8|8,0:3|0:3,0:0:0:0:
160,87,137846,6,0,B|191:79|191:79|217:88|217:88|292:85,2,110.000003356934,12|2|8,0:3|0:0|0:0,0:0:0:0:
58,256,138783,1,2,0:0:0:0:
58,256,138939,2,0,B|90:239|90:239|182:254,1,110.000003356934,10|10,0:3|0:3,0:0:0:0:
256,284,139408,2,0,B|306:281|306:281|332:290|332:290|363:282,2,110.000003356934,10|8|0,0:3|0:0|0:0,0:0:0:0:
247,85,140346,6,0,L|238:209,2,110.000003356934,8|2|8,0:3|0:0|0:0,0:0:0:0:
441,45,141283,1,2,0:0:0:0:
441,45,141439,2,0,L|450:169,1,110.000003356934,10|10,0:3|0:3,0:0:0:0:
482,248,141908,2,0,L|474:365,2,110.000003356934,10|8|0,0:3|0:0|0:0,0:0:0:0:
449,155,142689,1,8,0:3:0:0:
382,229,142846,6,0,B|333:254|333:254|277:222,2,110.000003356934,8|2|8,0:3|0:0|0:0,0:0:0:0:
341,39,143783,1,2,0:0:0:0:
341,39,143939,2,0,L|335:159,1,110.000003356934,2|10,0:3|0:3,0:0:0:0:
285,226,144408,2,0,B|232:246|232:246|186:219,1,110.000003356934,10|8,0:3|0:0,0:0:0:0:
55,123,145033,6,0,L|51:72,1,44.999998626709,2|0,0:0|0:0,0:0:0:0:
137,28,145346,5,8,0:3:0:0:
238,143,145658,1,8,0:3:0:0:
399,107,145971,1,8,0:3:0:0:
462,270,146283,2,0,L|447:343,1,55.0000016784668,8|0,0:3|0:0,0:0:0:0:
446,339,146517,1,8,0:0:0:0:
441,354,146596,6,0,P|410:342|378:340,1,64.9999970245362,8|8,0:0|0:0,0:0:0:0:
277,362,146908,2,0,P|244:360|214:348,1,64.9999970245362,8|4,0:3|0:3,0:0:0:0:
155,261,147221,2,0,L|102:254,2,43.3333313496908,10|8|8,0:0|0:0|0:3,0:0:0:0:
221,223,147533,2,0,L|274:221,2,43.3333313496908,8|4|12,0:3|0:3|0:3,0:0:0:0:
156,185,147846,6,0,P|131:122|194:42,1,150.000005722046,14|10,0:3|0:3,0:0:0:0:
284,24,148314,1,10,0:3:0:0:
393,74,148471,2,0,P|418:137|355:217,1,150.000005722046,8|10,0:0|0:3,0:0:0:0:
275,262,148939,2,0,B|199:241|207:299|130:280,1,150.000005722046,2|8,0:0|0:0,0:0:0:0:
33,60,149564,1,10,0:3:0:0:
153,70,149721,2,0,P|189:69|233:55,1,75.000002861023,10|2,0:0|0:0,0:0:0:0:
343,84,150033,2,0,P|379:85|423:99,1,75.000002861023,10|2,0:3|0:0,0:0:0:0:
426,239,150346,6,0,B|418:217|425:183|425:183|415:172|415:172|428:137|415:94,1,150.000005722046,10|10,0:3|0:3,0:0:0:0:
335,5,150814,1,10,0:3:0:0:
225,56,150971,2,0,P|147:56|68:43,1,150.000005722046,8|10,0:0|0:3,0:0:0:0:
2,139,151439,2,0,P|13:213|13:287,1,150.000005722046,10|8,0:3|0:0,0:0:0:0:
105,374,151908,1,8,0:3:0:0:
105,374,152064,1,8,0:3:0:0:
197,296,152221,2,0,P|197:258|207:212,1,75.000002861023,10|0,0:0|0:0,0:0:0:0:
277,127,152533,2,0,P|284:90|284:52,1,75.000002861023,10|0,0:3|0:0,0:0:0:0:
146,32,152846,6,0,B|188:64|188:64|284:53,1,150.000005722046,10|10,0:3|0:3,0:0:0:0:
398,16,153314,1,10,0:3:0:0:
479,104,153471,2,0,L|474:274,1,150.000005722046,8|10,0:0|0:3,0:0:0:0:
376,322,153939,2,0,B|280:311|280:311|238:343,1,150.000005722046,10|8,0:3|0:0,0:0:0:0:
118,364,154408,2,0,B|81:364|81:364|35:340,1,75.000002861023,10|8,0:3|0:3,0:0:0:0:
63,226,154721,2,0,B|36:199|36:199|21:150,1,75.000002861023,10|0,0:0|0:0,0:0:0:0:
121,89,155033,2,0,B|121:51|121:51|145:6,1,75.000002861023,10|0,0:3|0:0,0:0:0:0:
262,126,155346,6,0,B|205:119|205:119|169:93|169:93|120:88,1,150.000005722046,10|8,0:3|0:3,0:0:0:0:
25,163,155814,1,8,0:3:0:0:
88,265,155971,2,0,B|144:263|144:263|184:283|184:283|232:282,1,150.000005722046,8|10,0:0|0:3,0:0:0:0:
341,333,156439,2,0,B|409:364|409:364|483:313,1,150.000005722046,10|8,0:3|0:0,0:0:0:0:
507,209,156908,1,8,0:3:0:0:
507,209,157064,1,8,0:3:0:0:
445,105,157221,2,0,B|410:92|410:92|373:100,1,75.000002861023,10|8,0:0|0:0,0:0:0:0:
275,167,157533,2,0,B|238:175|238:175|203:162,1,75.000002861023,8|8,0:3|0:3,0:0:0:0:
124,61,157846,6,0,P|190:92|202:163,1,150.000005722046,14|10,0:3|0:3,0:0:0:0:
136,262,158314,1,10,0:3:0:0:
57,170,158471,2,0,P|62:98|124:61,1,150.000005722046,8|10,0:0|0:3,0:0:0:0:
239,94,158939,2,0,P|308:111|363:64,1,150.000005722046,2|8,0:0|0:0,0:0:0:0:
512,253,159564,1,10,0:3:0:0:
398,213,159721,2,0,P|361:203|324:201,1,75.000002861023,10|2,0:0|0:0,0:0:0:0:
210,237,160033,2,0,P|183:263|163:295,1,75.000002861023,10|2,0:3|0:0,0:0:0:0:
52,211,160346,6,0,L|46:59,1,150.000005722046,10|10,0:3|0:3,0:0:0:0:
150,2,160814,1,10,0:3:0:0:
255,61,160971,2,0,B|309:67|309:67|351:49|351:49|400:54,1,150.000005722046,8|10,0:0|0:3,0:0:0:0:
494,128,161439,2,0,L|488:277,1,150.000005722046,10|8,0:3|0:0,0:0:0:0:
395,354,161908,1,8,0:3:0:0:
395,354,162064,1,8,0:3:0:0:
293,289,162221,2,0,P|250:277|192:282,1,75.000002861023,10|0,0:0|0:0,0:0:0:0:
120,342,162533,2,0,P|82:340|46:329,1,75.000002861023,10|0,0:3|0:0,0:0:0:0:
5,201,162846,6,0,B|-11:149|20:87|20:87|53:139,1,150.000005722046,10|10,0:3|0:3,0:0:0:0:
96,219,163314,1,10,0:3:0:0:
215,197,163471,2,0,B|257:187|257:187|292:203|292:203|377:195,1,150.000005722046,8|10,0:0|0:3,0:0:0:0:
466,142,163939,2,0,B|498:74|498:74|445:7,1,150.000005722046,10|8,0:3|0:0,0:0:0:0:
333,41,164408,2,0,B|296:47|296:47|261:31,1,75.000002861023,10|8,0:3|0:3,0:0:0:0:
226,146,164721,2,0,B|202:116|202:116|198:79,1,75.000002861023,10|0,0:0|0:0,0:0:0:0:
81,105,165033,2,0,B|94:69|94:69|124:47,1,75.000002861023,10|0,0:3|0:0,0:0:0:0:
261,31,165346,6,0,B|331:41|331:41|369:22|411:25,1,150.000005722046,10|8,0:3|0:3,0:0:0:0:
506,95,165814,1,8,0:3:0:0:
435,192,165971,2,0,B|430:244|430:244|446:292|446:292|439:338,1,150.000005722046,8|10,0:0|0:3,0:0:0:0:
321,359,166439,2,0,B|269:334|269:334|171:343,1,150.000005722046,10|8,0:3|0:0,0:0:0:0:
62,366,166908,1,8,0:3:0:0:
62,366,167064,1,8,0:3:0:0:
6,259,167221,2,0,B|2:222|2:222|13:186,1,75.000002861023,10|8,0:2|0:3,0:0:0:0:
119,242,167533,2,0,B|147:217|147:217|183:207,1,75.000002861023,8|8,0:0|0:0,0:0:0:0:
327,224,167846,6,0,B|235:232|235:232|183:207,1,150.000005722046,12|8,0:3|0:3,0:0:0:0:
105,137,168314,1,8,0:3:0:0:
170,54,168471,2,0,B|222:29|222:29|313:37,1,150.000005722046,8|8,0:0|0:3,0:0:0:0:
408,94,168939,1,10,0:3:0:0:
408,94,169096,2,0,L|418:180,1,75.000002861023,2|8,0:0|0:0,0:0:0:0:
495,246,169408,1,2,0:0:0:0:
495,246,169565,2,0,L|485:332,1,75.000002861023,10|8,0:3|0:0,0:0:0:0:
283,372,170033,1,10,0:3:0:0:
283,372,170189,1,2,0:0:0:0:
200,306,170346,6,0,L|190:220,1,75.000002861023,8|8,0:3|0:0,0:0:0:0:
242,139,170658,2,0,L|252:62,1,75.000002861023,8|8,0:3|0:3,0:0:0:0:
343,13,170971,1,8,0:0:0:0:
398,215,171283,2,0,L|324:204,1,75.000002861023,12|8,0:0|0:3,0:0:0:0:
242,139,171596,2,0,L|166:149,1,75.000002861023,10|8,0:3|0:0,0:0:0:0:
82,209,171908,2,0,P|72:247|85:294,1,75.000002861023,8|8,0:3|0:3,0:0:0:0:
90,295,172142,1,8,0:3:0:0:
102,308,172221,2,0,L|178:318,1,75.000002861023,10|8,0:0|0:0,0:0:0:0:
279,377,172533,1,8,0:0:0:0:
279,377,172689,1,8,0:0:0:0:
369,297,172846,6,0,P|374:231|384:154,1,129.999994049072,12|8,0:3|0:3,0:0:0:0:
437,95,173314,1,8,0:3:0:0:
501,161,173471,2,0,P|443:186|382:168,1,129.999994049072,10|10,0:0|0:3,0:0:0:0:
296,200,173939,2,0,P|235:181|176:206,1,129.999994049072,10|8,0:3|0:0,0:0:0:0:
92,175,174408,1,2,0:3:0:0:
92,175,174564,2,0,L|84:103,1,64.9999970245362,10|8,0:3|0:0,0:0:0:0:
178,93,174877,2,0,L|186:21,1,64.9999970245362,2|8,0:0|0:3,0:0:0:0:
185,28,175346,6,0,P|249:26|319:23,1,129.999994049072,10|8,0:3|0:3,0:0:0:0:
405,25,175814,1,8,0:3:0:0:
454,101,175971,2,0,P|450:158|446:244,1,129.999994049072,8|8,0:0|0:3,0:0:0:0:
470,323,176439,1,10,0:3:0:0:
470,323,176596,2,0,P|434:316|385:313,1,64.9999970245362,2|8,0:0|0:0,0:0:0:0:
325,354,176908,1,10,0:3:0:0:
325,354,177064,2,0,P|281:352|240:344,1,64.9999970245362,10|8,0:3|0:0,0:0:0:0:
188,181,177533,1,10,0:3:0:0:
188,181,177689,1,2,0:3:0:0:
161,268,177846,6,0,L|292:260,1,129.999994049072,8|8,0:3|0:3,0:0:0:0:
378,282,178314,1,8,0:3:0:0:
442,216,178471,2,0,B|454:135|454:135|433:85,1,129.999994049072,8|0,0:0|0:3,0:0:0:0:
364,34,178939,1,10,0:3:0:0:
368,38,179096,2,0,L|302:32,1,64.9999970245362,2|8,0:0|0:2,0:0:0:0:
223,70,179408,1,2,0:0:0:0:
223,70,179565,2,0,L|137:64,1,64.9999970245362,10|8,0:3|0:0,0:0:0:0:
0,151,180033,1,10,0:3:0:0:
0,151,180189,1,2,0:0:0:0:
87,176,180346,6,0,B|124:172|124:172|163:188|163:188|213:186,1,129.999994049072,10|0,0:3|0:3,0:0:0:0:
285,130,180814,1,8,0:3:0:0:
354,189,180971,2,0,L|348:333,1,129.999994049072,8|8,0:0|0:3,0:0:0:0:
267,360,181439,1,10,0:3:0:0:
267,360,181596,2,0,L|199:353,1,64.9999970245362,2|8,0:0|0:0,0:0:0:0:
116,370,181908,1,10,0:3:0:0:
116,370,182064,1,10,0:3:0:0:
41,317,182221,2,0,L|33:237,1,64.9999970245362,8|8,0:0|0:0,0:0:0:0:
88,178,182533,2,0,B|117:172|117:172|168:180,1,64.9999970245362,8|8,0:3|0:3,0:0:0:0:
266,216,182846,6,0,B|181:212|181:212|148:173,1,129.999994049072,12|8,0:3|0:3,0:0:0:0:
124,91,183314,1,8,0:3:0:0:
197,36,183471,2,0,B|281:39|281:39|314:78,1,129.999994049072,10|10,0:0|0:3,0:0:0:0:
342,159,183939,2,0,B|394:199|394:199|446:161,1,129.999994049072,10|8,0:3|0:0,0:0:0:0:
499,87,184408,1,2,0:3:0:0:
431,26,184564,2,0,L|354:21,1,64.9999970245362,10|8,0:3|0:0,0:0:0:0:
287,66,184877,2,0,L|210:61,1,64.9999970245362,2|8,0:0|0:3,0:0:0:0:
222,61,185346,6,0,B|178:59|178:59|146:82|146:82|99:79,1,129.999994049072,10|8,0:3|0:3,0:0:0:0:
16,116,185814,1,8,0:3:0:0:
90,169,185971,2,0,L|101:314,1,129.999994049072,8|8,0:0|0:3,0:0:0:0:
176,357,186439,1,10,0:3:0:0:
176,357,186596,2,0,P|204:351|262:356,1,64.9999970245362,2|8,0:0|0:0,0:0:0:0:
335,363,186908,1,10,0:3:0:0:
335,363,187064,2,0,P|366:369|399:368,1,64.9999970245362,10|8,0:3|0:0,0:0:0:0:
456,195,187533,2,0,P|445:165|442:132,1,64.9999970245362,10|0,0:3|0:0,0:0:0:0:
444,13,187846,6,0,B|470:67|470:67|441:131,1,129.999994049072,10|8,0:3|0:3,0:0:0:0:
368,186,188314,1,8,0:3:0:0:
288,230,188471,2,0,L|157:223,1,129.999994049072,10|10,0:2|0:3,0:0:0:0:
77,264,188939,1,10,0:3:0:0:
77,264,189096,2,0,L|73:191,1,64.9999970245362,2|8,0:0|0:0,0:0:0:0:
13,139,189408,1,2,0:0:0:0:
13,139,189564,2,0,L|17:66,1,64.9999970245362,10|8,0:3|0:0,0:0:0:0:
91,21,189877,2,0,P|135:19|175:12,1,64.9999970245362,2|8,0:0|0:3,0:0:0:0:
310,30,190346,5,8,0:3:0:0:
159,19,190658,1,8,0:3:0:0:
45,145,190971,1,8,0:3:0:0:
98,319,191283,1,8,0:3:0:0:
289,359,191596,1,8,0:3:0:0:
429,183,191908,1,0,0:3:0:0:
439,304,192064,5,8,0:0:0:0:
439,304,192142,1,8,0:0:0:0:
439,304,192221,2,0,P|408:294|375:291,1,64.9999970245362,8|8,0:3|0:0,0:0:0:0:
317,205,192533,2,0,P|326:173|328:141,1,64.9999970245362,8|8,0:3|0:3,0:0:0:0:
256,32,192846,5,4,1:1:0:0:
59,258,201439,6,0,P|56:186|55:112,1,129.999994049072,14|8,2:2|0:3,0:0:0:0:
115,59,201908,2,0,L|193:51,1,64.9999970245362,8|8,0:3|0:0,0:0:0:0:
193,66,202142,1,8,0:0:0:0:
203,82,202221,2,0,P|208:112|209:152,1,64.9999970245362,10|8,0:0|0:0,0:0:0:0:
306,182,202533,2,0,P|310:151|318:115,1,64.9999970245362,8|8,0:0|0:0,0:0:0:0:
444,96,202846,6,0,B|408:139|408:139|314:117,1,150.000005722046,14|10,0:3|0:3,0:0:0:0:
366,8,203314,1,10,0:3:0:0:
444,96,203471,2,0,L|456:249,1,150.000005722046,8|10,0:0|0:3,0:0:0:0:
383,341,203939,2,0,P|317:319|232:329,1,150.000005722046,2|8,0:0|0:0,0:0:0:0:
33,200,204564,1,10,0:3:0:0:
149,232,204721,2,0,P|183:230|221:209,1,75.000002861023,10|2,0:0|0:0,0:0:0:0:
336,232,205033,2,0,P|352:198|352:161,1,75.000002861023,10|2,0:3|0:0,0:0:0:0:
262,57,205346,6,0,L|100:44,1,150.000005722046,10|10,0:3|0:3,0:0:0:0:
2,92,205814,1,10,0:3:0:0:
98,163,205971,2,0,B|107:213|107:213|94:257|94:257|103:309,1,150.000005722046,8|10,0:0|0:3,0:0:0:0:
210,362,206439,2,0,L|372:352,1,150.000005722046,10|8,0:3|0:0,0:0:0:0:
483,374,206908,1,8,0:3:0:0:
483,374,207064,1,8,0:3:0:0:
437,262,207221,2,0,L|446:172,1,75.000002861023,10|0,0:0|0:0,0:0:0:0:
502,82,207533,2,0,L|493:-8,1,75.000002861023,10|0,0:3|0:0,0:0:0:0:
379,84,207846,6,0,L|224:72,1,150.000005722046,10|10,0:3|0:3,0:0:0:0:
132,142,208314,1,10,0:3:0:0:
213,231,208471,2,0,P|245:289|203:358,1,150.000005722046,8|10,0:0|0:3,0:0:0:0:
86,361,208939,2,0,P|40:313|62:235,1,150.000005722046,10|8,0:3|0:0,0:0:0:0:
132,142,209408,2,0,P|137:108|135:46,1,75.000002861023,10|8,0:3|0:3,0:0:0:0:
256,86,209721,2,0,P|283:65|326:20,1,75.000002861023,10|0,0:0|0:0,0:0:0:0:
383,134,210033,2,0,P|417:138|479:137,1,75.000002861023,10|0,0:3|0:0,0:0:0:0:
506,20,210346,6,0,B|465:35|465:35|440:83|458:142,1,150.000005722046,10|8,0:3|0:3,0:0:0:0:
509,247,210814,1,8,0:3:0:0:
420,329,210971,2,0,B|371:325|371:325|323:340|323:340|273:336,1,150.000005722046,8|10,0:0|0:3,0:0:0:0:
189,250,211439,2,0,B|184:199|184:199|199:151|199:151|196:103,1,150.000005722046,10|8,0:3|0:0,0:0:0:0:
111,25,211908,1,8,0:3:0:0:
111,25,212064,1,8,0:3:0:0:
14,97,212221,2,0,L|6:177,1,75.000002861023,10|8,0:0|0:3,0:0:0:0:
14,291,212533,2,0,L|22:373,1,75.000002861023,8|8,0:2|0:2,0:0:0:0:
147,348,212846,6,0,B|194:338|194:338|246:352|246:352|293:345,1,150.000005722046,12|8,0:3|0:3,0:0:0:0:
396,362,213314,1,8,0:3:0:0:
478,296,213471,2,0,L|482:135,1,150.000005722046,8|8,0:0|0:3,0:0:0:0:
428,62,213939,1,10,0:3:0:0:
428,62,214096,2,0,P|389:63|350:51,1,75.000002861023,2|8,0:0|0:0,0:0:0:0:
257,84,214408,1,2,0:0:0:0:
257,84,214564,2,0,P|220:74|183:75,1,75.000002861023,10|8,0:3|0:0,0:0:0:0:
16,202,215033,1,10,0:3:0:0:
16,202,215189,1,2,0:0:0:0:
103,261,215346,6,0,P|140:261|176:251,1,75.000002861023,8|8,0:3|0:0,0:0:0:0:
278,226,215658,2,0,P|315:225|351:235,1,75.000002861023,8|8,0:3|0:3,0:0:0:0:
422,312,215971,1,8,0:0:0:0:
506,119,216283,2,0,L|509:44,1,75.000002861023,12|8,0:0|0:3,0:0:0:0:
408,76,216596,2,0,P|370:76|334:66,1,75.000002861023,10|8,0:3|0:0,0:0:0:0:
230,78,216908,2,0,P|193:68|156:68,1,75.000002861023,8|8,0:3|0:3,0:0:0:0:
65,122,217221,2,0,L|-8:117,2,50.0000019073487,10|8|8,0:0|0:3|0:3,0:0:0:0:
129,168,217533,2,0,L|202:173,2,50.0000019073487,10|8|8,0:3|0:3|0:3,0:0:0:0:
57,200,217846,6,0,P|19:263|49:335,1,150.000005722046,14|10,0:3|0:3,0:0:0:0:
156,370,218314,1,10,0:3:0:0:
275,355,218471,2,0,P|312:293|288:224,1,150.000005722046,8|10,0:0|0:3,0:0:0:0:
198,145,218939,2,0,P|173:76|211:14,1,150.000005722046,2|8,0:0|0:0,0:0:0:0:
451,2,219564,1,10,0:3:0:0:
506,109,219721,2,0,L|500:191,1,75.000002861023,10|2,0:0|0:0,0:0:0:0:
384,214,220033,2,0,L|378:132,1,75.000002861023,10|2,0:3|0:0,0:0:0:0:
284,44,220346,6,0,B|229:39|229:39|191:50|191:50|137:43,1,150.000005722046,10|10,0:3|0:3,0:0:0:0:
17,59,220814,1,10,0:3:0:0:
66,168,220971,2,0,B|71:223|71:223|60:261|60:261|67:315,1,150.000005722046,8|10,0:0|0:3,0:0:0:0:
173,370,221439,2,0,B|227:363|227:363|265:374|265:374|320:369,1,150.000005722046,10|8,0:3|0:0,0:0:0:0:
425,308,221908,1,8,0:3:0:0:
425,308,222064,1,8,0:3:0:0:
347,215,222221,2,0,L|252:202,1,75.000002861023,10|0,0:0|0:0,0:0:0:0:
157,236,222533,2,0,L|62:223,1,75.000002861023,10|0,0:3|0:0,0:0:0:0:
55,92,222846,6,0,B|91:128|91:128|102:160|82:225,1,150.000005722046,10|10,0:3|0:3,0:0:0:0:
29,333,223314,1,10,0:3:0:0:
149,323,223471,2,0,P|218:316|326:313,1,150.000005722046,8|10,0:0|0:3,0:0:0:0:
395,382,223939,2,0,B|359:346|359:346|348:314|368:248,1,150.000005722046,10|8,0:3|0:0,0:0:0:0:
460,170,224408,2,0,B|459:80,1,75.000002861023,10|8,0:3|0:3,0:0:0:0:
349,144,224721,2,0,B|348:54,1,75.000002861023,10|0,0:0|0:0,0:0:0:0:
238,118,225033,2,0,B|237:28,1,75.000002861023,10|0,0:3|0:0,0:0:0:0:
92,38,225346,6,0,B|138:59|138:59|237:43,1,150.000005722046,10|8,0:3|0:3,0:0:0:0:
347,88,225814,1,8,0:3:0:0:
461,51,225971,2,0,B|440:76|440:76|429:194,1,150.000005722046,8|10,0:0|0:3,0:0:0:0:
320,245,226439,2,0,B|168:239,1,150.000005722046,10|8,0:3|0:0,0:0:0:0:
71,308,226908,1,8,0:3:0:0:
71,308,227064,1,8,0:3:0:0:
8,205,227221,2,0,B|-1:126,1,75.000002861023,10|8,0:0|0:0,0:0:0:0:
119,129,227533,2,0,B|128:50,1,75.000002861023,8|8,0:3|0:3,0:0:0:0:
265,28,227846,6,0,B|309:46|309:46|416:34,1,150.000005722046,14|10,0:3|0:3,0:0:0:0:
508,103,228314,1,10,0:3:0:0:
410,174,228471,2,0,B|308:162|308:162|264:180,1,150.000005722046,8|10,0:0|0:3,0:0:0:0:
197,280,228939,2,0,B|153:298|153:298|51:286,1,150.000005722046,2|8,0:0|0:0,0:0:0:0:
1,51,229564,1,10,0:3:0:0:
115,87,229721,2,0,P|152:84|188:74,1,75.000002861023,10|2,0:0|0:0,0:0:0:0:
306,95,230033,2,0,P|337:74|363:47,1,75.000002861023,10|2,0:3|0:0,0:0:0:0:
494,70,230346,6,0,P|433:29|363:47,1,150.000005722046,10|10,0:3|0:3,0:0:0:0:
299,148,230814,1,10,0:3:0:0:
234,248,230971,2,0,P|173:288|103:270,1,150.000005722046,8|10,0:0|0:3,0:0:0:0:
66,156,231439,2,0,P|113:101|186:100,1,150.000005722046,10|8,0:3|0:0,0:0:0:0:
303,152,231908,1,8,0:3:0:0:
303,152,232064,1,8,0:3:0:0:
406,214,232221,2,0,P|441:221|492:208,1,75.000002861023,10|0,0:0|0:0,0:0:0:0:
482,94,232533,2,0,P|447:87|396:100,1,75.000002861023,10|0,0:3|0:0,0:0:0:0:
303,152,232846,6,0,B|144:142,1,150.000005722046,10|10,0:3|0:3,0:0:0:0:
50,204,233314,1,10,0:3:0:0:
115,305,233471,2,0,B|274:315,1,150.000005722046,8|10,0:0|0:3,0:0:0:0:
375,360,233939,2,0,B|402:333|402:333|410:212,1,150.000005722046,10|8,0:3|0:0,0:0:0:0:
352,115,234408,2,0,B|315:122|315:122|279:108,1,75.000002861023,10|8,0:3|0:3,0:0:0:0:
250,225,234721,2,0,B|224:196|224:196|218:159,1,75.000002861023,10|0,0:0|0:0,0:0:0:0:
104,192,235033,2,0,B|115:155|115:155|143:131,1,75.000002861023,10|0,0:3|0:0,0:0:0:0:
281,109,235346,6,0,B|319:101|353:116|353:116|378:78|423:69,1,150.000005722046,10|8,0:3|0:3,0:0:0:0:
506,145,235814,1,8,0:3:0:0:
469,259,235971,2,0,B|431:267|397:252|397:252|372:290|327:299,1,150.000005722046,8|10,0:0|0:3,0:0:0:0:
219,270,236439,2,0,B|181:262|147:277|147:277|122:239|86:232,1,150.000005722046,10|8,0:3|0:0,0:0:0:0:
0,316,236908,1,8,0:3:0:0:
0,316,237064,1,8,0:3:0:0:
108,368,237221,2,0,L|195:356,1,75.000002861023,10|8,0:2|0:3,0:0:0:0:
288,304,237533,2,0,L|375:300,1,75.000002861023,8|8,0:0|0:0,0:0:0:0:
490,348,237846,6,0,B|391:341|391:341|362:299,1,150.000005722046,12|8,0:3|0:3,0:0:0:0:
324,202,238314,1,8,0:3:0:0:
285,104,238471,2,0,B|256:62|256:62|156:55,1,150.000005722046,8|8,0:0|0:3,0:0:0:0:
62,95,238939,1,10,0:3:0:0:
62,95,239096,2,0,L|53:186,1,75.000002861023,2|8,0:0|0:0,0:0:0:0:
15,269,239408,1,2,0:0:0:0:
15,269,239565,2,0,L|24:360,1,75.000002861023,10|8,0:3|0:0,0:0:0:0:
229,379,240033,1,10,0:3:0:0:
229,379,240189,1,2,0:0:0:0:
317,321,240346,6,0,L|323:236,1,75.000002861023,8|8,0:3|0:0,0:0:0:0:
395,171,240658,2,0,L|392:81,1,75.000002861023,8|8,0:3|0:3,0:0:0:0:
330,10,240971,1,8,0:0:0:0:
152,122,241283,2,0,L|78:111,1,75.000002861023,12|8,0:0|0:3,0:0:0:0:
7,190,241596,2,0,P|-3:225|1:262,1,75.000002861023,10|8,0:3|0:0,0:0:0:0:
85,324,241908,2,0,L|187:318,1,75.000002861023,8|8,0:3|0:3,0:0:0:0:
174,330,242142,1,8,0:3:0:0:
190,340,242221,2,0,L|292:334,1,75.000002861023,10|8,0:0|0:0,0:0:0:0:
376,361,242533,1,8,0:0:0:0:
376,361,242689,1,8,0:0:0:0:
465,271,242846,6,0,L|472:129,1,139.999995727539,14|8,0:3|0:3,0:0:0:0:
430,42,243314,1,10,0:3:0:0:
342,87,243471,2,0,P|304:88|263:76,1,69.9999978637695,8|0,0:0|0:0,0:0:0:0:
161,40,243783,1,10,0:3:0:0:
161,40,243939,2,0,P|227:30|273:80,1,139.999995727539,8|8,0:3|0:0,0:0:0:0:
202,263,244564,1,8,0:3:0:0:
152,179,244721,2,0,L|161:31,1,139.999995727539,10|8,0:0|0:3,0:0:0:0:
356,30,245346,6,0,L|365:178,1,139.999995727539,10|8,0:3|0:3,0:0:0:0:
425,246,245814,1,10,0:3:0:0:
356,316,245971,2,0,P|321:308|280:311,1,69.9999978637695,8|0,0:0|0:0,0:0:0:0:
157,335,246283,1,10,0:3:0:0:
157,335,246439,2,0,B|241:341|241:341|288:309,1,139.999995727539,8|8,0:3|0:0,0:0:0:0:
322,218,246908,1,8,0:3:0:0:
322,218,247064,1,8,0:3:0:0:
294,122,247221,2,0,B|247:90|247:90|163:96,1,139.999995727539,10|8,0:0|0:3,0:0:0:0:
36,246,247846,6,0,B|82:214|82:214|166:220,1,139.999995727539,10|8,0:3|0:3,0:0:0:0:
235,290,248314,1,10,0:3:0:0:
303,359,248471,2,0,L|399:355,1,69.9999978637695,8|0,0:0|0:0,0:0:0:0:
447,292,248783,1,10,0:3:0:0:
447,292,248939,2,0,L|456:152,1,139.999995727539,8|8,0:3|0:0,0:0:0:0:
317,12,249564,1,8,0:3:0:0:
247,82,249721,2,0,B|200:113|200:113|116:107,1,139.999995727539,10|8,0:0|0:3,0:0:0:0:
2,266,250346,6,0,B|48:234|48:234|132:240,1,139.999995727539,10|8,0:3|0:3,0:0:0:0:
203,307,250814,1,10,0:3:0:0:
278,250,250971,2,0,L|282:179,1,69.9999978637695,8|0,0:0|0:0,0:0:0:0:
341,102,251283,1,10,0:3:0:0:
341,102,251439,2,0,B|397:61|397:61|456:103,1,139.999995727539,8|8,0:3|0:0,0:0:0:0:
512,186,251908,1,8,0:3:0:0:
512,186,252064,1,8,0:3:0:0:
467,273,252221,2,0,L|456:359,1,69.9999978637695,10|8,0:2|0:2,0:0:0:0:
361,356,252533,2,0,P|323:343|286:341,1,69.9999978637695,8|8,0:3|0:3,0:0:0:0:
155,341,252846,6,0,B|224:318|224:358|292:341,1,139.999995727539,14|8,0:3|0:3,0:0:0:0:
340,255,253314,1,10,0:3:0:0:
388,170,253471,2,0,L|392:88,1,69.9999978637695,8|0,0:0|0:0,0:0:0:0:
331,30,253783,1,10,0:3:0:0:
331,30,253939,2,0,B|263:7|263:47|195:30,1,139.999995727539,8|8,0:3|0:0,0:0:0:0:
12,104,254564,1,8,0:3:0:0:
109,120,254721,2,0,B|149:133|149:133|158:235,1,139.999995727539,10|8,0:0|0:3,0:0:0:0:
307,356,255346,6,0,B|315:258|315:258|355:245,1,139.999995727539,10|8,0:3|0:3,0:0:0:0:
451,263,255814,1,10,0:3:0:0:
501,178,255971,2,0,L|505:102,1,69.9999978637695,8|0,0:0|0:0,0:0:0:0:
449,34,256283,1,10,0:3:0:0:
449,34,256439,2,0,B|298:25,1,139.999995727539,8|8,0:3|0:0,0:0:0:0:
224,75,256908,1,8,0:3:0:0:
224,75,257064,1,8,0:3:0:0:
278,156,257221,2,0,B|417:164,1,139.999995727539,10|8,0:0|0:3,0:0:0:0:
511,336,257846,6,0,B|371:327,1,139.999995727539,10|8,0:3|0:3,0:0:0:0:
285,375,258314,1,10,0:3:0:0:
207,314,258471,2,0,B|198:215,1,69.9999978637695,8|0,0:0|0:0,0:0:0:0:
102,245,258783,1,10,0:3:0:0:
102,245,258939,2,0,B|151:294|151:294|200:245,1,139.999995727539,8|8,0:3|0:0,0:0:0:0:
321,89,259564,1,8,0:3:0:0:
373,172,259721,2,0,B|323:221|323:221|274:172,1,139.999995727539,10|8,0:0|0:3,0:0:0:0:
77,168,260346,6,0,B|126:118|126:118|175:168,1,139.999995727539,10|8,0:3|0:3,0:0:0:0:
201,262,260814,1,10,0:3:0:0:
255,343,260971,2,0,B|335:339,1,69.9999978637695,8|0,0:0|0:0,0:0:0:0:
419,381,261283,1,10,0:3:0:0:
419,381,261439,2,0,P|421:286|428:230,1,139.999995727539,8|8,0:3|0:0,0:0:0:0:
470,155,261908,1,8,0:3:0:0:
470,155,262064,1,8,0:3:0:0:
372,156,262221,2,0,L|302:156,1,69.9999978637695,10|8,0:2|0:3,0:0:0:0:
221,218,262533,2,0,L|151:218,1,69.9999978637695,10|8,0:2|0:2,0:0:0:0:
61,226,262846,6,0,B|61:163|89:110|131:74|162:66|221:59|221:59|266:70|298:72|397:71|507:22|507:22|486:66|465:98|420:121|394:131|394:131|420:156|465:157|512:141|512:141|471:199|440:214|386:207|386:207|413:237|460:251|503:257|503:257|446:255|393:261|357:297|357:297|334:320|310:344|261:358|206:358|162:307|150:270|150:270|139:240|124:187|150:115|218:101|265:121|303:153|313:170|326:219|311:254|299:274|273:279|249:280|223:264|215:245|223:211,1,1968.0000300293,4|0,1:1|0:0,0:0:0:0:
