osu file format v14

[General]
AudioFilename: audio.mp3
AudioLeadIn: 0
PreviewTime: 146986
Countdown: 0
SampleSet: Soft
StackLeniency: 0.7
Mode: 0
LetterboxInBreaks: 0
WidescreenStoryboard: 1

[Editor]
DistanceSpacing: 1
BeatDivisor: 4
GridSize: 32
TimelineZoom: 1.5

[Metadata]
Title:Jiyuu no Hane
TitleUnicode:自由の翅
Artist:Hiromi Sato
ArtistUnicode:佐藤ひろ美
Creator:Lasse
Version:Easy
Source:月影のシミュラクル-解放の羽-
Tags:Tsukikage no Simulacre -Kaihou no Hane- Opening Eroge Visual Novel Applique Meis Clauson Full Version Komore schoolboy
BeatmapID:1489893
BeatmapSetID:703718

[Difficulty]
HPDrainRate:3
CircleSize:3
OverallDifficulty:3
ApproachRate:4
SliderMultiplier:2
SliderTickRate:1

[Events]
//Background and Video events
0,0,"a.jpg",0,0
//Break Periods
2,108046,116526
2,193046,200119
//Storyboard Layer 0 (Background)
//Storyboard Layer 1 (Fail)
//Storyboard Layer 2 (Pass)
//Storyboard Layer 3 (Foreground)
//Storyboard Sound Samples

[TimingPoints]
2846,625,4,2,1,70,1,0
2846,-105.263157894737,4,2,1,70,0,0
4174,-105.263157894737,4,2,99,5,0,0
4252,-105.263157894737,4,2,1,70,0,0
6674,-105.263157894737,4,2,99,5,0,0
6752,-105.263157894737,4,2,1,70,0,0
9174,-105.263157894737,4,2,99,5,0,0
9252,-105.263157894737,4,2,1,70,0,0
11674,-105.263157894737,4,2,99,5,0,0
11752,-105.263157894737,4,2,1,70,0,0
12533,-105.263157894737,4,2,2,70,0,0
12846,-105.263157894737,4,2,1,70,0,0
14174,-105.263157894737,4,2,99,5,0,0
14252,-105.263157894737,4,2,1,70,0,0
16674,-105.263157894737,4,2,99,5,0,0
16752,-105.263157894737,4,2,1,70,0,0
19174,-105.263157894737,4,2,99,5,0,0
19252,-105.263157894737,4,2,1,70,0,0
21674,-105.263157894737,4,2,99,5,0,0
21752,-105.263157894737,4,2,1,70,0,0
22846,-125,4,2,75,50,0,0
41908,-125,4,2,75,51,0,0
42012,-125,4,2,75,52,0,0
42116,-125,4,2,75,53,0,0
42221,-125,4,2,75,54,0,0
42377,-125,4,2,75,50,0,0
42533,-125,4,2,76,54,0,0
42689,-125,4,2,76,50,0,0
42846,-111.111111111111,4,2,1,56,0,0
47846,-111.111111111111,4,2,1,58,0,0
52846,-111.111111111111,4,2,1,60,0,0
57846,-111.111111111111,4,2,1,62,0,0
60033,-111.111111111111,4,2,1,50,0,0
60189,-111.111111111111,4,2,75,30,0,0
60346,-111.111111111111,4,2,1,54,0,0
60658,-111.111111111111,4,2,1,56,0,0
60971,-111.111111111111,4,2,1,58,0,0
61283,-111.111111111111,4,2,1,62,0,0
61596,-111.111111111111,4,2,1,64,0,0
61908,-111.111111111111,4,2,1,66,0,0
62064,-111.111111111111,4,2,1,68,0,0
62142,-111.111111111111,4,2,1,69,0,0
62221,-111.111111111111,4,2,1,70,0,0
62377,-111.111111111111,4,2,1,71,0,0
62533,-111.111111111111,4,2,2,72,0,0
62689,-111.111111111111,4,2,2,73,0,0
62846,-100,4,2,1,74,0,1
63080,-100,4,2,99,5,0,1
63158,-100,4,2,1,74,0,1
65580,-100,4,2,99,5,0,1
65658,-100,4,2,1,74,0,1
68080,-100,4,2,99,5,0,1
68158,-100,4,2,1,74,0,1
71908,-100,4,2,1,68,0,1
72221,-100,4,2,1,70,0,0
72377,-100,4,2,1,71,0,0
72533,-100,4,2,2,72,0,0
72689,-100,4,2,2,73,0,0
72846,-100,4,2,1,74,0,1
73080,-100,4,2,99,5,0,1
73158,-100,4,2,1,74,0,1
75580,-100,4,2,99,5,0,1
75658,-100,4,2,1,74,0,1
78080,-100,4,2,99,5,0,1
78158,-100,4,2,1,74,0,1
81908,-100,4,2,1,70,0,1
82221,-100,4,2,1,73,0,0
82533,-100,4,2,1,72,0,0
82846,-100,4,2,1,70,0,1
87846,-105.263157894737,4,2,1,70,0,0
89174,-105.263157894737,4,2,99,5,0,0
89252,-105.263157894737,4,2,1,70,0,0
91674,-105.263157894737,4,2,99,5,0,0
91752,-105.263157894737,4,2,1,70,0,0
94174,-105.263157894737,4,2,99,5,0,0
94252,-105.263157894737,4,2,1,70,0,0
96674,-105.263157894737,4,2,99,5,0,0
96752,-105.263157894737,4,2,1,70,0,0
97533,-105.263157894737,4,2,2,70,0,0
97846,-105.263157894737,4,2,1,70,0,0
99174,-105.263157894737,4,2,99,5,0,0
99252,-105.263157894737,4,2,1,70,0,0
101674,-105.263157894737,4,2,99,5,0,0
101752,-105.263157894737,4,2,1,70,0,0
104174,-105.263157894737,4,2,99,5,0,0
104252,-105.263157894737,4,2,1,70,0,0
106674,-105.263157894737,4,2,99,5,0,0
106752,-105.263157894737,4,2,1,70,0,0
107846,-120.481927710843,4,2,75,44,0,0
110033,-120.481927710843,4,2,75,38,0,0
110346,-120.481927710843,4,2,75,44,0,0
112846,-120.481927710843,4,2,75,46,0,0
116908,-120.481927710843,4,2,75,48,0,0
117012,-120.481927710843,4,2,75,49,0,0
117116,-120.481927710843,4,2,75,50,0,0
117221,-120.481927710843,4,2,75,52,0,0
117377,-120.481927710843,4,2,75,48,0,0
117533,-120.481927710843,4,2,75,52,0,0
117689,-120.481927710843,4,2,75,48,0,0
117846,-120.481927710843,4,2,1,52,0,0
122846,-120.481927710843,4,2,1,54,0,0
127064,-120.481927710843,4,2,1,48,0,0
127142,-120.481927710843,4,2,1,50,0,0
127221,-120.481927710843,4,2,1,52,0,0
127846,-111.111111111111,4,2,1,56,0,0
132846,-111.111111111111,4,2,1,58,0,0
137533,-111.111111111111,4,2,2,58,0,0
137846,-111.111111111111,4,2,1,60,0,0
142846,-111.111111111111,4,2,1,62,0,0
145033,-111.111111111111,4,2,1,50,0,0
145189,-111.111111111111,4,2,75,30,0,0
145346,-111.111111111111,4,2,1,54,0,0
145658,-111.111111111111,4,2,1,56,0,0
145971,-111.111111111111,4,2,1,58,0,0
146283,-111.111111111111,4,2,1,60,0,0
146517,-111.111111111111,4,2,1,61,0,0
146596,-111.111111111111,4,2,1,62,0,0
146752,-111.111111111111,4,2,1,63,0,0
146908,-111.111111111111,4,2,2,64,0,0
147064,-111.111111111111,4,2,2,65,0,0
147221,-111.111111111111,4,2,1,66,0,0
147325,-111.111111111111,4,2,1,67,0,0
147429,-111.111111111111,4,2,1,62,0,0
147533,-111.111111111111,4,2,2,68,0,0
147637,-111.111111111111,4,2,2,69,0,0
147741,-111.111111111111,4,2,2,70,0,0
147846,-100,4,2,1,76,0,1
148080,-100,4,2,1,5,0,1
148158,-100,4,2,1,76,0,1
150580,-100,4,2,1,5,0,1
150658,-100,4,2,1,76,0,1
153080,-100,4,2,1,5,0,1
153158,-100,4,2,1,76,0,1
156908,-100,4,2,1,70,0,1
157221,-100,4,2,1,72,0,0
157377,-100,4,2,1,73,0,0
157533,-100,4,2,2,74,0,0
157689,-100,4,2,2,75,0,0
157846,-100,4,2,1,76,0,1
158080,-100,4,2,1,5,0,1
158158,-100,4,2,1,76,0,1
160580,-100,4,2,1,5,0,1
160658,-100,4,2,1,76,0,1
163080,-100,4,2,1,5,0,1
163158,-100,4,2,1,76,0,1
166908,-100,4,2,1,72,0,1
167221,-100,4,2,1,75,0,0
167533,-100,4,2,1,74,0,0
167846,-100,4,2,1,72,0,1
172846,-108.695652173913,4,2,1,66,0,0
182533,-108.695652173913,4,2,2,66,0,0
182846,-108.695652173913,4,2,1,64,0,0
190346,-108.695652173913,4,2,1,54,0,0
190658,-108.695652173913,4,2,1,55,0,0
190971,-108.695652173913,4,2,1,56,0,0
191283,-108.695652173913,4,2,1,57,0,0
191596,-108.695652173913,4,2,1,58,0,0
191908,-108.695652173913,4,2,1,59,0,0
192064,-108.695652173913,4,2,1,60,0,0
192142,-108.695652173913,4,2,1,61,0,0
192221,-108.695652173913,4,2,1,62,0,0
192377,-108.695652173913,4,2,1,63,0,0
192533,-108.695652173913,4,2,2,64,0,0
192689,-108.695652173913,4,2,2,65,0,0
192846,-108.695652173913,4,2,2,60,0,0
201439,-108.695652173913,4,2,1,64,0,0
201752,-108.695652173913,4,2,1,60,0,0
201908,-108.695652173913,4,2,1,64,0,0
202064,-108.695652173913,4,2,1,60,0,0
202142,-108.695652173913,4,2,1,62,0,0
202221,-108.695652173913,4,2,1,64,0,0
202377,-108.695652173913,4,2,1,66,0,0
202533,-108.695652173913,4,2,1,68,0,0
202689,-108.695652173913,4,2,1,70,0,0
202846,-100,4,2,1,78,0,1
203080,-100,4,2,99,5,0,1
203158,-100,4,2,1,78,0,1
205580,-100,4,2,99,5,0,1
205658,-100,4,2,1,78,0,1
208080,-100,4,2,99,5,0,1
208158,-100,4,2,1,78,0,1
211908,-100,4,2,1,74,0,1
212221,-100,4,2,1,77,0,0
212533,-100,4,2,1,76,0,0
212846,-100,4,2,1,74,0,1
217221,-100,4,2,1,78,0,0
217533,-100,4,2,2,78,0,0
217846,-100,4,2,1,80,0,1
218080,-100,4,2,99,5,0,1
218158,-100,4,2,1,80,0,1
220580,-100,4,2,99,5,0,1
220658,-100,4,2,1,80,0,1
223080,-100,4,2,99,5,0,1
223158,-100,4,2,1,80,0,1
227221,-100,4,2,1,80,0,0
227846,-100,4,2,1,80,0,1
228080,-100,4,2,99,5,0,1
228158,-100,4,2,1,80,0,1
230580,-100,4,2,99,5,0,1
230658,-100,4,2,1,80,0,1
233080,-100,4,2,99,5,0,1
233158,-100,4,2,1,80,0,1
236908,-100,4,2,1,76,0,1
237221,-100,4,2,1,79,0,0
237533,-100,4,2,1,78,0,0
237846,-100,4,2,1,76,0,1
242846,-105.263157894737,4,2,1,70,0,0
244174,-105.263157894737,4,2,99,5,0,0
244252,-105.263157894737,4,2,1,70,0,0
246674,-105.263157894737,4,2,99,5,0,0
246752,-105.263157894737,4,2,1,70,0,0
249174,-105.263157894737,4,2,99,5,0,0
249252,-105.263157894737,4,2,1,70,0,0
251674,-105.263157894737,4,2,99,5,0,0
251752,-105.263157894737,4,2,1,70,0,0
252533,-105.263157894737,4,2,2,70,0,0
252846,-105.263157894737,4,2,1,70,0,0
254174,-105.263157894737,4,2,99,5,0,0
254252,-105.263157894737,4,2,1,70,0,0
256674,-105.263157894737,4,2,99,5,0,0
256752,-105.263157894737,4,2,1,70,0,0
259174,-105.263157894737,4,2,99,5,0,0
259252,-105.263157894737,4,2,1,70,0,0
261674,-105.263157894737,4,2,99,5,0,0
261752,-105.263157894737,4,2,1,70,0,0
262846,-105.263157894737,4,2,2,60,0,0
263158,-162.60162601626,4,2,1,5,0,0
266283,-162.60162601626,4,2,99,10,0,0
272846,-162.60162601626,4,2,99,5,0,0

[Colours]
Combo1 : 150,210,220
Combo2 : 140,200,250
Combo3 : 160,190,210
Combo4 : 175,190,255

[HitObjects]
154,165,2846,6,0,B|214:155|214:155|262:180|262:180|343:173,1,189.999994926453,14|8,0:3|0:0,0:0:0:0:
427,144,3783,2,0,P|458:86|440:13,2,142.499996194839,10|8|10,0:3|0:0|0:0,0:0:0:0:
336,173,5033,1,8,0:3:0:0:
259,116,5346,2,0,P|206:84|82:121,1,189.999994926453,10|8,0:3|0:0,0:0:0:0:
35,192,6283,2,0,B|41:240|41:240|28:281|28:281|37:348,1,142.499996194839,10|8,0:3|0:0,0:0:0:0:
171,372,7221,1,10,0:0:0:0:
353,318,7846,6,0,B|412:298|461:328|461:328|499:310|510:265,1,189.999994926453,10|8,0:3|0:0,0:0:0:0:
504,175,8783,2,0,B|495:152|496:109|496:109|470:71|427:79,1,142.499996194839,10|8,0:3|0:0,0:0:0:0:
309,152,9721,2,0,P|264:157|203:142,1,94.9999974632263,10|8,0:0|0:3,0:0:0:0:
149,79,10346,2,0,B|125:53|84:51|84:51|15:78|17:147,1,189.999994926453,10|8,0:3|0:0,0:0:0:0:
56,226,11283,2,0,B|100:236|100:236|128:268|128:268|157:282|181:276,1,142.499996194839,10|8,0:3|0:0,0:0:0:0:
262,158,12221,1,10,0:2:0:0:
422,56,12846,6,0,B|480:37|480:37|515:98|482:160,1,189.999994926453,14|8,0:3|0:0,0:0:0:0:
431,239,13783,2,0,P|410:306|438:371,2,142.499996194839,10|8|10,0:3|0:0|0:0,0:0:0:0:
482,160,15033,1,8,0:3:0:0:
438,75,15346,2,0,B|345:44|345:105|253:75,1,189.999994926453,10|8,0:3|0:0,0:0:0:0:
166,33,16283,2,0,B|72:26|72:26|19:64,1,142.499996194839,10|8,0:3|0:0,0:0:0:0:
9,200,17221,1,10,0:0:0:0:
145,332,17846,6,0,B|202:327|202:327|269:340|269:340|346:333,1,189.999994926453,10|8,0:3|0:0,0:0:0:0:
403,269,18783,2,0,P|429:205|404:124,1,142.499996194839,10|8,0:3|0:0,0:0:0:0:
308,37,19721,2,0,L|202:27,1,94.9999974632263,10|8,0:0|0:3,0:0:0:0:
118,34,20346,2,0,B|55:38|55:38|-11:78|19:153,1,189.999994926453,10|8,0:3|0:0,0:0:0:0:
79,218,21283,2,0,B|150:225|150:225|180:296,1,142.499996194839,10|8,0:3|0:0,0:0:0:0:
307,350,22221,2,0,L|407:353,1,94.9999974632263,10|10,0:2|0:2,0:0:0:0:
476,297,22846,6,0,L|490:127,1,160,12|8,0:3|0:0,0:0:0:0:
384,16,24096,1,8,0:3:0:0:
225,28,24721,1,8,0:0:0:0:
156,171,25346,2,0,B|102:185|102:185|45:182|26:125,2,160,8|8|8,0:3|0:0|0:3,0:0:0:0:
225,28,27221,1,8,0:0:0:0:
371,85,27846,6,0,P|394:160|377:237,1,160,8|8,0:3|0:0,0:0:0:0:
278,362,29096,1,8,0:3:0:0:
120,337,29721,1,8,0:0:0:0:
62,187,30346,2,0,B|46:145|63:108|63:108|62:62|28:37,2,160,8|8|8,0:3|0:0|0:3,0:0:0:0:
120,337,32221,1,8,0:0:0:0:
266,272,32846,6,0,B|300:250|342:259|342:259|390:280|431:254,1,160,12|8,0:3|0:0,0:0:0:0:
502,122,34096,1,8,0:3:0:0:
398,2,34721,1,8,0:0:0:0:
251,63,35346,2,0,B|196:77|196:77|139:73|116:22,2,160,8|8|8,0:3|0:0|0:3,0:0:0:0:
398,2,37221,1,8,0:0:0:0:
465,146,37846,6,0,B|455:198|455:198|462:252|462:252|454:308,1,160,8|8,0:3|0:0,0:0:0:0:
303,356,39096,1,8,0:3:0:0:
160,286,39721,1,8,0:0:0:0:
108,135,40346,2,0,B|93:92|99:55|99:55|61:30|23:43,2,160,8|8|8,0:3|0:0|0:3,0:0:0:0:
211,257,42221,2,0,L|294:251,1,79.9999999999999,8|8,0:1|0:3,0:0:0:0:
373,214,42846,6,0,P|412:148|378:46,1,179.999994506836,12|8,0:3|0:0,0:0:0:0:
297,33,43783,2,0,B|242:25|242:25|162:50|162:50|120:43,1,179.999994506836,2|10,0:0|0:3,0:0:0:0:
43,88,44721,1,8,0:0:0:0:
106,256,45346,2,0,B|161:244|161:244|223:266|223:266|295:249,1,179.999994506836,8|8,0:3|0:0,0:0:0:0:
330,178,46283,2,0,B|351:121|340:56|340:56|363:37|392:40,1,179.999994506836,2|10,0:0|0:3,0:0:0:0:
479,63,47221,1,8,0:0:0:0:
488,238,47846,6,0,B|463:342|463:342|420:355|377:327,1,179.999994506836,8|8,0:3|0:0,0:0:0:0:
312,274,48783,2,0,B|314:219|314:219|286:148|286:148|285:98,1,179.999994506836,2|10,0:0|0:3,0:0:0:0:
227,29,49721,1,8,0:0:0:0:
53,76,50346,2,0,B|14:110|14:110|8:257,1,179.999994506836,8|8,0:3|0:0,0:0:0:0:
107,329,51439,2,0,B|151:319|151:319|192:331|192:331|251:325,1,134.999995880127,8|8,0:3|0:3,0:0:0:0:
319,367,52221,2,0,L|412:362,1,89.999997253418,10|8,0:0|0:0,0:0:0:0:
476,303,52846,6,0,B|480:284|486:271|486:271|480:248|480:248|515:187|468:127,1,179.999994506836,12|8,0:3|0:0,0:0:0:0:
420,59,53783,2,0,B|339:20|339:20|256:58,1,179.999994506836,2|10,0:0|0:3,0:0:0:0:
214,137,54721,2,0,L|203:228,1,89.999997253418,8|0,0:0|0:0,0:0:0:0:
168,309,55346,2,0,B|86:344|86:344|18:279,1,179.999994506836,8|8,0:3|0:0,0:0:0:0:
7,191,56283,2,0,B|19:77|19:77|39:55|91:51,1,179.999994506836,2|10,0:0|0:3,0:0:0:0:
168,44,57221,1,8,0:0:0:0:
287,178,57846,6,0,B|311:223|314:272|314:272|355:295|398:267,1,179.999994506836,8|8,0:3|0:0,0:0:0:0:
470,228,58783,2,0,B|496:181|496:181|508:102|448:51,1,179.999994506836,2|10,0:0|0:3,0:0:0:0:
376,39,59721,2,0,L|286:39,1,89.999997253418,8|2,0:0|0:2,0:0:0:0:
198,61,60346,6,0,L|96:52,2,89.999997253418,8|8|8,0:3|0:3|0:3,0:0:0:0:
260,125,61283,2,0,P|279:169|269:221,1,89.999997253418,8|8,0:3|0:3,0:0:0:0:
239,292,61908,1,8,0:3:0:0:
172,352,62221,2,0,L|67:342,1,89.999997253418,10|8,0:3|0:3,0:0:0:0:
14,270,62846,6,0,B|2:187|53:142|53:142|86:142|124:161,1,200,14|8,0:3|0:0,0:0:0:0:
161,241,63783,2,0,P|219:278|306:268,1,150,10|8,0:3|0:0,0:0:0:0:
361,195,64564,2,0,B|361:176|369:162|369:162|363:141|363:141|381:95|355:45,1,150,10|10,0:3|0:3,0:0:0:0:
259,30,65346,2,0,B|201:29|201:29|139:68|139:68|57:65,1,200,10|8,0:3|0:0,0:0:0:0:
2,141,66283,2,0,B|11:200|11:200|2:238|2:238|8:301,1,150,10|8,0:3|0:0,0:0:0:0:
139,361,67221,1,10,0:0:0:0:
329,301,67846,6,0,B|372:277|441:292|441:292|477:269|463:196,1,200,10|8,0:3|0:0,0:0:0:0:
407,135,68783,2,0,P|384:68|421:0,2,150,10|8|10,0:3|0:0|0:0,0:0:0:0:
466,215,70033,1,10,0:3:0:0:
406,295,70346,2,0,P|327:333|217:327,1,200,10|8,0:3|0:0,0:0:0:0:
125,287,71283,2,0,L|112:138,1,150,10|8,0:3|0:0,0:0:0:0:
222,35,72221,2,0,P|267:25|339:30,1,99.9999999999999,10|8,0:0|0:3,0:0:0:0:
404,80,72846,6,0,B|413:149|413:149|442:196|442:196|444:282,1,200,14|8,0:3|0:0,0:0:0:0:
374,342,73783,2,0,B|326:342|326:342|277:324|277:324|222:331,1,150,10|8,0:3|0:0,0:0:0:0:
133,364,74564,2,0,B|50:352|50:352|26:330|25:285,1,150,10|10,0:3|0:3,0:0:0:0:
71,203,75346,2,0,B|134:195|134:195|196:217|196:217|270:207,1,200,10|8,0:3|0:0,0:0:0:0:
359,174,76283,2,0,B|399:137|399:137|408:83|365:49,1,150,10|8,0:3|0:0,0:0:0:0:
222,12,77221,1,10,0:0:0:0:
38,91,77846,6,0,L|23:303,1,200,10|8,0:3|0:0,0:0:0:0:
101,353,78783,2,0,B|151:341|151:341|192:356|192:356|256:344,2,150,10|8|10,0:3|0:0|0:0,0:0:0:0:
24,290,80033,1,10,0:3:0:0:
24,189,80346,2,0,B|33:120|36:53|36:53|67:28|102:26,1,200,10|8,0:3|0:0,0:0:0:0:
180,75,81283,2,0,L|187:238,1,150,10|8,0:3|0:0,0:0:0:0:
288,333,82221,2,0,P|337:344|384:328,1,99.9999999999999,10|8,0:2|0:0,0:0:0:0:
454,257,82846,6,0,B|454:224|454:224|441:199|441:199|452:166|452:166|465:123|432:49,1,200,12|8,0:3|0:0,0:0:0:0:
342,38,83783,2,0,B|293:31|293:31|237:45|237:45|186:33,2,150,8|8|8,0:3|0:0|0:0,0:0:0:0:
438,64,85033,1,10,0:3:0:0:
482,153,85346,2,0,B|474:227|474:227|490:291|490:291|456:344,1,200,8|8,0:3|0:0,0:0:0:0:
359,358,86283,1,12,0:0:0:0:
264,324,86596,2,0,B|218:301|167:320|167:320|121:355|74:330,1,200,10|10,0:3|0:0,0:0:0:0:
52,122,87846,6,0,B|75:27|75:27|124:18|164:44,1,189.999994926453,14|8,0:3|0:0,0:0:0:0:
246,89,88783,2,0,P|313:106|375:75,2,142.499996194839,10|8|10,0:3|0:0|0:0,0:0:0:0:
164,44,90033,1,8,0:3:0:0:
94,109,90346,2,0,L|78:312,1,189.999994926453,10|8,0:3|0:0,0:0:0:0:
161,345,91283,2,0,B|209:339|209:339|250:352|250:352|317:343,1,142.499996194839,10|8,0:3|0:0,0:0:0:0:
440,376,92221,1,10,0:0:0:0:
481,190,92846,6,0,B|480:163|484:113|498:82|498:82|483:43|434:39,1,189.999994926453,10|8,0:3|0:0,0:0:0:0:
356,91,93783,2,0,P|348:145|344:239,1,142.499996194839,10|8,0:3|0:0,0:0:0:0:
256,345,94721,2,0,P|217:348|150:335,1,94.9999974632263,10|8,0:0|0:3,0:0:0:0:
85,282,95346,2,0,B|51:247|51:247|46:171|93:95,1,189.999994926453,10|8,0:3|0:0,0:0:0:0:
161,57,96283,2,0,B|203:51|203:51|245:74|245:74|303:68,1,142.499996194839,10|8,0:3|0:0,0:0:0:0:
429,24,97221,1,10,0:2:0:0:
497,201,97846,6,0,B|506:275|475:335|475:335|446:338|405:324,1,189.999994926453,14|8,0:3|0:0,0:0:0:0:
338,286,98783,2,0,P|271:265|206:293,2,142.499996194839,10|8|10,0:3|0:0|0:0,0:0:0:0:
423,329,100033,1,8,0:3:0:0:
477,250,100346,2,0,P|502:153|471:58,1,189.999994926453,10|8,0:3|0:0,0:0:0:0:
388,34,101283,2,0,L|235:28,1,142.499996194839,10|8,0:3|0:0,0:0:0:0:
103,46,102221,1,10,0:0:0:0:
20,217,102846,6,0,B|19:283|63:326|63:326|109:323|134:293,1,189.999994926453,10|8,0:3|0:0,0:0:0:0:
184,226,103783,2,0,B|202:163|178:160|193:84,1,142.499996194839,10|8,0:3|0:0,0:0:0:0:
322,25,104721,2,0,P|370:26|434:41,1,94.9999974632263,10|8,0:0|0:3,0:0:0:0:
473,111,105346,2,0,B|473:173|473:173|444:237|444:237|443:309,1,189.999994926453,10|8,0:3|0:0,0:0:0:0:
366,349,106283,2,0,B|217:338,1,142.499996194839,10|8,0:3|0:0,0:0:0:0:
98,269,107221,2,0,L|88:167,1,94.9999974632263,10|10,0:2|0:2,0:0:0:0:
26,110,107846,5,12,0:3:0:0:
0,141,117846,6,0,B|35:133|74:157|74:157|127:171|170:137,1,166.000002406311,12|8,0:3|0:0,0:0:0:0:
287,39,119096,1,2,0:0:0:0:
428,126,119721,1,8,0:0:0:0:
387,286,120346,2,0,B|328:343|328:343|268:276,2,166.000002406311,8|8|0,0:3|0:0|0:0,0:0:0:0:
428,126,122221,1,10,0:0:0:0:
287,39,122846,6,0,B|226:30|183:60|183:60|112:46,1,166.000002406311,8|8,0:3|0:0,0:0:0:0:
3,160,124096,1,2,0:0:0:0:
72,312,124721,1,8,0:0:0:0:
237,293,125346,2,0,B|289:290|289:290|350:304|350:304|406:302,2,166.000002406311,8|8|0,0:3|0:0|0:0,0:0:0:0:
89,216,127221,2,0,P|77:175|83:128,1,83.0000012031554,10|8,0:2|0:0,0:0:0:0:
136,64,127846,6,0,B|198:49|198:49|254:62|254:62|325:51,1,179.999994506836,12|8,0:3|0:0,0:0:0:0:
393,87,128783,2,0,P|439:163|423:250,1,179.999994506836,2|10,0:0|0:3,0:0:0:0:
358,313,129721,1,8,0:0:0:0:
183,356,130346,2,0,B|154:344|111:348|111:348|99:342|99:342|48:353|2:326,1,179.999994506836,8|8,0:3|0:0,0:0:0:0:
2,239,131283,2,0,B|19:201|12:133|12:133|29:99|67:88,1,179.999994506836,2|10,0:0|0:3,0:0:0:0:
151,60,132221,1,8,0:0:0:0:
280,185,132846,6,0,B|307:234|305:289|305:289|348:302|391:274,1,179.999994506836,8|8,0:3|0:0,0:0:0:0:
451,236,133783,2,0,B|474:178|474:121|474:121|432:54,1,179.999994506836,2|10,0:0|0:3,0:0:0:0:
367,16,134721,1,8,0:0:0:0:
322,190,135346,2,0,B|264:260|264:260|196:187,1,179.999994506836,8|8,0:3|0:0,0:0:0:0:
148,71,136439,2,0,B|95:27|95:27|31:72,1,134.999995880127,8|8,0:3|0:3,0:0:0:0:
11,150,137221,2,0,L|6:241,1,89.999997253418,10|8,0:0|0:3,0:0:0:0:
58,313,137846,6,0,B|147:289|143:348|232:325,1,179.999994506836,12|8,0:3|0:0,0:0:0:0:
281,248,138783,2,0,B|290:193|283:135|283:135|296:98|331:66,1,179.999994506836,2|10,0:0|0:3,0:0:0:0:
407,68,139721,2,0,B|442:77|442:77|458:106|463:146,1,89.999997253418,8|0,0:0|0:0,0:0:0:0:
465,217,140346,2,0,B|443:261|438:323|438:323|405:328|355:304,1,179.999994506836,8|8,0:3|0:0,0:0:0:0:
280,299,141283,2,0,B|219:281|166:316|166:316|136:304|121:277,1,179.999994506836,2|10,0:0|0:3,0:0:0:0:
69,204,142221,1,8,0:0:0:0:
172,56,142846,6,0,B|201:53|224:42|224:42|252:55|252:55|298:32|350:44,1,179.999994506836,8|8,0:3|0:0,0:0:0:0:
428,75,143783,2,0,B|456:127|456:127|441:180|441:180|449:258,1,179.999994506836,2|10,0:0|0:3,0:0:0:0:
409,327,144721,2,0,P|372:338|319:327,1,89.999997253418,8|2,0:0|0:0,0:0:0:0:
268,256,145346,6,0,L|264:159,2,89.999997253418,8|8|8,0:3|0:3|0:3,0:0:0:0:
232,338,146283,1,8,0:3:0:0:
144,315,146596,2,0,L|54:308,1,89.999997253418,8|8,0:0|0:3,0:0:0:0:
1,235,147221,2,0,L|5:138,1,89.999997253418,10|8,0:0|0:3,0:0:0:0:
72,71,147846,6,0,B|122:58|162:92|162:92|211:116|267:83,1,200,14|8,0:3|0:0,0:0:0:0:
349,39,148783,2,0,B|442:29|442:29|487:67,1,150,10|8,0:3|0:0,0:0:0:0:
497,164,149564,2,0,B|491:260|491:260|458:284|423:279,1,150,10|10,0:3|0:3,0:0:0:0:
347,314,150346,2,0,B|281:311|281:311|232:340|232:340|151:335,1,200,10|8,0:3|0:0,0:0:0:0:
65,290,151283,2,0,B|36:262|36:262|23:212|40:143,1,150,10|8,0:3|0:0,0:0:0:0:
120,27,152221,1,10,0:0:0:0:
267,162,152846,6,0,B|286:282|286:282|331:295|366:270,1,200,10|8,0:3|0:0,0:0:0:0:
426,197,153783,2,0,L|434:40,2,150,10|8|10,0:3|0:0|0:0,0:0:0:0:
362,273,155033,1,10,0:3:0:0:
297,196,155346,2,0,B|257:143|185:137|185:137|111:152,1,200,10|8,0:3|0:0,0:0:0:0:
53,227,156283,2,0,B|60:278|58:326|58:326|75:339|124:348,1,150,10|8,0:3|0:0,0:0:0:0:
254,357,157221,2,0,L|369:349,1,99.9999999999999,10|8,0:0|0:3,0:0:0:0:
437,295,157846,6,0,B|440:237|440:237|469:181|469:181|467:102,1,200,14|8,0:3|0:0,0:0:0:0:
382,49,158783,2,0,B|343:48|343:48|295:63|295:63|225:58,1,150,10|8,0:3|0:0,0:0:0:0:
138,86,159564,2,0,B|106:119|106:119|102:234,1,150,10|10,0:3|0:3,0:0:0:0:
160,304,160346,2,0,B|208:321|208:321|288:321|291:220,1,200,10|8,0:3|0:0,0:0:0:0:
320,125,161283,2,0,B|315:72|360:39|360:39|419:71,1,150,10|8,0:3|0:0,0:0:0:0:
491,185,162221,1,10,0:0:0:0:
389,357,162846,6,0,L|185:346,1,200,10|8,0:3|0:0,0:0:0:0:
95,311,163783,2,0,B|93:283|83:261|83:261|92:234|92:234|76:200|81:157,2,150,10|8|10,0:3|0:0|0:0,0:0:0:0:
189,346,165033,1,10,0:3:0:0:
280,304,165346,2,0,B|340:270|416:292|416:292|441:261|443:226,1,200,10|8,0:3|0:0,0:0:0:0:
480,146,166283,2,0,B|498:99|481:46|481:46|457:33|435:30,1,150,10|8,0:3|0:0,0:0:0:0:
301,97,167221,2,0,L|293:204,1,99.9999999999999,10|8,0:2|0:0,0:0:0:0:
260,291,167846,6,0,P|176:327|75:272,1,200,12|8,0:3|0:0,0:0:0:0:
38,193,168783,2,0,B|34:143|34:143|48:107|48:107|41:34,2,150,8|8|8,0:3|0:0|0:0,0:0:0:0:
83,283,170033,1,10,0:3:0:0:
183,287,170346,2,0,B|226:276|266:300|266:300|320:331|374:319,1,200,8|8,0:3|0:0,0:0:0:0:
461,268,171283,1,12,0:0:0:0:
493,173,171596,2,0,B|520:95|477:33|477:33|411:58,1,200,10|10,0:3|0:0,0:0:0:0:
262,134,172846,6,0,B|208:139|208:139|126:115|126:115|65:129,1,183.999993823242,12|10,0:3|0:0,0:0:0:0:
28,199,173783,2,0,L|17:340,2,137.999995367432,10|8|8,0:3|0:0|0:0,0:0:0:0:
83,125,175033,1,8,0:3:0:0:
155,181,175346,2,0,B|201:206|201:206|338:201,1,183.999993823242,10|8,0:3|0:0,0:0:0:0:
422,182,176283,2,0,B|457:158|457:158|472:108|447:46,1,137.999995367432,8|8,0:3|0:0,0:0:0:0:
322,18,177221,1,8,0:0:0:0:
262,134,177846,6,0,B|208:139|208:139|126:115|126:115|65:129,1,183.999993823242,8|8,0:3|0:0,0:0:0:0:
28,199,178783,2,0,L|17:340,2,137.999995367432,0|8|8,0:3|0:2|0:0,0:0:0:0:
83,125,180033,1,10,0:3:0:0:
145,192,180346,2,0,B|191:217|191:217|328:212,1,183.999993823242,10|8,0:3|0:0,0:0:0:0:
409,183,181283,2,0,B|444:159|444:159|468:105|421:58,1,137.999995367432,8|8,0:3|0:0,0:0:0:0:
299,29,182221,2,0,L|208:26,1,91.9999969116211,8|8,0:0|0:3,0:0:0:0:
116,45,182846,6,0,B|68:83|68:83|57:212,1,183.999993823242,12|10,0:3|0:0,0:0:0:0:
133,256,183783,2,0,L|283:263,2,137.999995367432,10|8|8,0:3|0:0|0:0,0:0:0:0:
57,205,185033,1,8,0:3:0:0:
18,121,185346,2,0,B|17:55|78:15|78:15|123:71,1,183.999993823242,10|8,0:3|0:0,0:0:0:0:
174,127,186283,2,0,P|242:142|313:125,1,137.999995367432,8|8,0:3|0:0,0:0:0:0:
418,44,187221,1,8,0:0:0:0:
493,211,187846,6,0,B|491:319|491:319|473:353|417:355,1,183.999993823242,10|10,0:3|0:2,0:0:0:0:
335,352,188783,2,0,L|185:343,2,137.999995367432,10|8|8,0:3|0:0|0:0,0:0:0:0:
387,276,190033,1,8,0:3:0:0:
348,193,190346,6,0,L|354:92,2,91.9999969116211,8|8|8,0:3|0:3|0:3,0:0:0:0:
295,268,191283,2,0,P|253:280|201:261,1,91.9999969116211,8|8,0:3|0:3,0:0:0:0:
128,219,191908,1,0,0:3:0:0:
94,133,192221,2,0,L|88:32,2,91.9999969116211,8|8|4,0:3|0:3|1:1,0:0:0:0:
36,275,201439,6,0,L|34:165,1,91.9999969116211,14|8,2:2|0:3,0:0:0:0:
105,63,202221,2,0,P|151:52|203:55,1,91.9999969116211,10|8,0:0|0:0,0:0:0:0:
275,113,202846,6,0,B|289:152|285:180|285:180|298:201|298:201|273:258|298:306,1,200,14|8,0:3|0:0,0:0:0:0:
385,351,203783,2,0,B|438:352|438:352|470:334|485:251,1,150,10|8,0:3|0:0,0:0:0:0:
470,168,204564,2,0,B|454:132|454:132|466:72|436:24,1,150,10|10,0:3|0:3,0:0:0:0:
342,59,205346,2,0,B|290:55|290:55|207:71|207:71|143:66,1,200,10|8,0:3|0:0,0:0:0:0:
62,124,206283,2,0,B|26:167|26:167|29:263,1,150,10|8,0:3|0:0,0:0:0:0:
138,363,207221,1,10,0:0:0:0:
268,211,207846,6,0,B|293:161|277:103|277:103|316:73|371:88,1,200,10|8,0:3|0:0,0:0:0:0:
434,154,208783,2,0,P|444:220|447:307,2,150,10|8|10,0:3|0:0|0:0,0:0:0:0:
361,85,210033,1,10,0:3:0:0:
272,132,210346,2,0,B|205:147|144:123|144:123|100:126|81:164,1,200,10|8,0:3|0:0,0:0:0:0:
57,252,211283,2,0,B|62:298|96:344|96:344|120:338|149:336,1,150,10|8,0:3|0:0,0:0:0:0:
294,349,212221,2,0,L|401:344,1,99.9999999999999,10|8,0:0|0:2,0:0:0:0:
467,276,212846,6,0,B|475:244|475:244|472:220|472:220|485:201|485:201|500:135|466:79,1,200,12|8,0:3|0:0,0:0:0:0:
378,45,213783,2,0,B|327:34|327:34|276:58|232:42,2,150,8|8|8,0:3|0:0|0:0,0:0:0:0:
470,85,215033,1,10,0:3:0:0:
433,178,215346,2,0,B|414:243|421:316|421:316|405:337|368:349,1,200,8|8,0:3|0:0,0:0:0:0:
279,306,216283,2,0,L|261:151,1,150,12|8,0:0|0:0,0:0:0:0:
188,25,217221,2,0,P|144:19|75:38,1,99.9999999999999,10|10,0:0|0:3,0:0:0:0:
8,88,217846,6,0,B|2:157|2:157|25:210|25:210|17:282,1,200,14|8,0:3|0:0,0:0:0:0:
91,349,218783,2,0,B|135:358|135:358|183:336|192:273,1,150,10|8,0:3|0:0,0:0:0:0:
147,185,219564,2,0,B|115:150|115:150|105:104|137:52,1,150,10|10,0:3|0:3,0:0:0:0:
233,26,220346,2,0,B|303:22|303:22|328:49|328:49|431:41,1,200,10|8,0:3|0:0,0:0:0:0:
488,114,221283,2,0,B|478:279,1,150,10|8,0:3|0:0,0:0:0:0:
364,360,222221,1,10,0:0:0:0:
257,190,222846,6,0,B|227:128|238:70|238:70|196:58|152:72,1,200,10|8,0:3|0:0,0:0:0:0:
91,138,223783,2,0,L|79:300,2,150,10|8|10,0:3|0:0|0:0,0:0:0:0:
162,69,225033,1,10,0:3:0:0:
255,106,225346,2,0,B|304:120|348:84|348:84|406:62|440:111,1,200,10|8,0:3|0:0,0:0:0:0:
472,200,226283,2,0,B|476:244|467:299|467:299|451:322|427:331,1,150,10|8,0:3|0:0,0:0:0:0:
281,364,227221,2,0,L|166:356,1,99.9999999999999,10|8,0:0|0:3,0:0:0:0:
88,320,227846,6,0,B|84:254|84:254|58:208|58:208|51:113,1,200,14|8,0:3|0:0,0:0:0:0:
115,49,228783,2,0,B|183:24|183:24|254:53,1,150,10|8,0:3|0:0,0:0:0:0:
312,135,229564,2,0,B|321:300,1,150,10|10,0:3|0:3,0:0:0:0:
392,355,230346,2,0,B|448:363|448:363|497:324|486:213,1,200,10|8,0:3|0:0,0:0:0:0:
460,134,231283,2,0,B|441:102|437:37|437:37|407:23|369:23,1,150,10|8,0:3|0:0,0:0:0:0:
293,139,232221,1,10,0:0:0:0:
119,39,232846,6,0,B|61:26|61:26|5:76|22:167,1,200,10|8,0:3|0:0,0:0:0:0:
106,203,233783,2,0,B|133:199|157:204|157:204|181:189|181:189|218:198|259:184,2,150,10|8|10,0:3|0:0|0:0,0:0:0:0:
37,275,235033,1,10,0:3:0:0:
102,350,235346,2,0,B|178:355|178:355|229:335|229:335|302:342,1,200,10|8,0:3|0:0,0:0:0:0:
396,357,236283,2,0,B|418:354|442:341|442:341|459:296|441:241,1,150,10|8,0:3|0:0,0:0:0:0:
294,209,237221,2,0,L|178:201,1,99.9999999999999,10|8,0:2|0:0,0:0:0:0:
100,167,237846,6,0,P|65:74|146:31,1,200,12|8,0:3|0:0,0:0:0:0:
237,33,238783,2,0,B|287:29|287:29|323:43|323:43|396:36,2,150,8|8|8,0:3|0:0|0:0,0:0:0:0:
178,114,240033,1,10,0:3:0:0:
123,198,240346,2,0,B|104:283|153:327|153:327|217:319,1,200,8|8,0:3|0:0,0:0:0:0:
305,359,241283,1,12,0:0:0:0:
396,317,241596,2,0,B|439:265|434:193|434:193|382:139,1,200,10|10,0:3|0:0,0:0:0:0:
217,59,242846,6,0,B|159:54|159:54|103:36|103:36|63:38|28:67,1,189.999994926453,14|8,0:3|0:0,0:0:0:0:
31,155,243783,2,0,L|18:305,2,142.49999619484,10|8|10,0:3|0:0|0:0,0:0:0:0:
102,91,245033,1,8,0:3:0:0:
189,127,245346,2,0,B|247:141|288:118|288:118|346:129|365:170,1,189.999994926453,10|8,0:3|0:0,0:0:0:0:
365,257,246283,2,0,B|345:320|284:351|284:351|223:330,1,189.999994926453,10|8,0:3|0:3,0:0:0:0:
132,355,247221,1,10,0:0:0:0:
38,189,247846,6,0,B|4:119|64:54|64:54|121:72,1,189.999994926453,10|8,0:3|0:0,0:0:0:0:
147,151,248783,2,0,P|203:173|291:146,1,142.499996194839,10|8,0:3|0:0,0:0:0:0:
378,49,249721,2,0,P|422:37|480:60,1,94.9999974632263,10|8,0:0|0:3,0:0:0:0:
505,138,250346,2,0,B|494:277|494:277|482:294|440:308,1,189.999994926453,10|8,0:3|0:0,0:0:0:0:
358,322,251283,2,0,L|215:309,1,142.499996194839,10|8,0:3|0:0,0:0:0:0:
82,360,252221,1,10,0:2:0:0:
37,175,252846,6,0,B|40:109|91:60|91:60|128:68|152:102,1,189.999994926453,14|8,0:3|0:0,0:0:0:0:
212,153,253783,2,0,P|256:170|360:146,2,142.499996194839,10|8|10,0:3|0:0|0:0,0:0:0:0:
141,89,255033,1,8,0:3:0:0:
68,150,255346,2,0,B|66:214|66:214|43:261|43:261|35:302|55:347,1,189.999994926453,10|8,0:3|0:0,0:0:0:0:
141,357,256283,2,0,B|304:345,1,142.499996194839,10|8,0:3|0:0,0:0:0:0:
424,369,257221,1,10,0:0:0:0:
492,191,257846,6,0,B|522:131|484:67|484:67|460:62|414:72,1,189.999994926453,10|8,0:3|0:0,0:0:0:0:
363,142,258783,2,0,P|310:171|228:140,1,142.499996194839,10|8,0:3|0:0,0:0:0:0:
136,45,259721,2,0,P|93:33|41:51,1,94.9999974632263,10|8,0:0|0:3,0:0:0:0:
21,139,260346,2,0,B|28:337,1,189.999994926453,10|8,0:3|0:0,0:0:0:0:
120,348,261283,2,0,B|158:343|191:353|191:353|224:345|255:309,1,142.499996194839,10|8,0:3|0:0,0:0:0:0:
230,173,262221,2,0,P|220:126|236:73,1,94.9999974632263,10|10,0:2|0:2,0:0:0:0:
308,28,262846,5,4,1:1:0:0:
256,192,263002,12,2,266283,0:0:0:0:
