osu file format v14

[General]
AudioFilename: audio.mp3
AudioLeadIn: 0
PreviewTime: 62139
Countdown: 0
SampleSet: Soft
StackLeniency: 0.7
Mode: 0
LetterboxInBreaks: 0
WidescreenStoryboard: 1

[Editor]
DistanceSpacing: 1.3
BeatDivisor: 8
GridSize: 32
TimelineZoom: 1

[Metadata]
Title:Jiyuu no Hane
TitleUnicode:自由の翅
Artist:Hiromi Sato
ArtistUnicode:佐藤ひろ美
Creator:Ichinose Rika
Version:Tears
Source:月影のシミュラクル-解放の羽-
Tags:eroge visual novel video game japanese Tsukikage no Simulacre -Kaihou no Hane- Applique cocona SgtCataclyst jrock j-rock rock
BeatmapID:2810965
BeatmapSetID:1358359

[Difficulty]
HPDrainRate:5.5
CircleSize:4
OverallDifficulty:8.8
ApproachRate:9.2
SliderMultiplier:3
SliderTickRate:1

[Events]
//Background and Video events
0,0,"vAduNf6.jpg",0,0
//Break Periods
//Storyboard Layer 0 (Background)
//Storyboard Layer 1 (Fail)
//Storyboard Layer 2 (Pass)
//Storyboard Layer 3 (Foreground)
//Storyboard Layer 4 (Overlay)
//Storyboard Sound Samples

[TimingPoints]
2999,625,4,2,1,60,1,0
2999,-83.3333333333333,4,2,1,60,0,0
22999,-142.857142857143,4,2,1,40,0,0
42999,-100,4,2,1,45,0,0
52999,-90.9090909090909,4,2,1,45,0,0
60499,-83.3333333333333,4,2,1,50,0,0
61124,-83.3333333333333,4,2,1,55,0,0
61749,-83.3333333333333,4,2,1,60,0,0
62999,-71.4285714285714,4,2,1,65,0,1
67999,-66.6666666666667,4,2,1,65,0,1
70108,-66.6666666666667,4,2,1,5,0,1
70186,-66.6666666666667,4,2,1,65,0,1
70499,-71.4285714285714,4,2,1,65,0,1
77608,-71.4285714285714,4,2,1,5,0,1
77686,-71.4285714285714,4,2,1,65,0,1
80108,-71.4285714285714,4,2,1,5,0,1
80186,-71.4285714285714,4,2,1,65,0,1
80499,-66.6666666666667,4,2,1,65,0,1
85108,-66.6666666666667,4,2,1,5,0,1
85186,-66.6666666666667,4,2,1,65,0,1
87999,-83.3333333333333,4,2,1,60,0,0
117999,-83.3333333333333,4,2,1,5,0,0

[Colours]
Combo1 : 61,201,254
Combo2 : 255,149,149
Combo3 : 255,172,132

[HitObjects]
103,41,2999,6,0,B|101:114|101:114|114:146|114:146|112:236,1,179.999994506836,4|0,3:2|3:2,0:0:0:0:
101,352,3467,1,2,3:2:0:0:
290,290,3624,2,0,P|227:290|198:280,1,89.9999972534181,8|0,0:0|0:0,0:0:0:0:
81,222,3936,1,2,3:2:0:0:
285,276,4092,2,0,P|222:276|193:266,1,89.9999972534181,0|0,3:2|0:0,0:0:0:0:
238,112,4405,2,0,P|231:167|274:112,1,179.999994506836,8|0,0:0|3:2,0:0:0:0:
235,2,4874,2,0,P|285:31|333:30,1,89.9999972534181,8|0,0:0|0:0,0:0:0:0:
446,83,5186,2,0,P|378:93|370:131,1,89.9999972534181,2|0,3:2|0:0,0:0:0:0:
482,241,5499,6,0,B|439:237|397:263|397:263|345:263|309:242,1,179.999994506836,4|0,3:2|3:2,0:0:0:0:
196,180,5967,1,2,3:2:0:0:
214,352,6124,2,0,P|212:293|225:262,1,89.9999972534181,8|0,0:0|0:0,0:0:0:0:
286,153,6436,1,0,3:2:0:0:
226,361,6592,2,0,P|224:302|237:271,1,89.9999972534181,0|0,3:2|0:0,0:0:0:0:
303,153,6905,5,8,0:0:0:0:
98,164,7061,1,0,3:2:0:0:
98,164,7217,1,0,3:2:0:0:
211,9,7374,2,0,P|185:71|187:119,1,89.9999972534181,8|0,0:0|0:0,0:0:0:0:
157,288,7686,2,0,P|182:225|181:178,1,89.9999972534181,2|0,3:2|0:0,0:0:0:0:
404,156,7999,6,0,B|366:235|318:251|318:251|314:220|290:203,1,179.999994506836,4|0,3:2|3:2,0:0:0:0:
183,203,8467,1,2,3:2:0:0:
247,352,8624,2,0,P|233:310|239:266,1,89.9999972534181,8|0,0:0|0:0,0:0:0:0:
280,130,8936,1,0,3:2:0:0:
258,359,9092,2,0,P|244:316|249:272,1,89.9999972534181,0|0,3:2|0:0,0:0:0:0:
466,321,9405,2,0,P|409:366|407:293,1,179.999994506836,8|0,0:0|3:2,0:0:0:0:
512,197,9874,2,0,P|464:197|397:168,1,89.9999972534181,8|0,0:0|0:0,0:0:0:0:
250,135,10186,2,0,P|298:135|365:106,1,89.9999972534181,2|0,3:2|0:0,0:0:0:0:
190,3,10499,6,0,B|191:69|191:69|165:105|165:105|163:188,1,179.999994506836,4|0,3:2|3:2,0:0:0:0:
158,307,10967,1,2,3:2:0:0:
17,229,11124,2,0,P|72:242|111:239,1,89.9999972534181,8|0,0:0|0:0,0:0:0:0:
245,214,11436,1,0,3:2:0:0:
370,271,11592,2,0,P|349:313|312:335,1,89.9999972534181,0|0,3:2|0:0,0:0:0:0:
162,338,11905,5,8,0:0:0:0:
341,177,12061,1,0,3:2:0:0:
341,177,12217,1,0,3:2:0:0:
451,335,12374,5,8,0:0:0:0:
470,127,12530,1,8,0:0:0:0:
439,315,12686,1,8,3:0:0:0:
477,148,12842,1,8,3:0:0:0:
252,374,12999,6,0,B|254:301|254:301|241:269|241:269|243:179,1,179.999994506836,4|0,3:2|3:2,0:0:0:0:
242,99,13467,1,2,3:2:0:0:
74,146,13624,2,0,P|117:157|162:154,1,89.9999972534181,8|0,0:0|0:0,0:0:0:0:
322,127,13936,1,0,3:2:0:0:
67,162,14092,2,0,P|110:173|155:170,1,89.9999972534181,0|0,3:2|0:0,0:0:0:0:
395,79,14405,2,0,B|427:175|363:175|395:271,1,179.999994506836,8|0,0:0|0:0,0:0:0:0:
512,352,14874,2,0,P|470:367|425:362,1,89.9999972534181,8|0,0:0|0:0,0:0:0:0:
231,331,15186,2,0,P|280:315|312:285,1,89.9999972534181,2|0,3:2|0:0,0:0:0:0:
394,78,15499,6,0,B|306:131|306:131|269:110|272:67,1,179.999994506836,4|0,3:2|3:2,0:0:0:0:
353,0,15967,1,2,3:2:0:0:
202,113,16124,2,0,P|200:54|213:23,1,89.9999972534181,8|0,0:0|0:0,0:0:0:0:
366,0,16436,1,0,3:2:0:0:
186,118,16592,2,0,P|184:59|197:28,1,89.9999972534181,0|0,3:2|0:0,0:0:0:0:
371,191,16905,5,8,0:0:0:0:
231,303,17061,1,0,3:2:0:0:
231,303,17217,1,0,3:2:0:0:
361,384,17374,2,0,P|367:339|388:300,1,89.9999972534181,8|0,0:0|0:0,0:0:0:0:
486,254,17686,2,0,P|511:191|510:144,1,89.9999972534181,2|0,3:2|0:0,0:0:0:0:
418,15,17999,6,0,B|391:43|389:84|389:84|340:83|280:132,1,179.999994506836,4|0,3:2|3:2,0:0:0:0:
202,195,18467,1,2,3:2:0:0:
329,285,18624,2,0,P|319:241|291:207,1,89.9999972534181,8|0,0:0|0:0,0:0:0:0:
191,118,18936,1,0,3:2:0:0:
343,287,19092,2,0,P|333:243|305:209,1,89.9999972534181,0|0,3:2|0:0,0:0:0:0:
134,301,19405,2,0,P|193:343|191:270,1,179.999994506836,8|0,0:0|3:2,0:0:0:0:
23,114,19874,2,0,P|65:126|110:126,1,89.9999972534181,8|0,0:0|0:0,0:0:0:0:
264,44,20186,2,0,P|221:56|176:56,1,89.9999972534181,2|0,3:2|0:0,0:0:0:0:
363,11,20499,6,0,B|364:77|364:77|338:113|338:113|336:196,1,179.999994506836,4|0,3:2|3:2,0:0:0:0:
343,294,20967,1,2,3:2:0:0:
166,252,21124,2,0,P|221:265|260:262,1,89.9999972534181,8|0,0:0|0:0,0:0:0:0:
412,225,21436,1,0,3:2:0:0:
496,104,21592,2,0,L|491:204,1,89.9999972534181,0|0,3:2|0:0,0:0:0:0:
415,362,21905,5,8,0:0:0:0:
215,219,22061,1,0,3:2:0:0:
215,219,22217,1,0,3:2:0:0:
243,85,22374,5,8,0:0:0:0:
215,219,22530,1,8,3:0:0:0:
232,52,22686,1,8,0:0:0:0:
227,259,22842,1,0,3:2:0:0:
243,85,22999,5,2,3:2:0:0:
37,239,23311,2,0,P|38:291|64:360,2,104.999996795654,2|0|0,0:0|3:2|0:0,0:0:0:0:
47,139,24092,2,0,P|80:145|108:139,1,52.4999983978272,2|0,3:2|3:0,0:0:0:0:
194,122,24405,1,0,0:0:0:0:
194,122,24561,2,0,P|178:169|250:126,1,209.999993591309,2|0,3:2|0:0,0:0:0:0:
239,24,25342,6,0,P|192:32|120:27,1,104.999996795654,2|0,0:0|0:0,0:0:0:0:
45,34,25811,2,0,B|83:98|51:164|51:164|5:264|68:329|181:314|188:214,1,419.999987182618,2|0,0:0|0:0,0:0:0:0:
395,63,27374,2,0,L|391:172,1,104.999996795654,2|0,3:2|0:0,0:0:0:0:
382,315,27999,5,2,3:2:0:0:
158,122,28311,2,0,L|162:232,2,104.999996795654,2|0|0,0:0|3:2|0:0,0:0:0:0:
153,30,29092,2,0,P|194:41|273:32,1,104.999996795654,2|0,3:2|0:0,0:0:0:0:
379,21,29561,2,0,B|330:62|379:112|316:172,1,157.499995193482,2|0,3:2|0:0,0:0:0:0:
264,257,30186,1,0,0:0:0:0:
264,257,30342,6,0,P|321:267|382:252,1,104.999996795654,2|0,0:0|0:0,0:0:0:0:
500,222,30811,2,0,B|385:105|320:245|210:127,1,314.999990386963,2|0,0:0|3:2,0:0:0:0:
96,15,32374,2,0,L|100:124,1,104.999996795654,2|0,3:2|0:0,0:0:0:0:
108,274,32999,5,4,3:2:0:0:
276,208,33311,2,0,L|291:84,2,104.999996795654,2|0|0,0:0|3:2|3:2,0:0:0:0:
266,304,34092,2,0,P|296:302|326:309,1,52.4999983978272,2|0,3:2|0:0,0:0:0:0:
406,341,34405,1,0,0:0:0:0:
406,341,34561,2,0,P|459:295|409:173,1,209.999993591309,2|0,3:2|0:0,0:0:0:0:
373,103,35342,6,0,P|326:111|254:106,1,104.999996795654,2|0,0:0|0:0,0:0:0:0:
171,76,35811,2,0,B|194:146|140:204|140:204|163:244|163:244|107:367|181:410|246:397|263:338,1,419.999987182618,2|0,0:0|3:2,0:0:0:0:
464,183,37374,2,0,L|355:187,1,104.999996795654,2|0,3:2|0:0,0:0:0:0:
235,188,37999,5,4,3:2:0:0:
337,23,38311,2,0,L|227:27,2,104.999996795654,2|2|0,0:0|3:2|0:0,0:0:0:0:
444,21,39092,2,0,P|450:70|442:141,1,104.999996795654,2|0,3:2|0:0,0:0:0:0:
416,233,39561,2,0,P|331:200|351:179,1,157.499995193482,2|0,3:2|0:0,0:0:0:0:
366,97,40186,1,0,0:0:0:0:
366,97,40342,6,0,P|326:117|245:117,1,104.999996795654,2|0,0:0|0:0,0:0:0:0:
159,102,40811,2,0,B|166:161|210:205|210:205|267:249|263:368|170:386|119:337|119:337|135:327|156:323,1,419.999987182618,2|0,0:0|3:2,0:0:0:0:
284,310,42217,5,0,3:2:0:0:
284,310,42295,1,0,3:2:0:0:
284,310,42374,5,8,0:0:0:0:
416,160,42530,1,8,0:0:0:0:
512,328,42686,1,8,0:0:0:0:
181,68,42999,6,0,P|191:128|108:128,2,150,4|2|8,3:2|0:0|0:0,0:0:0:0:
181,68,43936,1,0,0:0:0:0:
217,231,44092,1,0,3:2:0:0:
217,231,44405,5,0,3:2:0:0:
344,114,44561,2,0,L|337:213,1,75,0|0,3:2|0:0,0:0:0:0:
325,353,44874,1,8,0:0:0:0:
358,356,45186,1,2,0:0:0:0:
391,358,45499,6,0,P|446:365|505:282,2,150,4|2|8,3:2|0:0|0:0,0:0:0:0:
291,289,46436,1,0,0:0:0:0:
343,151,46592,1,0,3:2:0:0:
343,151,46905,5,0,3:2:0:0:
179,161,47061,2,0,P|196:121|184:81,1,75,0|0,3:2|0:0,0:0:0:0:
98,0,47374,1,8,0:0:0:0:
63,72,47686,1,2,0:0:0:0:
33,143,47999,6,0,P|87:137|186:164,2,150,4|2|8,3:2|0:0|0:0,0:0:0:0:
0,266,48936,1,0,0:0:0:0:
117,366,49092,1,0,3:2:0:0:
117,366,49405,5,0,3:2:0:0:
232,249,49561,2,0,L|315:244,1,75,0|0,3:2|0:0,0:0:0:0:
472,234,49874,1,8,0:0:0:0:
466,111,50186,2,0,P|411:126|370:117,1,75,2|0,0:0|0:0,0:0:0:0:
268,76,50499,5,4,3:2:0:0:
268,76,50811,1,0,0:0:0:0:
230,224,51124,1,8,0:0:0:0:
230,224,51436,1,0,0:0:0:0:
230,224,51592,2,0,P|270:232|316:258,1,75,0|0,3:2|0:0,0:0:0:0:
386,328,51905,1,0,3:2:0:0:
386,328,52061,2,0,P|346:336|300:362,1,75,0|0,3:2|0:0,0:0:0:0:
195,383,52374,5,8,0:0:0:0:
294,245,52530,1,8,3:0:0:0:
103,356,52686,5,8,0:0:0:0:
396,253,52842,1,8,0:0:0:0:
309,35,52999,6,0,P|282:102|371:120,1,165.000005035401,4|0,3:2|0:0,0:0:0:0:
127,11,53624,1,8,0:0:0:0:
127,11,53936,1,0,0:0:0:0:
74,142,54092,5,0,3:2:0:0:
74,142,54405,1,0,3:2:0:0:
127,273,54561,6,0,P|168:255|218:262,1,82.5000025177003,0|0,3:2|0:0,0:0:0:0:
284,321,54874,2,0,P|346:337|452:303,1,165.000005035401,8|0,0:0|0:0,0:0:0:0:
447,81,55499,6,0,P|444:134|346:115,1,165.000005035401,4|0,3:2|0:0,0:0:0:0:
512,374,56124,1,8,0:0:0:0:
512,374,56436,1,0,0:0:0:0:
459,243,56592,5,0,3:2:0:0:
459,243,56905,1,0,3:2:0:0:
512,112,57061,6,0,P|461:124|399:110,1,82.5000025177003,0|0,3:2|0:0,0:0:0:0:
335,70,57374,2,0,P|252:54|182:88,1,165.000005035401,8|0,0:0|0:0,0:0:0:0:
277,302,57999,6,0,P|271:235|327:287,1,165.000005035401,4|0,3:2|0:0,0:0:0:0:
47,167,58624,1,8,0:0:0:0:
47,167,58936,1,0,0:0:0:0:
82,332,59092,5,0,3:2:0:0:
82,332,59405,1,0,3:2:0:0:
200,214,59561,6,0,L|191:387,2,165.000005035401,0|8|0,3:2|0:0|0:0,0:0:0:0:
294,38,60499,5,0,3:2:0:0:
343,128,60811,1,0,3:2:0:0:
343,128,61124,5,0,3:2:0:0:
281,240,61436,1,0,3:2:0:0:
219,191,61749,5,0,3:2:0:0:
319,373,62061,1,0,3:2:0:0:
415,217,62217,5,0,3:2:0:0:
415,217,62295,1,0,3:2:0:0:
415,217,62374,1,8,0:0:0:0:
241,321,62530,1,8,0:0:0:0:
448,318,62686,1,8,3:0:0:0:
228,320,62842,1,8,3:0:0:0:
13,181,62999,6,0,B|60:104|60:104|98:77|98:77|130:11,1,209.999993591309,4|0,3:2|3:2,0:0:0:0:
132,189,63467,1,0,3:2:0:0:
285,243,63624,2,0,P|354:243|397:224,1,104.999996795654,8|0,0:0|0:0,0:0:0:0:
500,118,63936,1,0,3:2:0:0:
386,230,64092,2,0,P|337:246|285:243,1,104.999996795654,0|0,3:2|0:0,0:0:0:0:
285,269,64405,2,0,P|337:272|386:256,1,104.999996795654,8|0,0:0|0:0,0:0:0:0:
504,163,64717,5,2,3:2:0:0:
347,140,64874,1,8,0:0:0:0:
239,32,65030,1,0,3:2:0:0:
343,166,65186,1,0,3:2:0:0:
413,40,65342,1,0,3:2:0:0:
139,184,65499,6,0,P|214:159|138:140,1,209.999993591309,4|0,3:2|3:2,0:0:0:0:
8,128,65967,1,0,3:2:0:0:
75,277,66124,2,0,P|119:274|190:286,1,104.999996795654,8|0,0:0|0:0,0:0:0:0:
340,354,66436,1,0,3:2:0:0:
179,282,66592,2,0,P|127:274|75:277,1,104.999996795654,8|0,0:0|0:0,0:0:0:0:
295,208,66905,5,8,0:0:0:0:
360,360,67061,1,0,3:2:0:0:
360,360,67217,1,0,3:2:0:0:
506,216,67374,6,0,L|381:229,1,104.999996795654,8|0,0:0|0:0,0:0:0:0:
216,142,67686,2,0,L|320:131,1,104.999996795654,2|0,3:2|0:0,0:0:0:0:
505,69,67999,6,0,B|447:66|403:106|403:106|361:40|299:53,1,225.000008583069,4|0,3:2|3:2,0:0:0:0:
174,62,68467,1,0,3:2:0:0:
51,165,68624,2,0,P|32:225|49:279,1,112.500004291535,8|0,0:0|0:0,0:0:0:0:
128,377,68936,1,0,3:2:0:0:
44,271,69092,2,0,P|32:217|51:165,1,112.500004291535,0|0,3:2|0:0,0:0:0:0:
31,164,69405,2,0,P|12:216|24:270,1,112.500004291535,8|0,0:0|0:0,0:0:0:0:
128,377,69717,1,0,3:2:0:0:
346,261,69874,6,0,P|258:253|177:228,1,168.750006437302,8|0,0:0|0:0,0:0:0:0:
159,216,70186,2,0,P|227:211|273:168,1,112.500004291535,2|0,3:2|0:0,0:0:0:0:
439,0,70499,6,0,B|449:84|449:84|425:134|425:134|436:231,1,209.999993591309,4|0,3:2|3:2,0:0:0:0:
368,74,70967,1,0,3:2:0:0:
216,81,71124,2,0,P|155:87|76:67,1,104.999996795654,8|0,0:0|0:0,0:0:0:0:
0,0,71436,1,0,3:2:0:0:
30,168,71592,2,0,P|78:160|135:170,1,104.999996795654,0|0,3:2|0:0,0:0:0:0:
299,355,71905,5,8,0:0:0:0:
300,172,72061,1,0,3:2:0:0:
300,172,72217,1,0,3:2:0:0:
408,218,72374,5,8,0:0:0:0:
254,317,72530,1,8,0:0:0:0:
475,279,72686,5,8,3:0:0:0:
180,262,72842,1,8,3:0:0:0:
29,95,72999,6,0,B|19:179|19:179|58:228|49:314,1,209.999993591309,4|0,3:2|3:2,0:0:0:0:
113,152,73467,1,0,3:2:0:0:
255,102,73624,2,0,P|320:93|361:112,1,104.999996795654,8|0,0:0|0:0,0:0:0:0:
456,196,73936,1,0,3:2:0:0:
354,107,74092,2,0,P|305:91|255:102,1,104.999996795654,0|0,3:2|0:0,0:0:0:0:
255,89,74405,2,0,P|305:78|354:94,1,104.999996795654,8|0,0:0|0:0,0:0:0:0:
460,185,74717,5,2,3:2:0:0:
306,261,74874,1,8,0:0:0:0:
138,206,75030,1,0,3:2:0:0:
306,288,75186,1,0,3:2:0:0:
303,159,75342,1,0,3:2:0:0:
84,300,75499,6,0,P|146:313|106:207,1,209.999993591309,4|0,3:2|3:2,0:0:0:0:
4,182,75967,1,0,3:2:0:0:
5,42,76124,2,0,L|131:60,1,104.999996795654,8|0,0:0|0:0,0:0:0:0:
271,80,76436,1,0,3:2:0:0:
108,56,76592,2,0,L|5:42,1,104.999996795654,0|0,3:2|0:0,0:0:0:0:
188,2,76905,5,8,0:0:0:0:
194,217,77061,1,0,3:2:0:0:
194,217,77217,1,0,3:2:0:0:
366,326,77374,6,0,P|385:272|365:174,1,157.499995193482,8|0,0:0|0:0,0:0:0:0:
350,157,77686,2,0,P|353:212|390:198,1,104.999996795654,2|0,3:2|0:0,0:0:0:0:
472,11,77999,6,0,B|403:22|403:22|339:13|339:13|245:28,1,209.999993591309,4|0,3:2|3:2,0:0:0:0:
478,91,78467,1,0,3:2:0:0:
315,142,78624,2,0,P|246:151|200:143,1,104.999996795654,8|0,0:0|0:0,0:0:0:0:
59,96,78936,1,0,3:2:0:0:
211,146,79092,2,0,P|263:151|315:142,1,104.999996795654,0|0,3:2|0:0,0:0:0:0:
317,160,79405,2,0,P|265:169|213:164,1,104.999996795654,8|0,0:0|0:0,0:0:0:0:
59,96,79717,1,0,3:2:0:0:
79,335,79874,6,0,P|93:278|107:340,1,157.499995193482,8|0,0:0|0:0,0:0:0:0:
103,355,80186,2,0,P|108:297|127:255,1,104.999996795654,2|0,3:2|0:0,0:0:0:0:
274,21,80499,6,0,B|279:109|279:109|253:161|253:161|258:255,1,225.000008583069,4|0,3:2|3:2,0:0:0:0:
196,89,80967,1,0,3:2:0:0:
58,190,81124,2,0,P|39:260|60:289,1,112.500004291535,8|0,0:0|0:0,0:0:0:0:
191,365,81436,1,0,3:2:0:0:
59,288,81592,2,0,P|35:239|58:190,1,112.500004291535,0|0,3:2|0:0,0:0:0:0:
197,104,81905,5,8,0:0:0:0:
239,302,82061,1,0,3:2:0:0:
239,302,82217,1,0,3:2:0:0:
482,219,82374,5,8,0:0:0:0:
321,249,82530,1,8,0:0:0:0:
484,121,82686,5,8,3:0:0:0:
339,339,82842,1,8,3:0:0:0:
281,51,82999,6,0,P|295:136|181:160,1,225.000008583069,4|0,3:2|3:2,0:0:0:0:
85,83,83467,1,0,3:2:0:0:
66,260,83624,2,0,P|122:317|158:315,1,112.500004291535,8|0,0:0|0:0,0:0:0:0:
315,261,83936,1,0,3:2:0:0:
220,164,84092,1,0,3:2:0:0:
319,280,84249,1,0,0:0:0:0:
475,194,84405,2,0,P|463:248|468:304,1,112.500004291535,8|0,0:0|0:0,0:0:0:0:
501,384,84717,1,0,3:2:0:0:
406,123,84874,6,0,P|340:127|238:89,1,168.750006437302,8|0,0:0|0:0,0:0:0:0:
223,76,85186,2,0,P|260:121|217:120,1,112.500004291535,2|0,3:2|0:0,0:0:0:0:
71,124,85499,5,2,3:2:0:0:
156,294,85655,1,8,0:0:0:0:
266,286,85811,1,0,3:2:0:0:
314,202,85967,1,0,3:2:0:0:
268,32,86124,2,0,P|267:95|227:133,1,112.500004291535,8|0,0:0|0:0,0:0:0:0:
50,172,86436,6,0,L|74:234,1,56.2500021457673,4|0,3:2|0:0,0:0:0:0:
173,361,86592,1,0,3:2:0:0:
378,308,86749,1,0,3:2:0:0:
176,344,86905,1,8,0:0:0:0:
213,179,87061,1,0,3:2:0:0:
353,101,87217,1,0,3:2:0:0:
375,109,87295,1,0,3:2:0:0:
392,134,87374,5,8,0:0:0:0:
280,268,87530,1,8,3:0:0:0:
490,135,87686,5,8,0:0:0:0:
175,251,87842,1,8,0:0:0:0:
57,76,87999,6,0,B|55:149|55:149|68:181|68:181|66:271,1,179.999994506836,4|0,3:2|3:2,0:0:0:0:
53,373,88467,1,2,3:2:0:0:
228,330,88624,2,0,P|165:330|136:320,1,89.9999972534181,8|0,0:0|0:0,0:0:0:0:
0,289,88936,1,0,3:2:0:0:
227,345,89092,2,0,P|164:345|135:335,1,89.9999972534181,0|0,3:2|0:0,0:0:0:0:
340,265,89405,2,0,P|387:288|491:206,1,179.999994506836,8|0,0:0|3:2,0:0:0:0:
487,78,89874,2,0,P|442:71|396:93,1,89.9999972534181,8|0,0:0|0:0,0:0:0:0:
317,156,90186,2,0,P|249:166|207:146,1,89.9999972534181,2|0,3:2|0:0,0:0:0:0:
79,40,90499,6,0,B|58:76|58:128|58:128|84:170|80:213,1,179.999994506836,4|0,3:2|3:2,0:0:0:0:
40,321,90967,1,2,3:2:0:0:
164,380,91124,2,0,P|162:321|175:290,1,89.9999972534181,8|0,0:0|0:0,0:0:0:0:
268,172,91436,1,0,3:2:0:0:
176,384,91592,2,0,P|174:325|187:294,1,89.9999972534181,0|0,3:2|0:0,0:0:0:0:
268,172,91905,5,8,0:0:0:0:
349,327,92061,1,0,3:2:0:0:
349,327,92217,1,0,3:2:0:0:
508,365,92374,2,0,P|501:320|480:281,1,89.9999972534181,8|0,0:0|0:0,0:0:0:0:
389,216,92686,2,0,P|364:153|365:106,1,89.9999972534181,2|0,3:2|0:0,0:0:0:0:
315,0,92999,6,0,B|293:59|229:95|229:95|211:144,1,179.999994506836,4|0,3:2|3:2,0:0:0:0:
177,247,93467,1,2,3:2:0:0:
71,363,93624,2,0,P|57:321|63:277,1,89.9999972534181,8|0,0:0|0:0,0:0:0:0:
138,167,93936,1,0,3:2:0:0:
84,364,94092,2,0,P|70:321|75:277,1,89.9999972534181,0|0,3:2|0:0,0:0:0:0:
347,284,94405,2,0,P|270:326|288:256,1,179.999994506836,8|0,0:0|3:2,0:0:0:0:
233,161,94874,2,0,P|275:173|320:173,1,89.9999972534181,8|0,0:0|0:0,0:0:0:0:
403,118,95186,2,0,P|447:117|490:130,1,89.9999972534181,0|0,3:2|0:0,0:0:0:0:
347,1,95499,6,0,B|348:67|348:67|322:103|322:103|320:186,1,179.999994506836,4|0,3:2|3:2,0:0:0:0:
323,300,95967,1,2,3:2:0:0:
154,270,96124,2,0,P|209:283|248:280,1,89.9999972534181,8|0,0:0|0:0,0:0:0:0:
374,239,96436,1,0,3:2:0:0:
476,278,96592,2,0,P|455:320|418:342,1,89.9999972534181,0|0,3:2|0:0,0:0:0:0:
199,354,96905,5,8,0:0:0:0:
223,125,97061,1,0,3:2:0:0:
223,125,97217,1,0,3:2:0:0:
44,82,97374,5,8,0:0:0:0:
137,226,97530,1,8,0:0:0:0:
44,106,97686,1,8,3:0:0:0:
138,209,97842,1,8,3:0:0:0:
340,373,97999,6,0,B|342:300|342:300|329:268|329:268|331:178,1,179.999994506836,4|0,3:2|3:2,0:0:0:0:
334,85,98467,1,2,3:2:0:0:
164,142,98624,2,0,P|207:153|252:150,1,89.9999972534181,8|0,0:0|0:0,0:0:0:0:
399,129,98936,1,0,3:2:0:0:
162,157,99092,2,0,P|205:168|250:165,1,89.9999972534181,0|0,3:2|0:0,0:0:0:0:
186,378,99405,2,0,P|237:319|166:286,1,179.999994506836,8|0,0:0|3:2,0:0:0:0:
12,282,99874,2,0,P|48:248|90:233,1,89.9999972534181,8|0,0:0|0:0,0:0:0:0:
172,206,100186,2,0,P|221:190|253:160,1,89.9999972534181,2|0,3:2|0:0,0:0:0:0:
304,0,100499,6,0,B|314:43|281:85|281:85|322:104|349:167,1,179.999994506836,4|0,3:2|3:2,0:0:0:0:
389,242,100967,1,2,3:2:0:0:
465,346,101124,2,0,P|463:287|470:253,1,89.9999972534181,8|0,0:0|0:0,0:0:0:0:
512,156,101436,1,0,3:2:0:0:
478,348,101592,2,0,P|476:289|483:255,1,89.9999972534181,0|0,3:2|0:0,0:0:0:0:
512,130,101905,5,8,0:0:0:0:
348,174,102061,1,0,3:2:0:0:
348,174,102217,1,0,3:2:0:0:
206,72,102374,2,0,P|184:111|179:155,1,89.9999972534181,8|0,0:0|0:0,0:0:0:0:
221,256,102686,2,0,P|214:300|194:340,1,89.9999972534181,2|0,3:2|0:0,0:0:0:0:
367,380,102999,6,0,B|390:312|390:312|424:276|424:276|443:220,1,179.999994506836,4|0,3:2|3:2,0:0:0:0:
475,111,103467,1,2,3:2:0:0:
359,227,103624,2,0,P|349:183|321:149,1,89.9999972534181,8|0,0:0|0:0,0:0:0:0:
190,89,103936,1,0,3:2:0:0:
350,236,104092,2,0,P|340:192|312:158,1,89.9999972534181,0|0,3:2|0:0,0:0:0:0:
147,273,104405,2,0,P|206:315|204:242,1,179.999994506836,8|0,0:0|3:2,0:0:0:0:
55,153,104874,2,0,P|97:165|142:165,1,89.9999972534181,8|0,0:0|0:0,0:0:0:0:
244,108,105186,2,0,P|288:107|332:119,1,89.9999972534181,2|0,3:2|0:0,0:0:0:0:
425,384,105499,6,0,B|426:314|426:314|452:278|452:278|451:212,1,179.999994506836,4|0,3:2|3:2,0:0:0:0:
446,115,105967,1,2,3:2:0:0:
273,182,106124,2,0,P|328:195|367:192,1,89.9999972534181,8|0,0:0|0:0,0:0:0:0:
512,159,106436,1,0,3:2:0:0:
488,24,106592,2,0,P|429:15|377:30,1,89.9999972534181,0|0,3:2|0:0,0:0:0:0:
285,103,106905,5,8,0:0:0:0:
214,281,107061,1,0,3:2:0:0:
166,289,107217,1,0,3:2:0:0:
20,275,107374,5,8,0:0:0:0:
193,175,107530,1,8,3:0:0:0:
0,268,107686,1,8,0:0:0:0:
218,181,107842,1,8,0:0:0:0:
258,4,107999,5,4,3:2:0:0:
256,192,108077,12,0,117999,0:0:0:0:
