osu file format v14

[General]
AudioFilename: audio.mp3
AudioLeadIn: 0
PreviewTime: 62139
Countdown: 0
SampleSet: Soft
StackLeniency: 0.7
Mode: 0
LetterboxInBreaks: 0
WidescreenStoryboard: 1

[Editor]
DistanceSpacing: 1
BeatDivisor: 8
GridSize: 16
TimelineZoom: 1

[Metadata]
Title:Jiyuu no Hane
TitleUnicode:自由の翅
Artist:Hiromi Sato
ArtistUnicode:佐藤ひろ美
Creator:Ichinose Rika
Version:Normal
Source:月影のシミュラクル-解放の羽-
Tags:eroge visual novel video game japanese Tsukikage no Simulacre -Kaihou no Hane- Applique cocona SgtCataclyst jrock j-rock rock
BeatmapID:2812281
BeatmapSetID:1358359

[Difficulty]
HPDrainRate:3.5
CircleSize:3.5
OverallDifficulty:5
ApproachRate:6
SliderMultiplier:2
SliderTickRate:1

[Events]
//Background and Video events
0,0,"vAduNf6.jpg",0,0
//Break Periods
//Storyboard Layer 0 (Background)
//Storyboard Layer 1 (Fail)
//Storyboard Layer 2 (Pass)
//Storyboard Layer 3 (Foreground)
//Storyboard Layer 4 (Overlay)
//Storyboard Sound Samples

[TimingPoints]
2999,625,4,2,1,60,1,0
2999,-100,4,2,1,60,0,0
22999,-111.111111111111,4,2,1,40,0,0
42999,-111.111111111111,4,2,1,45,0,0
62999,-90.9090909090909,4,2,1,65,0,1
87999,-100,4,2,1,60,0,0
117999,-100,4,2,1,5,0,0

[Colours]
Combo1 : 61,201,254
Combo2 : 255,149,149
Combo3 : 255,172,132

[HitObjects]
228,31,2999,6,0,P|246:88|228:147,1,100,4|0,3:2|3:2,0:0:0:0:
189,136,3467,2,0,L|132:137,1,50,2|8,3:2|0:0,0:0:0:0:
60,199,3936,1,2,3:2:0:0:
60,199,4092,2,0,P|56:235|90:292,1,100,0|8,3:2|0:0,0:0:0:0:
178,338,4717,1,0,3:2:0:0:
178,338,4874,2,0,B|225:335|225:335|238:323|238:323|283:320,1,100,8|2,0:0|3:2,0:0:0:0:
362,275,5499,6,0,P|344:218|362:159,1,100,4|0,3:2|3:2,0:0:0:0:
401,170,5967,2,0,L|458:169,1,50,2|8,3:2|0:0,0:0:0:0:
493,78,6436,1,0,3:2:0:0:
493,78,6592,2,0,P|457:82|400:48,1,100,0|8,3:2|0:0,0:0:0:0:
309,34,7217,1,0,3:2:0:0:
309,34,7374,2,0,B|262:37|262:37|249:49|249:49|204:52,1,100,8|2,0:0|3:2,0:0:0:0:
115,34,7999,6,0,L|120:150,1,100,4|0,3:2|3:2,0:0:0:0:
123,183,8467,2,0,L|177:178,1,50,2|8,3:2|0:0,0:0:0:0:
276,174,8936,1,0,3:2:0:0:
276,174,9092,2,0,P|272:210|306:267,1,100,0|8,3:2|0:0,0:0:0:0:
401,299,9717,1,0,3:2:0:0:
401,299,9874,2,0,L|408:199,1,100,8|2,0:0|3:2,0:0:0:0:
419,99,10499,6,0,P|362:117|303:99,1,100,4|0,3:2|3:2,0:0:0:0:
274,101,10967,2,0,L|275:158,1,50,2|8,3:2|0:0,0:0:0:0:
251,251,11436,1,0,3:2:0:0:
251,251,11592,2,0,P|215:255|158:221,1,100,0|8,3:2|0:0,0:0:0:0:
85,167,12217,1,0,3:2:0:0:
85,167,12374,2,0,B|92:104,2,50,8|8|8,0:0|0:0|3:0,0:0:0:0:
82,216,12842,1,8,3:0:0:0:
77,266,12999,6,0,P|129:280|193:266,1,100,4|0,3:2|3:2,0:0:0:0:
223,268,13467,2,0,L|222:218,1,50,2|8,3:2|0:0,0:0:0:0:
211,118,13936,1,0,3:2:0:0:
211,118,14092,2,0,P|247:114|304:148,1,100,0|8,3:2|0:0,0:0:0:0:
329,245,14717,1,0,0:0:0:0:
329,245,14874,2,0,B|376:248|376:248|389:260|389:260|434:263,1,100,8|2,0:0|3:2,0:0:0:0:
480,179,15499,6,0,P|433:161|400:124,1,100,4|0,3:2|3:2,0:0:0:0:
394,75,15967,2,0,L|337:74,1,50,2|8,3:2|0:0,0:0:0:0:
243,73,16436,1,0,3:2:0:0:
243,73,16592,2,0,L|255:184,1,100,0|8,3:2|0:0,0:0:0:0:
271,275,17217,1,0,3:2:0:0:
271,275,17374,2,0,B|224:272|224:272|211:260|211:260|166:257,1,100,8|2,0:0|3:2,0:0:0:0:
76,243,17999,6,0,L|81:127,1,100,4|0,3:2|3:2,0:0:0:0:
81,93,18467,2,0,L|135:98,1,50,2|8,3:2|0:0,0:0:0:0:
234,111,18936,1,0,3:2:0:0:
234,111,19092,2,0,P|230:75|264:18,1,100,0|8,3:2|0:0,0:0:0:0:
364,19,19717,1,0,3:2:0:0:
364,19,19874,2,0,L|371:118,1,100,8|2,0:0|3:2,0:0:0:0:
379,218,20499,6,0,P|322:200|263:218,1,100,4|0,3:2|3:2,0:0:0:0:
239,230,20967,2,0,L|238:279,1,50,2|8,3:2|0:0,0:0:0:0:
156,353,21436,1,0,3:2:0:0:
156,353,21592,2,0,P|128:312|118:258,1,100,0|8,3:2|0:0,0:0:0:0:
125,167,22217,1,0,3:2:0:0:
125,167,22374,2,0,B|65:165,2,50,8|0|8,0:0|3:2|0:0,0:0:0:0:
174,170,22842,1,8,0:0:0:0:
219,171,22999,5,4,3:2:0:0:
308,177,23311,2,0,L|302:281,1,89.9999972534181,0|0,0:0|3:2,0:0:0:0:
296,360,23936,1,0,0:0:0:0:
296,360,24092,2,0,L|199:352,1,89.9999972534181,2|0,0:0|0:0,0:0:0:0:
161,346,24561,2,0,L|61:333,1,89.9999972534181,2|2,3:2|3:2,0:0:0:0:
28,261,25186,1,0,0:0:0:0:
28,261,25342,6,0,P|31:197|43:160,1,89.9999972534181
55,130,25811,1,2,0:0:0:0:
127,74,26124,2,0,L|230:81,1,89.9999972534181,8|0,0:0|0:0,0:0:0:0:
261,82,26592,1,0,3:2:0:0:
383,138,27061,1,0,3:2:0:0:
417,221,27374,2,0,L|327:219,1,89.9999972534181,2|0,3:2|0:0,0:0:0:0:
236,216,27999,5,2,3:2:0:0:
146,217,28311,2,0,L|152:113,1,89.9999972534181,0|0,0:0|3:2,0:0:0:0:
151,37,28936,2,0,L|199:40,1,44.999998626709,0|2,0:0|3:2,0:0:0:0:
288,50,29405,1,0,0:0:0:0:
288,50,29561,2,0,L|295:142,1,89.9999972534181,2|2,3:2|3:2,0:0:0:0:
311,228,30186,1,0,0:0:0:0:
311,228,30342,6,0,P|252:230|218:258,1,89.9999972534181
205,285,30811,1,2,0:0:0:0:
193,374,31124,2,0,L|283:381,1,89.9999972534181,8|0,0:0|0:0,0:0:0:0:
327,378,31592,1,0,3:2:0:0:
424,284,32061,1,0,3:2:0:0:
469,206,32374,2,0,P|426:199|380:205,1,89.9999972534181,2|0,3:2|0:0,0:0:0:0:
295,236,32999,5,2,3:2:0:0:
222,183,33311,2,0,L|216:287,1,89.9999972534181,0|8,0:0|0:0,0:0:0:0:
210,366,33936,1,0,0:0:0:0:
210,366,34092,2,0,L|113:358,1,89.9999972534181,2|0,0:0|0:0,0:0:0:0:
75,353,34561,2,0,P|59:308|57:260,1,89.9999972534181,2|2,3:2|3:2,0:0:0:0:
102,189,35186,1,0,0:0:0:0:
102,189,35342,6,0,P|91:145|91:100,1,89.9999972534181
101,56,35811,1,0,0:0:0:0:
190,48,36124,2,0,L|293:55,1,89.9999972534181,8|0,0:0|0:0,0:0:0:0:
324,62,36592,1,0,3:2:0:0:
356,193,37061,1,0,3:2:0:0:
440,224,37374,2,0,L|441:134,1,89.9999972534181,2|0,3:2|0:0,0:0:0:0:
431,44,37999,5,2,3:2:0:0:
341,47,38311,2,0,L|251:41,1,89.9999972534181,0|2,0:0|3:2,0:0:0:0:
164,44,38936,1,0,0:0:0:0:
164,44,39092,2,0,L|156:141,1,89.9999972534181,2|0,0:0|0:0,0:0:0:0:
150,179,39561,2,0,P|182:182|245:213,1,89.9999972534181,2|2,3:2|3:2,0:0:0:0:
297,276,40186,1,0,0:0:0:0:
297,276,40342,6,0,P|299:335|327:369,1,89.9999972534181
359,369,40811,1,0,0:0:0:0:
448,360,41124,2,0,L|455:270,1,89.9999972534181,8|0,0:0|0:0,0:0:0:0:
456,225,41592,1,0,3:2:0:0:
450,90,42061,5,0,3:2:0:0:
367,126,42374,2,0,L|314:127,1,44.999998626709,8|0,0:0|3:2,0:0:0:0:
294,91,42686,2,0,L|241:92,1,44.999998626709,8|8,0:0|0:0,0:0:0:0:
209,71,42999,6,0,P|164:75|120:70,1,89.9999972534181,4|2,3:2|0:0,0:0:0:0:
35,38,43624,1,8,0:0:0:0:
29,127,43936,1,0,0:0:0:0:
29,127,44092,2,0,L|21:216,1,89.9999972534181,0|0,3:2|3:2,0:0:0:0:
16,261,44561,1,0,3:2:0:0:
53,342,44874,2,0,P|94:359|139:358,1,89.9999972534181,8|2,0:0|0:0,0:0:0:0:
192,286,45499,6,0,P|198:241|190:197,1,89.9999972534181,4|2,3:2|0:0,0:0:0:0:
145,119,46124,1,8,0:0:0:0:
133,29,46436,1,0,0:0:0:0:
177,32,46592,1,0,3:2:0:0:
270,42,46905,1,0,3:2:0:0:
270,42,47061,2,0,L|362:48,1,89.9999972534181,0|8,3:2|0:0,0:0:0:0:
449,59,47686,1,0,0:0:0:0:
452,149,47999,6,0,B|455:185|455:185|462:199|462:199|464:237,1,89.9999972534181,4|2,3:2|0:0,0:0:0:0:
473,326,48624,1,8,0:0:0:0:
387,321,48936,1,0,0:0:0:0:
387,321,49092,2,0,L|290:313,1,89.9999972534181,0|0,3:2|3:2,0:0:0:0:
252,304,49561,1,0,3:2:0:0:
163,286,49874,2,0,L|176:197,1,89.9999972534181,8|2,0:0|0:0,0:0:0:0:
193,108,50499,6,0,P|235:97|298:91,2,89.9999972534181,4|0|8,3:2|0:0|0:0,0:0:0:0:
107,136,51436,1,0,0:0:0:0:
75,168,51592,1,0,3:2:0:0:
47,253,51905,1,0,3:2:0:0:
15,285,52061,1,0,3:2:0:0:
87,338,52374,2,0,L|150:333,1,44.999998626709,8|0,0:0|3:2,0:0:0:0:
172,353,52686,2,0,L|235:348,1,44.999998626709,8|8,0:0|0:0,0:0:0:0:
261,344,52999,6,0,P|254:299|260:254,1,89.9999972534181,4|0,3:2|0:0,0:0:0:0:
304,176,53624,1,8,0:0:0:0:
328,92,53936,1,0,0:0:0:0:
328,92,54092,2,0,L|238:84,1,89.9999972534181,0|0,3:2|3:2,0:0:0:0:
193,82,54561,1,0,3:2:0:0:
102,86,54874,2,0,P|84:127|85:172,1,89.9999972534181,8|0,0:0|0:0,0:0:0:0:
156,226,55499,6,0,P|164:270|157:314,1,89.9999972534181,4|0,3:2|0:0,0:0:0:0:
83,367,56124,1,8,0:0:0:0:
22,307,56436,1,0,0:0:0:0:
22,307,56592,2,0,L|29:217,1,89.9999972534181,0|0,3:2|3:2,0:0:0:0:
29,172,57061,1,0,3:2:0:0:
109,131,57374,2,0,P|126:89|125:44,1,89.9999972534181,8|0,0:0|0:0,0:0:0:0:
213,28,57999,6,0,B|252:26|252:26|266:19|266:19|302:17,1,89.9999972534181,4|0,3:2|0:0,0:0:0:0:
390,5,58624,1,8,0:0:0:0:
442,84,58936,1,0,0:0:0:0:
442,84,59092,2,0,L|434:181,1,89.9999972534181,0|0,3:2|3:2,0:0:0:0:
427,218,59561,1,0,3:2:0:0:
405,305,59874,2,0,P|381:317|313:327,1,89.9999972534181,8|0,0:0|0:0,0:0:0:0:
229,326,60499,6,0,L|234:236,1,89.9999972534181,0|0,3:2|3:2,0:0:0:0:
301,176,61124,2,0,L|307:76,1,89.9999972534181,0|0,3:2|3:2,0:0:0:0:
344,4,61749,2,0,L|244:-2,1,89.9999972534181,0|0,3:2|3:2,0:0:0:0:
214,19,62217,1,0,3:2:0:0:
174,41,62374,2,0,L|178:106,1,44.999998626709,8|8,0:0|0:0,0:0:0:0:
152,124,62686,2,0,L|156:189,1,44.999998626709,8|8,3:0|3:0,0:0:0:0:
158,223,62999,6,0,B|199:230|199:230|225:227|225:227|286:235,1,110.000003356934,4|0,3:2|3:2,0:0:0:0:
320,244,63467,1,0,3:2:0:0:
375,249,63624,2,0,P|420:281|441:335,1,110.000003356934,8|0,0:0|3:2,0:0:0:0:
470,376,64092,1,0,3:2:0:0:
360,382,64405,1,8,0:0:0:0:
254,351,64717,5,0,3:2:0:0:
205,324,64874,2,0,L|151:320,1,55.0000016784668,8|0,0:0|3:2,0:0:0:0:
102,296,65186,2,0,L|48:292,1,55.0000016784668,0|0,3:2|3:2,0:0:0:0:
23,241,65499,6,0,P|52:197|44:135,1,110.000003356934,4|0,3:2|3:2,0:0:0:0:
22,92,65967,1,0,3:2:0:0:
23,36,66124,2,0,L|139:36,1,110.000003356934,8|0,0:0|3:2,0:0:0:0:
187,38,66592,1,0,3:2:0:0:
294,59,66905,5,8,0:0:0:0:
327,168,67217,1,0,3:2:0:0:
327,168,67374,2,0,L|328:245,1,55.0000016784668,8|0,0:0|0:0,0:0:0:0:
351,273,67686,1,2,3:2:0:0:
261,337,67999,6,0,B|220:342|220:342|194:339|194:339|153:346,1,110.000003356934,4|0,3:2|3:2,0:0:0:0:
108,312,68467,1,0,3:2:0:0:
90,259,68624,2,0,P|122:211|122:144,1,110.000003356934,8|0,0:0|3:2,0:0:0:0:
108,107,69092,1,0,3:2:0:0:
194,38,69405,1,8,0:0:0:0:
288,93,69717,2,0,L|363:97,1,55.0000016784668,0|8,3:2|0:0,0:0:0:0:
440,44,70186,1,2,3:2:0:0:
477,147,70499,6,0,P|456:208|479:259,1,110.000003356934,4|0,3:2|3:2,0:0:0:0:
492,298,70967,1,0,3:2:0:0:
503,351,71124,2,0,L|389:321,1,110.000003356934,8|0,0:0|3:2,0:0:0:0:
343,308,71592,1,0,3:2:0:0:
236,336,71905,5,8,0:0:0:0:
220,234,72217,1,0,3:2:0:0:
220,234,72374,2,0,L|221:180,1,55.0000016784668,8|8,0:0|0:0,0:0:0:0:
202,127,72686,2,0,L|204:52,1,55.0000016784668,8|8,3:0|3:0,0:0:0:0:
169,29,72999,6,0,B|128:22|128:22|102:25|102:25|41:17,1,110.000003356934,4|0,3:2|3:2,0:0:0:0:
13,48,73467,1,0,3:2:0:0:
10,103,73624,2,0,P|11:172|5:221,1,110.000003356934,8|0,0:0|3:2,0:0:0:0:
17,266,74092,1,0,3:2:0:0:
81,355,74405,1,8,0:0:0:0:
188,333,74717,5,2,3:2:0:0:
223,291,74873,2,0,L|227:237,1,55.0000016784668,8|0,0:0|3:2,0:0:0:0:
254,187,75186,2,0,L|258:133,1,55.0000016784668,0|0,3:2|0:0,0:0:0:0:
294,90,75499,6,0,P|355:104|402:128,1,110.000003356934,4|0,3:2|3:2,0:0:0:0:
429,169,75967,1,0,3:2:0:0:
445,221,76124,2,0,P|436:275|448:328,1,110.000003356934,8|0,0:0|3:2,0:0:0:0:
486,367,76592,1,0,3:2:0:0:
375,370,76905,6,0,L|318:320,1,55.0000016784668,8|0,0:0|3:2,0:0:0:0:
283,315,77217,1,0,3:2:0:0:
283,315,77374,2,0,L|226:263,1,55.0000016784668,8|0,0:0|0:0,0:0:0:0:
192,254,77686,1,2,3:2:0:0:
83,235,77999,6,0,P|98:182|88:119,1,110.000003356934,4|0,3:2|3:2,0:0:0:0:
64,80,78467,1,0,3:2:0:0:
22,43,78624,2,0,P|67:12|124:-2,1,110.000003356934,8|0,0:0|3:2,0:0:0:0:
155,40,79092,2,0,P|209:38|263:16,1,110.000003356934,0|8,3:2|0:0,0:0:0:0:
315,17,79561,1,0,0:0:0:0:
418,55,79874,2,0,L|412:132,1,55.0000016784668,8|0,0:0|0:0,0:0:0:0:
432,161,80186,1,2,3:2:0:0:
406,268,80499,6,0,P|320:269|231:293,1,165.000005035401,4|0,3:2|3:2,0:0:0:0:
197,319,81124,1,8,0:0:0:0:
189,209,81436,2,0,P|179:171|177:147,1,55.0000016784668,0|0,3:2|3:2,0:0:0:0:
84,99,81905,5,8,0:0:0:0:
51,205,82217,1,0,3:2:0:0:
51,205,82374,2,0,L|50:259,1,55.0000016784668,8|8,0:0|0:0,0:0:0:0:
23,307,82686,2,0,L|21:382,1,55.0000016784668,8|8,3:0|3:0,0:0:0:0:
74,379,82999,6,0,P|126:343|225:359,1,165.000005035401,4|0,3:2|3:2,0:0:0:0:
274,374,83624,1,8,0:0:0:0:
426,306,84092,1,0,3:2:0:0:
426,306,84249,2,0,P|421:243|428:190,1,110.000003356934
450,147,84717,2,0,P|398:137|324:145,1,110.000003356934,0|0,3:2|0:0,0:0:0:0:
299,175,85186,1,2,3:2:0:0:
299,175,85342,6,0,P|189:170|102:95,1,220.000006713867,0|0,0:0|3:2,0:0:0:0:
91,49,86124,1,8,0:0:0:0:
3,114,86436,1,8,0:0:0:0:
10,172,86592,5,2,3:2:0:0:
10,172,86749,2,0,L|8:297,1,110.000003356934,0|0,3:2|3:2,0:0:0:0:
26,333,87217,1,0,3:2:0:0:
72,362,87374,5,8,0:0:0:0:
173,323,87686,2,0,P|203:318|236:318,1,55.0000016784668,8|8,0:0|0:0,0:0:0:0:
275,331,87999,6,0,P|286:275|275:215,1,100,4|0,3:2|3:2,0:0:0:0:
252,191,88467,2,0,L|251:142,1,50,2|8,3:2|0:0,0:0:0:0:
339,91,88936,1,0,3:2:0:0:
339,91,89092,2,0,P|396:113|431:144,1,100,0|8,3:2|0:0,0:0:0:0:
491,220,89717,1,0,3:2:0:0:
491,220,89874,2,0,B|444:223|444:223|431:235|431:235|386:238,1,100,8|2,0:0|3:2,0:0:0:0:
295,242,90499,6,0,L|305:359,1,100,4|0,3:2|3:2,0:0:0:0:
347,365,90967,2,0,L|397:365,1,50,2|8,3:2|0:0,0:0:0:0:
481,311,91436,1,0,3:2:0:0:
491,262,91592,2,0,P|451:234|401:235,1,100,0|8,3:2|0:0,0:0:0:0:
305,230,92217,1,0,3:2:0:0:
305,230,92374,2,0,B|302:183|302:183|290:170|290:170|287:125,1,100,8|2,0:0|3:2,0:0:0:0:
224,57,92999,6,0,L|108:62,1,100,4|0,3:2|3:2,0:0:0:0:
74,69,93467,2,0,L|79:123,1,50,2|8,3:2|0:0,0:0:0:0:
54,215,93936,1,0,3:2:0:0:
43,263,94092,2,0,P|41:304|68:357,1,100,0|8,3:2|0:0,0:0:0:0:
171,361,94717,1,0,3:2:0:0:
171,361,94874,2,0,L|271:368,1,100,8|0,0:0|3:2,0:0:0:0:
369,349,95499,6,0,P|351:292|369:233,1,100,4|0,3:2|3:2,0:0:0:0:
393,218,95967,2,0,L|392:161,1,50,2|8,3:2|0:0,0:0:0:0:
419,74,96436,1,0,3:2:0:0:
419,74,96592,2,0,P|383:78|311:63,1,100,0|8,3:2|0:0,0:0:0:0:
226,48,97217,1,0,3:2:0:0:
226,48,97374,2,0,B|233:-15,2,50,8|8|8,0:0|0:0|3:0,0:0:0:0:
223,97,97842,1,8,3:0:0:0:
188,133,97999,6,0,P|174:185|188:249,1,100,4|0,3:2|3:2,0:0:0:0:
170,279,98467,2,0,P|140:284|120:280,1,50,2|8,3:2|0:0,0:0:0:0:
26,266,98936,1,0,3:2:0:0:
26,266,99092,2,0,L|22:161,1,100,0|8,3:2|0:0,0:0:0:0:
27,69,99717,1,0,3:2:0:0:
27,69,99874,2,0,B|74:72|74:72|87:84|87:84|132:87,1,100,8|2,0:0|3:2,0:0:0:0:
208,137,100499,6,0,P|171:171|153:217,1,100,4|0,3:2|3:2,0:0:0:0:
172,262,100967,2,0,P|175:289|171:319,1,50,2|8,3:2|0:0,0:0:0:0:
262,366,101436,1,0,3:2:0:0:
262,366,101592,2,0,L|373:354,1,100,0|8,3:2|0:0,0:0:0:0:
464,369,102217,1,0,3:2:0:0:
464,369,102374,2,0,B|467:322|467:322|479:309|479:309|482:264,1,100,8|2,0:0|3:2,0:0:0:0:
506,176,102999,6,0,P|454:170|406:171,1,100,4|0,3:2|3:2,0:0:0:0:
368,139,103467,2,0,P|341:139|318:134,1,50,2|8,3:2|0:0,0:0:0:0:
250,68,103936,1,0,3:2:0:0:
250,68,104092,2,0,P|210:40|160:41,1,100,0|8,3:2|0:0,0:0:0:0:
65,26,104717,1,0,3:2:0:0:
65,26,104874,2,0,L|72:125,1,100,8|2,0:0|3:2,0:0:0:0:
83,225,105499,6,0,P|140:207|199:225,1,100,4|0,3:2|3:2,0:0:0:0:
221,239,105967,2,0,P|219:266|220:288,1,50,2|8,3:2|0:0,0:0:0:0:
289,368,106436,1,0,3:2:0:0:
289,368,106592,2,0,P|340:364|395:370,1,100,0|8,3:2|0:0,0:0:0:0:
485,334,107217,1,0,3:2:0:0:
485,334,107374,2,0,B|483:394,2,50,8|0|8,0:0|3:2|0:0,0:0:0:0:
488,285,107842,1,8,0:0:0:0:
488,235,107999,5,4,3:2:0:0:
256,192,108077,12,0,117999,0:0:0:0:
