osu file format v14

[General]
AudioFilename: audio.mp3
AudioLeadIn: 0
PreviewTime: 62139
Countdown: 0
SampleSet: Soft
StackLeniency: 0.7
Mode: 0
LetterboxInBreaks: 0
WidescreenStoryboard: 1

[Editor]
DistanceSpacing: 1.3
BeatDivisor: 8
GridSize: 32
TimelineZoom: 1

[Metadata]
Title:Jiyuu no Hane
TitleUnicode:自由の翅
Artist:Hiromi Sato
ArtistUnicode:佐藤ひろ美
Creator:Ichinose Rika
Version:Insane
Source:月影のシミュラクル-解放の羽-
Tags:eroge visual novel video game japanese Tsukikage no Simulacre -Kaihou no Hane- Applique cocona SgtCataclyst jrock j-rock rock
BeatmapID:2812218
BeatmapSetID:1358359

[Difficulty]
HPDrainRate:5
CircleSize:4
OverallDifficulty:7.5
ApproachRate:8.5
SliderMultiplier:2.8
SliderTickRate:1

[Events]
//Background and Video events
0,0,"vAduNf6.jpg",0,0
//Break Periods
//Storyboard Layer 0 (Background)
//Storyboard Layer 1 (Fail)
//Storyboard Layer 2 (Pass)
//Storyboard Layer 3 (Foreground)
//Storyboard Layer 4 (Overlay)
//Storyboard Sound Samples

[TimingPoints]
2999,625,4,2,1,60,1,0
2999,-90.9090909090909,4,2,1,60,0,0
22999,-166.666666666667,4,2,1,40,0,0
42999,-111.111111111111,4,2,1,45,0,0
62999,-83.3333333333333,4,2,1,65,0,1
87999,-90.9090909090909,4,2,1,60,0,0
117999,-90.9090909090909,4,2,1,5,0,0

[Colours]
Combo1 : 61,201,254
Combo2 : 255,149,149
Combo3 : 255,172,132

[HitObjects]
120,71,2999,6,0,P|102:124|130:215,1,154.000004699707,4|0,3:2|3:2,0:0:0:0:
211,291,3467,1,2,3:2:0:0:
341,215,3624,2,0,P|302:183|334:229,1,154.000004699707,8|2,0:0|3:2,0:0:0:0:
430,244,4092,2,0,P|423:183|431:158,1,77.0000023498536,0|0,3:2|0:0,0:0:0:0:
490,97,4405,2,0,P|497:36|489:11,1,77.0000023498536,8|0,0:0|0:0,0:0:0:0:
393,0,4717,1,0,3:2:0:0:
270,67,4874,2,0,L|262:162,1,77.0000023498536,8|0,0:0|0:0,0:0:0:0:
213,245,5186,2,0,L|221:340,1,77.0000023498536,2|0,3:2|0:0,0:0:0:0:
2,192,5499,6,0,P|58:205|151:157,1,154.000004699707,4|0,3:2|3:2,0:0:0:0:
204,74,5967,1,2,3:2:0:0:
307,25,6124,2,0,L|299:192,1,154.000004699707,8|0,0:0|3:2,0:0:0:0:
232,305,6592,2,0,L|226:197,1,77.0000023498536,0|0,3:2|0:0,0:0:0:0:
221,121,6905,5,8,0:0:0:0:
114,229,7061,1,0,3:2:0:0:
114,229,7217,1,0,3:2:0:0:
58,81,7374,2,0,L|158:86,1,77.0000023498536,8|0,0:0|0:0,0:0:0:0:
230,28,7686,2,0,L|330:23,1,77.0000023498536,2|0,3:2|0:0,0:0:0:0:
471,18,7999,6,0,P|437:88|469:164,1,154.000004699707,4|0,3:2|3:2,0:0:0:0:
512,250,8467,1,2,3:2:0:0:
383,349,8624,2,0,P|407:313|336:323,1,154.000004699707,8|0,0:0|3:2,0:0:0:0:
233,343,9092,2,0,P|247:289|240:243,1,77.0000023498536,0|0,3:2|0:0,0:0:0:0:
176,197,9405,2,0,P|162:143|169:97,1,77.0000023498536,8|0,0:0|0:0,0:0:0:0:
209,24,9717,1,0,3:2:0:0:
86,128,9874,2,0,L|175:121,1,77.0000023498536,8|0,0:0|0:0,0:0:0:0:
266,163,10186,2,0,L|355:170,1,77.0000023498536,2|0,3:2|0:0,0:0:0:0:
505,134,10499,6,0,B|436:171|475:221|406:253,1,154.000004699707,4|0,3:2|3:2,0:0:0:0:
298,277,10967,1,2,3:2:0:0:
401,377,11124,2,0,L|221:359,1,154.000004699707,8|0,0:0|3:2,0:0:0:0:
111,298,11592,2,0,L|223:286,1,77.0000023498536,0|0,3:2|0:0,0:0:0:0:
327,273,11905,5,8,0:0:0:0:
210,167,12061,1,0,3:2:0:0:
210,167,12217,1,0,3:2:0:0:
468,119,12374,5,8,0:0:0:0:
393,210,12530,1,8,0:0:0:0:
328,296,12686,5,8,3:0:0:0:
328,296,12842,1,8,3:0:0:0:
155,322,12999,6,0,P|137:269|165:178,1,154.000004699707,4|0,3:2|3:2,0:0:0:0:
253,111,13467,1,2,3:2:0:0:
380,172,13624,2,0,P|346:161|404:146,1,154.000004699707,8|0,0:0|3:2,0:0:0:0:
486,216,14092,2,0,P|480:253|489:291,1,77.0000023498536,0|0,3:2|0:0,0:0:0:0:
402,384,14405,2,0,P|409:323|401:298,1,77.0000023498536,8|0,0:0|0:0,0:0:0:0:
341,233,14717,1,0,0:0:0:0:
231,156,14874,2,0,L|223:251,1,77.0000023498536,8|0,0:0|0:0,0:0:0:0:
152,308,15186,2,0,L|160:403,1,77.0000023498536,2|0,3:2|0:0,0:0:0:0:
145,194,15499,6,0,P|61:173|-1:126,1,154.000004699707,4|0,3:2|3:2,0:0:0:0:
0,49,15967,1,2,3:2:0:0:
122,4,16124,2,0,P|101:94|148:104,1,154.000004699707,8|0,0:0|3:2,0:0:0:0:
254,81,16592,2,0,L|258:157,1,77.0000023498536,0|0,3:2|0:0,0:0:0:0:
269,290,16905,5,8,0:0:0:0:
362,187,17061,1,0,3:2:0:0:
362,187,17217,1,0,3:2:0:0:
511,297,17374,2,0,L|434:293,1,77.0000023498536,8|0,0:0|0:0,0:0:0:0:
345,365,17686,2,0,L|268:368,1,77.0000023498536,2|0,3:2|0:0,0:0:0:0:
76,248,17999,6,0,P|147:271|214:238,1,154.000004699707,4|0,3:2|3:2,0:0:0:0:
277,169,18467,1,2,3:2:0:0:
173,55,18624,2,0,P|149:91|220:81,1,154.000004699707,8|0,0:0|3:2,0:0:0:0:
301,10,19092,2,0,P|301:48|313:84,1,77.0000023498536,0|0,3:2|0:0,0:0:0:0:
374,160,19405,2,0,P|373:198|361:234,1,77.0000023498536,8|0,0:0|0:0,0:0:0:0:
284,306,19717,1,0,3:2:0:0:
432,371,19874,2,0,L|355:377,1,77.0000023498536,8|0,0:0|0:0,0:0:0:0:
284,306,20186,2,0,L|207:299,1,77.0000023498536,2|0,3:2|0:0,0:0:0:0:
23,265,20499,6,0,B|42:190|116:148,1,154.000004699707,4|0,3:2|3:2,0:0:0:0:
220,102,20967,1,2,3:2:0:0:
336,78,21124,2,0,L|320:231,2,154.000004699707,8|0|0,0:0|3:2|0:0,0:0:0:0:
422,0,21905,5,8,0:0:0:0:
456,109,22061,1,0,3:2:0:0:
456,109,22217,1,0,3:2:0:0:
336,78,22374,5,8,0:0:0:0:
351,173,22530,1,0,3:2:0:0:
462,207,22686,5,8,0:0:0:0:
418,340,22842,1,8,0:0:0:0:
285,365,22999,5,2,3:2:0:0:
130,262,23311,2,0,P|175:261|223:242,2,83.9999974365235,2|0|0,0:0|3:2|0:0,0:0:0:0:
16,232,24092,2,0,L|11:137,1,83.9999974365235,2|0,3:2|0:0,0:0:0:0:
76,87,24561,2,0,P|81:34|158:75,1,167.999994873047,2|0,3:2|0:0,0:0:0:0:
179,167,25342,6,0,P|214:163|246:114,1,83.9999974365235,2|0,0:0|0:0,0:0:0:0:
300,51,25811,2,0,B|364:59|425:130|416:204|416:204|347:188|329:121,1,335.999989746094,2|0,0:0|0:0,0:0:0:0:
438,382,27374,2,0,P|435:340|450:301,1,83.9999974365235,2|0,3:2|0:0,0:0:0:0:
366,145,27999,5,2,3:2:0:0:
143,305,28311,2,0,P|144:342|112:398,2,83.9999974365235,2|0|0,0:0|3:2|0:0,0:0:0:0:
112,224,29092,2,0,L|202:221,1,83.9999974365235,2|0,3:2|0:0,0:0:0:0:
313,221,29561,2,0,P|279:215|330:200,1,167.999994873047,2|0,3:2|0:0,0:0:0:0:
384,257,30342,6,0,P|414:214|443:197,1,83.9999974365235,2|0,0:0|0:0,0:0:0:0:
512,78,30811,2,0,B|468:111|376:103|319:50|319:50|331:105|309:156|309:156|305:122,1,335.999989746094,2|0,0:0|3:2,0:0:0:0:
150,289,32374,2,0,P|184:283|238:293,1,83.9999974365235,2|0,3:2|0:0,0:0:0:0:
0,384,32999,5,4,3:2:0:0:
67,179,33311,2,0,L|69:279,2,83.9999974365235,2|0|0,0:0|3:2|3:2,0:0:0:0:
66,92,34092,2,0,P|108:97|149:86,1,83.9999974365235,2|0,3:2|0:0,0:0:0:0:
255,0,34561,2,0,B|219:76|290:76|253:167,1,167.999994873047,2|0,3:2|0:0,0:0:0:0:
227,243,35342,6,0,P|267:241|325:259,1,83.9999974365235,2|0,0:0|0:0,0:0:0:0:
390,336,35811,2,0,B|451:296|464:205|464:205|430:197|410:167|410:167|414:98|377:52,1,335.999989746094,2|0,0:0|3:2,0:0:0:0:
194,0,37374,2,0,L|195:100,1,83.9999974365235,2|0,3:2|0:0,0:0:0:0:
0,0,37999,5,4,3:2:0:0:
93,192,38311,2,0,P|46:182|9:194,2,83.9999974365235,2|2|0,0:0|3:2|0:0,0:0:0:0:
154,265,39092,2,0,P|201:280|243:268,1,83.9999974365235,2|0,3:2|0:0,0:0:0:0:
335,190,39561,2,0,P|318:166|334:201,1,167.999994873047,2|0,3:2|0:0,0:0:0:0:
421,179,40342,6,0,P|399:144|393:99,1,83.9999974365235,2|0,0:0|0:0,0:0:0:0:
417,0,40811,2,0,B|332:31|246:4|246:4|234:46|266:86|266:86|221:80|202:39,1,335.999989746094,2|0,0:0|3:2,0:0:0:0:
109,59,42217,5,0,3:2:0:0:
109,59,42295,1,0,3:2:0:0:
109,59,42374,5,8,0:0:0:0:
86,194,42530,1,8,0:0:0:0:
66,309,42686,1,8,0:0:0:0:
86,194,42999,5,4,3:2:0:0:
202,216,43311,2,0,P|272:201|334:216,2,125.999996154785,2|8|0,0:0|0:0|0:0,0:0:0:0:
88,294,44092,2,0,L|158:298,1,62.9999980773926,0|0,3:2|0:0,0:0:0:0:
233,346,44405,1,0,3:2:0:0:
233,346,44561,2,0,L|303:350,1,62.9999980773926,0|0,3:2|0:0,0:0:0:0:
445,352,44874,2,0,P|396:335|373:307,1,62.9999980773926,8|0,0:0|0:0,0:0:0:0:
363,226,45186,2,0,P|333:201|292:189,1,62.9999980773926,2|0,0:0|0:0,0:0:0:0:
211,170,45499,5,4,3:2:0:0:
123,68,45811,2,0,L|110:209,2,125.999996154785,2|8|0,0:0|0:0|0:0,0:0:0:0:
223,0,46592,2,0,L|231:87,1,62.9999980773926,0|0,3:2|0:0,0:0:0:0:
288,147,46905,1,0,3:2:0:0:
288,147,47061,2,0,L|296:234,1,62.9999980773926,0|0,3:2|0:0,0:0:0:0:
323,322,47374,2,0,P|274:310|240:318,1,62.9999980773926,8|0,0:0|0:0,0:0:0:0:
175,372,47686,2,0,P|126:384|92:376,1,62.9999980773926,2|0,0:0|0:0,0:0:0:0:
22,313,47999,5,4,3:2:0:0:
140,148,48311,2,0,P|145:208|136:272,2,125.999996154785,2|8|0,0:0|0:0|0:0,0:0:0:0:
103,57,49092,2,0,P|159:62|239:47,1,125.999996154785,0|0,3:2|3:2,0:0:0:0:
353,12,49561,2,0,P|334:87|347:135,1,125.999996154785,0|8,3:2|0:0,0:0:0:0:
449,293,50186,1,2,0:0:0:0:
449,293,50342,6,0,P|360:293|326:336,1,125.999996154785
222,331,50811,2,0,L|225:189,2,125.999996154785,0|8|0,0:0|0:0|0:0,0:0:0:0:
144,384,51592,1,0,3:2:0:0:
144,384,51905,1,0,3:2:0:0:
132,289,52061,5,0,3:2:0:0:
132,289,52374,5,8,0:0:0:0:
270,311,52530,1,0,3:2:0:0:
281,190,52686,1,8,0:0:0:0:
197,338,52842,1,8,0:0:0:0:
425,260,52999,5,4,3:2:0:0:
425,260,53311,2,0,P|414:198|429:137,2,125.999996154785,0|8|0,0:0|0:0|0:0,0:0:0:0:
457,348,54092,2,0,L|394:344,1,62.9999980773926,0|0,3:2|0:0,0:0:0:0:
311,302,54405,1,0,3:2:0:0:
311,302,54561,2,0,L|248:298,1,62.9999980773926,0|0,3:2|0:0,0:0:0:0:
133,295,54874,2,0,P|150:246|178:223,1,62.9999980773926,8|0,0:0|0:0,0:0:0:0:
257,190,55186,2,0,P|282:160|294:119,1,62.9999980773926
272,41,55499,5,4,3:2:0:0:
272,41,55811,2,0,P|335:54|397:52,2,125.999996154785,0|8|0,0:0|0:0|0:0,0:0:0:0:
183,8,56592,2,0,L|175:95,1,62.9999980773926,0|0,3:2|0:0,0:0:0:0:
109,142,56905,1,0,3:2:0:0:
109,142,57061,2,0,L|101:229,1,62.9999980773926,0|0,3:2|0:0,0:0:0:0:
102,304,57374,2,0,P|133:304|162:314,1,62.9999980773926,8|0,0:0|0:0,0:0:0:0:
221,384,57686,2,0,P|252:383|281:373,1,62.9999980773926
347,288,57999,5,4,3:2:0:0:
347,288,58311,2,0,P|276:286|216:252,2,125.999996154785,0|8|0,0:0|0:0|0:0,0:0:0:0:
455,257,59092,2,0,P|444:195|448:132,1,125.999996154785,0|0,3:2|3:2,0:0:0:0:
491,47,59561,2,0,P|431:27|370:39,1,125.999996154785,0|8,3:2|0:0,0:0:0:0:
449,293,60186,1,0,0:0:0:0:
170,146,60499,5,0,3:2:0:0:
179,227,60811,1,0,3:2:0:0:
242,94,61124,5,0,3:2:0:0:
257,244,61436,1,0,3:2:0:0:
380,36,61749,5,0,3:2:0:0:
402,246,62061,1,0,3:2:0:0:
328,332,62217,1,0,3:2:0:0:
328,332,62295,1,0,3:2:0:0:
328,332,62374,5,8,0:0:0:0:
441,317,62530,1,8,0:0:0:0:
495,212,62686,1,8,3:0:0:0:
463,101,62842,1,8,3:0:0:0:
335,32,62999,6,0,P|272:57|161:28,1,167.999994873047,4|0,3:2|3:2,0:0:0:0:
97,0,63467,1,0,3:2:0:0:
38,98,63624,2,0,P|88:95|126:120,1,83.9999974365235,8|0,0:0|0:0,0:0:0:0:
166,192,63936,1,0,3:2:0:0:
248,261,64092,2,0,P|249:212|267:146,1,83.9999974365235,0|0,3:2|0:0,0:0:0:0:
319,126,64405,2,0,P|278:144|316:77,1,167.999994873047,8|2,0:0|3:2,0:0:0:0:
392,34,64874,5,8,0:0:0:0:
462,115,65030,1,0,3:2:0:0:
473,11,65186,1,0,3:2:0:0:
467,135,65342,1,0,3:2:0:0:
335,201,65499,6,0,P|388:215|439:322,1,167.999994873047,4|0,3:2|3:2,0:0:0:0:
390,384,65967,1,0,3:2:0:0:
283,366,66124,2,0,L|290:266,1,83.9999974365235,8|0,0:0|0:0,0:0:0:0:
221,215,66436,1,0,3:2:0:0:
221,215,66592,2,0,L|228:115,1,83.9999974365235,0|0,3:2|0:0,0:0:0:0:
281,12,66905,5,8,0:0:0:0:
316,114,67061,1,0,3:2:0:0:
316,114,67217,1,0,3:2:0:0:
432,140,67374,2,0,P|371:154|357:256,1,167.999994873047,8|2,0:0|3:2,0:0:0:0:
150,384,67999,6,0,P|151:326|100:224,1,167.999994873047,4|0,3:2|3:2,0:0:0:0:
1,163,68467,1,0,3:2:0:0:
105,72,68624,2,0,P|110:122|139:148,1,83.9999974365235,8|0,0:0|0:0,0:0:0:0:
231,182,68936,1,0,3:2:0:0:
334,110,69092,2,0,L|323:212,1,83.9999974365235,0|0,3:2|0:0,0:0:0:0:
264,346,69405,2,0,L|254:262,1,83.9999974365235,8|0,0:0|0:0,0:0:0:0:
241,165,69717,1,0,3:2:0:0:
190,51,69874,2,0,B|114:77|113:7|14:59,1,167.999994873047,8|2,0:0|3:2,0:0:0:0:
0,275,70499,6,0,P|85:263|175:330,1,167.999994873047,4|0,3:2|3:2,0:0:0:0:
233,384,70967,1,0,3:2:0:0:
223,242,71124,2,0,P|262:277|289:259,1,83.9999974365235,8|0,0:0|0:0,0:0:0:0:
364,192,71436,1,0,3:2:0:0:
461,209,71592,2,0,L|455:305,1,83.9999974365235,0|0,3:2|0:0,0:0:0:0:
376,369,71905,5,8,0:0:0:0:
366,227,72061,1,0,3:2:0:0:
366,227,72217,1,0,3:2:0:0:
428,122,72374,5,8,0:0:0:0:
368,215,72530,1,8,0:0:0:0:
352,84,72686,1,8,3:0:0:0:
366,227,72842,1,8,3:0:0:0:
218,146,72999,6,0,P|241:231|214:320,1,167.999994873047,4|0,3:2|3:2,0:0:0:0:
145,374,73467,1,0,3:2:0:0:
300,371,73624,2,0,P|262:388|221:383,1,83.9999974365235,8|0,0:0|0:0,0:0:0:0:
149,303,73936,1,0,3:2:0:0:
64,251,74092,2,0,P|65:202|83:136,1,83.9999974365235,0|0,3:2|0:0,0:0:0:0:
119,63,74405,2,0,P|133:131|65:112,1,167.999994873047,8|2,0:0|3:2,0:0:0:0:
54,26,74874,5,8,0:0:0:0:
173,4,75030,1,0,3:2:0:0:
257,60,75186,1,0,3:2:0:0:
274,109,75342,1,0,3:2:0:0:
284,160,75499,6,0,P|337:174|388:281,1,167.999994873047,4|0,3:2|3:2,0:0:0:0:
374,370,75967,1,0,3:2:0:0:
275,366,76124,2,0,L|266:264,1,83.9999974365235,8|0,0:0|0:0,0:0:0:0:
171,226,76436,1,0,3:2:0:0:
171,226,76592,2,0,L|162:124,1,83.9999974365235,0|0,3:2|0:0,0:0:0:0:
165,28,76905,5,8,0:0:0:0:
299,32,77061,1,0,3:2:0:0:
299,32,77217,1,0,3:2:0:0:
290,199,77374,2,0,P|301:115|299:32,1,167.999994873047,8|2,0:0|3:2,0:0:0:0:
91,0,77999,6,0,P|106:67|98:171,1,167.999994873047,4|0,3:2|3:2,0:0:0:0:
18,253,78467,1,0,3:2:0:0:
116,333,78624,2,0,L|127:235,1,83.9999974365235,8|0,0:0|0:0,0:0:0:0:
186,176,78936,1,0,3:2:0:0:
287,150,79092,2,0,L|276:252,1,83.9999974365235,0|0,3:2|0:0,0:0:0:0:
342,349,79405,2,0,L|351:265,1,83.9999974365235,8|0,0:0|0:0,0:0:0:0:
363,172,79717,1,0,3:2:0:0:
422,51,79874,2,0,P|340:81|246:59,1,167.999994873047,8|2,0:0|3:2,0:0:0:0:
104,0,80499,6,0,P|116:85|49:175,1,167.999994873047,4|0,3:2|3:2,0:0:0:0:
0,225,80967,1,0,3:2:0:0:
89,306,81124,2,0,P|104:261|145:214,1,83.9999974365235,8|0,0:0|0:0,0:0:0:0:
224,190,81436,1,0,3:2:0:0:
311,258,81592,2,0,L|316:174,1,83.9999974365235,0|0,3:2|0:0,0:0:0:0:
326,14,81905,5,8,0:0:0:0:
434,77,82061,1,0,3:2:0:0:
434,77,82217,1,0,3:2:0:0:
339,101,82374,5,8,0:0:0:0:
402,189,82530,1,8,0:0:0:0:
391,303,82686,1,8,3:0:0:0:
410,173,82842,1,8,3:0:0:0:
309,99,82999,6,0,P|239:116|152:75,1,167.999994873047,4|0,3:2|3:2,0:0:0:0:
79,6,83467,1,0,3:2:0:0:
13,100,83624,2,0,P|56:126|69:159,1,83.9999974365235,8|0,0:0|0:0,0:0:0:0:
51,268,83936,1,0,3:2:0:0:
51,268,84092,2,0,P|77:310|110:324,1,83.9999974365235,0|0,3:2|0:0,0:0:0:0:
254,340,84405,2,0,P|240:282|243:228,1,83.9999974365235,8|0,0:0|0:0,0:0:0:0:
256,162,84717,1,0,3:2:0:0:
352,94,84874,2,0,P|356:161|399:250,1,167.999994873047,8|2,0:0|3:2,0:0:0:0:
186,38,85499,5,2,3:2:0:0:
133,142,85655,1,8,0:0:0:0:
190,193,85811,1,0,3:2:0:0:
247,243,85967,1,0,3:2:0:0:
301,351,86124,5,8,0:0:0:0:
301,351,86436,1,8,0:0:0:0:
372,236,86592,1,0,3:2:0:0:
430,373,86749,1,0,3:2:0:0:
293,267,86905,5,8,0:0:0:0:
432,294,87061,1,0,3:2:0:0:
405,164,87217,1,0,3:2:0:0:
318,71,87374,5,8,0:0:0:0:
398,183,87530,1,0,3:2:0:0:
276,177,87686,1,8,0:0:0:0:
405,92,87842,1,8,0:0:0:0:
510,46,87999,6,0,L|495:210,1,154.000004699707,4|0,3:2|3:2,0:0:0:0:
452,308,88467,1,2,3:2:0:0:
361,349,88624,2,0,P|323:302|232:279,1,154.000004699707,8|0,0:0|3:2,0:0:0:0:
109,307,89092,2,0,P|102:246|110:221,1,77.0000023498536,0|0,3:2|0:0,0:0:0:0:
171,166,89405,2,0,P|178:105|170:80,1,77.0000023498536,8|0,0:0|0:0,0:0:0:0:
88,34,89717,1,0,3:2:0:0:
185,15,89874,2,0,P|174:56|177:110,1,77.0000023498536,8|0,0:0|0:0,0:0:0:0:
257,144,90186,2,0,P|267:191|265:239,1,77.0000023498536,2|0,3:2|0:0,0:0:0:0:
205,345,90499,6,0,P|261:358|354:310,1,154.000004699707,4|0,3:2|3:2,0:0:0:0:
401,242,90967,1,2,3:2:0:0:
488,166,91124,2,0,L|480:333,1,154.000004699707,8|0,0:0|3:2,0:0:0:0:
405,384,91592,2,0,P|402:334|374:288,1,77.0000023498536,0|0,3:2|0:0,0:0:0:0:
307,247,91905,5,8,0:0:0:0:
181,275,92061,1,0,3:2:0:0:
181,275,92217,1,0,3:2:0:0:
221,164,92374,2,0,L|144:160,1,77.0000023498536,8|0,0:0|0:0,0:0:0:0:
53,79,92686,2,0,L|129:75,1,77.0000023498536,2|0,3:2|0:0,0:0:0:0:
254,29,92999,6,0,P|295:94|376:108,1,154.000004699707,4|0,3:2|3:2,0:0:0:0:
476,88,93467,1,2,3:2:0:0:
477,214,93624,2,0,P|459:174|430:240,1,154.000004699707,8|0,0:0|3:2,0:0:0:0:
364,339,94092,2,0,P|348:285|318:249,1,77.0000023498536,0|0,3:2|0:0,0:0:0:0:
239,243,94405,2,0,P|199:203|181:160,1,77.0000023498536,8|0,0:0|0:0,0:0:0:0:
185,81,94717,1,0,3:2:0:0:
96,139,94874,2,0,L|103:228,1,77.0000023498536,8|0,0:0|0:0,0:0:0:0:
51,293,95186,2,0,L|44:382,1,77.0000023498536,0|0,3:2|0:0,0:0:0:0:
148,384,95499,6,0,P|178:319|238:259,1,154.000004699707,4|0,3:2|3:2,0:0:0:0:
336,229,95967,1,2,3:2:0:0:
400,156,96124,2,0,L|220:138,1,154.000004699707,8|0,0:0|3:2,0:0:0:0:
156,71,96592,2,0,L|268:59,1,77.0000023498536,0|0,3:2|0:0,0:0:0:0:
349,52,96905,5,8,0:0:0:0:
482,55,97061,1,0,3:2:0:0:
482,55,97217,1,0,3:2:0:0:
493,186,97374,5,8,0:0:0:0:
420,97,97530,1,8,0:0:0:0:
421,246,97686,5,8,3:0:0:0:
421,246,97842,1,8,3:0:0:0:
312,221,97999,6,0,P|330:147|302:77,1,154.000004699707,4|0,3:2|3:2,0:0:0:0:
215,25,98467,1,2,3:2:0:0:
169,129,98624,2,0,P|216:143|190:123,1,154.000004699707,8|0,0:0|3:2,0:0:0:0:
115,58,99092,2,0,P|96:90|66:115,1,77.0000023498536,0|0,3:2|0:0,0:0:0:0:
0,203,99405,2,0,P|23:232|57:251,1,77.0000023498536,8|0,0:0|0:0,0:0:0:0:
158,291,99717,1,0,3:2:0:0:
256,250,99874,2,0,L|248:345,1,77.0000023498536,8|0,0:0|0:0,0:0:0:0:
354,384,100186,2,0,L|347:307,1,77.0000023498536,2|0,3:2|0:0,0:0:0:0:
429,223,100499,6,0,P|373:156|350:82,1,154.000004699707,4|0,3:2|3:2,0:0:0:0:
375,0,100967,1,2,3:2:0:0:
512,35,101124,2,0,P|461:87|508:97,1,154.000004699707,8|0,0:0|3:2,0:0:0:0:
511,196,101592,2,0,P|502:233|507:272,1,77.0000023498536,0|0,3:2|0:0,0:0:0:0:
512,367,101905,5,8,0:0:0:0:
377,327,102061,1,0,3:2:0:0:
377,327,102217,1,0,3:2:0:0:
414,215,102374,2,0,L|337:211,1,77.0000023498536,8|0,0:0|0:0,0:0:0:0:
262,142,102686,2,0,L|185:145,1,77.0000023498536,2|0,3:2|0:0,0:0:0:0:
46,164,102999,6,0,P|74:233|142:263,1,154.000004699707,4|0,3:2|3:2,0:0:0:0:
247,257,103467,1,2,3:2:0:0:
360,234,103624,2,0,P|336:270|407:260,1,154.000004699707,8|0,0:0|3:2,0:0:0:0:
473,200,104092,2,0,P|460:163|460:125,1,77.0000023498536,0|0,3:2|0:0,0:0:0:0:
386,43,104405,2,0,P|385:81|373:117,1,77.0000023498536,8|0,0:0|0:0,0:0:0:0:
301,196,104717,1,0,3:2:0:0:
222,255,104874,2,0,L|145:261,1,77.0000023498536,8|0,0:0|0:0,0:0:0:0:
76,339,105186,2,0,L|-1:332,1,77.0000023498536,2|0,3:2|0:0,0:0:0:0:
0,221,105499,6,0,B|19:146|93:104,1,154.000004699707,4|0,3:2|3:2,0:0:0:0:
200,74,105967,1,2,3:2:0:0:
320,65,106124,2,0,P|301:116|360:78,1,154.000004699707,8|0,0:0|3:2,0:0:0:0:
452,52,106592,2,0,P|447:109|460:148,1,77.0000023498536,0|0,3:2|0:0,0:0:0:0:
501,228,106905,5,8,0:0:0:0:
398,292,107061,1,0,3:2:0:0:
398,292,107217,1,0,3:2:0:0:
313,192,107374,5,8,0:0:0:0:
298,329,107530,1,0,3:2:0:0:
213,186,107686,5,8,0:0:0:0:
288,312,107842,1,8,0:0:0:0:
150,294,107999,5,4,3:2:0:0:
256,192,108077,12,0,117999,0:0:0:0:
