osu file format v14

[General]
AudioFilename: audio.mp3
AudioLeadIn: 0
PreviewTime: 62139
Countdown: 0
SampleSet: Soft
StackLeniency: 0.7
Mode: 0
LetterboxInBreaks: 0
WidescreenStoryboard: 1

[Editor]
DistanceSpacing: 1
BeatDivisor: 8
GridSize: 32
TimelineZoom: 1

[Metadata]
Title:Jiyuu no Hane
TitleUnicode:自由の翅
Artist:Hiromi Sato
ArtistUnicode:佐藤ひろ美
Creator:Ichinose Rika
Version:Hard
Source:月影のシミュラクル-解放の羽-
Tags:eroge visual novel video game japanese Tsukikage no Simulacre -Kaihou no Hane- Applique cocona SgtCataclyst jrock j-rock rock
BeatmapID:2829058
BeatmapSetID:1358359

[Difficulty]
HPDrainRate:4
CircleSize:3.8
OverallDifficulty:6
ApproachRate:8
SliderMultiplier:2.5
SliderTickRate:1

[Events]
//Background and Video events
0,0,"vAduNf6.jpg",0,0
//Break Periods
//Storyboard Layer 0 (Background)
//Storyboard Layer 1 (Fail)
//Storyboard Layer 2 (Pass)
//Storyboard Layer 3 (Foreground)
//Storyboard Layer 4 (Overlay)
//Storyboard Sound Samples

[TimingPoints]
2999,625,4,2,1,60,1,0
2999,-90.9090909090909,4,2,1,60,0,0
22999,-111.111111111111,4,2,1,40,0,0
42999,-99.9999999999999,4,2,1,45,0,0
62999,-83.3333333333333,4,2,1,65,0,1
87999,-90.9090909090909,4,2,1,60,0,0
117999,-90.9090909090909,4,2,1,5,0,0

[Colours]
Combo1 : 61,201,254
Combo2 : 255,149,149
Combo3 : 255,172,132

[HitObjects]
118,57,2999,6,0,P|104:106|147:182,1,137.500004196167,4|0,3:2|3:2,0:0:0:0:
231,205,3467,1,2,3:2:0:0:
328,224,3624,2,0,P|315:254|281:288,1,68.7500020980836,8|0,0:0|0:0,0:0:0:0:
192,335,3936,1,2,3:2:0:0:
94,308,4092,2,0,L|98:211,1,68.7500020980836,0|0,3:2|0:0,0:0:0:0:
111,129,4405,2,0,B|172:138|172:138|196:128|196:128|255:138,1,137.500004196167,8|0,0:0|3:2,0:0:0:0:
358,164,4874,2,0,P|411:161|368:94,1,137.500004196167,8|2,0:0|3:2,0:0:0:0:
163,0,5499,6,0,B|167:53|167:53|159:82|159:82|167:155,1,137.500004196167,4|0,3:2|3:2,0:0:0:0:
178,235,5967,1,2,3:2:0:0:
224,317,6124,2,0,B|285:301|307:355|377:332,1,137.500004196167,8|0,0:0|3:2,0:0:0:0:
441,274,6592,2,0,P|444:224|430:191,1,68.7500020980836,0|0,3:2|0:0,0:0:0:0:
409,115,6905,1,8,0:0:0:0:
409,115,7061,2,0,L|331:113,1,68.7500020980836,0|0,3:2|3:2,0:0:0:0:
227,127,7374,2,0,P|232:171|227:213,1,68.7500020980836,8|0,0:0|0:0,0:0:0:0:
158,274,7686,2,0,P|153:318|158:360,1,68.7500020980836,2|0,3:2|0:0,0:0:0:0:
284,378,7999,6,0,B|326:329|272:291|333:238,1,137.500004196167,4|0,3:2|3:2,0:0:0:0:
397,178,8467,1,2,3:2:0:0:
419,87,8624,2,0,P|371:73|339:79,1,68.7500020980836,8|0,0:0|0:0,0:0:0:0:
252,108,8936,1,0,3:2:0:0:
155,79,9092,2,0,B|149:127|149:127|163:152|163:152|158:212,1,137.500004196167,0|8,3:2|0:0,0:0:0:0:
55,347,9717,1,0,3:2:0:0:
55,347,9874,2,0,P|89:340|129:348,1,68.7500020980836,8|0,0:0|0:0,0:0:0:0:
205,380,10186,2,0,P|239:387|279:379,1,68.7500020980836,2|0,3:2|0:0,0:0:0:0:
382,336,10499,6,0,P|399:278|369:194,1,137.500004196167,4|0,3:2|3:2,0:0:0:0:
305,130,10967,1,2,3:2:0:0:
214,88,11124,2,0,B|216:140|216:140|202:170|202:170|205:243,1,137.500004196167,8|0,0:0|3:2,0:0:0:0:
208,325,11592,2,0,P|155:323|88:252,1,137.500004196167,0|8,3:2|0:0,0:0:0:0:
58,180,12061,1,0,3:2:0:0:
72,89,12217,1,0,3:2:0:0:
141,27,12374,2,0,P|179:20|216:33,1,68.7500020980836,8|8,0:0|0:0,0:0:0:0:
270,97,12686,2,0,P|305:104|345:91,1,68.7500020980836,8|8,3:0|3:0,0:0:0:0:
428,50,12999,6,0,P|442:99|399:175,1,137.500004196167,4|0,3:2|3:2,0:0:0:0:
332,230,13467,1,2,3:2:0:0:
239,235,13624,2,0,P|238:269|249:301,1,68.7500020980836,8|0,0:0|0:0,0:0:0:0:
298,370,13936,1,0,3:2:0:0:
386,376,14092,2,0,L|390:279,1,68.7500020980836,0|0,3:2|0:0,0:0:0:0:
448,238,14405,2,0,B|457:177|457:177|447:153|447:153|457:94,1,137.500004196167,8|0,0:0|0:0,0:0:0:0:
458,9,14874,2,0,P|414:32|308:17,1,137.500004196167,8|2,0:0|3:2,0:0:0:0:
163,0,15499,6,0,B|167:53|167:53|159:82|159:82|167:155,1,137.500004196167,4|0,3:2|3:2,0:0:0:0:
178,235,15967,1,2,3:2:0:0:
127,328,16124,2,0,P|63:296|26:236,1,137.500004196167,8|0,0:0|3:2,0:0:0:0:
12,155,16592,2,0,P|62:158|95:144,1,68.7500020980836,0|0,3:2|0:0,0:0:0:0:
186,130,16905,1,8,0:0:0:0:
186,130,17061,2,0,L|254:131,1,68.7500020980836,0|0,3:2|3:2,0:0:0:0:
348,134,17374,2,0,P|353:178|348:220,1,68.7500020980836,8|0,0:0|0:0,0:0:0:0:
288,269,17686,2,0,P|283:313|288:355,1,68.7500020980836,2|0,3:2|0:0,0:0:0:0:
374,384,17999,6,0,B|368:365|387:342|387:342|438:315|454:255,1,137.500004196167,4|0,3:2|3:2,0:0:0:0:
451,178,18467,1,2,3:2:0:0:
414,98,18624,2,0,P|366:84|334:90,1,68.7500020980836,8|0,0:0|0:0,0:0:0:0:
256,106,18936,1,0,3:2:0:0:
165,88,19092,2,0,P|146:139|182:221,1,137.500004196167,0|8,3:2|0:0,0:0:0:0:
319,327,19717,1,0,3:2:0:0:
319,327,19874,2,0,P|285:321|251:328,1,68.7500020980836,8|0,0:0|0:0,0:0:0:0:
167,374,20186,2,0,P|133:379|99:372,1,68.7500020980836,2|0,3:2|0:0,0:0:0:0:
13,316,20499,6,0,P|18:248|60:194,1,137.500004196167,4|0,3:2|3:2,0:0:0:0:
129,124,20967,1,2,3:2:0:0:
214,88,21124,2,0,B|216:140|216:140|202:170|202:170|205:243,1,137.500004196167,8|0,0:0|3:2,0:0:0:0:
207,317,21592,2,0,P|273:306|318:255,1,137.500004196167,0|8,3:2|0:0,0:0:0:0:
335,165,22061,1,0,3:2:0:0:
324,73,22217,1,0,3:2:0:0:
249,19,22374,2,0,P|215:10|182:18,1,68.7500020980836,8|8,0:0|3:0,0:0:0:0:
119,73,22686,2,0,P|85:81|52:74,1,68.7500020980836,8|0,0:0|3:2,0:0:0:0:
0,0,22999,5,2,3:2:0:0:
6,155,23311,2,0,P|9:228|-1:291,2,112.499996566773,2|0|0,0:0|3:2|0:0,0:0:0:0:
8,63,24092,2,0,P|49:65|110:122,1,112.499996566773,2|0,3:2|0:0,0:0:0:0:
140,195,24561,2,0,P|174:251|238:268,1,112.499996566773,2|2,3:2|3:2,0:0:0:0:
378,270,25186,1,0,0:0:0:0:
378,270,25342,6,0,B|368:219|368:219|351:200|351:200|341:150,1,112.499996566773,2|0,0:0|0:0,0:0:0:0:
328,78,25811,2,0,P|248:94|221:129,2,112.499996566773,2|8|0,0:0|0:0|0:0,0:0:0:0:
408,97,26592,1,0,3:2:0:0:
408,97,27061,1,0,3:2:0:0:
487,263,27374,2,0,P|405:259|361:280,1,112.499996566773,2|0,3:2|0:0,0:0:0:0:
230,371,27999,5,2,3:2:0:0:
93,259,28311,2,0,P|83:312|55:373,2,112.499996566773,2|0|0,0:0|3:2|0:0,0:0:0:0:
77,169,29092,2,0,P|72:119|100:46,1,112.499996566773,2|0,3:2|0:0,0:0:0:0:
165,15,29561,2,0,P|210:25|296:11,1,112.499996566773,2|8,3:2|0:0,0:0:0:0:
431,0,30186,1,0,0:0:0:0:
431,0,30342,6,0,L|426:130,1,112.499996566773,2|0,0:0|0:0,0:0:0:0:
428,200,30811,2,0,P|468:193|511:125,2,112.499996566773,2|8|0,0:0|0:0|0:0,0:0:0:0:
339,193,31592,2,0,P|294:190|199:261,1,168.749994850159,0|0,3:2|3:2,0:0:0:0:
33,373,32374,2,0,P|29:323|38:247,1,112.499996566773,2|0,3:2|0:0,0:0:0:0:
85,113,32999,5,4,3:2:0:0:
240,113,33311,2,0,B|243:66|243:66|235:45|235:45|238:0,2,112.499996566773,2|0|0,0:0|3:2|3:2,0:0:0:0:
241,200,34092,2,0,P|285:195|349:253,1,112.499996566773,2|0,3:2|0:0,0:0:0:0:
373,314,34561,2,0,P|412:349|474:348,1,112.499996566773,2|8,3:2|0:0,0:0:0:0:
512,182,35186,1,0,0:0:0:0:
512,182,35342,6,0,B|474:147|447:171|411:133,1,112.499996566773,2|0,0:0|0:0,0:0:0:0:
359,70,35811,2,0,P|318:54|268:112,2,112.499996566773,2|8|0,0:0|0:0|0:0,0:0:0:0:
412,134,36592,2,0,P|403:178|479:271,1,168.749994850159,0|0,3:2|3:2,0:0:0:0:
344,384,37374,2,0,P|306:371|219:384,1,112.499996566773,2|0,3:2|0:0,0:0:0:0:
69,384,37999,5,4,3:2:0:0:
113,213,38311,2,0,B|66:210|66:210|45:218|45:218|0:215,2,112.499996566773,2|2|0,0:0|3:2|0:0,0:0:0:0:
205,211,39092,2,0,P|232:172|291:137,1,112.499996566773,2|0,3:2|0:0,0:0:0:0:
374,159,39561,2,0,P|409:120|408:58,1,112.499996566773,2|0,3:2|0:0,0:0:0:0:
237,0,40186,1,0,0:0:0:0:
237,0,40342,6,0,P|182:18|114:14,1,112.499996566773,2|0,0:0|0:0,0:0:0:0:
41,5,40811,2,0,P|1:44|4:107,2,112.499996566773,2|8|0,0:0|0:0|0:0,0:0:0:0:
127,17,41592,2,0,B|127:86|127:86|115:112|115:112|115:194,1,168.749994850159,0|0,3:2|3:2,0:0:0:0:
159,283,42217,1,0,3:2:0:0:
159,283,42295,1,0,3:2:0:0:
159,283,42374,2,0,L|227:273,1,56.2499982833863,8|8,0:0|0:0,0:0:0:0:
304,281,42686,1,8,0:0:0:0:
421,153,42999,5,4,3:2:0:0:
273,45,43311,2,0,P|210:58|172:108,1,125,2|8,0:0|0:0,0:0:0:0:
172,270,43936,1,0,0:0:0:0:
172,270,44092,2,0,B|208:285|252:254|297:271,1,125,0|0,3:2|3:2,0:0:0:0:
342,350,44561,2,0,P|291:378|210:378,2,125,0|8|2,3:2|0:0|0:0,0:0:0:0:
433,178,45499,5,4,3:2:0:0:
274,92,45811,2,0,L|274:221,1,125,2|8,0:0|0:0,0:0:0:0:
123,332,46436,1,0,0:0:0:0:
123,332,46592,2,0,B|121:283|121:283|125:252|125:252|121:190,1,125,0|0,3:2|3:2,0:0:0:0:
108,117,47061,2,0,P|187:106|227:135,2,125,0|8|2,3:2|0:0|0:0,0:0:0:0:
6,312,47999,5,4,3:2:0:0:
205,335,48311,2,0,P|241:324|288:242,1,125,2|8,0:0|0:0,0:0:0:0:
290,93,48936,1,0,0:0:0:0:
290,93,49092,2,0,P|339:91|404:151,1,125,0|0,3:2|3:2,0:0:0:0:
421,224,49561,2,0,P|411:280|444:360,2,125,0|8|2,3:2|0:0|0:0,0:0:0:0:
486,162,50342,6,0,P|479:123|427:47,1,125
342,31,50811,2,0,P|287:44|207:32,2,125,0|8|0,0:0|0:0|0:0,0:0:0:0:
433,52,51592,2,0,P|434:89|408:185,1,125,0|0,3:2|3:2,0:0:0:0:
351,243,52061,1,0,3:2:0:0:
181,339,52374,2,0,L|177:263,1,62.5,8|8,0:0|3:0,0:0:0:0:
119,208,52686,2,0,L|123:132,1,62.5,8|8,0:0|0:0,0:0:0:0:
155,64,52999,5,4,3:2:0:0:
308,13,53311,2,0,P|321:76|371:114,1,125,0|8,0:0|0:0,0:0:0:0:
465,224,53936,1,0,0:0:0:0:
465,224,54092,2,0,P|406:208|340:225,1,125,0|0,3:2|3:2,0:0:0:0:
287,280,54561,2,0,P|236:308|155:308,2,125,0|8|0,3:2|0:0|0:0,0:0:0:0:
361,124,55499,5,4,3:2:0:0:
220,63,55811,2,0,P|229:121|220:192,1,125,0|8,0:0|0:0,0:0:0:0:
45,312,56436,1,0,0:0:0:0:
45,312,56592,2,0,B|94:310|94:310|125:314|125:314|187:310,1,125,0|0,3:2|3:2,0:0:0:0:
259,314,57061,2,0,P|305:358|376:384,2,125,0|8|0,3:2|0:0|0:0,0:0:0:0:
219,151,57999,5,4,3:2:0:0:
342,266,58311,2,0,P|372:208|425:173,1,125,0|8,0:0|0:0,0:0:0:0:
504,41,58936,1,0,0:0:0:0:
504,41,59092,2,0,L|379:52,1,125,0|0,3:2|3:2,0:0:0:0:
299,67,59561,2,0,P|299:136|272:192,2,125,0|8|0,3:2|0:0|0:0,0:0:0:0:
61,16,60499,6,0,L|66:147,1,125,0|0,3:2|3:2,0:0:0:0:
84,314,61124,2,0,P|143:291|213:313,1,125,0|0,3:2|3:2,0:0:0:0:
334,371,61749,2,0,P|388:372|453:339,1,125,0|0,3:2|3:2,0:0:0:0:
444,260,62217,1,0,3:2:0:0:
444,260,62295,1,0,3:2:0:0:
444,260,62374,1,8,0:0:0:0:
352,244,62530,1,8,0:0:0:0:
268,274,62686,2,0,P|235:270|190:249,1,62.5,8|8,3:0|3:0,0:0:0:0:
113,232,62999,6,0,P|142:183|138:79,1,149.999995422363,4|0,3:2|3:2,0:0:0:0:
106,18,63467,2,0,P|168:5|248:53,1,149.999995422363,0|0,3:2|0:0,0:0:0:0:
289,119,63936,1,0,3:2:0:0:
289,119,64092,2,0,B|285:172|285:172|292:204|292:204|286:282,1,149.999995422363,0|8,3:2|0:0,0:0:0:0:
121,371,64717,1,2,3:2:0:0:
121,371,64874,2,0,P|106:328|109:285,1,74.9999977111817,8|0,0:0|3:2,0:0:0:0:
178,231,65186,2,0,P|193:188|190:145,1,74.9999977111817,0|0,3:2|3:2,0:0:0:0:
138,83,65499,6,0,P|193:68|293:99,1,149.999995422363,4|0,3:2|3:2,0:0:0:0:
351,151,65967,2,0,P|394:170|485:111,1,149.999995422363,0|0,3:2|0:0,0:0:0:0:
492,31,66436,1,0,3:2:0:0:
492,31,66592,2,0,B|418:37|418:37|401:53|401:53|315:59,1,149.999995422363,8|8,0:0|0:0,0:0:0:0:
258,58,67061,2,0,P|247:95|247:144,1,74.9999977111817,0|0,3:2|3:2,0:0:0:0:
277,218,67374,2,0,P|285:263|197:332,1,149.999995422363,8|2,0:0|3:2,0:0:0:0:
11,161,67999,6,0,B|74:150|74:150|105:158|105:158|183:140,1,149.999995422363,4|0,3:2|3:2,0:0:0:0:
255,125,68467,2,0,P|303:123|354:216,1,149.999995422363,0|0,3:2|0:0,0:0:0:0:
344,299,68936,1,0,3:2:0:0:
344,299,69092,2,0,P|289:291|180:317,1,149.999995422363,0|8,3:2|0:0,0:0:0:0:
121,359,69561,2,0,P|72:351|51:249,2,149.999995422363,0|8|2,0:0|0:0|3:2,0:0:0:0:
344,299,70499,6,0,P|362:252|337:144,1,149.999995422363,4|0,3:2|3:2,0:0:0:0:
276,93,70967,1,0,3:2:0:0:
186,95,71124,2,0,P|146:114|98:113,1,74.9999977111817,8|0,0:0|0:0,0:0:0:0:
21,105,71436,1,0,3:2:0:0:
7,202,71592,2,0,P|10:249|108:312,1,149.999995422363,0|8,3:2|0:0,0:0:0:0:
179,317,72061,2,0,P|215:308|262:323,1,74.9999977111817,0|0,3:2|3:2,0:0:0:0:
345,368,72374,2,0,L|351:285,1,74.9999977111817,8|8,0:0|0:0,0:0:0:0:
414,218,72686,1,8,3:0:0:0:
429,123,72842,1,8,3:0:0:0:
388,46,72999,6,0,P|331:38|237:82,1,149.999995422363,4|0,3:2|3:2,0:0:0:0:
211,153,73467,2,0,P|149:166|69:118,1,149.999995422363,0|0,3:2|0:0,0:0:0:0:
23,60,73936,1,0,3:2:0:0:
23,60,74092,2,0,P|-4:145|20:223,1,149.999995422363,0|8,3:2|0:0,0:0:0:0:
145,349,74717,1,2,3:2:0:0:
145,349,74874,2,0,P|188:364|231:361,1,74.9999977111817,8|0,0:0|3:2,0:0:0:0:
285,292,75186,2,0,P|328:277|371:280,1,74.9999977111817,0|0,3:2|3:2,0:0:0:0:
446,305,75499,6,0,P|468:234|453:161,1,149.999995422363,4|0,3:2|3:2,0:0:0:0:
389,95,75967,2,0,P|346:127|229:124,1,149.999995422363,0|0,3:2|0:0,0:0:0:0:
167,110,76436,1,0,3:2:0:0:
167,110,76592,2,0,B|173:184|173:184|189:201|189:201|195:287,1,149.999995422363,0|8,3:2|0:0,0:0:0:0:
195,349,77061,2,0,P|233:357|268:338,1,74.9999977111817,0|0,3:2|3:2,0:0:0:0:
352,320,77374,2,0,B|361:246|289:242|322:171,1,149.999995422363,8|2,0:0|3:2,0:0:0:0:
316,19,77999,6,0,B|263:31|263:31|232:23|232:23|169:34,1,149.999995422363,4|0,3:2|3:2,0:0:0:0:
76,51,78467,2,0,P|51:118|95:175,1,149.999995422363,0|0,3:2|0:0,0:0:0:0:
179,238,78936,1,0,3:2:0:0:
179,238,79092,2,0,P|251:220|325:228,1,149.999995422363,0|8,3:2|0:0,0:0:0:0:
402,289,79561,2,0,P|390:359|323:383,2,149.999995422363,0|8|2,0:0|0:0|3:2,0:0:0:0:
372,131,80499,6,0,P|327:106|228:103,1,149.999995422363,4|0,3:2|3:2,0:0:0:0:
159,163,80967,1,0,3:2:0:0:
159,163,81124,2,0,P|119:182|71:181,1,74.9999977111817,8|0,0:0|0:0,0:0:0:0:
25,120,81436,1,0,3:2:0:0:
7,202,81592,2,0,P|10:249|108:312,1,149.999995422363,0|8,3:2|0:0,0:0:0:0:
176,319,82061,2,0,P|167:283|182:236,1,74.9999977111817,0|0,3:2|3:2,0:0:0:0:
236,177,82374,2,0,L|319:183,1,74.9999977111817,8|8,0:0|0:0,0:0:0:0:
391,237,82686,1,8,3:0:0:0:
495,230,82842,1,8,3:0:0:0:
511,136,82999,6,0,P|488:103|371:68,1,149.999995422363,4|0,3:2|3:2,0:0:0:0:
306,81,83467,1,0,3:2:0:0:
213,68,83624,2,0,P|205:135|159:225,1,149.999995422363,8|0,0:0|3:2,0:0:0:0:
104,289,84092,1,0,3:2:0:0:
104,289,84249,2,0,P|116:336|216:332,1,149.999995422363
281,281,84717,2,0,P|330:274|421:312,1,149.999995422363,0|0,3:2|0:0,0:0:0:0:
484,374,85186,1,2,3:2:0:0:
484,374,85342,6,0,P|506:322|481:223,1,149.999995422363,0|8,0:0|0:0,0:0:0:0:
428,169,85811,2,0,P|409:130|407:83,1,74.9999977111817,0|0,3:2|3:2,0:0:0:0:
426,8,86124,2,0,P|381:8|274:67,1,149.999995422363,8|4,0:0|3:2,0:0:0:0:
228,125,86592,1,0,3:2:0:0:
144,167,86749,2,0,P|145:216|229:261,1,149.999995422363,0|0,3:2|3:2,0:0:0:0:
321,259,87217,1,0,3:2:0:0:
387,323,87374,6,0,P|429:341|471:332,1,74.9999977111817,8|8,0:0|3:0,0:0:0:0:
512,263,87686,2,0,P|513:225|497:192,1,74.9999977111817,8|8,0:0|0:0,0:0:0:0:
442,123,87999,6,0,P|393:137|317:94,1,137.500004196167,4|0,3:2|3:2,0:0:0:0:
262,38,88467,1,2,3:2:0:0:
190,85,88624,2,0,P|177:115|143:149,1,68.7500020980836,8|0,0:0|0:0,0:0:0:0:
63,158,88936,1,0,3:2:0:0:
7,100,89092,2,0,P|3:52|26:10,1,68.7500020980836,0|0,3:2|0:0,0:0:0:0:
91,3,89405,2,0,P|184:-6|235:12,1,137.500004196167,8|0,0:0|3:2,0:0:0:0:
302,53,89874,2,0,P|320:110|261:122,1,137.500004196167,8|2,0:0|3:2,0:0:0:0:
63,158,90499,6,0,B|67:211|67:211|59:240|59:240|67:313,1,137.500004196167,4|0,3:2|3:2,0:0:0:0:
110,366,90967,1,2,3:2:0:0:
205,371,91124,2,0,P|228:306|220:218,1,137.500004196167,8|0,0:0|3:2,0:0:0:0:
179,163,91592,2,0,P|176:113|190:80,1,68.7500020980836,0|0,3:2|0:0,0:0:0:0:
296,25,91905,1,8,0:0:0:0:
296,25,92061,2,0,L|294:93,1,68.7500020980836,0|0,3:2|3:2,0:0:0:0:
297,185,92374,2,0,P|331:186|365:181,1,68.7500020980836,8|0,0:0|0:0,0:0:0:0:
437,126,92686,2,0,P|471:124|505:129,1,68.7500020980836,2|0,3:2|0:0,0:0:0:0:
512,223,92999,6,0,P|509:303|475:351,1,137.500004196167,4|0,3:2|3:2,0:0:0:0:
396,370,93467,1,2,3:2:0:0:
330,313,93624,2,0,P|282:299|250:305,1,68.7500020980836,8|0,0:0|0:0,0:0:0:0:
175,305,93936,1,0,3:2:0:0:
116,238,94092,2,0,B|121:178|121:178|107:153|107:153|113:105,1,137.500004196167,0|8,3:2|0:0,0:0:0:0:
303,23,94717,1,0,3:2:0:0:
303,23,94874,2,0,P|310:57|302:97,1,68.7500020980836,8|0,0:0|0:0,0:0:0:0:
251,154,95186,2,0,P|244:188|252:228,1,68.7500020980836,0|0,3:2|0:0,0:0:0:0:
296,314,95499,6,0,P|238:297|154:327,1,137.500004196167,4|0,3:2|3:2,0:0:0:0:
100,373,95967,1,2,3:2:0:0:
17,375,96124,2,0,B|14:322|14:322|28:292|28:292|26:240,1,137.500004196167,8|0,0:0|3:2,0:0:0:0:
12,155,96592,2,0,P|74:128|138:150,1,137.500004196167,0|8,3:2|0:0,0:0:0:0:
196,209,97061,1,0,3:2:0:0:
283,223,97217,1,0,3:2:0:0:
366,189,97374,2,0,P|373:227|360:264,1,68.7500020980836,8|8,0:0|0:0,0:0:0:0:
296,318,97686,2,0,P|289:353|302:393,1,68.7500020980836,8|8,3:0|3:0,0:0:0:0:
388,384,97999,6,0,B|411:330|461:324|475:275,1,137.500004196167,4|0,3:2|3:2,0:0:0:0:
489,192,98467,1,2,3:2:0:0:
455,103,98624,2,0,P|442:71|419:46,1,68.7500020980836,8|0,0:0|0:0,0:0:0:0:
331,42,98936,1,0,3:2:0:0:
243,67,99092,2,0,L|240:135,1,68.7500020980836,0|0,3:2|0:0,0:0:0:0:
242,225,99405,2,0,B|181:216|181:216|157:226|157:226|98:216,1,137.500004196167,8|0,0:0|3:2,0:0:0:0:
21,208,99874,2,0,P|12:275|39:337,1,137.500004196167,8|2,0:0|3:2,0:0:0:0:
248,361,100499,6,0,B|295:348|295:348|334:372|383:359,1,137.500004196167,4|0,3:2|3:2,0:0:0:0:
456,320,100967,1,2,3:2:0:0:
480,232,101124,2,0,P|457:164|402:119,1,137.500004196167,8|0,0:0|3:2,0:0:0:0:
322,79,101592,2,0,P|288:86|254:81,1,68.7500020980836,0|0,3:2|0:0,0:0:0:0:
169,56,101905,1,8,0:0:0:0:
169,56,102061,2,0,L|168:124,1,68.7500020980836,0|0,3:2|3:2,0:0:0:0:
168,212,102374,2,0,P|212:207|254:212,1,68.7500020980836,8|0,0:0|0:0,0:0:0:0:
303,272,102686,2,0,P|347:277|389:272,1,68.7500020980836,2|0,3:2|0:0,0:0:0:0:
464,277,102999,6,0,P|450:349|390:385,1,137.500004196167,4|0,3:2|3:2,0:0:0:0:
318,384,103467,1,2,3:2:0:0:
242,346,103624,2,0,P|194:332|162:338,1,68.7500020980836,8|0,0:0|0:0,0:0:0:0:
91,353,103936,1,0,3:2:0:0:
13,384,104092,2,0,P|-14:322|4:258,1,137.500004196167,0|8,3:2|0:0,0:0:0:0:
82,184,104717,1,0,3:2:0:0:
82,184,104874,2,0,P|115:177|149:183,1,68.7500020980836,8|0,0:0|0:0,0:0:0:0:
203,244,105186,2,0,P|236:250|270:245,1,68.7500020980836,2|0,3:2|0:0,0:0:0:0:
360,242,105499,6,0,P|365:174|407:120,1,137.500004196167,4|0,3:2|3:2,0:0:0:0:
471,63,105967,1,2,3:2:0:0:
400,17,106124,2,0,B|348:19|348:19|310:-7|245:8,1,137.500004196167,8|0,0:0|3:2,0:0:0:0:
196,62,106592,2,0,P|151:112|85:123,1,137.500004196167,0|8,3:2|0:0,0:0:0:0:
4,107,107061,1,0,3:2:0:0:
15,195,107217,1,0,3:2:0:0:
70,268,107374,2,0,P|104:259|137:267,1,68.7500020980836,8|8,0:0|3:0,0:0:0:0:
200,322,107686,2,0,P|234:330|267:323,1,68.7500020980836,8|8,0:0|0:0,0:0:0:0:
346,290,107999,5,4,3:2:0:0:
256,192,108077,12,0,117999,0:0:0:0:
